  0
SECTION
  2
HEADER
  9
$ACADVER
  1
AC1015
  9
$ACADMAINTVER
 70
    13
  9
$DWGCODEPAGE
  3
ANSI_1252
  9
$INSBASE
 10
0.0
 20
0.0
 30
0.0
  9
$EXTMIN
 10
1.000000000000000E+20
 20
1.000000000000000E+20
 30
1.000000000000000E+20
  9
$EXTMAX
 10
-1.000000000000000E+20
 20
-1.000000000000000E+20
 30
-1.000000000000000E+20
  9
$LIMMIN
 10
0.0
 20
0.0
  9
$LIMMAX
 10
12.0
 20
9.0
  9
$ORTHOMODE
 70
     0
  9
$REGENMODE
 70
     1
  9
$FILLMODE
 70
     1
  9
$QTEXTMODE
 70
     0
  9
$MIRRTEXT
 70
     1
  9
$LTSCALE
 40
0.3
  9
$ATTMODE
 70
     1
  9
$TEXTSIZE
 40
0.2
  9
$TRACEWID
 40
0.05
  9
$TEXTSTYLE
  7
Standard
  9
$CLAYER
  8
0
  9
$CELTYPE
  6
ByLayer
  9
$CECOLOR
 62
   256
  9
$CELTSCALE
 40
0.3
  9
$DISPSILH
 70
     0
  9
$DIMSCALE
 40
1.0
  9
$DIMASZ
 40
0.125
  9
$DIMEXO
 40
0.0625
  9
$DIMDLI
 40
0.38
  9
$DIMRND
 40
0.0
  9
$DIMDLE
 40
0.0
  9
$DIMEXE
 40
0.18
  9
$DIMTP
 40
0.0
  9
$DIMTM
 40
0.0
  9
$DIMTXT
 40
0.125
  9
$DIMCEN
 40
0.09
  9
$DIMTSZ
 40
0.0
  9
$DIMTOL
 70
     0
  9
$DIMLIM
 70
     0
  9
$DIMTIH
 70
     1
  9
$DIMTOH
 70
     1
  9
$DIMSE1
 70
     0
  9
$DIMSE2
 70
     0
  9
$DIMTAD
 70
     0
  9
$DIMZIN
 70
     0
  9
$DIMBLK
  1

  9
$DIMASO
 70
     1
  9
$DIMSHO
 70
     1
  9
$DIMPOST
  1

  9
$DIMAPOST
  1

  9
$DIMALT
 70
     0
  9
$DIMALTD
 70
     2
  9
$DIMALTF
 40
25.4
  9
$DIMLFAC
 40
1.0
  9
$DIMTOFL
 70
     0
  9
$DIMTVP
 40
0.0
  9
$DIMTIX
 70
     0
  9
$DIMSOXD
 70
     0
  9
$DIMSAH
 70
     0
  9
$DIMBLK1
  1

  9
$DIMBLK2
  1

  9
$DIMSTYLE
  2
Standard
  9
$DIMCLRD
 70
     0
  9
$DIMCLRE
 70
     0
  9
$DIMCLRT
 70
     0
  9
$DIMTFAC
 40
1.0
  9
$DIMGAP
 40
0.09
  9
$DIMJUST
 70
     0
  9
$DIMSD1
 70
     0
  9
$DIMSD2
 70
     0
  9
$DIMTOLJ
 70
     1
  9
$DIMTZIN
 70
     0
  9
$DIMALTZ
 70
     0
  9
$DIMALTTZ
 70
     0
  9
$DIMUPT
 70
     0
  9
$DIMDEC
 70
     3
  9
$DIMTDEC
 70
     3
  9
$DIMALTU
 70
     2
  9
$DIMALTTD
 70
     2
  9
$DIMTXSTY
  7
Standard
  9
$DIMAUNIT
 70
     0
  9
$DIMADEC
 70
     0
  9
$DIMALTRND
 40
0.0
  9
$DIMAZIN
 70
     0
  9
$DIMDSEP
 70
    46
  9
$DIMATFIT
 70
     3
  9
$DIMFRAC
 70
     0
  9
$DIMLDRBLK
  1

  9
$DIMLUNIT
 70
     2
  9
$DIMLWD
 70
    -2
  9
$DIMLWE
 70
    -2
  9
$DIMTMOVE
 70
     0
  9
$LUNITS
 70
     2
  9
$LUPREC
 70
     4
  9
$SKETCHINC
 40
0.1
  9
$FILLETRAD
 40
0.5
  9
$AUNITS
 70
     0
  9
$AUPREC
 70
     0
  9
$MENU
  1
.
  9
$ELEVATION
 40
0.0
  9
$PELEVATION
 40
0.0
  9
$THICKNESS
 40
0.0
  9
$LIMCHECK
 70
     0
  9
$CHAMFERA
 40
0.5
  9
$CHAMFERB
 40
0.5
  9
$CHAMFERC
 40
1.0
  9
$CHAMFERD
 40
0.0
  9
$SKPOLY
 70
     0
  9
$TDCREATE
 40
2454412.621520173
  9
$TDUCREATE
 40
2454412.788186840
  9
$TDUPDATE
 40
2455800.509956053
  9
$TDUUPDATE
 40
2455800.676622720
  9
$TDINDWG
 40
0.4164844444
  9
$TDUSRTIMER
 40
0.4164842593
  9
$USRTIMER
 70
     1
  9
$ANGBASE
 50
0.0
  9
$ANGDIR
 70
     0
  9
$PDMODE
 70
     0
  9
$PDSIZE
 40
0.0
  9
$PLINEWID
 40
0.0
  9
$SPLFRAME
 70
     0
  9
$SPLINETYPE
 70
     6
  9
$SPLINESEGS
 70
     8
  9
$HANDSEED
  5
1FB
  9
$SURFTAB1
 70
     6
  9
$SURFTAB2
 70
     6
  9
$SURFTYPE
 70
     6
  9
$SURFU
 70
     6
  9
$SURFV
 70
     6
  9
$UCSBASE
  2

  9
$UCSNAME
  2

  9
$UCSORG
 10
0.0
 20
0.0
 30
0.0
  9
$UCSXDIR
 10
1.0
 20
0.0
 30
0.0
  9
$UCSYDIR
 10
0.0
 20
1.0
 30
0.0
  9
$UCSORTHOREF
  2

  9
$UCSORTHOVIEW
 70
     0
  9
$UCSORGTOP
 10
0.0
 20
0.0
 30
0.0
  9
$UCSORGBOTTOM
 10
0.0
 20
0.0
 30
0.0
  9
$UCSORGLEFT
 10
0.0
 20
0.0
 30
0.0
  9
$UCSORGRIGHT
 10
0.0
 20
0.0
 30
0.0
  9
$UCSORGFRONT
 10
0.0
 20
0.0
 30
0.0
  9
$UCSORGBACK
 10
0.0
 20
0.0
 30
0.0
  9
$PUCSBASE
  2

  9
$PUCSNAME
  2

  9
$PUCSORG
 10
0.0
 20
0.0
 30
0.0
  9
$PUCSXDIR
 10
1.0
 20
0.0
 30
0.0
  9
$PUCSYDIR
 10
0.0
 20
1.0
 30
0.0
  9
$PUCSORTHOREF
  2

  9
$PUCSORTHOVIEW
 70
     0
  9
$PUCSORGTOP
 10
0.0
 20
0.0
 30
0.0
  9
$PUCSORGBOTTOM
 10
0.0
 20
0.0
 30
0.0
  9
$PUCSORGLEFT
 10
0.0
 20
0.0
 30
0.0
  9
$PUCSORGRIGHT
 10
0.0
 20
0.0
 30
0.0
  9
$PUCSORGFRONT
 10
0.0
 20
0.0
 30
0.0
  9
$PUCSORGBACK
 10
0.0
 20
0.0
 30
0.0
  9
$USERI1
 70
     0
  9
$USERI2
 70
     0
  9
$USERI3
 70
     0
  9
$USERI4
 70
     0
  9
$USERI5
 70
     0
  9
$USERR1
 40
0.0
  9
$USERR2
 40
0.0
  9
$USERR3
 40
0.0
  9
$USERR4
 40
0.0
  9
$USERR5
 40
0.0
  9
$WORLDVIEW
 70
     1
  9
$SHADEDGE
 70
     3
  9
$SHADEDIF
 70
    70
  9
$TILEMODE
 70
     0
  9
$MAXACTVP
 70
    64
  9
$PINSBASE
 10
0.0
 20
0.0
 30
0.0
  9
$PLIMCHECK
 70
     0
  9
$PEXTMIN
 10
-1.439262267973588
 20
-1.41285528304607
 30
0.0
  9
$PEXTMAX
 10
8.966538218833356
 20
6.396855050259421
 30
0.0
  9
$PLIMMIN
 10
-1.75200024029589
 20
-1.757999996245374
  9
$PLIMMAX
 10
9.247999519408216
 20
6.741999763458728
  9
$UNITMODE
 70
     0
  9
$VISRETAIN
 70
     1
  9
$PLINEGEN
 70
     0
  9
$PSLTSCALE
 70
     1
  9
$TREEDEPTH
 70
  3020
  9
$CMLSTYLE
  2
Standard
  9
$CMLJUST
 70
     0
  9
$CMLSCALE
 40
1.0
  9
$PROXYGRAPHICS
 70
     1
  9
$MEASUREMENT
 70
     0
  9
$CELWEIGHT
370
    -1
  9
$ENDCAPS
280
     0
  9
$JOINSTYLE
280
     0
  9
$LWDISPLAY
290
     0
  9
$INSUNITS
 70
     1
  9
$HYPERLINKBASE
  1

  9
$STYLESHEET
  1

  9
$XEDIT
290
     1
  9
$CEPSNTYPE
380
     0
  9
$PSTYLEMODE
290
     1
  9
$FINGERPRINTGUID
  2
{FDEAD576-A652-11D2-9A35-0060089B3A3F}
  9
$VERSIONGUID
  2
{CD2CD54D-650D-4CD8-AC7F-38472378F36B}
  9
$EXTNAMES
290
     1
  9
$PSVPSCALE
 40
0.0
  9
$OLESTARTUP
290
     0
  0
ENDSEC
  0
SECTION
  2
CLASSES
  0
CLASS
  1
ACDBDICTIONARYWDFLT
  2
AcDbDictionaryWithDefault
  3
AutoCAD 2000
 90
        0
280
     0
281
     0
  0
CLASS
  1
ACDBPLACEHOLDER
  2
AcDbPlaceHolder
  3
AutoCAD 2000
 90
        0
280
     0
281
     0
  0
CLASS
  1
LAYOUT
  2
AcDbLayout
  3
AutoCAD 2000
 90
        0
280
     0
281
     0
  0
CLASS
  1
DICTIONARYVAR
  2
AcDbDictionaryVar
  3
AutoCAD 2000
 90
        0
280
     0
281
     0
  0
CLASS
  1
DIMASSOC
  2
AcDbDimAssoc
  3
"AcDbDimAssoc|Product Desc:     AcDim ARX App For Dimension|Company:          Autodesk, Inc.|WEB Address:      www.autodesk.com"
 90
        0
280
     0
281
     0
  0
ENDSEC
  0
SECTION
  2
TABLES
  0
TABLE
  2
VPORT
  5
8
330
0
100
AcDbSymbolTable
 70
     1
  0
VPORT
  5
74
330
8
100
AcDbSymbolTableRecord
100
AcDbViewportTableRecord
  2
*Active
 70
     0
 10
0.0
 20
0.0
 11
1.0
 21
1.0
 12
20.48748698095427
 22
9.784138269231398
 13
0.0
 23
0.0
 14
0.5
 24
0.5
 15
0.5
 25
0.5
 16
0.0
 26
0.0
 36
1.0
 17
0.0
 27
0.0
 37
0.0
 40
19.56827653846278
 41
2.093949044585985
 42
50.0
 43
0.0
 44
0.0
 50
0.0
 51
0.0
 71
     0
 72
   100
 73
     1
 74
     3
 75
     0
 76
     0
 77
     0
 78
     0
281
     0
 65
     1
110
0.0
120
0.0
130
0.0
111
1.0
121
0.0
131
0.0
112
0.0
122
1.0
132
0.0
 79
     0
146
0.0
  0
ENDTAB
  0
TABLE
  2
LTYPE
  5
5
330
0
100
AcDbSymbolTable
 70
     3
  0
LTYPE
  5
14
330
5
100
AcDbSymbolTableRecord
100
AcDbLinetypeTableRecord
  2
ByBlock
 70
     0
  3

 72
    65
 73
     0
 40
0.0
  0
LTYPE
  5
15
330
5
100
AcDbSymbolTableRecord
100
AcDbLinetypeTableRecord
  2
ByLayer
 70
     0
  3

 72
    65
 73
     0
 40
0.0
  0
LTYPE
  5
16
330
5
100
AcDbSymbolTableRecord
100
AcDbLinetypeTableRecord
  2
Continuous
 70
     0
  3
Solid line
 72
    65
 73
     0
 40
0.0
  0
LTYPE
  5
92
330
5
100
AcDbSymbolTableRecord
100
AcDbLinetypeTableRecord
  2
HIDDENX2
 70
     0
  3
Hidden (2x) ____ ____ ____ ____ ____ ____ ____
 72
    65
 73
     2
 40
0.75
 49
0.5
 74
     0
 49
-0.25
 74
     0
  0
LTYPE
  5
93
330
5
100
AcDbSymbolTableRecord
100
AcDbLinetypeTableRecord
  2
threads
 70
     0
  3
Zig zag /\/\/\/\/\/\/\/\/\/\/\/\/\/\/\/\/\/\/\/
 72
    65
 73
     4
 40
0.8001000000000001
 49
0.0001
 74
     0
 49
-0.2
 74
     4
 75
   131
340
91
 46
0.2
 50
0.0
 44
-0.2
 45
0.0
 49
-0.4
 74
     4
 75
   131
340
91
 46
0.2
 50
180.0
 44
0.2
 45
0.0
 49
-0.2
 74
     0
  0
ENDTAB
  0
TABLE
  2
LAYER
  5
2
330
0
100
AcDbSymbolTable
 70
     2
  0
LAYER
  5
10
330
2
100
AcDbSymbolTableRecord
100
AcDbLayerTableRecord
  2
0
 70
     0
 62
     7
  6
Continuous
370
    -3
390
F
  0
LAYER
  5
D9
330
2
100
AcDbSymbolTableRecord
100
AcDbLayerTableRecord
  2
Defpoints
 70
     0
 62
     7
  6
Continuous
290
     0
370
    -3
390
F
  0
ENDTAB
  0
TABLE
  2
STYLE
  5
3
330
0
100
AcDbSymbolTable
 70
     2
  0
STYLE
  5
11
330
3
100
AcDbSymbolTableRecord
100
AcDbTextStyleTableRecord
  2
Standard
 70
     0
 40
0.0
 41
1.0
 50
0.0
 71
     0
 42
0.2
  3
txt
  4

  0
STYLE
  5
91
330
3
100
AcDbSymbolTableRecord
100
AcDbTextStyleTableRecord
  2

 70
     1
 40
0.0
 41
1.0
 50
0.0
 71
     0
 42
0.2
  3
ltypeshp.shx
  4

  0
ENDTAB
  0
TABLE
  2
VIEW
  5
6
330
0
100
AcDbSymbolTable
 70
     0
  0
ENDTAB
  0
TABLE
  2
UCS
  5
7
330
0
100
AcDbSymbolTable
 70
     0
  0
ENDTAB
  0
TABLE
  2
APPID
  5
9
330
0
100
AcDbSymbolTable
 70
     1
  0
APPID
  5
12
330
9
100
AcDbSymbolTableRecord
100
AcDbRegAppTableRecord
  2
ACAD
 70
     0
  0
ENDTAB
  0
TABLE
  2
DIMSTYLE
  5
A
330
0
100
AcDbSymbolTable
 70
     1
100
AcDbDimStyleTable
 71
     1
340
27
  0
DIMSTYLE
105
27
102
{ACAD_REACTORS
330
105
330
11C
330
136
330
150
102
}
330
A
100
AcDbSymbolTableRecord
100
AcDbDimStyleTableRecord
  2
Standard
 70
     0
 41
0.125
140
0.125
271
     3
272
     3
340
11
  0
ENDTAB
  0
TABLE
  2
BLOCK_RECORD
  5
1
330
0
100
AcDbSymbolTable
 70
     7
  0
BLOCK_RECORD
  5
1F
330
1
100
AcDbSymbolTableRecord
100
AcDbBlockTableRecord
  2
*Model_Space
340
22
  0
BLOCK_RECORD
  5
58
330
1
100
AcDbSymbolTableRecord
100
AcDbBlockTableRecord
  2
*Paper_Space
340
59
  0
BLOCK_RECORD
  5
5D
330
1
100
AcDbSymbolTableRecord
100
AcDbBlockTableRecord
  2
*Paper_Space0
340
5E
  0
BLOCK_RECORD
  5
DA
330
1
100
AcDbSymbolTableRecord
100
AcDbBlockTableRecord
  2
*D1
340
0
  0
BLOCK_RECORD
  5
F0
330
1
100
AcDbSymbolTableRecord
100
AcDbBlockTableRecord
  2
*D2
340
0
  0
BLOCK_RECORD
  5
106
330
1
100
AcDbSymbolTableRecord
100
AcDbBlockTableRecord
  2
*D3
340
0
  0
BLOCK_RECORD
  5
11D
330
1
100
AcDbSymbolTableRecord
100
AcDbBlockTableRecord
  2
*D4
340
0
  0
BLOCK_RECORD
  5
137
330
1
100
AcDbSymbolTableRecord
100
AcDbBlockTableRecord
  2
*D5
340
0
  0
BLOCK_RECORD
  5
151
330
1
100
AcDbSymbolTableRecord
100
AcDbBlockTableRecord
  2
*D6
340
0
  0
ENDTAB
  0
ENDSEC
  0
SECTION
  2
BLOCKS
  0
BLOCK
  5
20
330
1F
100
AcDbEntity
  8
0
100
AcDbBlockBegin
  2
*Model_Space
 70
     0
 10
0.0
 20
0.0
 30
0.0
  3
*Model_Space
  1

  0
ENDBLK
  5
21
330
1F
100
AcDbEntity
  8
0
100
AcDbBlockEnd
  0
BLOCK
  5
5A
330
58
100
AcDbEntity
 67
     1
  8
0
100
AcDbBlockBegin
  2
*Paper_Space
 70
     0
 10
0.0
 20
0.0
 30
0.0
  3
*Paper_Space
  1

  0
ENDBLK
  5
5B
330
58
100
AcDbEntity
 67
     1
  8
0
100
AcDbBlockEnd
  0
BLOCK
  5
5F
330
5D
100
AcDbEntity
  8
0
100
AcDbBlockBegin
  2
*Paper_Space0
 70
     0
 10
0.0
 20
0.0
 30
0.0
  3
*Paper_Space0
  1

  0
ENDBLK
  5
60
330
5D
100
AcDbEntity
  8
0
100
AcDbBlockEnd
  0
BLOCK
  5
E3
330
DA
100
AcDbEntity
  8
0
 48
0.3
100
AcDbBlockBegin
  2
*D1
 70
     1
 10
0.0
 20
0.0
 30
0.0
  3
*D1
  1

  0
LINE
  5
E6
330
DA
100
AcDbEntity
  8
0
 62
     0
 48
0.3
370
    -2
100
AcDbLine
 10
0.4087625490849818
 20
5.10862281756287
 30
0.0
 11
0.5337625490849831
 21
5.108622817562869
 31
0.0
  0
LINE
  5
E7
330
DA
100
AcDbEntity
  8
0
 62
     0
 48
0.3
370
    -2
100
AcDbLine
 10
0.5337625490849831
 20
5.108622817562869
 30
0.0
 11
0.9850292852625416
 21
4.439821911725061
 31
0.0
  0
MTEXT
  5
E8
330
DA
100
AcDbEntity
  8
0
 62
     0
 48
0.3
100
AcDbMText
 10
0.0166792157516489
 20
5.108622817562869
 30
0.0
 40
0.125
 41
0.0
 71
     5
 72
     1
  1
\A1;\U+22053.074
 73
     1
 44
1.0
  0
SOLID
  5
E9
330
DA
100
AcDbEntity
  8
0
 62
     0
 48
0.3
100
AcDbTrace
 10
1.002299047701055
 20
4.451474511567799
 30
0.0
 11
0.9677595228240267
 21
4.428169311882321
 31
0.0
 12
1.054944884318985
 22
4.336203337093971
 32
0.0
 13
1.054944884318985
 23
4.336203337093971
 33
0.0
  0
LINE
  5
EA
330
DA
100
AcDbEntity
  8
0
 62
     0
 48
0.3
370
    -2
100
AcDbLine
 10
1.824627090317014
 20
3.062109343430098
 30
0.0
 11
2.004627090317014
 21
3.062109343430098
 31
0.0
  0
LINE
  5
EB
330
DA
100
AcDbEntity
  8
0
 62
     0
 48
0.3
370
    -2
100
AcDbLine
 10
1.914627090317014
 20
2.972109343430098
 30
0.0
 11
1.914627090317014
 21
3.152109343430095
 31
0.0
  0
POINT
  5
EC
330
DA
100
AcDbEntity
  8
Defpoints
 62
     0
 48
0.3
100
AcDbPoint
 10
1.054944884318985
 20
4.336203337093971
 30
0.0
  0
POINT
  5
ED
330
DA
100
AcDbEntity
  8
Defpoints
 62
     0
 48
0.3
100
AcDbPoint
 10
2.774309296315044
 20
1.788015349766223
 30
0.0
  0
ENDBLK
  5
E4
330
DA
100
AcDbEntity
  8
0
 48
0.3
100
AcDbBlockEnd
  0
BLOCK
  5
F9
330
F0
100
AcDbEntity
  8
0
 48
0.3
100
AcDbBlockBegin
  2
*D2
 70
     1
 10
0.0
 20
0.0
 30
0.0
  3
*D2
  1

  0
LINE
  5
FC
330
F0
100
AcDbEntity
  8
0
 62
     0
 48
0.3
370
    -2
100
AcDbLine
 10
2.391612063693028
 20
5.080013556719233
 30
0.0
 11
2.266612063693028
 21
5.080013556719235
 31
0.0
  0
LINE
  5
FD
330
F0
100
AcDbEntity
  8
0
 62
     0
 48
0.3
370
    -2
100
AcDbLine
 10
2.266612063693028
 20
5.080013556719235
 30
0.0
 11
2.06464025806662
 21
3.922123906970576
 31
0.0
  0
MTEXT
  5
FE
330
F0
100
AcDbEntity
  8
0
 62
     0
 48
0.3
100
AcDbMText
 10
2.773278730359693
 20
5.080013556719235
 30
0.0
 40
0.125
 41
0.0
 71
     5
 72
     1
  1
\A1;\U+22051.496
 73
     1
 44
1.0
  0
SOLID
  5
FF
330
F0
100
AcDbEntity
  8
0
 62
     0
 48
0.3
100
AcDbTrace
 10
2.044116810101259
 20
3.925703831745051
 30
0.0
 11
2.08516370603198
 21
3.918543982196102
 31
0.0
 12
2.043160709419769
 22
3.798983219178412
 32
0.0
 13
2.043160709419769
 23
3.798983219178412
 33
0.0
  0
LINE
  5
100
330
F0
100
AcDbEntity
  8
0
 62
     0
 48
0.3
370
    -2
100
AcDbLine
 10
1.824627090317012
 20
3.062109343430095
 30
0.0
 11
2.004627090317013
 21
3.062109343430095
 31
0.0
  0
LINE
  5
101
330
F0
100
AcDbEntity
  8
0
 62
     0
 48
0.3
370
    -2
100
AcDbLine
 10
1.914627090317013
 20
2.972109343430096
 30
0.0
 11
1.914627090317013
 21
3.152109343430095
 31
0.0
  0
POINT
  5
102
330
F0
100
AcDbEntity
  8
Defpoints
 62
     0
 48
0.3
100
AcDbPoint
 10
2.043160709419769
 20
3.798983219178412
 30
0.0
  0
POINT
  5
103
330
F0
100
AcDbEntity
  8
Defpoints
 62
     0
 48
0.3
100
AcDbPoint
 10
1.786093471214256
 20
2.325235467681778
 30
0.0
  0
ENDBLK
  5
FA
330
F0
100
AcDbEntity
  8
0
 48
0.3
100
AcDbBlockEnd
  0
BLOCK
  5
10F
330
106
100
AcDbEntity
  8
0
 48
0.3
100
AcDbBlockBegin
  2
*D3
 70
     1
 10
0.0
 20
0.0
 30
0.0
  3
*D3
  1

  0
LINE
  5
1F3
330
106
100
AcDbEntity
  8
0
 62
     0
 48
0.3
370
    -2
100
AcDbLine
 10
3.218077215528319
 20
5.424623673690117
 30
0.0
 11
3.082660548861652
 21
5.424623673690117
 31
0.0
  0
LINE
  5
1F4
330
106
100
AcDbEntity
  8
0
 62
     0
 48
0.3
370
    -2
100
AcDbLine
 10
3.082660548861652
 20
5.424623673690117
 30
0.0
 11
2.085783468781334
 21
4.34471177060324
 31
0.0
  0
MTEXT
  5
1F5
330
106
100
AcDbEntity
  8
0
 62
     0
 48
0.3
100
AcDbMText
 10
3.662243882194986
 20
5.424623673690116
 30
0.0
 40
0.125
 41
0.0
 71
     5
 72
     1
  1
\A1;%%c0.3940
 73
     1
 44
1.0
  0
SOLID
  5
1F6
330
106
100
AcDbEntity
  8
0
 62
     0
 48
0.3
100
AcDbTrace
 10
2.070475313248541
 20
4.358842876432636
 30
0.0
 11
2.101091624314126
 21
4.330580664773843
 31
0.0
 12
2.000996833804955
 22
4.252862837406484
 32
0.0
 13
2.000996833804955
 23
4.252862837406484
 33
0.0
  0
LINE
  5
1F7
330
106
100
AcDbEntity
  8
0
 62
     0
 48
0.3
370
    -2
100
AcDbLine
 10
1.724127090317014
 20
4.050427788640834
 30
0.0
 11
1.904127090317014
 21
4.050427788640834
 31
0.0
  0
LINE
  5
1F8
330
106
100
AcDbEntity
  8
0
 62
     0
 48
0.3
370
    -2
100
AcDbLine
 10
1.814127090317015
 20
3.960427788640834
 30
0.0
 11
1.814127090317015
 21
4.140427788640834
 31
0.0
  0
POINT
  5
1F9
330
106
100
AcDbEntity
  8
Defpoints
 62
     0
 48
0.3
100
AcDbPoint
 10
2.000996833804955
 20
4.252862837406484
 30
0.0
  0
POINT
  5
1FA
330
106
100
AcDbEntity
  8
Defpoints
 62
     0
 48
0.3
100
AcDbPoint
 10
1.627257346829074
 20
3.847992739875183
 30
0.0
  0
ENDBLK
  5
110
330
106
100
AcDbEntity
  8
0
 48
0.3
100
AcDbBlockEnd
  0
BLOCK
  5
128
330
11D
100
AcDbEntity
  8
0
 48
0.3
100
AcDbBlockBegin
  2
*D4
 70
     1
 10
0.0
 20
0.0
 30
0.0
  3
*D4
  1

  0
LINE
  5
198
330
11D
100
AcDbEntity
  8
0
 62
     0
 48
0.3
370
    -2
100
AcDbLine
 10
5.004139663008597
 20
2.450927788640834
 30
0.0
 11
5.004139663008597
 21
1.29654594209106
 31
0.0
  0
LINE
  5
199
330
11D
100
AcDbEntity
  8
0
 62
     0
 48
0.3
370
    -2
100
AcDbLine
 10
6.500139663008598
 20
3.239927788640832
 30
0.0
 11
6.500139663008598
 21
1.296545942091059
 31
0.0
  0
LINE
  5
19A
330
11D
100
AcDbEntity
  8
0
 62
     0
 48
0.3
370
    -2
100
AcDbLine
 10
5.129139663008597
 20
1.47654594209106
 30
0.0
 11
5.432972996341931
 21
1.47654594209106
 31
0.0
  0
LINE
  5
19B
330
11D
100
AcDbEntity
  8
0
 62
     0
 48
0.3
370
    -2
100
AcDbLine
 10
6.375139663008598
 20
1.47654594209106
 30
0.0
 11
6.071306329675262
 21
1.47654594209106
 31
0.0
  0
SOLID
  5
19C
330
11D
100
AcDbEntity
  8
0
 62
     0
 48
0.3
100
AcDbTrace
 10
5.129139663008597
 20
1.497379275424393
 30
0.0
 11
5.129139663008597
 21
1.455712608757725
 31
0.0
 12
5.004139663008597
 22
1.47654594209106
 32
0.0
 13
5.004139663008597
 23
1.47654594209106
 33
0.0
  0
SOLID
  5
19D
330
11D
100
AcDbEntity
  8
0
 62
     0
 48
0.3
100
AcDbTrace
 10
6.375139663008598
 20
1.497379275424393
 30
0.0
 11
6.375139663008598
 21
1.455712608757725
 31
0.0
 12
6.500139663008598
 22
1.47654594209106
 32
0.0
 13
6.500139663008598
 23
1.47654594209106
 33
0.0
  0
MTEXT
  5
19E
330
11D
100
AcDbEntity
  8
0
 62
     0
 48
0.3
100
AcDbMText
 10
5.752139663008597
 20
1.47654594209106
 30
0.0
 40
0.125
 41
0.0
 71
     5
 72
     1
  1
\A1;1.496
 73
     1
 44
1.0
  0
POINT
  5
19F
330
11D
100
AcDbEntity
  8
Defpoints
 62
     0
 48
0.3
100
AcDbPoint
 10
5.004139663008597
 20
2.513427788640834
 30
0.0
  0
POINT
  5
1A0
330
11D
100
AcDbEntity
  8
Defpoints
 62
     0
 48
0.3
100
AcDbPoint
 10
6.500139663008598
 20
3.302427788640832
 30
0.0
  0
POINT
  5
1A1
330
11D
100
AcDbEntity
  8
Defpoints
 62
     0
 48
0.3
100
AcDbPoint
 10
6.500139663008598
 20
1.47654594209106
 30
0.0
  0
ENDBLK
  5
129
330
11D
100
AcDbEntity
  8
0
 48
0.3
100
AcDbBlockEnd
  0
BLOCK
  5
142
330
137
100
AcDbEntity
  8
0
 48
0.3
100
AcDbBlockBegin
  2
*D5
 70
     1
 10
0.0
 20
0.0
 30
0.0
  3
*D5
  1

  0
LINE
  5
18E
330
137
100
AcDbEntity
  8
0
 62
     0
 48
0.3
370
    -2
100
AcDbLine
 10
6.004139663008597
 20
2.450927788640834
 30
0.0
 11
6.004139663008597
 21
1.897340379065463
 31
0.0
  0
LINE
  5
18F
330
137
100
AcDbEntity
  8
0
 62
     0
 48
0.3
370
    -2
100
AcDbLine
 10
5.004139663008597
 20
2.450927788640834
 30
0.0
 11
5.004139663008597
 21
1.897340379065463
 31
0.0
  0
LINE
  5
190
330
137
100
AcDbEntity
  8
0
 62
     0
 48
0.3
370
    -2
100
AcDbLine
 10
6.129139663008597
 20
2.077340379065462
 30
0.0
 11
6.254139663008597
 21
2.077340379065462
 31
0.0
  0
LINE
  5
191
330
137
100
AcDbEntity
  8
0
 62
     0
 48
0.3
370
    -2
100
AcDbLine
 10
4.879139663008597
 20
2.077340379065462
 30
0.0
 11
4.754139663008597
 21
2.077340379065462
 31
0.0
  0
SOLID
  5
192
330
137
100
AcDbEntity
  8
0
 62
     0
 48
0.3
100
AcDbTrace
 10
6.129139663008597
 20
2.098173712398794
 30
0.0
 11
6.129139663008597
 21
2.056507045732129
 31
0.0
 12
6.004139663008597
 22
2.077340379065462
 32
0.0
 13
6.004139663008597
 23
2.077340379065462
 33
0.0
  0
SOLID
  5
193
330
137
100
AcDbEntity
  8
0
 62
     0
 48
0.3
100
AcDbTrace
 10
4.879139663008597
 20
2.098173712398794
 30
0.0
 11
4.879139663008597
 21
2.056507045732129
 31
0.0
 12
5.004139663008597
 22
2.077340379065462
 32
0.0
 13
5.004139663008597
 23
2.077340379065462
 33
0.0
  0
MTEXT
  5
194
330
137
100
AcDbEntity
  8
0
 62
     0
 48
0.3
100
AcDbMText
 10
5.504139663008596
 20
2.077340379065462
 30
0.0
 40
0.125
 41
0.0
 71
     5
 72
     1
  1
\A1;1.000
 73
     1
 44
1.0
  0
POINT
  5
195
330
137
100
AcDbEntity
  8
Defpoints
 62
     0
 48
0.3
100
AcDbPoint
 10
6.004139663008597
 20
2.513427788640834
 30
0.0
  0
POINT
  5
196
330
137
100
AcDbEntity
  8
Defpoints
 62
     0
 48
0.3
100
AcDbPoint
 10
5.004139663008597
 20
2.513427788640834
 30
0.0
  0
POINT
  5
197
330
137
100
AcDbEntity
  8
Defpoints
 62
     0
 48
0.3
100
AcDbPoint
 10
5.004139663008597
 20
2.077340379065462
 30
0.0
  0
ENDBLK
  5
143
330
137
100
AcDbEntity
  8
0
 48
0.3
100
AcDbBlockEnd
  0
BLOCK
  5
15C
330
151
100
AcDbEntity
  8
0
 48
0.3
100
AcDbBlockBegin
  2
*D6
 70
     1
 10
0.0
 20
0.0
 30
0.0
  3
*D6
  1

  0
LINE
  5
184
330
151
100
AcDbEntity
  8
0
 62
     0
 48
0.3
370
    -2
100
AcDbLine
 10
6.250139663008598
 20
4.112927788640834
 30
0.0
 11
6.250139663008598
 21
6.090981067289988
 31
0.0
  0
LINE
  5
185
330
151
100
AcDbEntity
  8
0
 62
     0
 48
0.3
370
    -2
100
AcDbLine
 10
6.500139663008598
 20
4.112927788640834
 30
0.0
 11
6.500139663008598
 21
6.090981067289988
 31
0.0
  0
LINE
  5
186
330
151
100
AcDbEntity
  8
0
 62
     0
 48
0.3
370
    -2
100
AcDbLine
 10
6.125139663008598
 20
5.910981067289987
 30
0.0
 11
6.000139663008598
 21
5.910981067289987
 31
0.0
  0
LINE
  5
187
330
151
100
AcDbEntity
  8
0
 62
     0
 48
0.3
370
    -2
100
AcDbLine
 10
6.625139663008598
 20
5.910981067289987
 30
0.0
 11
6.750139663008598
 21
5.910981067289987
 31
0.0
  0
SOLID
  5
188
330
151
100
AcDbEntity
  8
0
 62
     0
 48
0.3
100
AcDbTrace
 10
6.125139663008598
 20
5.93181440062332
 30
0.0
 11
6.125139663008598
 21
5.890147733956652
 31
0.0
 12
6.250139663008598
 22
5.910981067289987
 32
0.0
 13
6.250139663008598
 23
5.910981067289987
 33
0.0
  0
SOLID
  5
189
330
151
100
AcDbEntity
  8
0
 62
     0
 48
0.3
100
AcDbTrace
 10
6.625139663008598
 20
5.93181440062332
 30
0.0
 11
6.625139663008598
 21
5.890147733956652
 31
0.0
 12
6.500139663008598
 22
5.910981067289987
 32
0.0
 13
6.500139663008598
 23
5.910981067289987
 33
0.0
  0
MTEXT
  5
18A
330
151
100
AcDbEntity
  8
0
 62
     0
 48
0.3
100
AcDbMText
 10
7.069306329675263
 20
5.910981067289987
 30
0.0
 40
0.125
 41
0.0
 71
     5
 72
     1
  1
\A1;0.250
 73
     1
 44
1.0
  0
POINT
  5
18B
330
151
100
AcDbEntity
  8
Defpoints
 62
     0
 48
0.3
100
AcDbPoint
 10
6.250139663008598
 20
4.050427788640834
 30
0.0
  0
POINT
  5
18C
330
151
100
AcDbEntity
  8
Defpoints
 62
     0
 48
0.3
100
AcDbPoint
 10
6.500139663008598
 20
4.050427788640834
 30
0.0
  0
POINT
  5
18D
330
151
100
AcDbEntity
  8
Defpoints
 62
     0
 48
0.3
100
AcDbPoint
 10
6.500139663008598
 20
5.910981067289987
 30
0.0
  0
ENDBLK
  5
15D
330
151
100
AcDbEntity
  8
0
 48
0.3
100
AcDbBlockEnd
  0
ENDSEC
  0
SECTION
  2
ENTITIES
  0
VIEWPORT
  5
77
330
58
100
AcDbEntity
 67
     1
  8
0
100
AcDbViewport
 10
2.67815925331727
 20
2.310658331918395
 30
0.0
 40
20.37186668271992
 41
8.748437986691847
 68
     1
 69
     1
 12
2.67815925331727
 22
2.310658331918395
 13
0.0
 23
0.0
 14
0.5
 24
0.5
 15
0.5
 25
0.5
 16
0.0
 26
0.0
 36
1.0
 17
0.0
 27
0.0
 37
0.0
 42
50.0
 43
0.0
 44
0.0
 45
8.748437986691847
 50
0.0
 51
0.0
 72
   100
 90
    32800
  1

281
     0
 71
     1
 74
     0
110
0.0
120
0.0
130
0.0
111
1.0
121
0.0
131
0.0
112
0.0
122
1.0
132
0.0
 79
     0
146
0.0
  0
LWPOLYLINE
  5
86
330
58
100
AcDbEntity
 67
     1
  8
0
100
AcDbPolyline
 90
        4
 70
     1
 43
0.0
 10
-1.439262267973588
 20
6.396855050259421
 10
8.966538218833356
 20
6.396855050259421
 10
8.966538218833356
 20
-1.41285528304607
 10
-1.439262267973588
 20
-1.41285528304607
  0
LINE
  5
8A
330
58
100
AcDbEntity
 67
     1
  8
0
100
AcDbLine
 10
8.966538218833356
 20
-1.41285528304607
 30
0.0
 11
8.966538218833356
 21
-0.4128552830460708
 31
0.0
  0
LINE
  5
8B
330
58
100
AcDbEntity
 67
     1
  8
0
100
AcDbLine
 10
8.966538218833356
 20
-0.4128552830460708
 30
0.0
 11
6.466538218833355
 21
-0.4128552830460703
 31
0.0
  0
LINE
  5
8C
330
58
100
AcDbEntity
 67
     1
  8
0
100
AcDbLine
 10
6.466538218833355
 20
-0.4128552830460703
 30
0.0
 11
4.966538218833356
 21
-0.4128552830460701
 31
0.0
  0
LINE
  5
8D
330
58
100
AcDbEntity
 67
     1
  8
0
100
AcDbLine
 10
4.966538218833356
 20
-0.4128552830460701
 30
0.0
 11
4.966538218833356
 21
-1.41285528304607
 31
0.0
  0
LINE
  5
8E
330
58
100
AcDbEntity
 67
     1
  8
0
100
AcDbLine
 10
6.466538218833355
 20
-0.4128552830460703
 30
0.0
 11
6.466538218833355
 21
-1.404250623233159
 31
0.0
  0
MTEXT
  5
8F
330
58
100
AcDbEntity
 67
     1
  8
0
100
AcDbMText
 10
5.020648721258949
 20
-0.5532836662080878
 30
0.0
 40
0.1
 41
1.5
 71
     1
 72
     5
  1
  Tolerances\P.XXXX = +/- .001\P.XXX  = +/- .005\P.XX   = +/- .015
 73
     1
 44
1.0
  0
MTEXT
  5
AA
330
58
100
AcDbEntity
 67
     1
  8
0
 48
0.3
100
AcDbMText
 10
6.598115001704676
 20
-0.4692541690185334
 30
0.0
 40
0.1
 41
2.5
 71
     1
 72
     5
  1
G0704 Belt Drive\PStock 600 Watt Motor \PL Pulley\PDaniel E. Kemp\P{\fArial|b0|i0|c0|p32;\H1.625x;©\fMS Shell Dlg|b0|i0|c0|p32;\H0.6538x; 08-25-}2011
 73
     1
 44
1.0
  0
MTEXT
  5
AC
330
58
100
AcDbEntity
 67
     1
  8
0
 48
0.3
100
AcDbMText
 10
-0.8330378939457148
 20
-0.9104262006358535
 30
0.0
 40
0.1625
 41
9.997099999999999
 71
     1
 72
     5
  1
{\fArial|b0|i0|c0|p32;© Daniel E. Kemp 2011}
 73
     1
 44
1.0
  0
CIRCLE
  5
B7
330
58
100
AcDbEntity
 67
     1
  8
0
 48
0.3
100
AcDbCircle
 10
1.814127090317013
 20
4.050427788640834
 30
0.0
 40
1.536999999999999
  0
CIRCLE
  5
B8
330
58
100
AcDbEntity
 67
     1
  8
0
 48
0.3
100
AcDbCircle
 10
1.814127090317013
 20
4.050427788640834
 30
0.0
 40
0.7480000000000003
  0
LINE
  5
BA
330
58
100
AcDbEntity
 67
     1
  8
0
 48
0.3
100
AcDbLine
 10
5.004139663008597
 20
5.587427788640834
 30
0.0
 11
6.004139663008597
 21
5.587427788640834
 31
0.0
  0
LINE
  5
BC
102
{ACAD_REACTORS
330
14F
102
}
330
58
100
AcDbEntity
 67
     1
  8
0
 48
0.3
100
AcDbLine
 10
6.004139663008597
 20
2.513427788640834
 30
0.0
 11
6.004139663008597
 21
5.587427788640834
 31
0.0
  0
LINE
  5
BD
102
{ACAD_REACTORS
330
135
330
14F
102
}
330
58
100
AcDbEntity
 67
     1
  8
0
 48
0.3
100
AcDbLine
 10
5.004139663008597
 20
5.587427788640834
 30
0.0
 11
5.004139663008597
 21
2.513427788640834
 31
0.0
  0
LINE
  5
BE
330
58
100
AcDbEntity
 67
     1
  8
0
 48
0.3
100
AcDbLine
 10
5.004139663008597
 20
2.513427788640834
 30
0.0
 11
6.004139663008597
 21
2.513427788640834
 31
0.0
  0
LINE
  5
C0
330
58
100
AcDbEntity
 67
     1
  8
0
 48
0.3
100
AcDbLine
 10
6.004139663008597
 20
4.798427788640832
 30
0.0
 11
6.500139663008598
 21
4.798427788640832
 31
0.0
  0
LINE
  5
C2
330
58
100
AcDbEntity
 67
     1
  8
0
 48
0.3
100
AcDbLine
 10
6.004139663008597
 20
3.302427788640832
 30
0.0
 11
6.500139663008598
 21
3.302427788640832
 31
0.0
  0
LINE
  5
C3
102
{ACAD_REACTORS
330
135
102
}
330
58
100
AcDbEntity
 67
     1
  8
0
 48
0.3
100
AcDbLine
 10
6.500139663008598
 20
3.302427788640832
 30
0.0
 11
6.500139663008598
 21
4.798427788640832
 31
0.0
  0
CIRCLE
  5
C4
102
{ACAD_REACTORS
330
11A
102
}
330
58
100
AcDbEntity
 67
     1
  8
0
 48
0.3
100
AcDbCircle
 10
1.814127090317013
 20
4.050427788640834
 30
0.0
 40
0.2755
  0
LINE
  5
C6
330
58
100
AcDbEntity
 67
     1
  8
0
  6
HIDDENX2
 48
0.3
100
AcDbLine
 10
5.004139663008597
 20
4.325927788640834
 30
0.0
 11
6.500139663008598
 21
4.325927788640834
 31
0.0
  0
LINE
  5
C8
330
58
100
AcDbEntity
 67
     1
  8
0
  6
HIDDENX2
 48
0.3
100
AcDbLine
 10
5.004139663008597
 20
3.774927788640833
 30
0.0
 11
6.500139663008598
 21
3.774927788640833
 31
0.0
  0
CIRCLE
  5
CA
102
{ACAD_REACTORS
330
169
330
16D
102
}
330
58
100
AcDbEntity
 67
     1
  8
0
 48
0.3
100
AcDbCircle
 10
6.250139663008598
 20
4.050427788640834
 30
0.0
 40
0.1005
  0
LINE
  5
CD
330
58
100
AcDbEntity
 67
     1
  8
0
  6
threads
 48
0.3
100
AcDbLine
 10
6.350639663008598
 20
4.325927788640834
 30
0.0
 11
6.350639663008598
 21
4.798427788640832
 31
0.0
  0
LINE
  5
CF
330
58
100
AcDbEntity
 67
     1
  8
0
  6
threads
 48
0.3
100
AcDbLine
 10
6.149639663008597
 20
4.325927788640834
 30
0.0
 11
6.149639663008597
 21
4.798427788640832
 31
0.0
  0
LINE
  5
D1
330
58
100
AcDbEntity
 67
     1
  8
0
  6
threads
 48
0.3
100
AcDbLine
 10
1.914627090317013
 20
4.306942895408448
 30
0.0
 11
1.914627090317013
 21
4.791645536674433
 31
0.0
  0
LINE
  5
D3
330
58
100
AcDbEntity
 67
     1
  8
0
  6
threads
 48
0.3
100
AcDbLine
 10
1.713627090317013
 20
4.306942895408448
 30
0.0
 11
1.713627090317013
 21
4.791645536674433
 31
0.0
  0
LINE
  5
D5
330
58
100
AcDbEntity
 67
     1
  8
0
  6
threads
 48
0.3
100
AcDbLine
 10
2.070642197084624
 20
4.150927788640832
 30
0.0
 11
2.55534483835061
 21
4.150927788640832
 31
0.0
  0
LINE
  5
D7
330
58
100
AcDbEntity
 67
     1
  8
0
  6
threads
 48
0.3
100
AcDbLine
 10
2.070642197084624
 20
3.949927788640834
 30
0.0
 11
2.55534483835061
 21
3.949927788640834
 31
0.0
  0
DIMENSION
  5
105
102
{ACAD_XDICTIONARY
360
111
102
}
102
{ACAD_REACTORS
330
11A
102
}
330
58
100
AcDbEntity
 67
     1
  8
0
 48
0.3
100
AcDbDimension
  2
*D3
 10
1.627257346829074
 20
3.847992739875183
 30
0.0
 11
3.662243882194986
 21
5.424623673690116
 31
0.0
 70
   163
  1
%%c0.3940
 71
     5
 42
0.5509999999999993
  3
Standard
100
AcDbDiametricDimension
 15
2.000996833804955
 25
4.252862837406484
 35
0.0
 40
0.0
1001
ACAD
1000
DSTYLE
1002
{
1070
   288
1070
     1
1002
}
  0
MTEXT
  5
11B
330
58
100
AcDbEntity
 67
     1
  8
0
 48
0.3
100
AcDbMText
 10
3.254513404654653
 20
5.224358868155637
 30
0.0
 40
0.125
 41
1.0454
 71
     1
 72
     5
  1
10mm
 73
     1
 44
1.0
  0
DIMENSION
  5
11C
102
{ACAD_XDICTIONARY
360
12A
102
}
102
{ACAD_REACTORS
330
135
102
}
330
58
100
AcDbEntity
 67
     1
  8
0
 48
0.3
100
AcDbDimension
  2
*D4
 10
6.500139663008598
 20
1.47654594209106
 30
0.0
 11
5.752139663008597
 21
1.47654594209106
 31
0.0
 70
    32
 71
     5
 42
1.495999999999999
  3
Standard
100
AcDbAlignedDimension
 13
5.004139663008597
 23
2.513427788640834
 33
0.0
 14
6.500139663008598
 24
3.302427788640832
 34
0.0
100
AcDbRotatedDimension
  0
DIMENSION
  5
136
102
{ACAD_XDICTIONARY
360
144
102
}
102
{ACAD_REACTORS
330
14F
102
}
330
58
100
AcDbEntity
 67
     1
  8
0
 48
0.3
100
AcDbDimension
  2
*D5
 10
5.004139663008597
 20
2.077340379065462
 30
0.0
 11
5.504139663008596
 21
2.077340379065462
 31
0.0
 70
    32
 71
     5
 42
0.9999999999999982
  3
Standard
100
AcDbAlignedDimension
 13
6.004139663008597
 23
2.513427788640834
 33
0.0
 14
5.004139663008597
 24
2.513427788640834
 34
0.0
100
AcDbRotatedDimension
  0
DIMENSION
  5
150
102
{ACAD_XDICTIONARY
360
15E
102
}
102
{ACAD_REACTORS
330
169
102
}
330
58
100
AcDbEntity
 67
     1
  8
0
 48
0.3
100
AcDbDimension
  2
*D6
 10
6.500139663008598
 20
5.910981067289987
 30
0.0
 11
7.069306329675263
 21
5.910981067289987
 31
0.0
 70
    32
 71
     5
 42
0.25
  3
Standard
100
AcDbAlignedDimension
 13
6.250139663008598
 23
4.050427788640834
 33
0.0
 14
6.500139663008598
 24
4.050427788640834
 34
0.0
100
AcDbRotatedDimension
  0
LEADER
  5
16A
102
{ACAD_XDICTIONARY
360
16C
102
}
102
{ACAD_REACTORS
330
16D
102
}
330
58
100
AcDbEntity
 67
     1
  8
0
 48
0.3
100
AcDbLeader
  3
Standard
 73
     0
 40
0.125
 41
0.6458333333333334
 76
     3
 10
6.250139663008598
 20
4.050427788640834
 30
0.0
 10
6.992312745392951
 20
4.437604235697613
 30
0.0
 10
7.135523450647712
 20
4.437604235697613
 30
0.0
340
16B
213
0.0
223
-0.0625
233
0.0
1001
ACAD
1000
DSTYLE
1002
{
1070
   147
1040
0.09
1070
    77
1070
     0
1002
}
  0
MTEXT
  5
16B
102
{ACAD_REACTORS
330
16A
102
}
330
58
100
AcDbEntity
 67
     1
  8
0
 48
0.3
100
AcDbMText
 10
7.225523450647712
 20
4.500104235697613
 30
0.0
 40
0.125
 41
0.0
 71
     1
 72
     1
  1
\A1;1/4-20
 73
     1
 44
1.0
  0
MTEXT
  5
173
330
58
100
AcDbEntity
 67
     1
  8
0
 48
0.3
100
AcDbMText
 10
-0.8819061793956915
 20
2.141415220099196
 30
0.0
 40
0.15
 41
3.767599999999998
 71
     1
 72
     5
  1
www.econobelt.com\PUse whatever pulley size you want to get the pulley ratio and max RPM desired.\PExamples below.\PL Timing Pulley\P# Teeth - Ratio - Part #\P16 - .76:1 - QPMLA75016F12\P21 -  1:1  - QPMLA75021F12\P24 - 1.14:1 - QPMLA75024F12  
 73
     1
 44
1.0
  0
MTEXT
  5
1AA
330
58
100
AcDbEntity
 67
     1
  8
0
 48
0.3
100
AcDbMText
 10
4.197499760630975
 20
0.8263657343213282
 30
0.0
 40
0.125
 41
5.403599999999999
 71
     1
 72
     5
  1
Note: Use the belt length calc\Pto get the # of teeth of the belt\Pusing a center distance of 3.75 inches\Phttp://www.sdp-si.com/Cd/default.htm
 73
     1
 44
1.0
  0
ENDSEC
  0
SECTION
  2
OBJECTS
  0
DICTIONARY
  5
C
330
0
100
AcDbDictionary
281
     1
  3
ACAD_GROUP
350
D
  3
ACAD_LAYOUT
350
1A
  3
ACAD_MLINESTYLE
350
17
  3
ACAD_PLOTSETTINGS
350
19
  3
ACAD_PLOTSTYLENAME
350
E
  3
AcDbVariableDictionary
350
66
  0
DICTIONARY
  5
111
330
105
100
AcDbDictionary
280
     1
281
     1
  3
ACAD_DIMASSOC
360
11A
  0
DICTIONARY
  5
12A
330
11C
100
AcDbDictionary
280
     1
281
     1
  3
ACAD_DIMASSOC
360
135
  0
DICTIONARY
  5
144
330
136
100
AcDbDictionary
280
     1
281
     1
  3
ACAD_DIMASSOC
360
14F
  0
DICTIONARY
  5
15E
330
150
100
AcDbDictionary
280
     1
281
     1
  3
ACAD_DIMASSOC
360
169
  0
DICTIONARY
  5
16C
330
16A
100
AcDbDictionary
280
     1
281
     1
  3
ACAD_DIMASSOC
360
16D
  0
DICTIONARY
  5
D
102
{ACAD_REACTORS
330
C
102
}
330
C
100
AcDbDictionary
281
     1
  0
DICTIONARY
  5
1A
102
{ACAD_REACTORS
330
C
102
}
330
C
100
AcDbDictionary
281
     1
  3
Layout1
350
59
  3
Layout2
350
5E
  3
Model
350
22
  0
DICTIONARY
  5
17
102
{ACAD_REACTORS
330
C
102
}
330
C
100
AcDbDictionary
281
     1
  3
Standard
350
18
  0
DICTIONARY
  5
19
102
{ACAD_REACTORS
330
C
102
}
330
C
100
AcDbDictionary
281
     1
  0
ACDBDICTIONARYWDFLT
  5
E
102
{ACAD_REACTORS
330
C
102
}
330
C
100
AcDbDictionary
281
     1
  3
Normal
350
F
100
AcDbDictionaryWithDefault
340
F
  0
DICTIONARY
  5
66
102
{ACAD_REACTORS
330
C
102
}
330
C
100
AcDbDictionary
281
     1
  3
DIMASSOC
350
67
  3
HIDETEXT
350
6B
  0
DIMASSOC
  5
11A
102
{ACAD_REACTORS
330
111
102
}
330
111
100
AcDbDimAssoc
330
105
 90
        2
 70
     0
 71
     0
  1
AcDbOsnapPointRef
 72
     3
331
C4
 73
     2
 91
        0
 40
0.0
 10
1.814127090317013
 20
4.050427788640834
 30
0.0
 75
     0
  0
DIMASSOC
  5
135
102
{ACAD_REACTORS
330
12A
102
}
330
12A
100
AcDbDimAssoc
330
11C
 90
        3
 70
     0
 71
     0
  1
AcDbOsnapPointRef
 72
     1
331
BD
 73
     2
 91
        0
 40
1.0
 10
5.004139663008597
 20
2.513427788640834
 30
0.0
 75
     0
  1
AcDbOsnapPointRef
 72
    13
331
C3
 73
     2
 91
        0
 40
0.0
 10
6.500139663008598
 20
3.302427788640832
 30
0.0
 75
     0
  0
DIMASSOC
  5
14F
102
{ACAD_REACTORS
330
144
102
}
330
144
100
AcDbDimAssoc
330
136
 90
        3
 70
     0
 71
     0
  1
AcDbOsnapPointRef
 72
    13
331
BC
 73
     2
 91
        0
 40
0.0
 10
6.004139663008597
 20
2.513427788640834
 30
0.0
 75
     0
  1
AcDbOsnapPointRef
 72
     1
331
BD
 73
     2
 91
        0
 40
1.0
 10
5.004139663008597
 20
2.513427788640834
 30
0.0
 75
     0
  0
DIMASSOC
  5
169
102
{ACAD_REACTORS
330
15E
102
}
330
15E
100
AcDbDimAssoc
330
150
 90
        1
 70
     0
 71
     0
  1
AcDbOsnapPointRef
 72
     3
331
CA
 73
     2
 91
        0
 40
0.0
 10
6.250139663008598
 20
4.050427788640834
 30
0.0
 75
     0
  0
DIMASSOC
  5
16D
102
{ACAD_REACTORS
330
16C
102
}
330
16C
100
AcDbDimAssoc
330
16A
 90
        1
 70
     0
 71
     0
  1
AcDbOsnapPointRef
 72
     3
331
CA
 73
     2
 91
        0
 40
0.0
 10
6.250139663008598
 20
4.050427788640834
 30
0.0
 75
     0
  0
LAYOUT
  5
59
102
{ACAD_REACTORS
330
1A
102
}
330
1A
100
AcDbPlotSettings
  1

  2
none_device
  4
Letter_(8.50_x_11.00_Inches)
  6

 40
6.349999904632567
 41
6.349999904632567
 42
6.350006103515625
 43
6.350006103515625
 44
215.8999938964841
 45
279.3999938964843
 46
38.3032
 47
38.15079999999999
 48
0.0
 49
0.0
140
0.0
141
0.0
142
1.0
143
1.0
 70
   688
 72
     0
 73
     1
 74
     5
  7

 75
    16
147
1.0
148
0.0
149
0.0
100
AcDbLayout
  1
Layout1
 70
     1
 71
     1
 10
-1.75200024029589
 20
-1.757999996245374
 11
9.247999519408216
 21
6.741999763458728
 12
0.0
 22
0.0
 32
0.0
 14
-1.439262267973588
 24
-1.41285528304607
 34
0.0
 15
8.966538218833356
 25
6.396855050259421
 35
0.0
146
0.0
 13
0.0
 23
0.0
 33
0.0
 16
1.0
 26
0.0
 36
0.0
 17
0.0
 27
1.0
 37
0.0
 76
     0
330
58
331
77
  0
LAYOUT
  5
5E
102
{ACAD_REACTORS
330
1A
102
}
330
1A
100
AcDbPlotSettings
  1

  2
None
  4

  6

 40
0.0
 41
0.0
 42
0.0
 43
0.0
 44
0.0
 45
0.0
 46
0.0
 47
0.0
 48
0.0
 49
0.0
140
0.0
141
0.0
142
1.0
143
1.0
 70
   688
 72
     0
 73
     0
 74
     5
  7

 75
    16
147
1.0
148
0.0
149
0.0
100
AcDbLayout
  1
Layout2
 70
     1
 71
     2
 10
0.0
 20
0.0
 11
12.0
 21
9.0
 12
0.0
 22
0.0
 32
0.0
 14
0.0
 24
0.0
 34
0.0
 15
0.0
 25
0.0
 35
0.0
146
0.0
 13
0.0
 23
0.0
 33
0.0
 16
1.0
 26
0.0
 36
0.0
 17
0.0
 27
1.0
 37
0.0
 76
     0
330
5D
  0
LAYOUT
  5
22
102
{ACAD_REACTORS
330
1A
102
}
330
1A
100
AcDbPlotSettings
  1

  2
none_device
  4
ANSI_A_(8.50_x_11.00_Inches)
  6

 40
6.349999904632567
 41
19.04999923706053
 42
6.350006103515625
 43
19.04998779296875
 44
215.8999938964841
 45
279.3999938964843
 46
0.0
 47
0.0
 48
0.0
 49
0.0
140
0.0
141
0.0
142
1.0
143
2.584895464708373
 70
 11952
 72
     0
 73
     1
 74
     0
  7

 75
     0
147
0.3868628397755418
148
0.0
149
0.0
100
AcDbLayout
  1
Model
 70
     1
 71
     0
 10
0.0
 20
0.0
 11
12.0
 21
9.0
 12
0.0
 22
0.0
 32
0.0
 14
0.0
 24
0.0
 34
0.0
 15
0.0
 25
0.0
 35
0.0
146
0.0
 13
0.0
 23
0.0
 33
0.0
 16
1.0
 26
0.0
 36
0.0
 17
0.0
 27
1.0
 37
0.0
 76
     0
330
1F
  0
MLINESTYLE
  5
18
102
{ACAD_REACTORS
330
17
102
}
330
17
100
AcDbMlineStyle
  2
STANDARD
 70
     0
  3

 62
   256
 51
90.0
 52
90.0
 71
     2
 49
0.5
 62
   256
  6
BYLAYER
 49
-0.5
 62
   256
  6
BYLAYER
  0
ACDBPLACEHOLDER
  5
F
102
{ACAD_REACTORS
330
E
102
}
330
E
  0
DICTIONARYVAR
  5
67
102
{ACAD_REACTORS
330
66
102
}
330
66
100
DictionaryVariables
280
     0
  1
2
  0
DICTIONARYVAR
  5
6B
102
{ACAD_REACTORS
330
66
102
}
330
66
100
DictionaryVariables
280
     0
  1
1
  0
ENDSEC
  0
EOF
