  0
SECTION
  2
HEADER
  9
$ACADVER
  1
AC1015
  9
$ACADMAINTVER
 70
    13
  9
$DWGCODEPAGE
  3
ANSI_1252
  9
$INSBASE
 10
0.0
 20
0.0
 30
0.0
  9
$EXTMIN
 10
1.000000000000000E+20
 20
1.000000000000000E+20
 30
1.000000000000000E+20
  9
$EXTMAX
 10
-1.000000000000000E+20
 20
-1.000000000000000E+20
 30
-1.000000000000000E+20
  9
$LIMMIN
 10
0.0
 20
0.0
  9
$LIMMAX
 10
12.0
 20
9.0
  9
$ORTHOMODE
 70
     0
  9
$REGENMODE
 70
     1
  9
$FILLMODE
 70
     1
  9
$QTEXTMODE
 70
     0
  9
$MIRRTEXT
 70
     1
  9
$LTSCALE
 40
0.3
  9
$ATTMODE
 70
     1
  9
$TEXTSIZE
 40
0.2
  9
$TRACEWID
 40
0.05
  9
$TEXTSTYLE
  7
Standard
  9
$CLAYER
  8
0
  9
$CELTYPE
  6
ByLayer
  9
$CECOLOR
 62
   256
  9
$CELTSCALE
 40
0.3
  9
$DISPSILH
 70
     0
  9
$DIMSCALE
 40
1.0
  9
$DIMASZ
 40
0.125
  9
$DIMEXO
 40
0.0625
  9
$DIMDLI
 40
0.38
  9
$DIMRND
 40
0.0
  9
$DIMDLE
 40
0.0
  9
$DIMEXE
 40
0.18
  9
$DIMTP
 40
0.0
  9
$DIMTM
 40
0.0
  9
$DIMTXT
 40
0.125
  9
$DIMCEN
 40
0.09
  9
$DIMTSZ
 40
0.0
  9
$DIMTOL
 70
     0
  9
$DIMLIM
 70
     0
  9
$DIMTIH
 70
     1
  9
$DIMTOH
 70
     1
  9
$DIMSE1
 70
     0
  9
$DIMSE2
 70
     0
  9
$DIMTAD
 70
     0
  9
$DIMZIN
 70
     0
  9
$DIMBLK
  1

  9
$DIMASO
 70
     1
  9
$DIMSHO
 70
     1
  9
$DIMPOST
  1

  9
$DIMAPOST
  1

  9
$DIMALT
 70
     0
  9
$DIMALTD
 70
     2
  9
$DIMALTF
 40
25.4
  9
$DIMLFAC
 40
1.0
  9
$DIMTOFL
 70
     0
  9
$DIMTVP
 40
0.0
  9
$DIMTIX
 70
     0
  9
$DIMSOXD
 70
     0
  9
$DIMSAH
 70
     0
  9
$DIMBLK1
  1

  9
$DIMBLK2
  1

  9
$DIMSTYLE
  2
Standard
  9
$DIMCLRD
 70
     0
  9
$DIMCLRE
 70
     0
  9
$DIMCLRT
 70
     0
  9
$DIMTFAC
 40
1.0
  9
$DIMGAP
 40
0.09
  9
$DIMJUST
 70
     0
  9
$DIMSD1
 70
     0
  9
$DIMSD2
 70
     0
  9
$DIMTOLJ
 70
     1
  9
$DIMTZIN
 70
     0
  9
$DIMALTZ
 70
     0
  9
$DIMALTTZ
 70
     0
  9
$DIMUPT
 70
     0
  9
$DIMDEC
 70
     3
  9
$DIMTDEC
 70
     3
  9
$DIMALTU
 70
     2
  9
$DIMALTTD
 70
     2
  9
$DIMTXSTY
  7
Standard
  9
$DIMAUNIT
 70
     0
  9
$DIMADEC
 70
     0
  9
$DIMALTRND
 40
0.0
  9
$DIMAZIN
 70
     0
  9
$DIMDSEP
 70
    46
  9
$DIMATFIT
 70
     3
  9
$DIMFRAC
 70
     0
  9
$DIMLDRBLK
  1

  9
$DIMLUNIT
 70
     2
  9
$DIMLWD
 70
    -2
  9
$DIMLWE
 70
    -2
  9
$DIMTMOVE
 70
     0
  9
$LUNITS
 70
     2
  9
$LUPREC
 70
     4
  9
$SKETCHINC
 40
0.1
  9
$FILLETRAD
 40
0.5
  9
$AUNITS
 70
     0
  9
$AUPREC
 70
     0
  9
$MENU
  1
.
  9
$ELEVATION
 40
0.0
  9
$PELEVATION
 40
0.0
  9
$THICKNESS
 40
0.0
  9
$LIMCHECK
 70
     0
  9
$CHAMFERA
 40
0.5
  9
$CHAMFERB
 40
0.5
  9
$CHAMFERC
 40
1.0
  9
$CHAMFERD
 40
0.0
  9
$SKPOLY
 70
     0
  9
$TDCREATE
 40
2454412.579853507
  9
$TDUCREATE
 40
2454412.788186840
  9
$TDUPDATE
 40
2455799.867045173
  9
$TDUUPDATE
 40
2455800.075378506
  9
$TDINDWG
 40
0.4506152662
  9
$TDUSRTIMER
 40
0.4506126042
  9
$USRTIMER
 70
     1
  9
$ANGBASE
 50
0.0
  9
$ANGDIR
 70
     0
  9
$PDMODE
 70
     0
  9
$PDSIZE
 40
0.0
  9
$PLINEWID
 40
0.0
  9
$SPLFRAME
 70
     0
  9
$SPLINETYPE
 70
     6
  9
$SPLINESEGS
 70
     8
  9
$HANDSEED
  5
46A
  9
$SURFTAB1
 70
     6
  9
$SURFTAB2
 70
     6
  9
$SURFTYPE
 70
     6
  9
$SURFU
 70
     6
  9
$SURFV
 70
     6
  9
$UCSBASE
  2

  9
$UCSNAME
  2

  9
$UCSORG
 10
0.0
 20
0.0
 30
0.0
  9
$UCSXDIR
 10
1.0
 20
0.0
 30
0.0
  9
$UCSYDIR
 10
0.0
 20
1.0
 30
0.0
  9
$UCSORTHOREF
  2

  9
$UCSORTHOVIEW
 70
     0
  9
$UCSORGTOP
 10
0.0
 20
0.0
 30
0.0
  9
$UCSORGBOTTOM
 10
0.0
 20
0.0
 30
0.0
  9
$UCSORGLEFT
 10
0.0
 20
0.0
 30
0.0
  9
$UCSORGRIGHT
 10
0.0
 20
0.0
 30
0.0
  9
$UCSORGFRONT
 10
0.0
 20
0.0
 30
0.0
  9
$UCSORGBACK
 10
0.0
 20
0.0
 30
0.0
  9
$PUCSBASE
  2

  9
$PUCSNAME
  2

  9
$PUCSORG
 10
0.0
 20
0.0
 30
0.0
  9
$PUCSXDIR
 10
1.0
 20
0.0
 30
0.0
  9
$PUCSYDIR
 10
0.0
 20
1.0
 30
0.0
  9
$PUCSORTHOREF
  2

  9
$PUCSORTHOVIEW
 70
     0
  9
$PUCSORGTOP
 10
0.0
 20
0.0
 30
0.0
  9
$PUCSORGBOTTOM
 10
0.0
 20
0.0
 30
0.0
  9
$PUCSORGLEFT
 10
0.0
 20
0.0
 30
0.0
  9
$PUCSORGRIGHT
 10
0.0
 20
0.0
 30
0.0
  9
$PUCSORGFRONT
 10
0.0
 20
0.0
 30
0.0
  9
$PUCSORGBACK
 10
0.0
 20
0.0
 30
0.0
  9
$USERI1
 70
     0
  9
$USERI2
 70
     0
  9
$USERI3
 70
     0
  9
$USERI4
 70
     0
  9
$USERI5
 70
     0
  9
$USERR1
 40
0.0
  9
$USERR2
 40
0.0
  9
$USERR3
 40
0.0
  9
$USERR4
 40
0.0
  9
$USERR5
 40
0.0
  9
$WORLDVIEW
 70
     1
  9
$SHADEDGE
 70
     3
  9
$SHADEDIF
 70
    70
  9
$TILEMODE
 70
     0
  9
$MAXACTVP
 70
    64
  9
$PINSBASE
 10
0.0
 20
0.0
 30
0.0
  9
$PLIMCHECK
 70
     0
  9
$PEXTMIN
 10
-1.439262267973588
 20
-1.41285528304607
 30
0.0
  9
$PEXTMAX
 10
8.966538218833356
 20
6.396855050259421
 30
0.0
  9
$PLIMMIN
 10
-1.75200024029589
 20
-1.757999996245374
  9
$PLIMMAX
 10
9.247999519408216
 20
6.741999763458728
  9
$UNITMODE
 70
     0
  9
$VISRETAIN
 70
     1
  9
$PLINEGEN
 70
     0
  9
$PSLTSCALE
 70
     1
  9
$TREEDEPTH
 70
  3020
  9
$CMLSTYLE
  2
Standard
  9
$CMLJUST
 70
     0
  9
$CMLSCALE
 40
1.0
  9
$PROXYGRAPHICS
 70
     1
  9
$MEASUREMENT
 70
     0
  9
$CELWEIGHT
370
    -1
  9
$ENDCAPS
280
     0
  9
$JOINSTYLE
280
     0
  9
$LWDISPLAY
290
     0
  9
$INSUNITS
 70
     1
  9
$HYPERLINKBASE
  1

  9
$STYLESHEET
  1

  9
$XEDIT
290
     1
  9
$CEPSNTYPE
380
     0
  9
$PSTYLEMODE
290
     1
  9
$FINGERPRINTGUID
  2
{FDEAD576-A652-11D2-9A35-0060089B3A3F}
  9
$VERSIONGUID
  2
{BB9E6095-67C0-4602-A9F6-ADF812DC4C22}
  9
$EXTNAMES
290
     1
  9
$PSVPSCALE
 40
0.0
  9
$OLESTARTUP
290
     0
  0
ENDSEC
  0
SECTION
  2
CLASSES
  0
CLASS
  1
ACDBDICTIONARYWDFLT
  2
AcDbDictionaryWithDefault
  3
AutoCAD 2000
 90
        0
280
     0
281
     0
  0
CLASS
  1
ACDBPLACEHOLDER
  2
AcDbPlaceHolder
  3
AutoCAD 2000
 90
        0
280
     0
281
     0
  0
CLASS
  1
LAYOUT
  2
AcDbLayout
  3
AutoCAD 2000
 90
        0
280
     0
281
     0
  0
CLASS
  1
DICTIONARYVAR
  2
AcDbDictionaryVar
  3
AutoCAD 2000
 90
        0
280
     0
281
     0
  0
CLASS
  1
DIMASSOC
  2
AcDbDimAssoc
  3
"AcDbDimAssoc|Product Desc:     AcDim ARX App For Dimension|Company:          Autodesk, Inc.|WEB Address:      www.autodesk.com"
 90
        0
280
     0
281
     0
  0
ENDSEC
  0
SECTION
  2
TABLES
  0
TABLE
  2
VPORT
  5
8
330
0
100
AcDbSymbolTable
 70
     1
  0
VPORT
  5
74
330
8
100
AcDbSymbolTableRecord
100
AcDbViewportTableRecord
  2
*Active
 70
     0
 10
0.0
 20
0.0
 11
1.0
 21
1.0
 12
20.48748698095427
 22
9.784138269231398
 13
0.0
 23
0.0
 14
0.5
 24
0.5
 15
0.5
 25
0.5
 16
0.0
 26
0.0
 36
1.0
 17
0.0
 27
0.0
 37
0.0
 40
19.56827653846278
 41
2.093949044585985
 42
50.0
 43
0.0
 44
0.0
 50
0.0
 51
0.0
 71
     0
 72
   100
 73
     1
 74
     3
 75
     0
 76
     0
 77
     0
 78
     0
281
     0
 65
     1
110
0.0
120
0.0
130
0.0
111
1.0
121
0.0
131
0.0
112
0.0
122
1.0
132
0.0
 79
     0
146
0.0
  0
ENDTAB
  0
TABLE
  2
LTYPE
  5
5
330
0
100
AcDbSymbolTable
 70
     3
  0
LTYPE
  5
14
330
5
100
AcDbSymbolTableRecord
100
AcDbLinetypeTableRecord
  2
ByBlock
 70
     0
  3

 72
    65
 73
     0
 40
0.0
  0
LTYPE
  5
15
330
5
100
AcDbSymbolTableRecord
100
AcDbLinetypeTableRecord
  2
ByLayer
 70
     0
  3

 72
    65
 73
     0
 40
0.0
  0
LTYPE
  5
16
330
5
100
AcDbSymbolTableRecord
100
AcDbLinetypeTableRecord
  2
Continuous
 70
     0
  3
Solid line
 72
    65
 73
     0
 40
0.0
  0
LTYPE
  5
92
330
5
100
AcDbSymbolTableRecord
100
AcDbLinetypeTableRecord
  2
HIDDENX2
 70
     0
  3
Hidden (2x) ____ ____ ____ ____ ____ ____ ____
 72
    65
 73
     2
 40
0.75
 49
0.5
 74
     0
 49
-0.25
 74
     0
  0
LTYPE
  5
93
330
5
100
AcDbSymbolTableRecord
100
AcDbLinetypeTableRecord
  2
threads
 70
     0
  3
Zig zag /\/\/\/\/\/\/\/\/\/\/\/\/\/\/\/\/\/\/\/
 72
    65
 73
     4
 40
0.8001000000000001
 49
0.0001
 74
     0
 49
-0.2
 74
     4
 75
   131
340
91
 46
0.2
 50
0.0
 44
-0.2
 45
0.0
 49
-0.4
 74
     4
 75
   131
340
91
 46
0.2
 50
180.0
 44
0.2
 45
0.0
 49
-0.2
 74
     0
  0
ENDTAB
  0
TABLE
  2
LAYER
  5
2
330
0
100
AcDbSymbolTable
 70
     2
  0
LAYER
  5
10
330
2
100
AcDbSymbolTableRecord
100
AcDbLayerTableRecord
  2
0
 70
     0
 62
     7
  6
Continuous
370
    -3
390
F
  0
LAYER
  5
D2
330
2
100
AcDbSymbolTableRecord
100
AcDbLayerTableRecord
  2
Defpoints
 70
     0
 62
     7
  6
Continuous
290
     0
370
    -3
390
F
  0
ENDTAB
  0
TABLE
  2
STYLE
  5
3
330
0
100
AcDbSymbolTable
 70
     2
  0
STYLE
  5
11
330
3
100
AcDbSymbolTableRecord
100
AcDbTextStyleTableRecord
  2
Standard
 70
     0
 40
0.0
 41
1.0
 50
0.0
 71
     0
 42
0.2
  3
txt
  4

  0
STYLE
  5
91
330
3
100
AcDbSymbolTableRecord
100
AcDbTextStyleTableRecord
  2

 70
     1
 40
0.0
 41
1.0
 50
0.0
 71
     0
 42
0.2
  3
ltypeshp.shx
  4

  0
ENDTAB
  0
TABLE
  2
VIEW
  5
6
330
0
100
AcDbSymbolTable
 70
     0
  0
ENDTAB
  0
TABLE
  2
UCS
  5
7
330
0
100
AcDbSymbolTable
 70
     0
  0
ENDTAB
  0
TABLE
  2
APPID
  5
9
330
0
100
AcDbSymbolTable
 70
     1
  0
APPID
  5
12
330
9
100
AcDbSymbolTableRecord
100
AcDbRegAppTableRecord
  2
ACAD
 70
     0
  0
ENDTAB
  0
TABLE
  2
DIMSTYLE
  5
A
330
0
100
AcDbSymbolTable
 70
     1
100
AcDbDimStyleTable
 71
     1
340
27
  0
DIMSTYLE
105
27
102
{ACAD_REACTORS
330
138
330
152
330
1D6
330
212
330
22C
330
246
330
27A
330
2DE
330
355
330
36F
330
413
330
43A
330
450
102
}
330
A
100
AcDbSymbolTableRecord
100
AcDbDimStyleTableRecord
  2
Standard
 70
     0
 41
0.125
140
0.125
271
     3
272
     3
340
11
  0
ENDTAB
  0
TABLE
  2
BLOCK_RECORD
  5
1
330
0
100
AcDbSymbolTable
 70
    30
  0
BLOCK_RECORD
  5
1F
330
1
100
AcDbSymbolTableRecord
100
AcDbBlockTableRecord
  2
*Model_Space
340
22
  0
BLOCK_RECORD
  5
58
330
1
100
AcDbSymbolTableRecord
100
AcDbBlockTableRecord
  2
*Paper_Space
340
59
  0
BLOCK_RECORD
  5
5D
330
1
100
AcDbSymbolTableRecord
100
AcDbBlockTableRecord
  2
*Paper_Space0
340
5E
  0
BLOCK_RECORD
  5
C5
330
1
100
AcDbSymbolTableRecord
100
AcDbBlockTableRecord
  2
*D1
340
0
  0
BLOCK_RECORD
  5
F5
330
1
100
AcDbSymbolTableRecord
100
AcDbBlockTableRecord
  2
*D2
340
0
  0
BLOCK_RECORD
  5
139
330
1
100
AcDbSymbolTableRecord
100
AcDbBlockTableRecord
  2
*D3
340
0
  0
BLOCK_RECORD
  5
153
330
1
100
AcDbSymbolTableRecord
100
AcDbBlockTableRecord
  2
*D4
340
0
  0
BLOCK_RECORD
  5
169
330
1
100
AcDbSymbolTableRecord
100
AcDbBlockTableRecord
  2
*D5
340
0
  0
BLOCK_RECORD
  5
17F
330
1
100
AcDbSymbolTableRecord
100
AcDbBlockTableRecord
  2
*D6
340
0
  0
BLOCK_RECORD
  5
195
330
1
100
AcDbSymbolTableRecord
100
AcDbBlockTableRecord
  2
*D7
340
0
  0
BLOCK_RECORD
  5
1AB
330
1
100
AcDbSymbolTableRecord
100
AcDbBlockTableRecord
  2
*D8
340
0
  0
BLOCK_RECORD
  5
1C1
330
1
100
AcDbSymbolTableRecord
100
AcDbBlockTableRecord
  2
*D9
340
0
  0
BLOCK_RECORD
  5
1D7
330
1
100
AcDbSymbolTableRecord
100
AcDbBlockTableRecord
  2
*D10
340
0
  0
BLOCK_RECORD
  5
1FD
330
1
100
AcDbSymbolTableRecord
100
AcDbBlockTableRecord
  2
*D11
340
0
  0
BLOCK_RECORD
  5
213
330
1
100
AcDbSymbolTableRecord
100
AcDbBlockTableRecord
  2
*D12
340
0
  0
BLOCK_RECORD
  5
22D
330
1
100
AcDbSymbolTableRecord
100
AcDbBlockTableRecord
  2
*D13
340
0
  0
BLOCK_RECORD
  5
247
330
1
100
AcDbSymbolTableRecord
100
AcDbBlockTableRecord
  2
*D14
340
0
  0
BLOCK_RECORD
  5
261
330
1
100
AcDbSymbolTableRecord
100
AcDbBlockTableRecord
  2
*D15
340
0
  0
BLOCK_RECORD
  5
27B
330
1
100
AcDbSymbolTableRecord
100
AcDbBlockTableRecord
  2
*D16
340
0
  0
BLOCK_RECORD
  5
2AF
330
1
100
AcDbSymbolTableRecord
100
AcDbBlockTableRecord
  2
*D17
340
0
  0
BLOCK_RECORD
  5
2DF
330
1
100
AcDbSymbolTableRecord
100
AcDbBlockTableRecord
  2
*D18
340
0
  0
BLOCK_RECORD
  5
31D
330
1
100
AcDbSymbolTableRecord
100
AcDbBlockTableRecord
  2
*D19
340
0
  0
BLOCK_RECORD
  5
356
330
1
100
AcDbSymbolTableRecord
100
AcDbBlockTableRecord
  2
*D20
340
0
  0
BLOCK_RECORD
  5
370
330
1
100
AcDbSymbolTableRecord
100
AcDbBlockTableRecord
  2
*D21
340
0
  0
BLOCK_RECORD
  5
386
330
1
100
AcDbSymbolTableRecord
100
AcDbBlockTableRecord
  2
*D22
340
0
  0
BLOCK_RECORD
  5
3C5
330
1
100
AcDbSymbolTableRecord
100
AcDbBlockTableRecord
  2
*D24
340
0
  0
BLOCK_RECORD
  5
3DC
330
1
100
AcDbSymbolTableRecord
100
AcDbBlockTableRecord
  2
*D26
340
0
  0
BLOCK_RECORD
  5
414
330
1
100
AcDbSymbolTableRecord
100
AcDbBlockTableRecord
  2
*D27
340
0
  0
BLOCK_RECORD
  5
43B
330
1
100
AcDbSymbolTableRecord
100
AcDbBlockTableRecord
  2
*D28
340
0
  0
BLOCK_RECORD
  5
451
330
1
100
AcDbSymbolTableRecord
100
AcDbBlockTableRecord
  2
*D29
340
0
  0
ENDTAB
  0
ENDSEC
  0
SECTION
  2
BLOCKS
  0
BLOCK
  5
20
330
1F
100
AcDbEntity
  8
0
100
AcDbBlockBegin
  2
*Model_Space
 70
     0
 10
0.0
 20
0.0
 30
0.0
  3
*Model_Space
  1

  0
ENDBLK
  5
21
330
1F
100
AcDbEntity
  8
0
100
AcDbBlockEnd
  0
BLOCK
  5
5A
330
58
100
AcDbEntity
 67
     1
  8
0
100
AcDbBlockBegin
  2
*Paper_Space
 70
     0
 10
0.0
 20
0.0
 30
0.0
  3
*Paper_Space
  1

  0
ENDBLK
  5
5B
330
58
100
AcDbEntity
 67
     1
  8
0
100
AcDbBlockEnd
  0
BLOCK
  5
5F
330
5D
100
AcDbEntity
  8
0
100
AcDbBlockBegin
  2
*Paper_Space0
 70
     0
 10
0.0
 20
0.0
 30
0.0
  3
*Paper_Space0
  1

  0
ENDBLK
  5
60
330
5D
100
AcDbEntity
  8
0
100
AcDbBlockEnd
  0
BLOCK
  5
D0
330
C5
100
AcDbEntity
  8
0
 48
0.3
100
AcDbBlockBegin
  2
*D1
 70
     1
 10
0.0
 20
0.0
 30
0.0
  3
*D1
  1

  0
LINE
  5
C6
330
C5
100
AcDbEntity
  8
0
 62
     0
 48
0.3
370
    -2
100
AcDbLine
 10
5.756587591894784
 20
2.423262059104895
 30
0.0
 11
5.756587591894784
 21
2.757430745864974
 31
0.0
  0
LINE
  5
C7
330
C5
100
AcDbEntity
  8
0
 62
     0
 48
0.3
370
    -2
100
AcDbLine
 10
5.281587591894782
 20
2.335149914940648
 30
0.0
 11
5.281587591894782
 21
2.757430745864974
 31
0.0
  0
LINE
  5
C8
330
C5
100
AcDbEntity
  8
0
 62
     0
 48
0.3
370
    -2
100
AcDbLine
 10
5.631587591894784
 20
2.577430745864976
 30
0.0
 11
5.406587591894782
 21
2.577430745864976
 31
0.0
  0
LINE
  5
C9
330
C5
100
AcDbEntity
  8
0
 62
     0
 48
0.3
370
    -2
100
AcDbLine
 10
5.281587591894782
 20
2.577430745864976
 30
0.0
 11
5.156587591894782
 21
2.577430745864976
 31
0.0
  0
SOLID
  5
CA
330
C5
100
AcDbEntity
  8
0
 62
     0
 48
0.3
100
AcDbTrace
 10
5.631587591894784
 20
2.59826407919831
 30
0.0
 11
5.631587591894784
 21
2.556597412531643
 31
0.0
 12
5.756587591894784
 22
2.577430745864976
 32
0.0
 13
5.756587591894784
 23
2.577430745864976
 33
0.0
  0
SOLID
  5
CB
330
C5
100
AcDbEntity
  8
0
 62
     0
 48
0.3
100
AcDbTrace
 10
5.406587591894782
 20
2.59826407919831
 30
0.0
 11
5.406587591894782
 21
2.556597412531643
 31
0.0
 12
5.281587591894782
 22
2.577430745864976
 32
0.0
 13
5.281587591894782
 23
2.577430745864976
 33
0.0
  0
MTEXT
  5
CC
330
C5
100
AcDbEntity
  8
0
 62
     0
 48
0.3
100
AcDbMText
 10
4.82700425856145
 20
2.577430745864976
 30
0.0
 40
0.125
 41
0.0
 71
     5
 72
     1
  1
\A1;0.475
 73
     1
 44
1.0
  0
POINT
  5
CD
330
C5
100
AcDbEntity
  8
Defpoints
 62
     0
 48
0.3
100
AcDbPoint
 10
5.756587591894784
 20
2.360762059104895
 30
0.0
  0
POINT
  5
CE
330
C5
100
AcDbEntity
  8
Defpoints
 62
     0
 48
0.3
100
AcDbPoint
 10
5.281587591894782
 20
2.272649914940648
 30
0.0
  0
POINT
  5
CF
330
C5
100
AcDbEntity
  8
Defpoints
 62
     0
 48
0.3
100
AcDbPoint
 10
5.281587591894782
 20
2.577430745864976
 30
0.0
  0
ENDBLK
  5
D1
330
C5
100
AcDbEntity
  8
0
 48
0.3
100
AcDbBlockEnd
  0
BLOCK
  5
100
330
F5
100
AcDbEntity
  8
0
 48
0.3
100
AcDbBlockBegin
  2
*D2
 70
     1
 10
0.0
 20
0.0
 30
0.0
  3
*D2
  1

  0
LINE
  5
3AD
330
F5
100
AcDbEntity
  8
0
 62
     0
 48
0.3
370
    -2
100
AcDbLine
 10
3.866284236114669
 20
2.341645216888541
 30
0.0
 11
3.866284236114669
 21
2.675813903648621
 31
0.0
  0
LINE
  5
3AE
330
F5
100
AcDbEntity
  8
0
 62
     0
 48
0.3
370
    -2
100
AcDbLine
 10
3.391284236114668
 20
2.253533072724294
 30
0.0
 11
3.391284236114668
 21
2.675813903648621
 31
0.0
  0
LINE
  5
3AF
330
F5
100
AcDbEntity
  8
0
 62
     0
 48
0.3
370
    -2
100
AcDbLine
 10
3.741284236114668
 20
2.495813903648621
 30
0.0
 11
3.516284236114668
 21
2.495813903648621
 31
0.0
  0
LINE
  5
3B0
330
F5
100
AcDbEntity
  8
0
 62
     0
 48
0.3
370
    -2
100
AcDbLine
 10
3.391284236114668
 20
2.495813903648621
 30
0.0
 11
3.266284236114668
 21
2.495813903648621
 31
0.0
  0
SOLID
  5
3B1
330
F5
100
AcDbEntity
  8
0
 62
     0
 48
0.3
100
AcDbTrace
 10
3.741284236114668
 20
2.516647236981954
 30
0.0
 11
3.741284236114668
 21
2.474980570315287
 31
0.0
 12
3.866284236114669
 22
2.495813903648621
 32
0.0
 13
3.866284236114669
 23
2.495813903648621
 33
0.0
  0
SOLID
  5
3B2
330
F5
100
AcDbEntity
  8
0
 62
     0
 48
0.3
100
AcDbTrace
 10
3.516284236114668
 20
2.516647236981954
 30
0.0
 11
3.516284236114668
 21
2.474980570315287
 31
0.0
 12
3.391284236114668
 22
2.495813903648621
 32
0.0
 13
3.391284236114668
 23
2.495813903648621
 33
0.0
  0
MTEXT
  5
3B3
330
F5
100
AcDbEntity
  8
0
 62
     0
 48
0.3
100
AcDbMText
 10
2.936700902781335
 20
2.495813903648621
 30
0.0
 40
0.125
 41
0.0
 71
     5
 72
     1
  1
\A1;0.475
 73
     1
 44
1.0
  0
POINT
  5
3B4
330
F5
100
AcDbEntity
  8
Defpoints
 62
     0
 48
0.3
100
AcDbPoint
 10
3.866284236114669
 20
2.279145216888541
 30
0.0
  0
POINT
  5
3B5
330
F5
100
AcDbEntity
  8
Defpoints
 62
     0
 48
0.3
100
AcDbPoint
 10
3.391284236114668
 20
2.191033072724294
 30
0.0
  0
POINT
  5
3B6
330
F5
100
AcDbEntity
  8
Defpoints
 62
     0
 48
0.3
100
AcDbPoint
 10
3.391284236114668
 20
2.495813903648621
 30
0.0
  0
ENDBLK
  5
101
330
F5
100
AcDbEntity
  8
0
 48
0.3
100
AcDbBlockEnd
  0
BLOCK
  5
142
330
139
100
AcDbEntity
  8
0
 48
0.3
100
AcDbBlockBegin
  2
*D3
 70
     1
 10
0.0
 20
0.0
 30
0.0
  3
*D3
  1

  0
LINE
  5
145
330
139
100
AcDbEntity
  8
0
 62
     0
 48
0.3
370
    -2
100
AcDbLine
 10
-0.5329125269945508
 20
4.868638511307428
 30
0.0
 11
-0.4079125269945509
 21
4.868638511307428
 31
0.0
  0
LINE
  5
146
330
139
100
AcDbEntity
  8
0
 62
     0
 48
0.3
370
    -2
100
AcDbLine
 10
-0.4079125269945509
 20
4.868638511307428
 30
0.0
 11
0.0377736637733848
 21
4.175923595361305
 31
0.0
  0
MTEXT
  5
147
330
139
100
AcDbEntity
  8
0
 62
     0
 48
0.3
100
AcDbMText
 10
-0.9354125269945495
 20
4.868638511307428
 30
0.0
 40
0.125
 41
0.0
 71
     5
 72
     1
  1
\A1;\U+22052.357
 73
     1
 44
1.0
  0
SOLID
  5
148
330
139
100
AcDbEntity
  8
0
 62
     0
 48
0.3
100
AcDbTrace
 10
0.0552939635562357
 20
4.187195989663173
 30
0.0
 11
0.0202533639905338
 21
4.164651201059434
 31
0.0
 12
0.1054080295846012
 22
4.070801796664198
 32
0.0
 13
0.1054080295846012
 23
4.070801796664198
 33
0.0
  0
LINE
  5
149
330
139
100
AcDbEntity
  8
0
 62
     0
 48
0.3
370
    -2
100
AcDbLine
 10
0.6530648304527486
 20
3.079713478547898
 30
0.0
 11
0.8330648304527484
 21
3.079713478547898
 31
0.0
  0
LINE
  5
14A
330
139
100
AcDbEntity
  8
0
 62
     0
 48
0.3
370
    -2
100
AcDbLine
 10
0.7430648304527483
 20
2.989713478547896
 30
0.0
 11
0.7430648304527489
 21
3.169713478547896
 31
0.0
  0
POINT
  5
14B
330
139
100
AcDbEntity
  8
Defpoints
 62
     0
 48
0.3
100
AcDbPoint
 10
0.1054080295846012
 20
4.070801796664198
 30
0.0
  0
POINT
  5
14C
330
139
100
AcDbEntity
  8
Defpoints
 62
     0
 48
0.3
100
AcDbPoint
 10
1.380721631320894
 20
2.088625160431593
 30
0.0
  0
ENDBLK
  5
143
330
139
100
AcDbEntity
  8
0
 48
0.3
100
AcDbBlockEnd
  0
BLOCK
  5
15C
330
153
100
AcDbEntity
  8
0
 48
0.3
100
AcDbBlockBegin
  2
*D4
 70
     1
 10
0.0
 20
0.0
 30
0.0
  3
*D4
  1

  0
LINE
  5
15F
330
153
100
AcDbEntity
  8
0
 62
     0
 48
0.3
370
    -2
100
AcDbLine
 10
0.102092480927324
 20
5.331387123885527
 30
0.0
 11
0.2270924809273243
 21
5.331387123885527
 31
0.0
  0
LINE
  5
160
330
153
100
AcDbEntity
  8
0
 62
     0
 48
0.3
370
    -2
100
AcDbLine
 10
0.2270924809273243
 20
5.331387123885527
 30
0.0
 11
0.5169115447257218
 21
4.066633405064162
 31
0.0
  0
MTEXT
  5
161
330
153
100
AcDbEntity
  8
0
 62
     0
 48
0.3
100
AcDbMText
 10
-0.2795741857393422
 20
5.331387123885527
 30
0.0
 40
0.125
 41
0.0
 71
     5
 72
     1
  1
\A1;\U+22051.775
 73
     1
 44
1.0
  0
SOLID
  5
162
330
153
100
AcDbEntity
  8
0
 62
     0
 48
0.3
100
AcDbTrace
 10
0.5372185390984843
 20
4.071286764852783
 30
0.0
 11
0.4966045503529591
 21
4.061980045275538
 31
0.0
 12
0.5448317034574534
 22
3.944791438827586
 32
0.0
 13
0.5448317034574534
 23
3.944791438827586
 33
0.0
  0
LINE
  5
163
330
153
100
AcDbEntity
  8
0
 62
     0
 48
0.3
370
    -2
100
AcDbLine
 10
0.6530648304527479
 20
3.079713478547898
 30
0.0
 11
0.8330648304527477
 21
3.079713478547898
 31
0.0
  0
LINE
  5
164
330
153
100
AcDbEntity
  8
0
 62
     0
 48
0.3
370
    -2
100
AcDbLine
 10
0.7430648304527479
 20
2.989713478547896
 30
0.0
 11
0.7430648304527479
 21
3.169713478547896
 31
0.0
  0
POINT
  5
165
330
153
100
AcDbEntity
  8
Defpoints
 62
     0
 48
0.3
100
AcDbPoint
 10
0.5448317034574534
 20
3.944791438827586
 30
0.0
  0
POINT
  5
166
330
153
100
AcDbEntity
  8
Defpoints
 62
     0
 48
0.3
100
AcDbPoint
 10
0.9412979574480424
 20
2.214635518268209
 30
0.0
  0
ENDBLK
  5
15D
330
153
100
AcDbEntity
  8
0
 48
0.3
100
AcDbBlockEnd
  0
BLOCK
  5
172
330
169
100
AcDbEntity
  8
0
 48
0.3
100
AcDbBlockBegin
  2
*D5
 70
     1
 10
0.0
 20
0.0
 30
0.0
  3
*D5
  1

  0
LINE
  5
175
330
169
100
AcDbEntity
  8
0
 62
     0
 48
0.3
370
    -2
100
AcDbLine
 10
1.325755492268477
 20
5.136878071870721
 30
0.0
 11
1.200755492268477
 21
5.136878071870726
 31
0.0
  0
LINE
  5
176
330
169
100
AcDbEntity
  8
0
 62
     0
 48
0.3
370
    -2
100
AcDbLine
 10
1.200755492268477
 20
5.136878071870726
 30
0.0
 11
0.9440611906837508
 21
3.983124079091134
 31
0.0
  0
MTEXT
  5
177
330
169
100
AcDbEntity
  8
0
 62
     0
 48
0.3
100
AcDbMText
 10
1.676172158935143
 20
5.136878071870721
 30
0.0
 40
0.125
 41
0.0
 71
     5
 72
     1
  1
\A1;\U+22051.601
 73
     1
 44
1.0
  0
SOLID
  5
178
330
169
100
AcDbEntity
  8
0
 62
     0
 48
0.3
100
AcDbTrace
 10
0.9237250975686952
 20
3.987648578466044
 30
0.0
 11
0.9643972837988066
 21
3.978599579716221
 31
0.0
 12
0.9169141944342907
 22
3.861107520400798
 32
0.0
 13
0.9169141944342907
 23
3.861107520400798
 33
0.0
  0
LINE
  5
179
330
169
100
AcDbEntity
  8
0
 62
     0
 48
0.3
370
    -2
100
AcDbLine
 10
0.6530648304527482
 20
3.079713478547898
 30
0.0
 11
0.8330648304527482
 21
3.079713478547898
 31
0.0
  0
LINE
  5
17A
330
169
100
AcDbEntity
  8
0
 62
     0
 48
0.3
370
    -2
100
AcDbLine
 10
0.7430648304527482
 20
2.989713478547896
 30
0.0
 11
0.7430648304527482
 21
3.169713478547896
 31
0.0
  0
POINT
  5
17B
330
169
100
AcDbEntity
  8
Defpoints
 62
     0
 48
0.3
100
AcDbPoint
 10
0.9169141944342907
 20
3.861107520400798
 30
0.0
  0
POINT
  5
17C
330
169
100
AcDbEntity
  8
Defpoints
 62
     0
 48
0.3
100
AcDbPoint
 10
0.5692154664712057
 20
2.298319436694995
 30
0.0
  0
ENDBLK
  5
173
330
169
100
AcDbEntity
  8
0
 48
0.3
100
AcDbBlockEnd
  0
BLOCK
  5
188
330
17F
100
AcDbEntity
  8
0
 48
0.3
100
AcDbBlockBegin
  2
*D6
 70
     1
 10
0.0
 20
0.0
 30
0.0
  3
*D6
  1

  0
LINE
  5
18B
330
17F
100
AcDbEntity
  8
0
 62
     0
 48
0.3
370
    -2
100
AcDbLine
 10
1.795404677135253
 20
4.667768036402376
 30
0.0
 11
1.670404677135253
 21
4.667768036402377
 31
0.0
  0
LINE
  5
18C
330
17F
100
AcDbEntity
  8
0
 62
     0
 48
0.3
370
    -2
100
AcDbLine
 10
1.670404677135253
 20
4.667768036402377
 30
0.0
 11
1.171943423226218
 21
3.814161163996391
 31
0.0
  0
MTEXT
  5
18D
330
17F
100
AcDbEntity
  8
0
 62
     0
 48
0.3
100
AcDbMText
 10
2.156238010468583
 20
4.667768036402375
 30
0.0
 40
0.125
 41
0.0
 71
     5
 72
     1
  1
\A1;\U+22051.451
 73
     1
 44
1.0
  0
SOLID
  5
18E
330
17F
100
AcDbEntity
  8
0
 62
     0
 48
0.3
100
AcDbTrace
 10
1.153952837162909
 20
3.824666714475851
 30
0.0
 11
1.189934009289524
 21
3.80365561351693
 31
0.0
 12
1.108910120349459
 22
3.70621764761654
 32
0.0
 13
1.108910120349459
 23
3.70621764761654
 33
0.0
  0
LINE
  5
18F
330
17F
100
AcDbEntity
  8
0
 62
     0
 48
0.3
370
    -2
100
AcDbLine
 10
0.6530648304527481
 20
3.079713478547898
 30
0.0
 11
0.8330648304527482
 21
3.079713478547898
 31
0.0
  0
LINE
  5
190
330
17F
100
AcDbEntity
  8
0
 62
     0
 48
0.3
370
    -2
100
AcDbLine
 10
0.7430648304527482
 20
2.989713478547896
 30
0.0
 11
0.7430648304527483
 21
3.169713478547896
 31
0.0
  0
POINT
  5
191
330
17F
100
AcDbEntity
  8
Defpoints
 62
     0
 48
0.3
100
AcDbPoint
 10
1.108910120349459
 20
3.70621764761654
 30
0.0
  0
POINT
  5
192
330
17F
100
AcDbEntity
  8
Defpoints
 62
     0
 48
0.3
100
AcDbPoint
 10
0.3772195405560371
 20
2.453209309479253
 30
0.0
  0
ENDBLK
  5
189
330
17F
100
AcDbEntity
  8
0
 48
0.3
100
AcDbBlockEnd
  0
BLOCK
  5
19E
330
195
100
AcDbEntity
  8
0
 48
0.3
100
AcDbBlockBegin
  2
*D7
 70
     1
 10
0.0
 20
0.0
 30
0.0
  3
*D7
  1

  0
LINE
  5
1A1
330
195
100
AcDbEntity
  8
0
 62
     0
 48
0.3
370
    -2
100
AcDbLine
 10
2.035956694024434
 20
4.232983108587504
 30
0.0
 11
1.910956694024434
 21
4.232983108587504
 31
0.0
  0
LINE
  5
1A2
330
195
100
AcDbEntity
  8
0
 62
     0
 48
0.3
370
    -2
100
AcDbLine
 10
1.910956694024434
 20
4.232983108587504
 30
0.0
 11
1.258936481796691
 21
3.589126316371674
 31
0.0
  0
MTEXT
  5
1A3
330
195
100
AcDbEntity
  8
0
 62
     0
 48
0.3
100
AcDbMText
 10
2.396790027357768
 20
4.232983108587504
 30
0.0
 40
0.125
 41
0.0
 71
     5
 72
     1
  1
\A1;\U+22051.200
 73
     1
 44
1.0
  0
SOLID
  5
1A4
330
195
100
AcDbEntity
  8
0
 62
     0
 48
0.3
100
AcDbTrace
 10
1.244298181859227
 20
3.603950214398798
 30
0.0
 11
1.273574781734156
 21
3.574302418344549
 31
0.0
 12
1.169993093633942
 22
3.501296516746883
 32
0.0
 13
1.169993093633942
 23
3.501296516746883
 33
0.0
  0
LINE
  5
1A5
330
195
100
AcDbEntity
  8
0
 62
     0
 48
0.3
370
    -2
100
AcDbLine
 10
0.6530648304527482
 20
3.079713478547898
 30
0.0
 11
0.8330648304527482
 21
3.079713478547898
 31
0.0
  0
LINE
  5
1A6
330
195
100
AcDbEntity
  8
0
 62
     0
 48
0.3
370
    -2
100
AcDbLine
 10
0.7430648304527483
 20
2.989713478547896
 30
0.0
 11
0.7430648304527481
 21
3.169713478547896
 31
0.0
  0
POINT
  5
1A7
330
195
100
AcDbEntity
  8
Defpoints
 62
     0
 48
0.3
100
AcDbPoint
 10
1.169993093633942
 20
3.501296516746883
 30
0.0
  0
POINT
  5
1A8
330
195
100
AcDbEntity
  8
Defpoints
 62
     0
 48
0.3
100
AcDbPoint
 10
0.3161365672715533
 20
2.65813044034891
 30
0.0
  0
ENDBLK
  5
19F
330
195
100
AcDbEntity
  8
0
 48
0.3
100
AcDbBlockEnd
  0
BLOCK
  5
1B4
330
1AB
100
AcDbEntity
  8
0
 48
0.3
100
AcDbBlockBegin
  2
*D8
 70
     1
 10
0.0
 20
0.0
 30
0.0
  3
*D8
  1

  0
LINE
  5
1B7
330
1AB
100
AcDbEntity
  8
0
 62
     0
 48
0.3
370
    -2
100
AcDbLine
 10
7.339556293989355
 20
5.205528327919592
 30
0.0
 11
7.214556293989355
 21
5.205528327919592
 31
0.0
  0
LINE
  5
1B8
330
1AB
100
AcDbEntity
  8
0
 62
     0
 48
0.3
370
    -2
100
AcDbLine
 10
7.214556293989355
 20
5.205528327919592
 30
0.0
 11
7.102574529937647
 21
4.371617410070156
 31
0.0
  0
MTEXT
  5
1B9
330
1AB
100
AcDbEntity
  8
0
 62
     0
 48
0.3
100
AcDbMText
 10
7.742056293989355
 20
5.205528327919592
 30
0.0
 40
0.125
 41
0.0
 71
     5
 72
     1
  1
\A1;\U+22052.357
 73
     1
 44
1.0
  0
SOLID
  5
1BA
330
1AB
100
AcDbEntity
  8
0
 62
     0
 48
0.3
100
AcDbTrace
 10
7.081926532054986
 20
4.374390127368306
 30
0.0
 11
7.123222527820308
 21
4.368844692772007
 31
0.0
 12
7.085938226148754
 22
4.247729422774196
 32
0.0
 13
7.085938226148754
 23
4.247729422774196
 33
0.0
  0
LINE
  5
1BB
330
1AB
100
AcDbEntity
  8
0
 62
     0
 48
0.3
370
    -2
100
AcDbLine
 10
6.83909115402708
 20
3.079713478547896
 30
0.0
 11
7.01909115402708
 21
3.079713478547896
 31
0.0
  0
LINE
  5
1BC
330
1AB
100
AcDbEntity
  8
0
 62
     0
 48
0.3
370
    -2
100
AcDbLine
 10
6.92909115402708
 20
2.989713478547896
 30
0.0
 11
6.92909115402708
 21
3.169713478547896
 31
0.0
  0
POINT
  5
1BD
330
1AB
100
AcDbEntity
  8
Defpoints
 62
     0
 48
0.3
100
AcDbPoint
 10
7.085938226148754
 20
4.247729422774196
 30
0.0
  0
POINT
  5
1BE
330
1AB
100
AcDbEntity
  8
Defpoints
 62
     0
 48
0.3
100
AcDbPoint
 10
6.77224408190541
 20
1.911697534321596
 30
0.0
  0
ENDBLK
  5
1B5
330
1AB
100
AcDbEntity
  8
0
 48
0.3
100
AcDbBlockEnd
  0
BLOCK
  5
1CA
330
1C1
100
AcDbEntity
  8
0
 48
0.3
100
AcDbBlockBegin
  2
*D9
 70
     1
 10
0.0
 20
0.0
 30
0.0
  3
*D9
  1

  0
LINE
  5
1CD
330
1C1
100
AcDbEntity
  8
0
 62
     0
 48
0.3
370
    -2
100
AcDbLine
 10
7.718816257420762
 20
4.644999964882948
 30
0.0
 11
7.593816257420762
 21
4.644999964882948
 31
0.0
  0
LINE
  5
1CE
330
1C1
100
AcDbEntity
  8
0
 62
     0
 48
0.3
370
    -2
100
AcDbLine
 10
7.593816257420762
 20
4.644999964882948
 30
0.0
 11
7.270330096754148
 21
3.883258737986666
 31
0.0
  0
MTEXT
  5
1CF
330
1C1
100
AcDbEntity
  8
0
 62
     0
 48
0.3
100
AcDbMText
 10
8.10048292408743
 20
4.644999964882948
 30
0.0
 40
0.125
 41
0.0
 71
     5
 72
     1
  1
\A1;\U+22051.496
 73
     1
 44
1.0
  0
SOLID
  5
1D0
330
1C1
100
AcDbEntity
  8
0
 62
     0
 48
0.3
100
AcDbTrace
 10
7.251154236229169
 20
3.891402088089926
 30
0.0
 11
7.289505957279128
 21
3.875115387883403
 31
0.0
 12
7.221469996134581
 22
3.768203574836785
 32
0.0
 13
7.221469996134581
 23
3.768203574836785
 33
0.0
  0
LINE
  5
1D1
330
1C1
100
AcDbEntity
  8
0
 62
     0
 48
0.3
370
    -2
100
AcDbLine
 10
6.839091154027087
 20
3.079713478547899
 30
0.0
 11
7.019091154027086
 21
3.079713478547899
 31
0.0
  0
LINE
  5
1D2
330
1C1
100
AcDbEntity
  8
0
 62
     0
 48
0.3
370
    -2
100
AcDbLine
 10
6.929091154027087
 20
2.989713478547899
 30
0.0
 11
6.929091154027087
 21
3.169713478547899
 31
0.0
  0
POINT
  5
1D3
330
1C1
100
AcDbEntity
  8
Defpoints
 62
     0
 48
0.3
100
AcDbPoint
 10
7.221469996134581
 20
3.768203574836785
 30
0.0
  0
POINT
  5
1D4
330
1C1
100
AcDbEntity
  8
Defpoints
 62
     0
 48
0.3
100
AcDbPoint
 10
6.636712311919588
 20
2.39122338225901
 30
0.0
  0
ENDBLK
  5
1CB
330
1C1
100
AcDbEntity
  8
0
 48
0.3
100
AcDbBlockEnd
  0
BLOCK
  5
1E0
330
1D7
100
AcDbEntity
  8
0
 48
0.3
100
AcDbBlockBegin
  2
*D10
 70
     1
 10
0.0
 20
0.0
 30
0.0
  3
*D10
  1

  0
LINE
  5
304
330
1D7
100
AcDbEntity
  8
0
 62
     0
 48
0.3
370
    -2
100
AcDbLine
 10
8.085371754646747
 20
4.141564781019209
 30
0.0
 11
7.960371754646747
 21
4.141564781019209
 31
0.0
  0
LINE
  5
305
330
1D7
100
AcDbEntity
  8
0
 62
     0
 48
0.3
370
    -2
100
AcDbLine
 10
7.960371754646747
 20
4.141564781019209
 30
0.0
 11
7.5216387650434
 21
3.689826237535001
 31
0.0
  0
MTEXT
  5
306
330
1D7
100
AcDbEntity
  8
0
 62
     0
 48
0.3
100
AcDbMText
 10
8.456621754646747
 20
4.141564781019209
 30
0.0
 40
0.125
 41
0.0
 71
     5
 72
     1
  1
\A1;%%c1.450
 73
     1
 44
1.0
  0
SOLID
  5
307
330
1D7
100
AcDbEntity
  8
0
 62
     0
 48
0.3
100
AcDbTrace
 10
7.506693812099368
 20
3.704340925243612
 30
0.0
 11
7.536583717987431
 21
3.675311549826391
 31
0.0
 12
7.434550638791737
 22
3.600156519870818
 32
0.0
 13
7.434550638791737
 23
3.600156519870818
 33
0.0
  0
LINE
  5
308
330
1D7
100
AcDbEntity
  8
0
 62
     0
 48
0.3
370
    -2
100
AcDbLine
 10
6.83909115402708
 20
3.079713478547896
 30
0.0
 11
7.01909115402708
 21
3.079713478547896
 31
0.0
  0
LINE
  5
309
330
1D7
100
AcDbEntity
  8
0
 62
     0
 48
0.3
370
    -2
100
AcDbLine
 10
6.92909115402708
 20
2.989713478547896
 30
0.0
 11
6.929091154027079
 21
3.169713478547896
 31
0.0
  0
POINT
  5
30A
330
1D7
100
AcDbEntity
  8
Defpoints
 62
     0
 48
0.3
100
AcDbPoint
 10
7.434550638791737
 20
3.600156519870818
 30
0.0
  0
POINT
  5
30B
330
1D7
100
AcDbEntity
  8
Defpoints
 62
     0
 48
0.3
100
AcDbPoint
 10
6.423631669262424
 20
2.559270437224975
 30
0.0
  0
ENDBLK
  5
1E1
330
1D7
100
AcDbEntity
  8
0
 48
0.3
100
AcDbBlockEnd
  0
BLOCK
  5
206
330
1FD
100
AcDbEntity
  8
0
 48
0.3
100
AcDbBlockBegin
  2
*D11
 70
     1
 10
0.0
 20
0.0
 30
0.0
  3
*D11
  1

  0
LINE
  5
209
330
1FD
100
AcDbEntity
  8
0
 62
     0
 48
0.3
370
    -2
100
AcDbLine
 10
8.222830036458727
 20
3.752546697360563
 30
0.0
 11
8.097830036458727
 21
3.752546697360563
 31
0.0
  0
LINE
  5
20A
330
1FD
100
AcDbEntity
  8
0
 62
     0
 48
0.3
370
    -2
100
AcDbLine
 10
8.097830036458727
 20
3.752546697360563
 30
0.0
 11
7.557410345379826
 21
3.441431592246713
 31
0.0
  0
MTEXT
  5
20B
330
1FD
100
AcDbEntity
  8
0
 62
     0
 48
0.3
100
AcDbMText
 10
8.583663369792061
 20
3.752546697360563
 30
0.0
 40
0.125
 41
0.0
 71
     5
 72
     1
  1
\A1;\U+22051.200
 73
     1
 44
1.0
  0
SOLID
  5
20C
330
1FD
100
AcDbEntity
  8
0
 62
     0
 48
0.3
100
AcDbTrace
 10
7.54701614671032
 20
3.459486741423516
 30
0.0
 11
7.567804544049334
 21
3.423376443069911
 31
0.0
 12
7.449079450319007
 22
3.379066400229676
 32
0.0
 13
7.449079450319007
 23
3.379066400229676
 33
0.0
  0
LINE
  5
20D
330
1FD
100
AcDbEntity
  8
0
 62
     0
 48
0.3
370
    -2
100
AcDbLine
 10
6.83909115402708
 20
3.079713478547898
 30
0.0
 11
7.019091154027082
 21
3.079713478547896
 31
0.0
  0
LINE
  5
20E
330
1FD
100
AcDbEntity
  8
0
 62
     0
 48
0.3
370
    -2
100
AcDbLine
 10
6.92909115402708
 20
2.989713478547896
 30
0.0
 11
6.92909115402708
 21
3.169713478547896
 31
0.0
  0
POINT
  5
20F
330
1FD
100
AcDbEntity
  8
Defpoints
 62
     0
 48
0.3
100
AcDbPoint
 10
7.449079450319007
 20
3.379066400229676
 30
0.0
  0
POINT
  5
210
330
1FD
100
AcDbEntity
  8
Defpoints
 62
     0
 48
0.3
100
AcDbPoint
 10
6.409102857735155
 20
2.780360556866118
 30
0.0
  0
ENDBLK
  5
207
330
1FD
100
AcDbEntity
  8
0
 48
0.3
100
AcDbBlockEnd
  0
BLOCK
  5
21E
330
213
100
AcDbEntity
  8
0
 48
0.3
100
AcDbBlockBegin
  2
*D12
 70
     1
 10
0.0
 20
0.0
 30
0.0
  3
*D12
  1

  0
LINE
  5
221
330
213
100
AcDbEntity
  8
0
 62
     0
 48
0.3
370
    -2
100
AcDbLine
 10
3.391284236114668
 20
1.838713478547898
 30
0.0
 11
3.391284236114668
 21
-0.1677205400779163
 31
0.0
  0
LINE
  5
222
330
213
100
AcDbEntity
  8
0
 62
     0
 48
0.3
370
    -2
100
AcDbLine
 10
4.887284236114668
 20
2.291713478547895
 30
0.0
 11
4.887284236114668
 21
-0.1677205400779163
 31
0.0
  0
LINE
  5
223
330
213
100
AcDbEntity
  8
0
 62
     0
 48
0.3
370
    -2
100
AcDbLine
 10
3.516284236114668
 20
0.0122794599220839
 30
0.0
 11
3.820117569448001
 21
0.0122794599220839
 31
0.0
  0
LINE
  5
224
330
213
100
AcDbEntity
  8
0
 62
     0
 48
0.3
370
    -2
100
AcDbLine
 10
4.762284236114668
 20
0.0122794599220839
 30
0.0
 11
4.458450902781335
 21
0.0122794599220839
 31
0.0
  0
SOLID
  5
225
330
213
100
AcDbEntity
  8
0
 62
     0
 48
0.3
100
AcDbTrace
 10
3.516284236114668
 20
0.0331127932554172
 30
0.0
 11
3.516284236114668
 21
-0.0085538734112494
 31
0.0
 12
3.391284236114668
 22
0.0122794599220839
 32
0.0
 13
3.391284236114668
 23
0.0122794599220839
 33
0.0
  0
SOLID
  5
226
330
213
100
AcDbEntity
  8
0
 62
     0
 48
0.3
100
AcDbTrace
 10
4.762284236114668
 20
0.0331127932554172
 30
0.0
 11
4.762284236114668
 21
-0.0085538734112494
 31
0.0
 12
4.887284236114668
 22
0.0122794599220839
 32
0.0
 13
4.887284236114668
 23
0.0122794599220839
 33
0.0
  0
MTEXT
  5
227
330
213
100
AcDbEntity
  8
0
 62
     0
 48
0.3
100
AcDbMText
 10
4.139284236114669
 20
0.0122794599220839
 30
0.0
 40
0.125
 41
0.0
 71
     5
 72
     1
  1
\A1;1.496
 73
     1
 44
1.0
  0
POINT
  5
228
330
213
100
AcDbEntity
  8
Defpoints
 62
     0
 48
0.3
100
AcDbPoint
 10
3.391284236114668
 20
1.901213478547898
 30
0.0
  0
POINT
  5
229
330
213
100
AcDbEntity
  8
Defpoints
 62
     0
 48
0.3
100
AcDbPoint
 10
4.887284236114668
 20
2.354213478547895
 30
0.0
  0
POINT
  5
22A
330
213
100
AcDbEntity
  8
Defpoints
 62
     0
 48
0.3
100
AcDbPoint
 10
4.887284236114668
 20
0.0122794599220839
 30
0.0
  0
ENDBLK
  5
21F
330
213
100
AcDbEntity
  8
0
 48
0.3
100
AcDbBlockEnd
  0
BLOCK
  5
238
330
22D
100
AcDbEntity
  8
0
 48
0.3
100
AcDbBlockBegin
  2
*D13
 70
     1
 10
0.0
 20
0.0
 30
0.0
  3
*D13
  1

  0
LINE
  5
23B
330
22D
100
AcDbEntity
  8
0
 62
     0
 48
0.3
370
    -2
100
AcDbLine
 10
4.391284236114668
 20
1.838713478547898
 30
0.0
 11
4.391284236114668
 21
0.4820533228641219
 31
0.0
  0
LINE
  5
23C
330
22D
100
AcDbEntity
  8
0
 62
     0
 48
0.3
370
    -2
100
AcDbLine
 10
3.391284236114668
 20
1.838713478547898
 30
0.0
 11
3.391284236114668
 21
0.4820533228641219
 31
0.0
  0
LINE
  5
23D
330
22D
100
AcDbEntity
  8
0
 62
     0
 48
0.3
370
    -2
100
AcDbLine
 10
4.516284236114668
 20
0.6620533228641219
 30
0.0
 11
4.641284236114668
 21
0.6620533228641219
 31
0.0
  0
LINE
  5
23E
330
22D
100
AcDbEntity
  8
0
 62
     0
 48
0.3
370
    -2
100
AcDbLine
 10
3.266284236114668
 20
0.6620533228641219
 30
0.0
 11
3.141284236114668
 21
0.6620533228641219
 31
0.0
  0
SOLID
  5
23F
330
22D
100
AcDbEntity
  8
0
 62
     0
 48
0.3
100
AcDbTrace
 10
4.516284236114668
 20
0.6828866561974553
 30
0.0
 11
4.516284236114668
 21
0.6412199895307885
 31
0.0
 12
4.391284236114668
 22
0.6620533228641219
 32
0.0
 13
4.391284236114668
 23
0.6620533228641219
 33
0.0
  0
SOLID
  5
240
330
22D
100
AcDbEntity
  8
0
 62
     0
 48
0.3
100
AcDbTrace
 10
3.266284236114668
 20
0.6828866561974553
 30
0.0
 11
3.266284236114668
 21
0.6412199895307885
 31
0.0
 12
3.391284236114668
 22
0.6620533228641219
 32
0.0
 13
3.391284236114668
 23
0.6620533228641219
 33
0.0
  0
MTEXT
  5
241
330
22D
100
AcDbEntity
  8
0
 62
     0
 48
0.3
100
AcDbMText
 10
3.891284236114668
 20
0.6620533228641219
 30
0.0
 40
0.125
 41
0.0
 71
     5
 72
     1
  1
\A1;1.000
 73
     1
 44
1.0
  0
POINT
  5
242
330
22D
100
AcDbEntity
  8
Defpoints
 62
     0
 48
0.3
100
AcDbPoint
 10
4.391284236114668
 20
1.901213478547898
 30
0.0
  0
POINT
  5
243
330
22D
100
AcDbEntity
  8
Defpoints
 62
     0
 48
0.3
100
AcDbPoint
 10
3.391284236114668
 20
1.901213478547898
 30
0.0
  0
POINT
  5
244
330
22D
100
AcDbEntity
  8
Defpoints
 62
     0
 48
0.3
100
AcDbPoint
 10
3.391284236114668
 20
0.6620533228641219
 30
0.0
  0
ENDBLK
  5
239
330
22D
100
AcDbEntity
  8
0
 48
0.3
100
AcDbBlockEnd
  0
BLOCK
  5
252
330
247
100
AcDbEntity
  8
0
 48
0.3
100
AcDbBlockBegin
  2
*D14
 70
     1
 10
0.0
 20
0.0
 30
0.0
  3
*D14
  1

  0
LINE
  5
255
330
247
100
AcDbEntity
  8
0
 62
     0
 48
0.3
370
    -2
100
AcDbLine
 10
4.687284236114669
 20
2.229213478547894
 30
0.0
 11
4.687284236114669
 21
1.117387801486644
 31
0.0
  0
LINE
  5
256
330
247
100
AcDbEntity
  8
0
 62
     0
 48
0.3
370
    -2
100
AcDbLine
 10
4.887284236114668
 20
2.291713478547895
 30
0.0
 11
4.887284236114668
 21
1.117387801486644
 31
0.0
  0
LINE
  5
257
330
247
100
AcDbEntity
  8
0
 62
     0
 48
0.3
370
    -2
100
AcDbLine
 10
4.562284236114669
 20
1.297387801486646
 30
0.0
 11
4.437284236114669
 21
1.297387801486646
 31
0.0
  0
LINE
  5
258
330
247
100
AcDbEntity
  8
0
 62
     0
 48
0.3
370
    -2
100
AcDbLine
 10
5.012284236114668
 20
1.297387801486646
 30
0.0
 11
5.137284236114668
 21
1.297387801486646
 31
0.0
  0
SOLID
  5
259
330
247
100
AcDbEntity
  8
0
 62
     0
 48
0.3
100
AcDbTrace
 10
4.562284236114669
 20
1.318221134819979
 30
0.0
 11
4.562284236114669
 21
1.276554468153312
 31
0.0
 12
4.687284236114669
 22
1.297387801486646
 32
0.0
 13
4.687284236114669
 23
1.297387801486646
 33
0.0
  0
SOLID
  5
25A
330
247
100
AcDbEntity
  8
0
 62
     0
 48
0.3
100
AcDbTrace
 10
5.012284236114668
 20
1.318221134819979
 30
0.0
 11
5.012284236114668
 21
1.276554468153312
 31
0.0
 12
4.887284236114668
 22
1.297387801486646
 32
0.0
 13
4.887284236114668
 23
1.297387801486646
 33
0.0
  0
MTEXT
  5
25B
330
247
100
AcDbEntity
  8
0
 62
     0
 48
0.3
100
AcDbMText
 10
5.446034236114669
 20
1.297387801486646
 30
0.0
 40
0.125
 41
0.0
 71
     5
 72
     1
  1
\A1;0.200
 73
     1
 44
1.0
  0
POINT
  5
25C
330
247
100
AcDbEntity
  8
Defpoints
 62
     0
 48
0.3
100
AcDbPoint
 10
4.687284236114669
 20
2.291713478547894
 30
0.0
  0
POINT
  5
25D
330
247
100
AcDbEntity
  8
Defpoints
 62
     0
 48
0.3
100
AcDbPoint
 10
4.887284236114668
 20
2.354213478547895
 30
0.0
  0
POINT
  5
25E
330
247
100
AcDbEntity
  8
Defpoints
 62
     0
 48
0.3
100
AcDbPoint
 10
4.887284236114668
 20
1.297387801486646
 30
0.0
  0
ENDBLK
  5
253
330
247
100
AcDbEntity
  8
0
 48
0.3
100
AcDbBlockEnd
  0
BLOCK
  5
26C
330
261
100
AcDbEntity
  8
0
 48
0.3
100
AcDbBlockBegin
  2
*D15
 70
     1
 10
0.0
 20
0.0
 30
0.0
  3
*D15
  1

  0
LINE
  5
26F
330
261
100
AcDbEntity
  8
0
 62
     0
 48
0.3
370
    -2
100
AcDbLine
 10
3.391284236114668
 20
4.320713478547896
 30
0.0
 11
3.391284236114668
 21
4.755136047803546
 31
0.0
  0
LINE
  5
270
330
261
100
AcDbEntity
  8
0
 62
     0
 48
0.3
370
    -2
100
AcDbLine
 10
3.501284236114668
 20
4.028533072724294
 30
0.0
 11
3.501284236114668
 21
4.755136047803546
 31
0.0
  0
LINE
  5
271
330
261
100
AcDbEntity
  8
0
 62
     0
 48
0.3
370
    -2
100
AcDbLine
 10
3.266284236114668
 20
4.575136047803546
 30
0.0
 11
3.141284236114668
 21
4.575136047803546
 31
0.0
  0
LINE
  5
272
330
261
100
AcDbEntity
  8
0
 62
     0
 48
0.3
370
    -2
100
AcDbLine
 10
3.626284236114668
 20
4.575136047803546
 30
0.0
 11
3.751284236114668
 21
4.575136047803546
 31
0.0
  0
SOLID
  5
273
330
261
100
AcDbEntity
  8
0
 62
     0
 48
0.3
100
AcDbTrace
 10
3.266284236114668
 20
4.595969381136876
 30
0.0
 11
3.266284236114668
 21
4.55430271447021
 31
0.0
 12
3.391284236114668
 22
4.575136047803546
 32
0.0
 13
3.391284236114668
 23
4.575136047803546
 33
0.0
  0
SOLID
  5
274
330
261
100
AcDbEntity
  8
0
 62
     0
 48
0.3
100
AcDbTrace
 10
3.626284236114668
 20
4.595969381136876
 30
0.0
 11
3.626284236114668
 21
4.55430271447021
 31
0.0
 12
3.501284236114668
 22
4.575136047803546
 32
0.0
 13
3.501284236114668
 23
4.575136047803546
 33
0.0
  0
MTEXT
  5
275
330
261
100
AcDbEntity
  8
0
 62
     0
 48
0.3
100
AcDbMText
 10
4.028784236114669
 20
4.575136047803546
 30
0.0
 40
0.125
 41
0.0
 71
     5
 72
     1
  1
\A1;0.110
 73
     1
 44
1.0
  0
POINT
  5
276
330
261
100
AcDbEntity
  8
Defpoints
 62
     0
 48
0.3
100
AcDbPoint
 10
3.391284236114668
 20
4.258213478547896
 30
0.0
  0
POINT
  5
277
330
261
100
AcDbEntity
  8
Defpoints
 62
     0
 48
0.3
100
AcDbPoint
 10
3.501284236114668
 20
3.966033072724292
 30
0.0
  0
POINT
  5
278
330
261
100
AcDbEntity
  8
Defpoints
 62
     0
 48
0.3
100
AcDbPoint
 10
3.501284236114668
 20
4.575136047803546
 30
0.0
  0
ENDBLK
  5
26D
330
261
100
AcDbEntity
  8
0
 48
0.3
100
AcDbBlockEnd
  0
BLOCK
  5
286
330
27B
100
AcDbEntity
  8
0
 48
0.3
100
AcDbBlockBegin
  2
*D16
 70
     1
 10
0.0
 20
0.0
 30
0.0
  3
*D16
  1

  0
LINE
  5
289
330
27B
100
AcDbEntity
  8
0
 62
     0
 48
0.3
370
    -2
100
AcDbLine
 10
3.673284236114668
 20
3.142213478547898
 30
0.0
 11
3.673284236114668
 21
5.664819480367548
 31
0.0
  0
LINE
  5
28A
330
27B
100
AcDbEntity
  8
0
 62
     0
 48
0.3
370
    -2
100
AcDbLine
 10
3.391284236114668
 20
3.142213478547898
 30
0.0
 11
3.391284236114668
 21
5.664819480367548
 31
0.0
  0
LINE
  5
28B
330
27B
100
AcDbEntity
  8
0
 62
     0
 48
0.3
370
    -2
100
AcDbLine
 10
3.798284236114668
 20
5.48481948036755
 30
0.0
 11
3.923284236114668
 21
5.48481948036755
 31
0.0
  0
LINE
  5
28C
330
27B
100
AcDbEntity
  8
0
 62
     0
 48
0.3
370
    -2
100
AcDbLine
 10
3.266284236114668
 20
5.48481948036755
 30
0.0
 11
3.141284236114668
 21
5.48481948036755
 31
0.0
  0
SOLID
  5
28D
330
27B
100
AcDbEntity
  8
0
 62
     0
 48
0.3
100
AcDbTrace
 10
3.798284236114668
 20
5.505652813700883
 30
0.0
 11
3.798284236114668
 21
5.463986147034217
 31
0.0
 12
3.673284236114668
 22
5.48481948036755
 32
0.0
 13
3.673284236114668
 23
5.48481948036755
 33
0.0
  0
SOLID
  5
28E
330
27B
100
AcDbEntity
  8
0
 62
     0
 48
0.3
100
AcDbTrace
 10
3.266284236114668
 20
5.505652813700883
 30
0.0
 11
3.266284236114668
 21
5.463986147034217
 31
0.0
 12
3.391284236114668
 22
5.48481948036755
 32
0.0
 13
3.391284236114668
 23
5.48481948036755
 33
0.0
  0
MTEXT
  5
28F
330
27B
100
AcDbEntity
  8
0
 62
     0
 48
0.3
100
AcDbMText
 10
2.811700902781332
 20
5.48481948036755
 30
0.0
 40
0.125
 41
0.0
 71
     5
 72
     1
  1
\A1;0.282
 73
     1
 44
1.0
  0
POINT
  5
290
330
27B
100
AcDbEntity
  8
Defpoints
 62
     0
 48
0.3
100
AcDbPoint
 10
3.673284236114668
 20
3.079713478547898
 30
0.0
  0
POINT
  5
291
330
27B
100
AcDbEntity
  8
Defpoints
 62
     0
 48
0.3
100
AcDbPoint
 10
3.391284236114668
 20
3.079713478547898
 30
0.0
  0
POINT
  5
292
330
27B
100
AcDbEntity
  8
Defpoints
 62
     0
 48
0.3
100
AcDbPoint
 10
3.391284236114668
 20
5.48481948036755
 30
0.0
  0
ENDBLK
  5
287
330
27B
100
AcDbEntity
  8
0
 48
0.3
100
AcDbBlockEnd
  0
BLOCK
  5
2BA
330
2AF
100
AcDbEntity
  8
0
 48
0.3
100
AcDbBlockBegin
  2
*D17
 70
     1
 10
0.0
 20
0.0
 30
0.0
  3
*D17
  1

  0
LINE
  5
3A3
330
2AF
100
AcDbEntity
  8
0
 62
     0
 48
0.3
370
    -2
100
AcDbLine
 10
4.246284236114668
 20
2.291713478547893
 30
0.0
 11
4.246284236114668
 21
1.305100245801443
 31
0.0
  0
LINE
  5
3A4
330
2AF
100
AcDbEntity
  8
0
 62
     0
 48
0.3
370
    -2
100
AcDbLine
 10
3.391284236114668
 20
2.191033072724294
 30
0.0
 11
3.391284236114668
 21
1.305100245801443
 31
0.0
  0
LINE
  5
3A5
330
2AF
100
AcDbEntity
  8
0
 62
     0
 48
0.3
370
    -2
100
AcDbLine
 10
4.371284236114668
 20
1.485100245801443
 30
0.0
 11
4.496284236114668
 21
1.485100245801443
 31
0.0
  0
LINE
  5
3A6
330
2AF
100
AcDbEntity
  8
0
 62
     0
 48
0.3
370
    -2
100
AcDbLine
 10
3.266284236114668
 20
1.485100245801443
 30
0.0
 11
3.141284236114668
 21
1.485100245801443
 31
0.0
  0
SOLID
  5
3A7
330
2AF
100
AcDbEntity
  8
0
 62
     0
 48
0.3
100
AcDbTrace
 10
4.371284236114668
 20
1.505933579134776
 30
0.0
 11
4.371284236114668
 21
1.464266912468109
 31
0.0
 12
4.246284236114668
 22
1.485100245801443
 32
0.0
 13
4.246284236114668
 23
1.485100245801443
 33
0.0
  0
SOLID
  5
3A8
330
2AF
100
AcDbEntity
  8
0
 62
     0
 48
0.3
100
AcDbTrace
 10
3.266284236114668
 20
1.505933579134776
 30
0.0
 11
3.266284236114668
 21
1.464266912468109
 31
0.0
 12
3.391284236114668
 22
1.485100245801443
 32
0.0
 13
3.391284236114668
 23
1.485100245801443
 33
0.0
  0
MTEXT
  5
3A9
330
2AF
100
AcDbEntity
  8
0
 62
     0
 48
0.3
100
AcDbMText
 10
3.818784236114668
 20
1.485100245801443
 30
0.0
 40
0.125
 41
0.0
 71
     5
 72
     1
  1
\A1;0.855
 73
     1
 44
1.0
  0
POINT
  5
3AA
330
2AF
100
AcDbEntity
  8
Defpoints
 62
     0
 48
0.3
100
AcDbPoint
 10
4.246284236114668
 20
2.354213478547893
 30
0.0
  0
POINT
  5
3AB
330
2AF
100
AcDbEntity
  8
Defpoints
 62
     0
 48
0.3
100
AcDbPoint
 10
3.391284236114668
 20
2.253533072724294
 30
0.0
  0
POINT
  5
3AC
330
2AF
100
AcDbEntity
  8
Defpoints
 62
     0
 48
0.3
100
AcDbPoint
 10
3.391284236114668
 20
1.485100245801443
 30
0.0
  0
ENDBLK
  5
2BB
330
2AF
100
AcDbEntity
  8
0
 48
0.3
100
AcDbBlockEnd
  0
BLOCK
  5
2E8
330
2DF
100
AcDbEntity
  8
0
 48
0.3
100
AcDbBlockBegin
  2
*D18
 70
     1
 10
0.0
 20
0.0
 30
0.0
  3
*D18
  1

  0
LINE
  5
2EB
330
2DF
100
AcDbEntity
  8
0
 62
     0
 48
0.3
370
    -2
100
AcDbLine
 10
7.748330010580706
 20
4.698023624462392
 30
0.0
 11
7.623330010580706
 21
4.698023624462392
 31
0.0
  0
LINE
  5
2EC
330
2DF
100
AcDbEntity
  8
0
 62
     0
 48
0.3
370
    -2
100
AcDbLine
 10
7.623330010580706
 20
4.698023624462392
 30
0.0
 11
7.327672087923953
 21
4.008828239561787
 31
0.0
  0
MTEXT
  5
2ED
330
2DF
100
AcDbEntity
  8
0
 62
     0
 48
0.3
100
AcDbMText
 10
8.129996677247374
 20
4.698023624462392
 30
0.0
 40
0.125
 41
0.0
 71
     5
 72
     1
  1
\A1;\U+22051.772
 73
     1
 44
1.0
  0
SOLID
  5
2EE
330
2DF
100
AcDbEntity
  8
0
 62
     0
 48
0.3
100
AcDbTrace
 10
7.308526135875365
 20
4.017041661377994
 30
0.0
 11
7.346818039972541
 21
4.000614817745582
 31
0.0
 12
7.278391557026715
 22
3.893952527270258
 32
0.0
 13
7.278391557026715
 23
3.893952527270258
 33
0.0
  0
LINE
  5
2EF
330
2DF
100
AcDbEntity
  8
0
 62
     0
 48
0.3
370
    -2
100
AcDbLine
 10
6.839091154027081
 20
3.079713478547896
 30
0.0
 11
7.019091154027082
 21
3.079713478547896
 31
0.0
  0
LINE
  5
2F0
330
2DF
100
AcDbEntity
  8
0
 62
     0
 48
0.3
370
    -2
100
AcDbLine
 10
6.929091154027084
 20
2.989713478547896
 30
0.0
 11
6.929091154027084
 21
3.169713478547894
 31
0.0
  0
POINT
  5
2F1
330
2DF
100
AcDbEntity
  8
Defpoints
 62
     0
 48
0.3
100
AcDbPoint
 10
7.278391557026715
 20
3.893952527270258
 30
0.0
  0
POINT
  5
2F2
330
2DF
100
AcDbEntity
  8
Defpoints
 62
     0
 48
0.3
100
AcDbPoint
 10
6.579790751027454
 20
2.265474429825535
 30
0.0
  0
ENDBLK
  5
2E9
330
2DF
100
AcDbEntity
  8
0
 48
0.3
100
AcDbBlockEnd
  0
BLOCK
  5
326
330
31D
100
AcDbEntity
  8
0
 48
0.3
100
AcDbBlockBegin
  2
*D19
 70
     1
 10
0.0
 20
0.0
 30
0.0
  3
*D19
  1

  0
LINE
  5
329
330
31D
100
AcDbEntity
  8
0
 62
     0
 48
0.3
370
    -2
100
AcDbLine
 10
-0.5528972901132934
 20
4.162295765128341
 30
0.0
 11
-0.4278972901132924
 21
4.162295765128341
 31
0.0
  0
LINE
  5
32A
330
31D
100
AcDbEntity
  8
0
 62
     0
 48
0.3
370
    -2
100
AcDbLine
 10
-0.4278972901132924
 20
4.162295765128341
 30
0.0
 11
0.0634944881274504
 21
3.707992397366506
 31
0.0
  0
MTEXT
  5
32B
330
31D
100
AcDbEntity
  8
0
 62
     0
 48
0.3
100
AcDbMText
 10
-0.9033139567799596
 20
4.162295765128341
 30
0.0
 40
0.125
 41
0.0
 71
     5
 72
     1
  1
\A1;\U+22051.601
 73
     1
 44
1.0
  0
SOLID
  5
32C
330
31D
100
AcDbEntity
  8
0
 62
     0
 48
0.3
100
AcDbTrace
 10
0.0776372694802914
 20
3.72328976685879
 30
0.0
 11
0.0493517067746094
 21
3.692695027874219
 31
0.0
 12
0.1552787050811644
 22
3.62313570924946
 32
0.0
 13
0.1552787050811644
 23
3.62313570924946
 33
0.0
  0
LINE
  5
32D
330
31D
100
AcDbEntity
  8
0
 62
     0
 48
0.3
370
    -2
100
AcDbLine
 10
0.6530648304527486
 20
3.079713478547899
 30
0.0
 11
0.8330648304527482
 21
3.079713478547899
 31
0.0
  0
LINE
  5
32E
330
31D
100
AcDbEntity
  8
0
 62
     0
 48
0.3
370
    -2
100
AcDbLine
 10
0.7430648304527481
 20
2.989713478547899
 30
0.0
 11
0.7430648304527481
 21
3.169713478547897
 31
0.0
  0
POINT
  5
32F
330
31D
100
AcDbEntity
  8
Defpoints
 62
     0
 48
0.3
100
AcDbPoint
 10
0.1552787050811644
 20
3.62313570924946
 30
0.0
  0
POINT
  5
330
330
31D
100
AcDbEntity
  8
Defpoints
 62
     0
 48
0.3
100
AcDbPoint
 10
1.330850955824331
 20
2.536291247846337
 30
0.0
  0
ENDBLK
  5
327
330
31D
100
AcDbEntity
  8
0
 48
0.3
100
AcDbBlockEnd
  0
BLOCK
  5
361
330
356
100
AcDbEntity
  8
0
 48
0.3
100
AcDbBlockBegin
  2
*D20
 70
     1
 10
0.0
 20
0.0
 30
0.0
  3
*D20
  1

  0
LINE
  5
364
330
356
100
AcDbEntity
  8
0
 62
     0
 48
0.3
370
    -2
100
AcDbLine
 10
4.437284236114668
 20
3.986798003660201
 30
0.0
 11
4.437284236114668
 21
4.58129075420642
 31
0.0
  0
LINE
  5
365
330
356
100
AcDbEntity
  8
0
 62
     0
 48
0.3
370
    -2
100
AcDbLine
 10
4.687284236114668
 20
3.986798003660201
 30
0.0
 11
4.687284236114668
 21
4.58129075420642
 31
0.0
  0
LINE
  5
366
330
356
100
AcDbEntity
  8
0
 62
     0
 48
0.3
370
    -2
100
AcDbLine
 10
4.312284236114668
 20
4.40129075420642
 30
0.0
 11
4.187284236114668
 21
4.40129075420642
 31
0.0
  0
LINE
  5
367
330
356
100
AcDbEntity
  8
0
 62
     0
 48
0.3
370
    -2
100
AcDbLine
 10
4.812284236114668
 20
4.40129075420642
 30
0.0
 11
4.937284236114668
 21
4.40129075420642
 31
0.0
  0
SOLID
  5
368
330
356
100
AcDbEntity
  8
0
 62
     0
 48
0.3
100
AcDbTrace
 10
4.312284236114668
 20
4.422124087539754
 30
0.0
 11
4.312284236114668
 21
4.380457420873087
 31
0.0
 12
4.437284236114668
 22
4.40129075420642
 32
0.0
 13
4.437284236114668
 23
4.40129075420642
 33
0.0
  0
SOLID
  5
369
330
356
100
AcDbEntity
  8
0
 62
     0
 48
0.3
100
AcDbTrace
 10
4.812284236114668
 20
4.422124087539754
 30
0.0
 11
4.812284236114668
 21
4.380457420873087
 31
0.0
 12
4.687284236114668
 22
4.40129075420642
 32
0.0
 13
4.687284236114668
 23
4.40129075420642
 33
0.0
  0
MTEXT
  5
36A
330
356
100
AcDbEntity
  8
0
 62
     0
 48
0.3
100
AcDbMText
 10
5.256450902781335
 20
4.40129075420642
 30
0.0
 40
0.125
 41
0.0
 71
     5
 72
     1
  1
\A1;0.250
 73
     1
 44
1.0
  0
POINT
  5
36B
330
356
100
AcDbEntity
  8
Defpoints
 62
     0
 48
0.3
100
AcDbPoint
 10
4.437284236114668
 20
3.924298003660201
 30
0.0
  0
POINT
  5
36C
330
356
100
AcDbEntity
  8
Defpoints
 62
     0
 48
0.3
100
AcDbPoint
 10
4.687284236114668
 20
3.924298003660201
 30
0.0
  0
POINT
  5
36D
330
356
100
AcDbEntity
  8
Defpoints
 62
     0
 48
0.3
100
AcDbPoint
 10
4.687284236114668
 20
4.40129075420642
 30
0.0
  0
ENDBLK
  5
362
330
356
100
AcDbEntity
  8
0
 48
0.3
100
AcDbBlockEnd
  0
BLOCK
  5
379
330
370
100
AcDbEntity
  8
0
 48
0.3
100
AcDbBlockBegin
  2
*D21
 70
     1
 10
0.0
 20
0.0
 30
0.0
  3
*D21
  1

  0
LINE
  5
37C
330
370
100
AcDbEntity
  8
0
 62
     0
 48
0.3
370
    -2
100
AcDbLine
 10
6.493038268093692
 20
5.299328095114106
 30
0.0
 11
6.618038268093696
 21
5.299328095114106
 31
0.0
  0
LINE
  5
37D
330
370
100
AcDbEntity
  8
0
 62
     0
 48
0.3
370
    -2
100
AcDbLine
 10
6.618038268093696
 20
5.299328095114106
 30
0.0
 11
6.748188668636827
 21
4.37059943043506
 31
0.0
  0
MTEXT
  5
37E
330
370
100
AcDbEntity
  8
0
 62
     0
 48
0.3
100
AcDbMText
 10
6.090538268093691
 20
5.299328095114105
 30
0.0
 40
0.125
 41
0.0
 71
     5
 72
     1
  1
\A1;\U+22052.357
 73
     1
 44
1.0
  0
SOLID
  5
37F
330
370
100
AcDbEntity
  8
0
 62
     0
 48
0.3
100
AcDbTrace
 10
6.768820396547056
 20
4.37349072447339
 30
0.0
 11
6.727556940726599
 21
4.367708136396728
 31
0.0
 12
6.765536432866811
 22
4.24680906297369
 32
0.0
 13
6.765536432866811
 23
4.24680906297369
 33
0.0
  0
LINE
  5
380
330
370
100
AcDbEntity
  8
0
 62
     0
 48
0.3
370
    -2
100
AcDbLine
 10
6.839091154027087
 20
3.079713478547899
 30
0.0
 11
7.019091154027087
 21
3.079713478547899
 31
0.0
  0
LINE
  5
381
330
370
100
AcDbEntity
  8
0
 62
     0
 48
0.3
370
    -2
100
AcDbLine
 10
6.929091154027087
 20
2.989713478547899
 30
0.0
 11
6.929091154027087
 21
3.169713478547899
 31
0.0
  0
POINT
  5
382
330
370
100
AcDbEntity
  8
Defpoints
 62
     0
 48
0.3
100
AcDbPoint
 10
6.765536432866811
 20
4.24680906297369
 30
0.0
  0
POINT
  5
383
330
370
100
AcDbEntity
  8
Defpoints
 62
     0
 48
0.3
100
AcDbPoint
 10
7.092645875187363
 20
1.912617894122107
 30
0.0
  0
ENDBLK
  5
37A
330
370
100
AcDbEntity
  8
0
 48
0.3
100
AcDbBlockEnd
  0
BLOCK
  5
38F
330
386
100
AcDbEntity
  8
0
 48
0.3
100
AcDbBlockBegin
  2
*D22
 70
     1
 10
0.0
 20
0.0
 30
0.0
  3
*D22
  1

  0
LINE
  5
392
330
386
100
AcDbEntity
  8
0
 62
     0
 48
0.3
370
    -2
100
AcDbLine
 10
1.260900671895925
 20
5.044187043810668
 30
0.0
 11
1.135900671895925
 21
5.044187043810667
 31
0.0
  0
LINE
  5
393
330
386
100
AcDbEntity
  8
0
 62
     0
 48
0.3
370
    -2
100
AcDbLine
 10
1.135900671895925
 20
5.044187043810667
 30
0.0
 11
0.9245441624275903
 21
3.987246123727101
 31
0.0
  0
MTEXT
  5
394
330
386
100
AcDbEntity
  8
0
 62
     0
 48
0.3
100
AcDbMText
 10
1.61131733856259
 20
5.044187043810668
 30
0.0
 40
0.125
 41
0.0
 71
     5
 72
     1
  1
\A1;\U+22051.601
 73
     1
 44
1.0
  0
SOLID
  5
395
330
386
100
AcDbEntity
  8
0
 62
     0
 48
0.3
100
AcDbTrace
 10
0.9041152806254292
 20
3.991331287872041
 30
0.0
 11
0.9449730442297516
 21
3.98316095958216
 31
0.0
 12
0.9000331775579464
 22
3.864672832914133
 32
0.0
 13
0.9000331775579464
 23
3.864672832914133
 33
0.0
  0
LINE
  5
396
330
386
100
AcDbEntity
  8
0
 62
     0
 48
0.3
370
    -2
100
AcDbLine
 10
0.6530648304527479
 20
3.079713478547896
 30
0.0
 11
0.8330648304527477
 21
3.079713478547896
 31
0.0
  0
LINE
  5
397
330
386
100
AcDbEntity
  8
0
 62
     0
 48
0.3
370
    -2
100
AcDbLine
 10
0.7430648304527479
 20
2.989713478547896
 30
0.0
 11
0.7430648304527479
 21
3.169713478547896
 31
0.0
  0
POINT
  5
398
330
386
100
AcDbEntity
  8
Defpoints
 62
     0
 48
0.3
100
AcDbPoint
 10
0.9000331775579464
 20
3.864672832914133
 30
0.0
  0
POINT
  5
399
330
386
100
AcDbEntity
  8
Defpoints
 62
     0
 48
0.3
100
AcDbPoint
 10
0.586096483347549
 20
2.294754124181658
 30
0.0
  0
ENDBLK
  5
390
330
386
100
AcDbEntity
  8
0
 48
0.3
100
AcDbBlockEnd
  0
BLOCK
  5
3CE
330
3C5
100
AcDbEntity
  8
0
 48
0.3
100
AcDbBlockBegin
  2
*D24
 70
     1
 10
0.0
 20
0.0
 30
0.0
  3
*D24
  1

  0
LINE
  5
3C6
330
3C5
100
AcDbEntity
  8
0
 62
     0
 48
0.3
370
    -2
100
AcDbLine
 10
0.8359190419108834
 20
1.230392121126353
 30
0.0
 11
0.9609190419108831
 21
1.230392121126353
 31
0.0
  0
LINE
  5
3C7
330
3C5
100
AcDbEntity
  8
0
 62
     0
 48
0.3
370
    -2
100
AcDbLine
 10
0.9609190419108831
 20
1.230392121126353
 30
0.0
 11
1.698673258886089
 21
2.670491118409735
 31
0.0
  0
MTEXT
  5
3C8
330
3C5
100
AcDbEntity
  8
0
 62
     0
 48
0.3
100
AcDbMText
 10
0.4438357085775499
 20
1.230392121126353
 30
0.0
 40
0.125
 41
0.0
 71
     5
 72
     1
  1
\A1;\U+22050.853
 73
     1
 44
1.0
  0
SOLID
  5
3C9
330
3C5
100
AcDbEntity
  8
0
 62
     0
 48
0.3
100
AcDbTrace
 10
1.680131433472273
 20
2.679989986137068
 30
0.0
 11
1.717215084299904
 21
2.660992250682401
 31
0.0
 12
1.755666465250089
 22
2.781742070892627
 32
0.0
 13
1.755666465250089
 23
2.781742070892627
 33
0.0
  0
LINE
  5
3CA
330
3C5
100
AcDbEntity
  8
0
 62
     0
 48
0.3
370
    -2
100
AcDbLine
 10
1.860127285364056
 20
3.161330320764252
 30
0.0
 11
2.040127285364055
 21
3.161330320764252
 31
0.0
  0
LINE
  5
3CB
330
3C5
100
AcDbEntity
  8
0
 62
     0
 48
0.3
370
    -2
100
AcDbLine
 10
1.950127285364055
 20
3.071330320764253
 30
0.0
 11
1.950127285364055
 21
3.251330320764251
 31
0.0
  0
POINT
  5
3CC
330
3C5
100
AcDbEntity
  8
Defpoints
 62
     0
 48
0.3
100
AcDbPoint
 10
1.755666465250089
 20
2.781742070892627
 30
0.0
  0
POINT
  5
3CD
330
3C5
100
AcDbEntity
  8
Defpoints
 62
     0
 48
0.3
100
AcDbPoint
 10
2.144588105478024
 20
3.540918570635876
 30
0.0
  0
ENDBLK
  5
3CF
330
3C5
100
AcDbEntity
  8
0
 48
0.3
100
AcDbBlockEnd
  0
BLOCK
  5
3E5
330
3DC
100
AcDbEntity
  8
0
 48
0.3
100
AcDbBlockBegin
  2
*D26
 70
     1
 10
0.0
 20
0.0
 30
0.0
  3
*D26
  1

  0
LINE
  5
3E7
330
3DC
100
AcDbEntity
  8
0
 62
     0
 48
0.3
370
    -2
100
AcDbLine
 10
-0.3711434130004258
 20
1.148775278909999
 30
0.0
 11
-0.2461434130004258
 21
1.148775278909999
 31
0.0
  0
LINE
  5
3E8
330
3DC
100
AcDbEntity
  8
0
 62
     0
 48
0.3
370
    -2
100
AcDbLine
 10
-0.2461434130004258
 20
1.148775278909999
 30
0.0
 11
0.4916108039747802
 21
2.588874276193382
 31
0.0
  0
MTEXT
  5
3E9
330
3DC
100
AcDbEntity
  8
0
 62
     0
 48
0.3
100
AcDbMText
 10
-0.7632267463337592
 20
1.148775278909999
 30
0.0
 40
0.125
 41
0.0
 71
     5
 72
     1
  1
\A1;\U+22050.853
 73
     1
 44
1.0
  0
SOLID
  5
3EA
330
3DC
100
AcDbEntity
  8
0
 62
     0
 48
0.3
100
AcDbTrace
 10
0.4730689785609651
 20
2.598373143920715
 30
0.0
 11
0.5101526293885956
 21
2.579375408466048
 31
0.0
 12
0.5486040103387802
 22
2.700125228676273
 32
0.0
 13
0.5486040103387802
 23
2.700125228676273
 33
0.0
  0
LINE
  5
3EB
330
3DC
100
AcDbEntity
  8
0
 62
     0
 48
0.3
370
    -2
100
AcDbLine
 10
0.6530648304527476
 20
3.079713478547898
 30
0.0
 11
0.8330648304527475
 21
3.079713478547898
 31
0.0
  0
LINE
  5
3EC
330
3DC
100
AcDbEntity
  8
0
 62
     0
 48
0.3
370
    -2
100
AcDbLine
 10
0.7430648304527477
 20
2.989713478547898
 30
0.0
 11
0.7430648304527477
 21
3.169713478547898
 31
0.0
  0
POINT
  5
3ED
330
3DC
100
AcDbEntity
  8
Defpoints
 62
     0
 48
0.3
100
AcDbPoint
 10
0.5486040103387802
 20
2.700125228676273
 30
0.0
  0
POINT
  5
3EE
330
3DC
100
AcDbEntity
  8
Defpoints
 62
     0
 48
0.3
100
AcDbPoint
 10
0.9375256505667149
 20
3.459301728419522
 30
0.0
  0
ENDBLK
  5
3E6
330
3DC
100
AcDbEntity
  8
0
 48
0.3
100
AcDbBlockEnd
  0
BLOCK
  5
41D
330
414
100
AcDbEntity
  8
0
 48
0.3
100
AcDbBlockBegin
  2
*D27
 70
     1
 10
0.0
 20
0.0
 30
0.0
  3
*D27
  1

  0
LINE
  5
420
330
414
100
AcDbEntity
  8
0
 62
     0
 48
0.3
370
    -2
100
AcDbLine
 10
1.623861411905417
 20
4.521533222956209
 30
0.0
 11
1.498861411905417
 21
4.521533222956209
 31
0.0
  0
LINE
  5
421
330
414
100
AcDbEntity
  8
0
 62
     0
 48
0.3
370
    -2
100
AcDbLine
 10
1.498861411905417
 20
4.521533222956209
 30
0.0
 11
0.9991129261291998
 21
3.568171893052615
 31
0.0
  0
MTEXT
  5
422
330
414
100
AcDbEntity
  8
0
 62
     0
 48
0.3
100
AcDbMText
 10
2.015944745238751
 20
4.521533222956209
 30
0.0
 40
0.125
 41
0.0
 71
     5
 72
     1
  1
\A1;\U+22050.853
 73
     1
 44
1.0
  0
SOLID
  5
423
330
414
100
AcDbEntity
  8
0
 62
     0
 48
0.3
100
AcDbTrace
 10
0.9806610367931194
 20
3.57784430524952
 30
0.0
 11
1.01756481546528
 21
3.558499480855711
 31
0.0
 12
0.9410784529477735
 22
3.457460557036133
 32
0.0
 13
0.9410784529477735
 23
3.457460557036133
 33
0.0
  0
LINE
  5
424
330
414
100
AcDbEntity
  8
0
 62
     0
 48
0.3
370
    -2
100
AcDbLine
 10
0.6530648304527482
 20
3.079713478547899
 30
0.0
 11
0.8330648304527482
 21
3.079713478547899
 31
0.0
  0
LINE
  5
425
330
414
100
AcDbEntity
  8
0
 62
     0
 48
0.3
370
    -2
100
AcDbLine
 10
0.7430648304527483
 20
2.989713478547899
 30
0.0
 11
0.7430648304527484
 21
3.169713478547898
 31
0.0
  0
POINT
  5
426
330
414
100
AcDbEntity
  8
Defpoints
 62
     0
 48
0.3
100
AcDbPoint
 10
0.9410784529477735
 20
3.457460557036133
 30
0.0
  0
POINT
  5
427
330
414
100
AcDbEntity
  8
Defpoints
 62
     0
 48
0.3
100
AcDbPoint
 10
0.5450512079577223
 20
2.701966400059662
 30
0.0
  0
ENDBLK
  5
41E
330
414
100
AcDbEntity
  8
0
 48
0.3
100
AcDbBlockEnd
  0
BLOCK
  5
444
330
43B
100
AcDbEntity
  8
0
 48
0.3
100
AcDbBlockBegin
  2
*D28
 70
     1
 10
0.0
 20
0.0
 30
0.0
  3
*D28
  1

  0
LINE
  5
447
330
43B
100
AcDbEntity
  8
0
 62
     0
 48
0.3
370
    -2
100
AcDbLine
 10
7.994877543420656
 20
1.752459639264348
 30
0.0
 11
7.869877543420656
 21
1.752459639264348
 31
0.0
  0
LINE
  5
448
330
43B
100
AcDbEntity
  8
0
 62
     0
 48
0.3
370
    -2
100
AcDbLine
 10
7.869877543420656
 20
1.752459639264348
 30
0.0
 11
7.248014034776125
 21
2.629779654375134
 31
0.0
  0
MTEXT
  5
449
330
43B
100
AcDbEntity
  8
0
 62
     0
 48
0.3
100
AcDbMText
 10
8.38696087675399
 20
1.752459639264348
 30
0.0
 40
0.125
 41
0.0
 71
     5
 72
     1
  1
\A1;\U+22050.853
 73
     1
 44
1.0
  0
SOLID
  5
44A
330
43B
100
AcDbEntity
  8
0
 62
     0
 48
0.3
100
AcDbTrace
 10
7.265010628315441
 20
2.641827209556043
 30
0.0
 11
7.23101744123681
 21
2.617732099194224
 31
0.0
 12
7.175728703690666
 22
2.731759215611028
 32
0.0
 13
7.175728703690666
 23
2.731759215611028
 33
0.0
  0
LINE
  5
44B
330
43B
100
AcDbEntity
  8
0
 62
     0
 48
0.3
370
    -2
100
AcDbLine
 10
6.839091154027079
 20
3.0797134785479
 30
0.0
 11
7.019091154027079
 21
3.079713478547899
 31
0.0
  0
LINE
  5
44C
330
43B
100
AcDbEntity
  8
0
 62
     0
 48
0.3
370
    -2
100
AcDbLine
 10
6.929091154027079
 20
2.9897134785479
 30
0.0
 11
6.929091154027079
 21
3.1697134785479
 31
0.0
  0
POINT
  5
44D
330
43B
100
AcDbEntity
  8
Defpoints
 62
     0
 48
0.3
100
AcDbPoint
 10
7.175728703690666
 20
2.731759215611028
 30
0.0
  0
POINT
  5
44E
330
43B
100
AcDbEntity
  8
Defpoints
 62
     0
 48
0.3
100
AcDbPoint
 10
6.682453604363493
 20
3.42766774148477
 30
0.0
  0
ENDBLK
  5
445
330
43B
100
AcDbEntity
  8
0
 48
0.3
100
AcDbBlockEnd
  0
BLOCK
  5
45C
330
451
100
AcDbEntity
  8
0
 48
0.3
100
AcDbBlockBegin
  2
*D29
 70
     1
 10
0.0
 20
0.0
 30
0.0
  3
*D29
  1

  0
LINE
  5
45F
330
451
100
AcDbEntity
  8
0
 62
     0
 48
0.3
370
    -2
100
AcDbLine
 10
3.466284236114667
 20
4.028713478547897
 30
0.0
 11
3.466284236114667
 21
5.059721852415158
 31
0.0
  0
LINE
  5
460
330
451
100
AcDbEntity
  8
0
 62
     0
 48
0.3
370
    -2
100
AcDbLine
 10
3.391284236114666
 20
4.028713478547897
 30
0.0
 11
3.391284236114666
 21
5.059721852415158
 31
0.0
  0
LINE
  5
461
330
451
100
AcDbEntity
  8
0
 62
     0
 48
0.3
370
    -2
100
AcDbLine
 10
3.591284236114667
 20
4.879721852415158
 30
0.0
 11
3.716284236114667
 21
4.879721852415158
 31
0.0
  0
LINE
  5
462
330
451
100
AcDbEntity
  8
0
 62
     0
 48
0.3
370
    -2
100
AcDbLine
 10
3.266284236114666
 20
4.879721852415158
 30
0.0
 11
3.141284236114666
 21
4.879721852415158
 31
0.0
  0
SOLID
  5
463
330
451
100
AcDbEntity
  8
0
 62
     0
 48
0.3
100
AcDbTrace
 10
3.591284236114667
 20
4.900555185748491
 30
0.0
 11
3.591284236114667
 21
4.858888519081825
 31
0.0
 12
3.466284236114667
 22
4.879721852415158
 32
0.0
 13
3.466284236114667
 23
4.879721852415158
 33
0.0
  0
SOLID
  5
464
330
451
100
AcDbEntity
  8
0
 62
     0
 48
0.3
100
AcDbTrace
 10
3.266284236114666
 20
4.900555185748491
 30
0.0
 11
3.266284236114666
 21
4.858888519081825
 31
0.0
 12
3.391284236114666
 22
4.879721852415158
 32
0.0
 13
3.391284236114666
 23
4.879721852415158
 33
0.0
  0
MTEXT
  5
465
330
451
100
AcDbEntity
  8
0
 62
     0
 48
0.3
100
AcDbMText
 10
2.822117569447999
 20
4.879721852415158
 30
0.0
 40
0.125
 41
0.0
 71
     5
 72
     1
  1
\A1;0.075
 73
     1
 44
1.0
  0
POINT
  5
466
330
451
100
AcDbEntity
  8
Defpoints
 62
     0
 48
0.3
100
AcDbPoint
 10
3.466284236114667
 20
3.966213478547897
 30
0.0
  0
POINT
  5
467
330
451
100
AcDbEntity
  8
Defpoints
 62
     0
 48
0.3
100
AcDbPoint
 10
3.391284236114666
 20
3.966213478547897
 30
0.0
  0
POINT
  5
468
330
451
100
AcDbEntity
  8
Defpoints
 62
     0
 48
0.3
100
AcDbPoint
 10
3.391284236114666
 20
4.879721852415158
 30
0.0
  0
ENDBLK
  5
45D
330
451
100
AcDbEntity
  8
0
 48
0.3
100
AcDbBlockEnd
  0
ENDSEC
  0
SECTION
  2
ENTITIES
  0
VIEWPORT
  5
77
330
58
100
AcDbEntity
 67
     1
  8
0
100
AcDbViewport
 10
4.982383228196495
 20
2.438495195064566
 30
0.0
 40
15.96478093992986
 41
8.364156970702385
 68
     1
 69
     1
 12
4.982383228196495
 22
2.438495195064566
 13
0.0
 23
0.0
 14
0.5
 24
0.5
 15
0.5
 25
0.5
 16
0.0
 26
0.0
 36
1.0
 17
0.0
 27
0.0
 37
0.0
 42
50.0
 43
0.0
 44
0.0
 45
8.364156970702385
 50
0.0
 51
0.0
 72
   100
 90
    32800
  1

281
     0
 71
     1
 74
     0
110
0.0
120
0.0
130
0.0
111
1.0
121
0.0
131
0.0
112
0.0
122
1.0
132
0.0
 79
     0
146
0.0
  0
LWPOLYLINE
  5
86
330
58
100
AcDbEntity
 67
     1
  8
0
100
AcDbPolyline
 90
        4
 70
     1
 43
0.0
 10
-1.439262267973588
 20
6.396855050259421
 10
8.966538218833356
 20
6.396855050259421
 10
8.966538218833356
 20
-1.41285528304607
 10
-1.439262267973588
 20
-1.41285528304607
  0
LINE
  5
8A
330
58
100
AcDbEntity
 67
     1
  8
0
100
AcDbLine
 10
8.966538218833356
 20
-1.41285528304607
 30
0.0
 11
8.966538218833356
 21
-0.4128552830460708
 31
0.0
  0
LINE
  5
8B
330
58
100
AcDbEntity
 67
     1
  8
0
100
AcDbLine
 10
8.966538218833356
 20
-0.4128552830460708
 30
0.0
 11
6.466538218833355
 21
-0.4128552830460703
 31
0.0
  0
LINE
  5
8C
330
58
100
AcDbEntity
 67
     1
  8
0
100
AcDbLine
 10
6.466538218833355
 20
-0.4128552830460703
 30
0.0
 11
4.966538218833356
 21
-0.4128552830460701
 31
0.0
  0
LINE
  5
8D
330
58
100
AcDbEntity
 67
     1
  8
0
100
AcDbLine
 10
4.966538218833356
 20
-0.4128552830460701
 30
0.0
 11
4.966538218833356
 21
-1.41285528304607
 31
0.0
  0
LINE
  5
8E
330
58
100
AcDbEntity
 67
     1
  8
0
100
AcDbLine
 10
6.466538218833355
 20
-0.4128552830460703
 30
0.0
 11
6.466538218833355
 21
-1.404250623233159
 31
0.0
  0
MTEXT
  5
8F
330
58
100
AcDbEntity
 67
     1
  8
0
100
AcDbMText
 10
5.020648721258949
 20
-0.5532836662080878
 30
0.0
 40
0.1
 41
1.5
 71
     1
 72
     5
  1
  Tolerances\P.XXXX = +/- .001\P.XXX  = +/- .005\P.XX   = +/- .015
 73
     1
 44
1.0
  0
MTEXT
  5
AA
330
58
100
AcDbEntity
 67
     1
  8
0
 48
0.3
100
AcDbMText
 10
6.688767870543038
 20
-0.5779304272488833
 30
0.0
 40
0.1
 41
2.5
 71
     1
 72
     5
  1
G0704 CNC Belt Drive\PL Spindle Pulley\PDaniel E. Kemp\P{\fArial|b0|i0|c0|p32;\H1.625x;©\fMS Shell Dlg|b0|i0|c0|p32;\H0.6538x; 08-25-}2011
 73
     1
 44
1.0
  0
MTEXT
  5
AC
330
58
100
AcDbEntity
 67
     1
  8
0
 48
0.3
100
AcDbMText
 10
-0.8330378939457148
 20
-0.9104262006358535
 30
0.0
 40
0.1625
 41
9.997099999999999
 71
     1
 72
     5
  1
{\fArial|b0|i0|c0|p32;© Daniel E. Kemp 2011}
 73
     1
 44
1.0
  0
CIRCLE
  5
B7
102
{ACAD_REACTORS
330
14D
330
2CB
102
}
330
58
100
AcDbEntity
 67
     1
  8
0
 48
0.3
100
AcDbCircle
 10
0.7430648304527481
 20
3.079713478547898
 30
0.0
 40
1.178499999999998
  0
LINE
  5
BA
330
58
100
AcDbEntity
 67
     1
  8
0
 48
0.3
100
AcDbLine
 10
3.391284236114668
 20
4.258213478547896
 30
0.0
 11
4.391284236114668
 21
4.258213478547896
 31
0.0
  0
LINE
  5
BC
330
58
100
AcDbEntity
 67
     1
  8
0
 48
0.3
100
AcDbLine
 10
3.391284236114668
 20
1.901213478547898
 30
0.0
 11
3.391284236114668
 21
4.258213478547896
 31
0.0
  0
LINE
  5
BD
330
58
100
AcDbEntity
 67
     1
  8
0
 48
0.3
100
AcDbLine
 10
4.391284236114668
 20
4.258213478547896
 30
0.0
 11
4.391284236114668
 21
1.901213478547898
 31
0.0
  0
LINE
  5
BE
102
{ACAD_REACTORS
330
22B
330
245
102
}
330
58
100
AcDbEntity
 67
     1
  8
0
 48
0.3
100
AcDbLine
 10
4.391284236114668
 20
1.901213478547898
 30
0.0
 11
3.391284236114668
 21
1.901213478547898
 31
0.0
  0
CIRCLE
  5
EF
102
{ACAD_REACTORS
330
293
102
}
330
58
100
AcDbEntity
 67
     1
  8
0
 48
0.3
100
AcDbCircle
 10
3.673284236114668
 20
3.079713478547898
 30
0.0
 40
0.1
  0
CIRCLE
  5
104
102
{ACAD_REACTORS
330
167
102
}
330
58
100
AcDbEntity
 67
     1
  8
0
 48
0.3
100
AcDbCircle
 10
0.7430648304527481
 20
3.079713478547898
 30
0.0
 40
0.8875
  0
LINE
  5
10B
330
58
100
AcDbEntity
 67
     1
  8
0
  6
threads
 48
0.3
100
AcDbLine
 10
0.8435648304527481
 20
3.873879707998634
 30
0.0
 11
0.8435648304527481
 21
4.253920444972471
 31
0.0
  0
LINE
  5
10D
330
58
100
AcDbEntity
 67
     1
  8
0
  6
threads
 48
0.3
100
AcDbLine
 10
0.6425648304527482
 20
3.873879707998634
 30
0.0
 11
0.6425648304527482
 21
4.253920444972471
 31
0.0
  0
LINE
  5
10F
330
58
100
AcDbEntity
 67
     1
  8
0
  6
threads
 48
0.3
100
AcDbLine
 10
0.8435648304527479
 20
2.298652661453608
 30
0.0
 11
0.8435648304527479
 21
1.905506512123323
 31
0.0
  0
LINE
  5
111
102
{ACAD_REACTORS
330
2CB
102
}
330
58
100
AcDbEntity
 67
     1
  8
0
  6
threads
 48
0.3
100
AcDbLine
 10
0.6425648304527478
 20
2.28554724909716
 30
0.0
 11
0.6425648304527478
 21
1.905506512123323
 31
0.0
  0
LINE
  5
113
330
58
100
AcDbEntity
 67
     1
  8
0
  6
threads
 48
0.3
100
AcDbLine
 10
1.524125647547038
 20
3.180213478547896
 30
0.0
 11
1.91727179687732
 21
3.180213478547896
 31
0.0
  0
LINE
  5
115
330
58
100
AcDbEntity
 67
     1
  8
0
  6
threads
 48
0.3
100
AcDbLine
 10
1.524125647547038
 20
2.979213478547896
 30
0.0
 11
1.91727179687732
 21
2.979213478547896
 31
0.0
  0
LINE
  5
117
330
58
100
AcDbEntity
 67
     1
  8
0
  6
threads
 48
0.3
100
AcDbLine
 10
-0.0379959866415419
 20
3.180213478547896
 30
0.0
 11
-0.4311421359718255
 21
3.180213478547896
 31
0.0
  0
LINE
  5
119
330
58
100
AcDbEntity
 67
     1
  8
0
  6
threads
 48
0.3
100
AcDbLine
 10
-0.0511013989979884
 20
2.979213478547896
 30
0.0
 11
-0.4311421359718255
 21
2.979213478547896
 31
0.0
  0
LINE
  5
11B
330
58
100
AcDbEntity
 67
     1
  8
0
  6
threads
 48
0.3
100
AcDbLine
 10
3.773284236114667
 20
3.880145216888541
 30
0.0
 11
3.773284236114667
 21
4.258213478547896
 31
0.0
  0
LINE
  5
11D
330
58
100
AcDbEntity
 67
     1
  8
0
  6
threads
 48
0.3
100
AcDbLine
 10
3.573284236114668
 20
3.880145216888541
 30
0.0
 11
3.573284236114668
 21
4.258213478547896
 31
0.0
  0
LINE
  5
11F
330
58
100
AcDbEntity
 67
     1
  8
0
  6
threads
 48
0.3
100
AcDbLine
 10
3.773284236114667
 20
2.279145216888541
 30
0.0
 11
3.773284236114667
 21
1.901213478547898
 31
0.0
  0
LINE
  5
121
330
58
100
AcDbEntity
 67
     1
  8
0
  6
threads
 48
0.3
100
AcDbLine
 10
3.573284236114668
 20
2.279145216888541
 30
0.0
 11
3.573284236114668
 21
1.901213478547898
 31
0.0
  0
LINE
  5
125
330
58
100
AcDbEntity
 67
     1
  8
0
 48
0.3
100
AcDbLine
 10
4.887284236114668
 20
3.805213478547898
 30
0.0
 11
4.687284236114669
 21
3.805213478547898
 31
0.0
  0
LINE
  5
129
330
58
100
AcDbEntity
 67
     1
  8
0
 48
0.3
100
AcDbLine
 10
4.887284236114668
 20
2.354213478547895
 30
0.0
 11
4.687284236114669
 21
2.354213478547895
 31
0.0
  0
LINE
  5
12A
102
{ACAD_REACTORS
330
22B
330
25F
102
}
330
58
100
AcDbEntity
 67
     1
  8
0
 48
0.3
100
AcDbLine
 10
4.887284236114668
 20
3.805213478547898
 30
0.0
 11
4.887284236114668
 21
2.354213478547895
 31
0.0
  0
DIMENSION
  5
138
102
{ACAD_XDICTIONARY
360
144
102
}
102
{ACAD_REACTORS
330
14D
102
}
330
58
100
AcDbEntity
 67
     1
  8
0
 48
0.3
100
AcDbDimension
  2
*D3
 10
1.380721631320894
 20
2.088625160431593
 30
0.0
 11
-0.9354125269945495
 21
4.868638511307428
 31
0.0
 70
   163
 71
     5
 42
2.356999999999999
  3
Standard
100
AcDbDiametricDimension
 15
0.1054080295846012
 25
4.070801796664198
 35
0.0
 40
0.0
1001
ACAD
1000
DSTYLE
1002
{
1070
   288
1070
     1
1002
}
  0
CIRCLE
  5
14E
102
{ACAD_REACTORS
330
384
102
}
330
58
100
AcDbEntity
 67
     1
  8
0
 48
0.3
100
AcDbCircle
 10
6.929091154027084
 20
3.079713478547898
 30
0.0
 40
1.178499999999998
  0
CIRCLE
  5
150
102
{ACAD_REACTORS
330
1EB
102
}
330
58
100
AcDbEntity
 67
     1
  8
0
 48
0.3
100
AcDbCircle
 10
6.929091154027084
 20
3.079713478547898
 30
0.0
 40
0.7254999999999999
  0
DIMENSION
  5
152
102
{ACAD_XDICTIONARY
360
15E
102
}
102
{ACAD_REACTORS
330
167
102
}
330
58
100
AcDbEntity
 67
     1
  8
0
 48
0.3
100
AcDbDimension
  2
*D4
 10
0.9412979574480424
 20
2.214635518268209
 30
0.0
 11
-0.2795741857393422
 21
5.331387123885527
 31
0.0
 70
   163
 71
     5
 42
1.774999999999999
  3
Standard
100
AcDbDiametricDimension
 15
0.5448317034574534
 25
3.944791438827586
 35
0.0
 40
0.0
1001
ACAD
1000
DSTYLE
1002
{
1070
   288
1070
     1
1002
}
  0
DIMENSION
  5
1D6
102
{ACAD_XDICTIONARY
360
1E2
102
}
102
{ACAD_REACTORS
330
1EB
102
}
330
58
100
AcDbEntity
 67
     1
  8
0
 48
0.3
100
AcDbDimension
  2
*D10
 10
6.423631669262424
 20
2.559270437224975
 30
0.0
 11
8.456621754646747
 21
4.141564781019209
 31
0.0
 70
   163
  1
%%c1.450
 71
     5
 42
1.451000000000004
  3
Standard
100
AcDbDiametricDimension
 15
7.434550638791737
 25
3.600156519870818
 35
0.0
 40
0.0
1001
ACAD
1000
DSTYLE
1002
{
1070
   288
1070
     1
1002
}
  0
DIMENSION
  5
212
102
{ACAD_XDICTIONARY
360
220
102
}
102
{ACAD_REACTORS
330
22B
102
}
330
58
100
AcDbEntity
 67
     1
  8
0
 48
0.3
100
AcDbDimension
  2
*D12
 10
4.887284236114668
 20
0.0122794599220839
 30
0.0
 11
4.139284236114669
 21
0.0122794599220839
 31
0.0
 70
    32
 71
     5
 42
1.495999999999999
  3
Standard
100
AcDbAlignedDimension
 13
3.391284236114668
 23
1.901213478547898
 33
0.0
 14
4.887284236114668
 24
2.354213478547895
 34
0.0
100
AcDbRotatedDimension
  0
DIMENSION
  5
22C
102
{ACAD_XDICTIONARY
360
23A
102
}
102
{ACAD_REACTORS
330
245
102
}
330
58
100
AcDbEntity
 67
     1
  8
0
 48
0.3
100
AcDbDimension
  2
*D13
 10
3.391284236114668
 20
0.6620533228641219
 30
0.0
 11
3.891284236114668
 21
0.6620533228641219
 31
0.0
 70
    32
 71
     5
 42
-1.0
  3
Standard
100
AcDbAlignedDimension
 13
4.391284236114668
 23
1.901213478547898
 33
0.0
 14
3.391284236114668
 24
1.901213478547898
 34
0.0
100
AcDbRotatedDimension
  0
DIMENSION
  5
246
102
{ACAD_XDICTIONARY
360
254
102
}
102
{ACAD_REACTORS
330
25F
102
}
330
58
100
AcDbEntity
 67
     1
  8
0
 48
0.3
100
AcDbDimension
  2
*D14
 10
4.887284236114668
 20
1.297387801486646
 30
0.0
 11
5.446034236114669
 21
1.297387801486646
 31
0.0
 70
    32
 71
     5
 42
0.2000000000000002
  3
Standard
100
AcDbAlignedDimension
 13
4.687284236114669
 23
2.291713478547894
 33
0.0
 14
4.887284236114668
 24
2.354213478547895
 34
0.0
100
AcDbRotatedDimension
  0
DIMENSION
  5
27A
102
{ACAD_XDICTIONARY
360
288
102
}
102
{ACAD_REACTORS
330
293
102
}
330
58
100
AcDbEntity
 67
     1
  8
0
 48
0.3
100
AcDbDimension
  2
*D16
 10
3.391284236114668
 20
5.48481948036755
 30
0.0
 11
2.811700902781332
 21
5.48481948036755
 31
0.0
 70
    32
 71
     5
 42
0.282
  3
Standard
100
AcDbAlignedDimension
 13
3.673284236114668
 23
3.079713478547898
 33
0.0
 14
3.391284236114668
 24
3.079713478547898
 34
0.0
100
AcDbRotatedDimension
  0
LEADER
  5
2C8
102
{ACAD_XDICTIONARY
360
2CA
102
}
102
{ACAD_REACTORS
330
2CB
102
}
330
58
100
AcDbEntity
 67
     1
  8
0
 48
0.3
100
AcDbLeader
  3
Standard
 73
     0
 40
0.125
 41
0.8958333333333332
 76
     3
 10
0.6425648304527477
 20
1.905506512123323
 30
0.0
 10
0.0832029132388286
 20
1.210751271489004
 30
0.0
 10
0.4012352818762325
 20
1.210751271489004
 30
0.0
340
2C9
213
0.0
223
-0.0625
233
0.0
1001
ACAD
1000
DSTYLE
1002
{
1070
   147
1040
0.09
1070
    77
1070
     0
1002
}
  0
MTEXT
  5
2C9
102
{ACAD_REACTORS
330
2C8
102
}
330
58
100
AcDbEntity
 67
     1
  8
0
 48
0.3
100
AcDbMText
 10
0.4912352818762323
 20
1.273251271489004
 30
0.0
 40
0.125
 41
0.0
 71
     1
 72
     1
  1
\A1;4@1/4-20
 73
     1
 44
1.0
  0
MTEXT
  5
2CC
330
58
100
AcDbEntity
 67
     1
  8
0
 48
0.3
100
AcDbMText
 10
-1.031796306261731
 20
0.6528525701591157
 30
0.0
 40
0.15
 41
3.767599999999998
 71
     1
 72
     5
  1
www.econobelt.com\Ppart# - QPELA75021F16\P   or - QPELA75021F20\P   or - QPMLA75021F12 \P21 Teeth L Timing Pulley
 73
     1
 44
1.0
  0
CIRCLE
  5
2DD
102
{ACAD_REACTORS
330
2F3
102
}
330
58
100
AcDbEntity
 67
     1
  8
0
 48
0.3
100
AcDbCircle
 10
6.929091154027084
 20
3.079713478547896
 30
0.0
 40
0.8859999999999999
  0
DIMENSION
  5
2DE
102
{ACAD_XDICTIONARY
360
2EA
102
}
102
{ACAD_REACTORS
330
2F3
102
}
330
58
100
AcDbEntity
 67
     1
  8
0
 48
0.3
100
AcDbDimension
  2
*D18
 10
6.579790751027454
 20
2.265474429825535
 30
0.0
 11
8.129996677247374
 21
4.698023624462392
 31
0.0
 70
   163
 71
     5
 42
1.771999999999999
  3
Standard
100
AcDbDiametricDimension
 15
7.278391557026715
 25
3.893952527270258
 35
0.0
 40
0.0
1001
ACAD
1000
DSTYLE
1002
{
1070
   288
1070
     1
1002
}
  0
LINE
  5
2F5
330
58
100
AcDbEntity
 67
     1
  8
0
 48
0.3
100
AcDbLine
 10
4.687284236114668
 20
3.965713478547896
 30
0.0
 11
4.391284236114668
 21
3.965713478547896
 31
0.0
  0
LINE
  5
2FA
330
58
100
AcDbEntity
 67
     1
  8
0
 48
0.3
100
AcDbLine
 10
4.391284236114668
 20
2.193713478547897
 30
0.0
 11
4.687284236114669
 21
2.193713478547897
 31
0.0
  0
LINE
  5
2FB
330
58
100
AcDbEntity
 67
     1
  8
0
 48
0.3
100
AcDbLine
 10
4.687284236114668
 20
3.965713478547896
 30
0.0
 11
4.687284236114669
 21
2.193713478547897
 31
0.0
  0
MTEXT
  5
316
102
{ACAD_REACTORS
330
317
102
}
330
58
100
AcDbEntity
 67
     1
  8
0
 48
0.3
100
AcDbMText
 10
7.401936335338442
 20
5.231294596484985
 30
0.0
 40
0.08
 41
0.0
 71
     1
 72
     1
  1
(2) 4-40 x .250\P@ 180° on 1.600 B.C.
 73
     1
 44
1.0
  0
LEADER
  5
317
102
{ACAD_XDICTIONARY
360
318
102
}
102
{ACAD_REACTORS
330
319
102
}
330
58
100
AcDbEntity
 67
     1
  8
0
 48
0.3
100
AcDbLeader
  3
Standard
 73
     0
 74
     0
 75
     1
 40
0.2133333333333334
 41
1.293333333333333
 76
     4
 10
6.929091154027076
 20
3.879713478547896
 30
0.0
 10
7.101932118303522
 20
4.936759235196816
 30
0.0
 10
7.124788584829452
 20
5.151614852424518
 30
0.0
 10
7.249788584829452
 20
5.151614852424518
 30
0.0
340
316
213
-0.6621561845788309
223
-0.1649726346924893
233
0.0
1001
ACAD
1000
DSTYLE
1002
{
1070
   147
1040
0.09
1070
    77
1070
     0
1002
}
  0
CIRCLE
  5
31A
102
{ACAD_REACTORS
330
319
102
}
330
58
100
AcDbEntity
 67
     1
  8
0
 48
0.3
100
AcDbCircle
 10
6.929091154027076
 20
3.879713478547896
 30
0.0
 40
0.0475
  0
CIRCLE
  5
31B
330
58
100
AcDbEntity
 67
     1
  8
0
 48
0.3
100
AcDbCircle
 10
6.929091154027076
 20
2.279713478547895
 30
0.0
 40
0.0475
  0
LINE
  5
34B
330
58
100
AcDbEntity
 67
     1
  8
0
  6
threads
 48
0.3
100
AcDbLine
 10
4.687284236114669
 20
2.327213478547897
 30
0.0
 11
4.437284236114669
 21
2.327213478547897
 31
0.0
  0
LINE
  5
34D
330
58
100
AcDbEntity
 67
     1
  8
0
  6
threads
 48
0.3
100
AcDbLine
 10
4.687284236114669
 20
2.232213478547897
 30
0.0
 11
4.437284236114669
 21
2.232213478547897
 31
0.0
  0
LINE
  5
34F
102
{ACAD_REACTORS
330
36E
102
}
330
58
100
AcDbEntity
 67
     1
  8
0
  6
threads
 48
0.3
100
AcDbLine
 10
4.687284236114668
 20
3.924298003660201
 30
0.0
 11
4.437284236114668
 21
3.924298003660201
 31
0.0
  0
LINE
  5
351
330
58
100
AcDbEntity
 67
     1
  8
0
  6
threads
 48
0.3
100
AcDbLine
 10
4.687284236114668
 20
3.832213478547896
 30
0.0
 11
4.437284236114668
 21
3.832213478547897
 31
0.0
  0
LINE
  5
352
330
58
100
AcDbEntity
 67
     1
  8
0
  6
HIDDENX2
 48
0.3
100
AcDbLine
 10
4.437284236114668
 20
3.832213478547897
 30
0.0
 11
4.437284236114668
 21
3.924298003660201
 31
0.0
  0
LINE
  5
353
330
58
100
AcDbEntity
 67
     1
  8
0
  6
HIDDENX2
 48
0.3
100
AcDbLine
 10
4.437284236114669
 20
2.327213478547897
 30
0.0
 11
4.437284236114669
 21
2.232213478547897
 31
0.0
  0
DIMENSION
  5
355
102
{ACAD_XDICTIONARY
360
363
102
}
102
{ACAD_REACTORS
330
36E
102
}
330
58
100
AcDbEntity
 67
     1
  8
0
 48
0.3
100
AcDbDimension
  2
*D20
 10
4.687284236114668
 20
4.40129075420642
 30
0.0
 11
5.256450902781335
 21
4.40129075420642
 31
0.0
 70
    32
 71
     5
 42
0.25
  3
Standard
100
AcDbAlignedDimension
 13
4.437284236114668
 23
3.924298003660201
 33
0.0
 14
4.687284236114668
 24
3.924298003660201
 34
0.0
100
AcDbRotatedDimension
  0
DIMENSION
  5
36F
102
{ACAD_XDICTIONARY
360
37B
102
}
102
{ACAD_REACTORS
330
384
102
}
330
58
100
AcDbEntity
 67
     1
  8
0
 48
0.3
100
AcDbDimension
  2
*D21
 10
7.092645875187363
 20
1.912617894122107
 30
0.0
 11
6.090538268093691
 21
5.299328095114105
 31
0.0
 70
   163
 71
     5
 42
2.356999999999996
  3
Standard
100
AcDbDiametricDimension
 15
6.765536432866811
 25
4.24680906297369
 35
0.0
 40
0.0
1001
ACAD
1000
DSTYLE
1002
{
1070
   288
1070
     1
1002
}
  0
LINE
  5
3C0
102
{ACAD_REACTORS
330
469
102
}
330
58
100
AcDbEntity
 67
     1
  8
0
  6
HIDDENX2
 48
0.3
100
AcDbLine
 10
3.391284236114666
 20
3.966213478547897
 30
0.0
 11
3.466284236114667
 21
3.966213478547897
 31
0.0
  0
LINE
  5
3C1
330
58
100
AcDbEntity
 67
     1
  8
0
  6
HIDDENX2
 48
0.3
100
AcDbLine
 10
3.466284236114667
 20
2.193213478547896
 30
0.0
 11
3.391284236114665
 21
2.193213478547896
 31
0.0
  0
LINE
  5
3C2
102
{ACAD_REACTORS
330
469
102
}
330
58
100
AcDbEntity
 67
     1
  8
0
  6
HIDDENX2
 48
0.3
100
AcDbLine
 10
3.466284236114667
 20
3.966213478547897
 30
0.0
 11
3.466284236114667
 21
2.193213478547896
 31
0.0
  0
LINE
  5
3C3
330
58
100
AcDbEntity
 67
     1
  8
0
  6
HIDDENX2
 48
0.3
100
AcDbLine
 10
3.466284236114667
 20
3.506213478547897
 30
0.0
 11
4.604284236114666
 21
3.506213478547897
 31
0.0
  0
LINE
  5
3C4
330
58
100
AcDbEntity
 67
     1
  8
0
  6
HIDDENX2
 48
0.3
100
AcDbLine
 10
3.466284236114667
 20
2.653213478547898
 30
0.0
 11
4.604284236114666
 21
2.653213478547898
 31
0.0
  0
CIRCLE
  5
3DB
102
{ACAD_REACTORS
330
428
102
}
330
58
100
AcDbEntity
 67
     1
  8
0
 48
0.3
100
AcDbCircle
 10
0.7430648304527479
 20
3.079713478547898
 30
0.0
 40
0.4265
  0
LINE
  5
3EF
330
58
100
AcDbEntity
 67
     1
  8
0
  6
HIDDENX2
 48
0.3
100
AcDbLine
 10
4.604284236114666
 20
3.506213478547897
 30
0.0
 11
4.887284236114668
 21
3.506213478547897
 31
0.0
  0
LINE
  5
3F0
330
58
100
AcDbEntity
 67
     1
  8
0
  6
HIDDENX2
 48
0.3
100
AcDbLine
 10
4.604284236114666
 20
2.653213478547898
 30
0.0
 11
4.887284236114668
 21
2.653213478547898
 31
0.0
  0
LINE
  5
3F1
330
58
100
AcDbEntity
 67
     1
  8
0
  6
threads
 48
0.3
100
AcDbLine
 10
0.8435648304527481
 20
3.873879707998634
 30
0.0
 11
0.8435648304527481
 21
3.494203526679333
 31
0.0
  0
LINE
  5
3F2
330
58
100
AcDbEntity
 67
     1
  8
0
  6
threads
 48
0.3
100
AcDbLine
 10
0.6425648304527482
 20
3.873879707998634
 30
0.0
 11
0.6425648304527481
 21
3.494203526679334
 31
0.0
  0
LINE
  5
3F3
330
58
100
AcDbEntity
 67
     1
  8
0
  6
threads
 48
0.3
100
AcDbLine
 10
1.524125647547038
 20
3.180213478547896
 30
0.0
 11
1.157554878584184
 21
3.180213478547896
 31
0.0
  0
LINE
  5
3F4
330
58
100
AcDbEntity
 67
     1
  8
0
  6
threads
 48
0.3
100
AcDbLine
 10
1.524125647547038
 20
2.979213478547896
 30
0.0
 11
1.157554878584183
 21
2.979213478547896
 31
0.0
  0
LINE
  5
3F5
330
58
100
AcDbEntity
 67
     1
  8
0
  6
threads
 48
0.3
100
AcDbLine
 10
-0.0379959866415419
 20
3.180213478547896
 30
0.0
 11
0.3285747823213118
 21
3.180213478547896
 31
0.0
  0
LINE
  5
3F6
330
58
100
AcDbEntity
 67
     1
  8
0
  6
threads
 48
0.3
100
AcDbLine
 10
-0.0511013989979884
 20
2.979213478547896
 30
0.0
 11
0.3285747823213124
 21
2.979213478547896
 31
0.0
  0
LINE
  5
3F7
330
58
100
AcDbEntity
 67
     1
  8
0
  6
threads
 48
0.3
100
AcDbLine
 10
0.6425648304527478
 20
2.28554724909716
 30
0.0
 11
0.6425648304527478
 21
2.665223430416462
 31
0.0
  0
LINE
  5
3F8
330
58
100
AcDbEntity
 67
     1
  8
0
  6
threads
 48
0.3
100
AcDbLine
 10
0.8435648304527479
 20
2.298652661453608
 30
0.0
 11
0.8435648304527479
 21
2.665223430416462
 31
0.0
  0
LINE
  5
3F9
330
58
100
AcDbEntity
 67
     1
  8
0
  6
threads
 48
0.3
100
AcDbLine
 10
3.573284236114668
 20
3.880145216888541
 30
0.0
 11
3.573284236114668
 21
3.506213478547897
 31
0.0
  0
LINE
  5
3FA
330
58
100
AcDbEntity
 67
     1
  8
0
  6
threads
 48
0.3
100
AcDbLine
 10
3.773284236114667
 20
3.880145216888541
 30
0.0
 11
3.773284236114667
 21
3.506213478547897
 31
0.0
  0
LINE
  5
3FB
330
58
100
AcDbEntity
 67
     1
  8
0
  6
threads
 48
0.3
100
AcDbLine
 10
3.573284236114668
 20
2.279145216888541
 30
0.0
 11
3.573284236114668
 21
2.653213478547898
 31
0.0
  0
LINE
  5
3FC
330
58
100
AcDbEntity
 67
     1
  8
0
  6
threads
 48
0.3
100
AcDbLine
 10
3.773284236114667
 20
2.279145216888541
 30
0.0
 11
3.773284236114667
 21
2.653213478547898
 31
0.0
  0
DIMENSION
  5
413
102
{ACAD_XDICTIONARY
360
41F
102
}
102
{ACAD_REACTORS
330
428
102
}
330
58
100
AcDbEntity
 67
     1
  8
0
 48
0.3
100
AcDbDimension
  2
*D27
 10
0.5450512079577223
 20
2.701966400059662
 30
0.0
 11
2.015944745238751
 21
4.521533222956209
 31
0.0
 70
   163
 71
     5
 42
0.8529999999999994
  3
Standard
100
AcDbDiametricDimension
 15
0.9410784529477735
 25
3.457460557036133
 35
0.0
 40
0.0
1001
ACAD
1000
DSTYLE
1002
{
1070
   288
1070
     1
1002
}
  0
CIRCLE
  5
429
102
{ACAD_REACTORS
330
44F
102
}
330
58
100
AcDbEntity
 67
     1
  8
0
 48
0.3
100
AcDbCircle
 10
6.92909115402708
 20
3.079713478547899
 30
0.0
 40
0.4265
  0
DIMENSION
  5
43A
102
{ACAD_XDICTIONARY
360
446
102
}
102
{ACAD_REACTORS
330
44F
102
}
330
58
100
AcDbEntity
 67
     1
  8
0
 48
0.3
100
AcDbDimension
  2
*D28
 10
6.682453604363493
 20
3.42766774148477
 30
0.0
 11
8.38696087675399
 21
1.752459639264348
 31
0.0
 70
   163
 71
     5
 42
0.8529999999999994
  3
Standard
100
AcDbDiametricDimension
 15
7.175728703690666
 25
2.731759215611028
 35
0.0
 40
0.0
1001
ACAD
1000
DSTYLE
1002
{
1070
   288
1070
     1
1002
}
  0
DIMENSION
  5
450
102
{ACAD_XDICTIONARY
360
45E
102
}
102
{ACAD_REACTORS
330
469
102
}
330
58
100
AcDbEntity
 67
     1
  8
0
 48
0.3
100
AcDbDimension
  2
*D29
 10
3.391284236114666
 20
4.879721852415158
 30
0.0
 11
2.822117569447999
 21
4.879721852415158
 31
0.0
 70
    32
 71
     5
 42
0.0750000000000011
  3
Standard
100
AcDbAlignedDimension
 13
3.466284236114667
 23
3.966213478547897
 33
0.0
 14
3.391284236114666
 24
3.966213478547897
 34
0.0
100
AcDbRotatedDimension
  0
ENDSEC
  0
SECTION
  2
OBJECTS
  0
DICTIONARY
  5
C
330
0
100
AcDbDictionary
281
     1
  3
ACAD_GROUP
350
D
  3
ACAD_LAYOUT
350
1A
  3
ACAD_MLINESTYLE
350
17
  3
ACAD_PLOTSETTINGS
350
19
  3
ACAD_PLOTSTYLENAME
350
E
  3
AcDbVariableDictionary
350
66
  0
DICTIONARY
  5
144
330
138
100
AcDbDictionary
280
     1
281
     1
  3
ACAD_DIMASSOC
360
14D
  0
DICTIONARY
  5
15E
330
152
100
AcDbDictionary
280
     1
281
     1
  3
ACAD_DIMASSOC
360
167
  0
DICTIONARY
  5
1E2
330
1D6
100
AcDbDictionary
280
     1
281
     1
  3
ACAD_DIMASSOC
360
1EB
  0
DICTIONARY
  5
220
330
212
100
AcDbDictionary
280
     1
281
     1
  3
ACAD_DIMASSOC
360
22B
  0
DICTIONARY
  5
23A
330
22C
100
AcDbDictionary
280
     1
281
     1
  3
ACAD_DIMASSOC
360
245
  0
DICTIONARY
  5
254
330
246
100
AcDbDictionary
280
     1
281
     1
  3
ACAD_DIMASSOC
360
25F
  0
DICTIONARY
  5
288
330
27A
100
AcDbDictionary
280
     1
281
     1
  3
ACAD_DIMASSOC
360
293
  0
DICTIONARY
  5
2CA
330
2C8
100
AcDbDictionary
280
     1
281
     1
  3
ACAD_DIMASSOC
360
2CB
  0
DICTIONARY
  5
2EA
330
2DE
100
AcDbDictionary
280
     1
281
     1
  3
ACAD_DIMASSOC
360
2F3
  0
DICTIONARY
  5
318
330
317
100
AcDbDictionary
280
     1
281
     1
  3
ACAD_DIMASSOC
360
319
  0
DICTIONARY
  5
363
330
355
100
AcDbDictionary
280
     1
281
     1
  3
ACAD_DIMASSOC
360
36E
  0
DICTIONARY
  5
37B
330
36F
100
AcDbDictionary
280
     1
281
     1
  3
ACAD_DIMASSOC
360
384
  0
DICTIONARY
  5
41F
330
413
100
AcDbDictionary
280
     1
281
     1
  3
ACAD_DIMASSOC
360
428
  0
DICTIONARY
  5
446
330
43A
100
AcDbDictionary
280
     1
281
     1
  3
ACAD_DIMASSOC
360
44F
  0
DICTIONARY
  5
45E
330
450
100
AcDbDictionary
280
     1
281
     1
  3
ACAD_DIMASSOC
360
469
  0
DICTIONARY
  5
D
102
{ACAD_REACTORS
330
C
102
}
330
C
100
AcDbDictionary
281
     1
  0
DICTIONARY
  5
1A
102
{ACAD_REACTORS
330
C
102
}
330
C
100
AcDbDictionary
281
     1
  3
Layout1
350
59
  3
Layout2
350
5E
  3
Model
350
22
  0
DICTIONARY
  5
17
102
{ACAD_REACTORS
330
C
102
}
330
C
100
AcDbDictionary
281
     1
  3
Standard
350
18
  0
DICTIONARY
  5
19
102
{ACAD_REACTORS
330
C
102
}
330
C
100
AcDbDictionary
281
     1
  0
ACDBDICTIONARYWDFLT
  5
E
102
{ACAD_REACTORS
330
C
102
}
330
C
100
AcDbDictionary
281
     1
  3
Normal
350
F
100
AcDbDictionaryWithDefault
340
F
  0
DICTIONARY
  5
66
102
{ACAD_REACTORS
330
C
102
}
330
C
100
AcDbDictionary
281
     1
  3
DIMASSOC
350
67
  3
HIDETEXT
350
6B
  0
DIMASSOC
  5
14D
102
{ACAD_REACTORS
330
144
102
}
330
144
100
AcDbDimAssoc
330
138
 90
        2
 70
     0
 71
     0
  1
AcDbOsnapPointRef
 72
     3
331
B7
 73
     2
 91
        0
 40
0.0
 10
0.0
 20
0.0
 30
0.0
 75
     0
  0
DIMASSOC
  5
167
102
{ACAD_REACTORS
330
15E
102
}
330
15E
100
AcDbDimAssoc
330
152
 90
        2
 70
     0
 71
     0
  1
AcDbOsnapPointRef
 72
     3
331
104
 73
     2
 91
        0
 40
0.0
 10
0.0
 20
0.0
 30
0.0
 75
     0
  0
DIMASSOC
  5
1EB
102
{ACAD_REACTORS
330
1E2
102
}
330
1E2
100
AcDbDimAssoc
330
1D6
 90
        2
 70
     0
 71
     0
  1
AcDbOsnapPointRef
 72
     3
331
150
 73
     2
 91
        0
 40
0.0
 10
6.929091154027084
 20
3.079713478547898
 30
0.0
 75
     0
  0
DIMASSOC
  5
22B
102
{ACAD_REACTORS
330
220
102
}
330
220
100
AcDbDimAssoc
330
212
 90
        3
 70
     0
 71
     0
  1
AcDbOsnapPointRef
 72
     1
331
BE
 73
     2
 91
        0
 40
1.0
 10
3.391284236114668
 20
1.901213478547898
 30
0.0
 75
     0
  1
AcDbOsnapPointRef
 72
     1
331
12A
 73
     2
 91
        0
 40
0.9999999999999998
 10
4.887284236114668
 20
2.354213478547895
 30
0.0
 75
     0
  0
DIMASSOC
  5
245
102
{ACAD_REACTORS
330
23A
102
}
330
23A
100
AcDbDimAssoc
330
22C
 90
        3
 70
     0
 71
     0
  1
AcDbOsnapPointRef
 72
    13
331
BE
 73
     2
 91
        0
 40
0.0
 10
4.391284236114668
 20
1.901213478547898
 30
0.0
 75
     0
  1
AcDbOsnapPointRef
 72
     1
331
BE
 73
     2
 91
        0
 40
1.0
 10
3.391284236114668
 20
1.901213478547898
 30
0.0
 75
     0
  0
DIMASSOC
  5
25F
102
{ACAD_REACTORS
330
254
102
}
330
254
100
AcDbDimAssoc
330
246
 90
        2
 70
     0
 71
     0
  1
AcDbOsnapPointRef
 72
     1
331
12A
 73
     2
 91
        0
 40
0.9999999999999998
 10
4.887284236114668
 20
2.354213478547895
 30
0.0
 75
     0
  0
DIMASSOC
  5
293
102
{ACAD_REACTORS
330
288
102
}
330
288
100
AcDbDimAssoc
330
27A
 90
        1
 70
     0
 71
     0
  1
AcDbOsnapPointRef
 72
     3
331
EF
 73
     2
 91
        0
 40
0.0
 10
3.673284236114668
 20
3.079713478547898
 30
0.0
 75
     0
  0
DIMASSOC
  5
2CB
102
{ACAD_REACTORS
330
2CA
102
}
330
2CA
100
AcDbDimAssoc
330
2C8
 90
        1
 70
     0
 71
     0
  1
AcDbOsnapPointRef
 72
     6
331
111
 73
     2
 91
        0
 40
1.0
 10
0.6425648304527477
 20
1.905506512123323
 30
0.0
332
B7
 74
     2
 92
        0
 75
     0
  0
DIMASSOC
  5
2F3
102
{ACAD_REACTORS
330
2EA
102
}
330
2EA
100
AcDbDimAssoc
330
2DE
 90
        2
 70
     0
 71
     0
  1
AcDbOsnapPointRef
 72
     3
331
2DD
 73
     2
 91
        0
 40
0.0
 10
0.0
 20
0.0
 30
0.0
 75
     0
  0
DIMASSOC
  5
319
102
{ACAD_REACTORS
330
318
102
}
330
318
100
AcDbDimAssoc
330
317
 90
        1
 70
     0
 71
     0
  1
AcDbOsnapPointRef
 72
     3
331
31A
 73
     2
 91
        0
 40
0.0
 10
6.929091154027076
 20
3.879713478547896
 30
0.0
 75
     0
  0
DIMASSOC
  5
36E
102
{ACAD_REACTORS
330
363
102
}
330
363
100
AcDbDimAssoc
330
355
 90
        3
 70
     0
 71
     0
  1
AcDbOsnapPointRef
 72
     1
331
34F
 73
     2
 91
        0
 40
1.0
 10
4.437284236114668
 20
3.924298003660201
 30
0.0
 75
     0
  1
AcDbOsnapPointRef
 72
    13
331
34F
 73
     2
 91
        0
 40
0.0
 10
4.687284236114668
 20
3.924298003660201
 30
0.0
 75
     0
  0
DIMASSOC
  5
384
102
{ACAD_REACTORS
330
37B
102
}
330
37B
100
AcDbDimAssoc
330
36F
 90
        2
 70
     0
 71
     0
  1
AcDbOsnapPointRef
 72
     3
331
14E
 73
     2
 91
        0
 40
0.0
 10
0.0
 20
0.0
 30
0.0
 75
     0
  0
DIMASSOC
  5
428
102
{ACAD_REACTORS
330
41F
102
}
330
41F
100
AcDbDimAssoc
330
413
 90
        2
 70
     0
 71
     0
  1
AcDbOsnapPointRef
 72
     3
331
3DB
 73
     2
 91
        0
 40
0.0
 10
0.0
 20
0.0
 30
0.0
 75
     0
  0
DIMASSOC
  5
44F
102
{ACAD_REACTORS
330
446
102
}
330
446
100
AcDbDimAssoc
330
43A
 90
        2
 70
     0
 71
     0
  1
AcDbOsnapPointRef
 72
     3
331
429
 73
     2
 91
        0
 40
0.0
 10
0.0
 20
0.0
 30
0.0
 75
     0
  0
DIMASSOC
  5
469
102
{ACAD_REACTORS
330
45E
102
}
330
45E
100
AcDbDimAssoc
330
450
 90
        3
 70
     0
 71
     0
  1
AcDbOsnapPointRef
 72
    13
331
3C2
 73
     2
 91
        0
 40
0.0
 10
3.466284236114667
 20
3.966213478547897
 30
0.0
 75
     0
  1
AcDbOsnapPointRef
 72
    13
331
3C0
 73
     2
 91
        0
 40
0.0
 10
3.391284236114666
 20
3.966213478547897
 30
0.0
 75
     0
  0
LAYOUT
  5
59
102
{ACAD_REACTORS
330
1A
102
}
330
1A
100
AcDbPlotSettings
  1

  2
none_device
  4
Letter_(8.50_x_11.00_Inches)
  6

 40
6.349999904632567
 41
6.349999904632567
 42
6.350006103515625
 43
6.350006103515625
 44
215.8999938964841
 45
279.3999938964843
 46
38.3032
 47
38.15079999999999
 48
0.0
 49
0.0
140
0.0
141
0.0
142
1.0
143
1.0
 70
   688
 72
     0
 73
     1
 74
     5
  7

 75
    16
147
1.0
148
0.0
149
0.0
100
AcDbLayout
  1
Layout1
 70
     1
 71
     1
 10
-1.75200024029589
 20
-1.757999996245374
 11
9.247999519408216
 21
6.741999763458728
 12
0.0
 22
0.0
 32
0.0
 14
-1.439262267973588
 24
-1.41285528304607
 34
0.0
 15
8.966538218833356
 25
6.396855050259421
 35
0.0
146
0.0
 13
0.0
 23
0.0
 33
0.0
 16
1.0
 26
0.0
 36
0.0
 17
0.0
 27
1.0
 37
0.0
 76
     0
330
58
331
77
  0
LAYOUT
  5
5E
102
{ACAD_REACTORS
330
1A
102
}
330
1A
100
AcDbPlotSettings
  1

  2
None
  4

  6

 40
0.0
 41
0.0
 42
0.0
 43
0.0
 44
0.0
 45
0.0
 46
0.0
 47
0.0
 48
0.0
 49
0.0
140
0.0
141
0.0
142
1.0
143
1.0
 70
   688
 72
     0
 73
     0
 74
     5
  7

 75
    16
147
1.0
148
0.0
149
0.0
100
AcDbLayout
  1
Layout2
 70
     1
 71
     2
 10
0.0
 20
0.0
 11
12.0
 21
9.0
 12
0.0
 22
0.0
 32
0.0
 14
0.0
 24
0.0
 34
0.0
 15
0.0
 25
0.0
 35
0.0
146
0.0
 13
0.0
 23
0.0
 33
0.0
 16
1.0
 26
0.0
 36
0.0
 17
0.0
 27
1.0
 37
0.0
 76
     0
330
5D
  0
LAYOUT
  5
22
102
{ACAD_REACTORS
330
1A
102
}
330
1A
100
AcDbPlotSettings
  1

  2
none_device
  4
ANSI_A_(8.50_x_11.00_Inches)
  6

 40
6.349999904632567
 41
19.04999923706053
 42
6.350006103515625
 43
19.04998779296875
 44
215.8999938964841
 45
279.3999938964843
 46
0.0
 47
0.0
 48
0.0
 49
0.0
140
0.0
141
0.0
142
1.0
143
2.584895464708373
 70
 11952
 72
     0
 73
     1
 74
     0
  7

 75
     0
147
0.3868628397755418
148
0.0
149
0.0
100
AcDbLayout
  1
Model
 70
     1
 71
     0
 10
0.0
 20
0.0
 11
12.0
 21
9.0
 12
0.0
 22
0.0
 32
0.0
 14
0.0
 24
0.0
 34
0.0
 15
0.0
 25
0.0
 35
0.0
146
0.0
 13
0.0
 23
0.0
 33
0.0
 16
1.0
 26
0.0
 36
0.0
 17
0.0
 27
1.0
 37
0.0
 76
     0
330
1F
  0
MLINESTYLE
  5
18
102
{ACAD_REACTORS
330
17
102
}
330
17
100
AcDbMlineStyle
  2
STANDARD
 70
     0
  3

 62
   256
 51
90.0
 52
90.0
 71
     2
 49
0.5
 62
   256
  6
BYLAYER
 49
-0.5
 62
   256
  6
BYLAYER
  0
ACDBPLACEHOLDER
  5
F
102
{ACAD_REACTORS
330
E
102
}
330
E
  0
DICTIONARYVAR
  5
67
102
{ACAD_REACTORS
330
66
102
}
330
66
100
DictionaryVariables
280
     0
  1
2
  0
DICTIONARYVAR
  5
6B
102
{ACAD_REACTORS
330
66
102
}
330
66
100
DictionaryVariables
280
     0
  1
1
  0
ENDSEC
  0
EOF
