  0
SECTION
  2
HEADER
  9
$ACADVER
  1
AC1015
  9
$ACADMAINTVER
 70
    13
  9
$DWGCODEPAGE
  3
ANSI_1252
  9
$INSBASE
 10
0.0
 20
0.0
 30
0.0
  9
$EXTMIN
 10
1.000000000000000E+20
 20
1.000000000000000E+20
 30
1.000000000000000E+20
  9
$EXTMAX
 10
-1.000000000000000E+20
 20
-1.000000000000000E+20
 30
-1.000000000000000E+20
  9
$LIMMIN
 10
0.0
 20
0.0
  9
$LIMMAX
 10
12.0
 20
9.0
  9
$ORTHOMODE
 70
     0
  9
$REGENMODE
 70
     1
  9
$FILLMODE
 70
     1
  9
$QTEXTMODE
 70
     0
  9
$MIRRTEXT
 70
     1
  9
$LTSCALE
 40
0.3
  9
$ATTMODE
 70
     1
  9
$TEXTSIZE
 40
0.2
  9
$TRACEWID
 40
0.05
  9
$TEXTSTYLE
  7
Standard
  9
$CLAYER
  8
0
  9
$CELTYPE
  6
ByLayer
  9
$CECOLOR
 62
   256
  9
$CELTSCALE
 40
0.3
  9
$DISPSILH
 70
     0
  9
$DIMSCALE
 40
1.0
  9
$DIMASZ
 40
0.125
  9
$DIMEXO
 40
0.0625
  9
$DIMDLI
 40
0.38
  9
$DIMRND
 40
0.0
  9
$DIMDLE
 40
0.0
  9
$DIMEXE
 40
0.18
  9
$DIMTP
 40
0.0
  9
$DIMTM
 40
0.0
  9
$DIMTXT
 40
0.125
  9
$DIMCEN
 40
0.09
  9
$DIMTSZ
 40
0.0
  9
$DIMTOL
 70
     0
  9
$DIMLIM
 70
     0
  9
$DIMTIH
 70
     1
  9
$DIMTOH
 70
     1
  9
$DIMSE1
 70
     0
  9
$DIMSE2
 70
     0
  9
$DIMTAD
 70
     0
  9
$DIMZIN
 70
     0
  9
$DIMBLK
  1

  9
$DIMASO
 70
     1
  9
$DIMSHO
 70
     1
  9
$DIMPOST
  1

  9
$DIMAPOST
  1

  9
$DIMALT
 70
     0
  9
$DIMALTD
 70
     2
  9
$DIMALTF
 40
25.4
  9
$DIMLFAC
 40
1.0
  9
$DIMTOFL
 70
     0
  9
$DIMTVP
 40
0.0
  9
$DIMTIX
 70
     0
  9
$DIMSOXD
 70
     0
  9
$DIMSAH
 70
     0
  9
$DIMBLK1
  1

  9
$DIMBLK2
  1

  9
$DIMSTYLE
  2
Standard
  9
$DIMCLRD
 70
     0
  9
$DIMCLRE
 70
     0
  9
$DIMCLRT
 70
     0
  9
$DIMTFAC
 40
1.0
  9
$DIMGAP
 40
0.09
  9
$DIMJUST
 70
     0
  9
$DIMSD1
 70
     0
  9
$DIMSD2
 70
     0
  9
$DIMTOLJ
 70
     1
  9
$DIMTZIN
 70
     0
  9
$DIMALTZ
 70
     0
  9
$DIMALTTZ
 70
     0
  9
$DIMUPT
 70
     0
  9
$DIMDEC
 70
     3
  9
$DIMTDEC
 70
     3
  9
$DIMALTU
 70
     2
  9
$DIMALTTD
 70
     2
  9
$DIMTXSTY
  7
Standard
  9
$DIMAUNIT
 70
     0
  9
$DIMADEC
 70
     0
  9
$DIMALTRND
 40
0.0
  9
$DIMAZIN
 70
     0
  9
$DIMDSEP
 70
    46
  9
$DIMATFIT
 70
     3
  9
$DIMFRAC
 70
     0
  9
$DIMLDRBLK
  1

  9
$DIMLUNIT
 70
     2
  9
$DIMLWD
 70
    -2
  9
$DIMLWE
 70
    -2
  9
$DIMTMOVE
 70
     0
  9
$LUNITS
 70
     2
  9
$LUPREC
 70
     4
  9
$SKETCHINC
 40
0.1
  9
$FILLETRAD
 40
0.5
  9
$AUNITS
 70
     0
  9
$AUPREC
 70
     0
  9
$MENU
  1
.
  9
$ELEVATION
 40
0.0
  9
$PELEVATION
 40
0.0
  9
$THICKNESS
 40
0.0
  9
$LIMCHECK
 70
     0
  9
$CHAMFERA
 40
0.5
  9
$CHAMFERB
 40
0.5
  9
$CHAMFERC
 40
1.0
  9
$CHAMFERD
 40
0.0
  9
$SKPOLY
 70
     0
  9
$TDCREATE
 40
2454412.579853507
  9
$TDUCREATE
 40
2454412.788186840
  9
$TDUPDATE
 40
2455799.871684363
  9
$TDUUPDATE
 40
2455800.080017696
  9
$TDINDWG
 40
0.1286648611
  9
$TDUSRTIMER
 40
0.1286638194
  9
$USRTIMER
 70
     1
  9
$ANGBASE
 50
0.0
  9
$ANGDIR
 70
     0
  9
$PDMODE
 70
     0
  9
$PDSIZE
 40
0.0
  9
$PLINEWID
 40
0.0
  9
$SPLFRAME
 70
     0
  9
$SPLINETYPE
 70
     6
  9
$SPLINESEGS
 70
     8
  9
$HANDSEED
  5
712
  9
$SURFTAB1
 70
     6
  9
$SURFTAB2
 70
     6
  9
$SURFTYPE
 70
     6
  9
$SURFU
 70
     6
  9
$SURFV
 70
     6
  9
$UCSBASE
  2

  9
$UCSNAME
  2

  9
$UCSORG
 10
0.0
 20
0.0
 30
0.0
  9
$UCSXDIR
 10
1.0
 20
0.0
 30
0.0
  9
$UCSYDIR
 10
0.0
 20
1.0
 30
0.0
  9
$UCSORTHOREF
  2

  9
$UCSORTHOVIEW
 70
     0
  9
$UCSORGTOP
 10
0.0
 20
0.0
 30
0.0
  9
$UCSORGBOTTOM
 10
0.0
 20
0.0
 30
0.0
  9
$UCSORGLEFT
 10
0.0
 20
0.0
 30
0.0
  9
$UCSORGRIGHT
 10
0.0
 20
0.0
 30
0.0
  9
$UCSORGFRONT
 10
0.0
 20
0.0
 30
0.0
  9
$UCSORGBACK
 10
0.0
 20
0.0
 30
0.0
  9
$PUCSBASE
  2

  9
$PUCSNAME
  2

  9
$PUCSORG
 10
0.0
 20
0.0
 30
0.0
  9
$PUCSXDIR
 10
1.0
 20
0.0
 30
0.0
  9
$PUCSYDIR
 10
0.0
 20
1.0
 30
0.0
  9
$PUCSORTHOREF
  2

  9
$PUCSORTHOVIEW
 70
     0
  9
$PUCSORGTOP
 10
0.0
 20
0.0
 30
0.0
  9
$PUCSORGBOTTOM
 10
0.0
 20
0.0
 30
0.0
  9
$PUCSORGLEFT
 10
0.0
 20
0.0
 30
0.0
  9
$PUCSORGRIGHT
 10
0.0
 20
0.0
 30
0.0
  9
$PUCSORGFRONT
 10
0.0
 20
0.0
 30
0.0
  9
$PUCSORGBACK
 10
0.0
 20
0.0
 30
0.0
  9
$USERI1
 70
     0
  9
$USERI2
 70
     0
  9
$USERI3
 70
     0
  9
$USERI4
 70
     0
  9
$USERI5
 70
     0
  9
$USERR1
 40
0.0
  9
$USERR2
 40
0.0
  9
$USERR3
 40
0.0
  9
$USERR4
 40
0.0
  9
$USERR5
 40
0.0
  9
$WORLDVIEW
 70
     1
  9
$SHADEDGE
 70
     3
  9
$SHADEDIF
 70
    70
  9
$TILEMODE
 70
     0
  9
$MAXACTVP
 70
    64
  9
$PINSBASE
 10
0.0
 20
0.0
 30
0.0
  9
$PLIMCHECK
 70
     0
  9
$PEXTMIN
 10
-1.439262267973588
 20
-1.41285528304607
 30
0.0
  9
$PEXTMAX
 10
8.966538218833356
 20
6.396855050259421
 30
0.0
  9
$PLIMMIN
 10
-1.75200024029589
 20
-1.757999996245374
  9
$PLIMMAX
 10
9.247999519408216
 20
6.741999763458729
  9
$UNITMODE
 70
     0
  9
$VISRETAIN
 70
     1
  9
$PLINEGEN
 70
     0
  9
$PSLTSCALE
 70
     1
  9
$TREEDEPTH
 70
  3020
  9
$CMLSTYLE
  2
Standard
  9
$CMLJUST
 70
     0
  9
$CMLSCALE
 40
1.0
  9
$PROXYGRAPHICS
 70
     1
  9
$MEASUREMENT
 70
     0
  9
$CELWEIGHT
370
    -1
  9
$ENDCAPS
280
     0
  9
$JOINSTYLE
280
     0
  9
$LWDISPLAY
290
     0
  9
$INSUNITS
 70
     1
  9
$HYPERLINKBASE
  1

  9
$STYLESHEET
  1

  9
$XEDIT
290
     1
  9
$CEPSNTYPE
380
     0
  9
$PSTYLEMODE
290
     1
  9
$FINGERPRINTGUID
  2
{FDEAD576-A652-11D2-9A35-0060089B3A3F}
  9
$VERSIONGUID
  2
{3203E5EE-16D3-4686-B3CC-2C80FB1A1077}
  9
$EXTNAMES
290
     1
  9
$PSVPSCALE
 40
0.0
  9
$OLESTARTUP
290
     0
  0
ENDSEC
  0
SECTION
  2
CLASSES
  0
CLASS
  1
ACDBDICTIONARYWDFLT
  2
AcDbDictionaryWithDefault
  3
AutoCAD 2000
 90
        0
280
     0
281
     0
  0
CLASS
  1
ACDBPLACEHOLDER
  2
AcDbPlaceHolder
  3
AutoCAD 2000
 90
        0
280
     0
281
     0
  0
CLASS
  1
LAYOUT
  2
AcDbLayout
  3
AutoCAD 2000
 90
        0
280
     0
281
     0
  0
CLASS
  1
DICTIONARYVAR
  2
AcDbDictionaryVar
  3
AutoCAD 2000
 90
        0
280
     0
281
     0
  0
CLASS
  1
DIMASSOC
  2
AcDbDimAssoc
  3
"AcDbDimAssoc|Product Desc:     AcDim ARX App For Dimension|Company:          Autodesk, Inc.|WEB Address:      www.autodesk.com"
 90
        0
280
     0
281
     0
  0
ENDSEC
  0
SECTION
  2
TABLES
  0
TABLE
  2
VPORT
  5
8
330
0
100
AcDbSymbolTable
 70
     1
  0
VPORT
  5
74
330
8
100
AcDbSymbolTableRecord
100
AcDbViewportTableRecord
  2
*Active
 70
     0
 10
0.0
 20
0.0
 11
1.0
 21
1.0
 12
20.48748698095427
 22
9.784138269231398
 13
0.0
 23
0.0
 14
0.5
 24
0.5
 15
0.5
 25
0.5
 16
0.0
 26
0.0
 36
1.0
 17
0.0
 27
0.0
 37
0.0
 40
19.56827653846278
 41
2.093949044585985
 42
50.0
 43
0.0
 44
0.0
 50
0.0
 51
0.0
 71
     0
 72
   100
 73
     1
 74
     3
 75
     0
 76
     0
 77
     0
 78
     0
281
     0
 65
     1
110
0.0
120
0.0
130
0.0
111
1.0
121
0.0
131
0.0
112
0.0
122
1.0
132
0.0
 79
     0
146
0.0
  0
ENDTAB
  0
TABLE
  2
LTYPE
  5
5
330
0
100
AcDbSymbolTable
 70
     3
  0
LTYPE
  5
14
330
5
100
AcDbSymbolTableRecord
100
AcDbLinetypeTableRecord
  2
ByBlock
 70
     0
  3

 72
    65
 73
     0
 40
0.0
  0
LTYPE
  5
15
330
5
100
AcDbSymbolTableRecord
100
AcDbLinetypeTableRecord
  2
ByLayer
 70
     0
  3

 72
    65
 73
     0
 40
0.0
  0
LTYPE
  5
16
330
5
100
AcDbSymbolTableRecord
100
AcDbLinetypeTableRecord
  2
Continuous
 70
     0
  3
Solid line
 72
    65
 73
     0
 40
0.0
  0
LTYPE
  5
92
330
5
100
AcDbSymbolTableRecord
100
AcDbLinetypeTableRecord
  2
HIDDENX2
 70
     0
  3
Hidden (2x) ____ ____ ____ ____ ____ ____ ____
 72
    65
 73
     2
 40
0.75
 49
0.5
 74
     0
 49
-0.25
 74
     0
  0
LTYPE
  5
93
330
5
100
AcDbSymbolTableRecord
100
AcDbLinetypeTableRecord
  2
threads
 70
     0
  3
Zig zag /\/\/\/\/\/\/\/\/\/\/\/\/\/\/\/\/\/\/\/
 72
    65
 73
     4
 40
0.8001000000000001
 49
0.0001
 74
     0
 49
-0.2
 74
     4
 75
   131
340
91
 46
0.2
 50
0.0
 44
-0.2
 45
0.0
 49
-0.4
 74
     4
 75
   131
340
91
 46
0.2
 50
180.0
 44
0.2
 45
0.0
 49
-0.2
 74
     0
  0
ENDTAB
  0
TABLE
  2
LAYER
  5
2
330
0
100
AcDbSymbolTable
 70
     2
  0
LAYER
  5
10
330
2
100
AcDbSymbolTableRecord
100
AcDbLayerTableRecord
  2
0
 70
     0
 62
     7
  6
Continuous
370
    -3
390
F
  0
LAYER
  5
E2
330
2
100
AcDbSymbolTableRecord
100
AcDbLayerTableRecord
  2
Defpoints
 70
     0
 62
     7
  6
Continuous
290
     0
370
    -3
390
F
  0
ENDTAB
  0
TABLE
  2
STYLE
  5
3
330
0
100
AcDbSymbolTable
 70
     2
  0
STYLE
  5
11
330
3
100
AcDbSymbolTableRecord
100
AcDbTextStyleTableRecord
  2
Standard
 70
     0
 40
0.0
 41
1.0
 50
0.0
 71
     0
 42
0.2
  3
txt
  4

  0
STYLE
  5
91
330
3
100
AcDbSymbolTableRecord
100
AcDbTextStyleTableRecord
  2

 70
     1
 40
0.0
 41
1.0
 50
0.0
 71
     0
 42
0.2
  3
ltypeshp.shx
  4

  0
ENDTAB
  0
TABLE
  2
VIEW
  5
6
330
0
100
AcDbSymbolTable
 70
     0
  0
ENDTAB
  0
TABLE
  2
UCS
  5
7
330
0
100
AcDbSymbolTable
 70
     0
  0
ENDTAB
  0
TABLE
  2
APPID
  5
9
330
0
100
AcDbSymbolTable
 70
     1
  0
APPID
  5
12
330
9
100
AcDbSymbolTableRecord
100
AcDbRegAppTableRecord
  2
ACAD
 70
     0
  0
ENDTAB
  0
TABLE
  2
DIMSTYLE
  5
A
330
0
100
AcDbSymbolTable
 70
     1
100
AcDbDimStyleTable
 71
     1
340
27
  0
DIMSTYLE
105
27
102
{ACAD_REACTORS
330
50C
330
522
330
57A
330
5BC
330
5D6
330
5F0
330
63F
330
659
330
66F
330
6CB
330
6E2
330
6F8
102
}
330
A
100
AcDbSymbolTableRecord
100
AcDbDimStyleTableRecord
  2
Standard
 70
     0
 41
0.125
140
0.125
271
     3
272
     3
340
11
  0
ENDTAB
  0
TABLE
  2
BLOCK_RECORD
  5
1
330
0
100
AcDbSymbolTable
 70
    39
  0
BLOCK_RECORD
  5
1F
330
1
100
AcDbSymbolTableRecord
100
AcDbBlockTableRecord
  2
*Model_Space
340
22
  0
BLOCK_RECORD
  5
58
330
1
100
AcDbSymbolTableRecord
100
AcDbBlockTableRecord
  2
*Paper_Space
340
59
  0
BLOCK_RECORD
  5
5D
330
1
100
AcDbSymbolTableRecord
100
AcDbBlockTableRecord
  2
*Paper_Space0
340
5E
  0
BLOCK_RECORD
  5
FD
330
1
100
AcDbSymbolTableRecord
100
AcDbBlockTableRecord
  2
*D1
340
0
  0
BLOCK_RECORD
  5
117
330
1
100
AcDbSymbolTableRecord
100
AcDbBlockTableRecord
  2
*D2
340
0
  0
BLOCK_RECORD
  5
14B
330
1
100
AcDbSymbolTableRecord
100
AcDbBlockTableRecord
  2
*D3
340
0
  0
BLOCK_RECORD
  5
17F
330
1
100
AcDbSymbolTableRecord
100
AcDbBlockTableRecord
  2
*D4
340
0
  0
BLOCK_RECORD
  5
195
330
1
100
AcDbSymbolTableRecord
100
AcDbBlockTableRecord
  2
*D5
340
0
  0
BLOCK_RECORD
  5
1AB
330
1
100
AcDbSymbolTableRecord
100
AcDbBlockTableRecord
  2
*D6
340
0
  0
BLOCK_RECORD
  5
288
330
1
100
AcDbSymbolTableRecord
100
AcDbBlockTableRecord
  2
*D7
340
0
  0
BLOCK_RECORD
  5
29E
330
1
100
AcDbSymbolTableRecord
100
AcDbBlockTableRecord
  2
*D8
340
0
  0
BLOCK_RECORD
  5
315
330
1
100
AcDbSymbolTableRecord
100
AcDbBlockTableRecord
  2
*D9
340
0
  0
BLOCK_RECORD
  5
32F
330
1
100
AcDbSymbolTableRecord
100
AcDbBlockTableRecord
  2
*D10
340
0
  0
BLOCK_RECORD
  5
38C
330
1
100
AcDbSymbolTableRecord
100
AcDbBlockTableRecord
  2
*D11
340
0
  0
BLOCK_RECORD
  5
3B0
330
1
100
AcDbSymbolTableRecord
100
AcDbBlockTableRecord
  2
*D12
340
0
  0
BLOCK_RECORD
  5
3C6
330
1
100
AcDbSymbolTableRecord
100
AcDbBlockTableRecord
  2
*D13
340
0
  0
BLOCK_RECORD
  5
3EA
330
1
100
AcDbSymbolTableRecord
100
AcDbBlockTableRecord
  2
*D14
340
0
  0
BLOCK_RECORD
  5
417
330
1
100
AcDbSymbolTableRecord
100
AcDbBlockTableRecord
  2
*D15
340
0
  0
BLOCK_RECORD
  5
431
330
1
100
AcDbSymbolTableRecord
100
AcDbBlockTableRecord
  2
*D16
340
0
  0
BLOCK_RECORD
  5
44B
330
1
100
AcDbSymbolTableRecord
100
AcDbBlockTableRecord
  2
*D17
340
0
  0
BLOCK_RECORD
  5
465
330
1
100
AcDbSymbolTableRecord
100
AcDbBlockTableRecord
  2
*D18
340
0
  0
BLOCK_RECORD
  5
47F
330
1
100
AcDbSymbolTableRecord
100
AcDbBlockTableRecord
  2
*D19
340
0
  0
BLOCK_RECORD
  5
50D
330
1
100
AcDbSymbolTableRecord
100
AcDbBlockTableRecord
  2
*D20
340
0
  0
BLOCK_RECORD
  5
523
330
1
100
AcDbSymbolTableRecord
100
AcDbBlockTableRecord
  2
*D21
340
0
  0
BLOCK_RECORD
  5
539
330
1
100
AcDbSymbolTableRecord
100
AcDbBlockTableRecord
  2
*D22
340
0
  0
BLOCK_RECORD
  5
54F
330
1
100
AcDbSymbolTableRecord
100
AcDbBlockTableRecord
  2
*D23
340
0
  0
BLOCK_RECORD
  5
565
330
1
100
AcDbSymbolTableRecord
100
AcDbBlockTableRecord
  2
*D24
340
0
  0
BLOCK_RECORD
  5
57B
330
1
100
AcDbSymbolTableRecord
100
AcDbBlockTableRecord
  2
*D25
340
0
  0
BLOCK_RECORD
  5
591
330
1
100
AcDbSymbolTableRecord
100
AcDbBlockTableRecord
  2
*D26
340
0
  0
BLOCK_RECORD
  5
5A7
330
1
100
AcDbSymbolTableRecord
100
AcDbBlockTableRecord
  2
*D27
340
0
  0
BLOCK_RECORD
  5
5BD
330
1
100
AcDbSymbolTableRecord
100
AcDbBlockTableRecord
  2
*D28
340
0
  0
BLOCK_RECORD
  5
5D7
330
1
100
AcDbSymbolTableRecord
100
AcDbBlockTableRecord
  2
*D29
340
0
  0
BLOCK_RECORD
  5
5F1
330
1
100
AcDbSymbolTableRecord
100
AcDbBlockTableRecord
  2
*D30
340
0
  0
BLOCK_RECORD
  5
640
330
1
100
AcDbSymbolTableRecord
100
AcDbBlockTableRecord
  2
*D31
340
0
  0
BLOCK_RECORD
  5
65A
330
1
100
AcDbSymbolTableRecord
100
AcDbBlockTableRecord
  2
*D32
340
0
  0
BLOCK_RECORD
  5
670
330
1
100
AcDbSymbolTableRecord
100
AcDbBlockTableRecord
  2
*D33
340
0
  0
BLOCK_RECORD
  5
686
330
1
100
AcDbSymbolTableRecord
100
AcDbBlockTableRecord
  2
*D34
340
0
  0
BLOCK_RECORD
  5
6CC
330
1
100
AcDbSymbolTableRecord
100
AcDbBlockTableRecord
  2
*D36
340
0
  0
BLOCK_RECORD
  5
6E3
330
1
100
AcDbSymbolTableRecord
100
AcDbBlockTableRecord
  2
*D37
340
0
  0
BLOCK_RECORD
  5
6F9
330
1
100
AcDbSymbolTableRecord
100
AcDbBlockTableRecord
  2
*D38
340
0
  0
ENDTAB
  0
ENDSEC
  0
SECTION
  2
BLOCKS
  0
BLOCK
  5
20
330
1F
100
AcDbEntity
  8
0
100
AcDbBlockBegin
  2
*Model_Space
 70
     0
 10
0.0
 20
0.0
 30
0.0
  3
*Model_Space
  1

  0
ENDBLK
  5
21
330
1F
100
AcDbEntity
  8
0
100
AcDbBlockEnd
  0
BLOCK
  5
5A
330
58
100
AcDbEntity
 67
     1
  8
0
100
AcDbBlockBegin
  2
*Paper_Space
 70
     0
 10
0.0
 20
0.0
 30
0.0
  3
*Paper_Space
  1

  0
ENDBLK
  5
5B
330
58
100
AcDbEntity
 67
     1
  8
0
100
AcDbBlockEnd
  0
BLOCK
  5
5F
330
5D
100
AcDbEntity
  8
0
100
AcDbBlockBegin
  2
*Paper_Space0
 70
     0
 10
0.0
 20
0.0
 30
0.0
  3
*Paper_Space0
  1

  0
ENDBLK
  5
60
330
5D
100
AcDbEntity
  8
0
100
AcDbBlockEnd
  0
BLOCK
  5
108
330
FD
100
AcDbEntity
  8
0
 48
0.3
100
AcDbBlockBegin
  2
*D1
 70
     1
 10
0.0
 20
0.0
 30
0.0
  3
*D1
  1

  0
LINE
  5
10B
330
FD
100
AcDbEntity
  8
0
 62
     0
 48
0.3
370
    -2
100
AcDbLine
 10
5.844587591894782
 20
1.517330320764253
 30
0.0
 11
5.844587591894782
 21
1.109767858817267
 31
0.0
  0
LINE
  5
10C
330
FD
100
AcDbEntity
  8
0
 62
     0
 48
0.3
370
    -2
100
AcDbLine
 10
5.281587591894782
 20
1.517330320764253
 30
0.0
 11
5.281587591894782
 21
1.109767858817267
 31
0.0
  0
LINE
  5
10D
330
FD
100
AcDbEntity
  8
0
 62
     0
 48
0.3
370
    -2
100
AcDbLine
 10
5.719587591894782
 20
1.289767858817267
 30
0.0
 11
5.406587591894782
 21
1.289767858817267
 31
0.0
  0
LINE
  5
10E
330
FD
100
AcDbEntity
  8
0
 62
     0
 48
0.3
370
    -2
100
AcDbLine
 10
5.281587591894782
 20
1.289767858817267
 30
0.0
 11
5.156587591894782
 21
1.289767858817267
 31
0.0
  0
SOLID
  5
10F
330
FD
100
AcDbEntity
  8
0
 62
     0
 48
0.3
100
AcDbTrace
 10
5.719587591894782
 20
1.3106011921506
 30
0.0
 11
5.719587591894782
 21
1.268934525483934
 31
0.0
 12
5.844587591894782
 22
1.289767858817267
 32
0.0
 13
5.844587591894782
 23
1.289767858817267
 33
0.0
  0
SOLID
  5
110
330
FD
100
AcDbEntity
  8
0
 62
     0
 48
0.3
100
AcDbTrace
 10
5.406587591894782
 20
1.3106011921506
 30
0.0
 11
5.406587591894782
 21
1.268934525483934
 31
0.0
 12
5.281587591894782
 22
1.289767858817267
 32
0.0
 13
5.281587591894782
 23
1.289767858817267
 33
0.0
  0
MTEXT
  5
111
330
FD
100
AcDbEntity
  8
0
 62
     0
 48
0.3
100
AcDbMText
 10
4.82700425856145
 20
1.289767858817267
 30
0.0
 40
0.125
 41
0.0
 71
     5
 72
     1
  1
\A1;0.563
 73
     1
 44
1.0
  0
POINT
  5
112
330
FD
100
AcDbEntity
  8
Defpoints
 62
     0
 48
0.3
100
AcDbPoint
 10
5.844587591894782
 20
1.579830320764253
 30
0.0
  0
POINT
  5
113
330
FD
100
AcDbEntity
  8
Defpoints
 62
     0
 48
0.3
100
AcDbPoint
 10
5.281587591894782
 20
1.579830320764253
 30
0.0
  0
POINT
  5
114
330
FD
100
AcDbEntity
  8
Defpoints
 62
     0
 48
0.3
100
AcDbPoint
 10
5.281587591894782
 20
1.289767858817267
 30
0.0
  0
ENDBLK
  5
109
330
FD
100
AcDbEntity
  8
0
 48
0.3
100
AcDbBlockEnd
  0
BLOCK
  5
122
330
117
100
AcDbEntity
  8
0
 48
0.3
100
AcDbBlockBegin
  2
*D2
 70
     1
 10
0.0
 20
0.0
 30
0.0
  3
*D2
  1

  0
LINE
  5
40C
330
117
100
AcDbEntity
  8
0
 62
     0
 48
0.3
370
    -2
100
AcDbLine
 10
5.844587591894782
 20
1.517330320764253
 30
0.0
 11
5.844587591894782
 21
0.7461049414901347
 31
0.0
  0
LINE
  5
40D
330
117
100
AcDbEntity
  8
0
 62
     0
 48
0.3
370
    -2
100
AcDbLine
 10
6.444587591894782
 20
2.09033032076425
 30
0.0
 11
6.444587591894782
 21
0.7461049414901347
 31
0.0
  0
LINE
  5
40E
330
117
100
AcDbEntity
  8
0
 62
     0
 48
0.3
370
    -2
100
AcDbLine
 10
6.319587591894782
 20
0.9261049414901345
 30
0.0
 11
5.969587591894782
 21
0.9261049414901345
 31
0.0
  0
LINE
  5
40F
330
117
100
AcDbEntity
  8
0
 62
     0
 48
0.3
370
    -2
100
AcDbLine
 10
5.844587591894782
 20
0.9261049414901345
 30
0.0
 11
5.150224443696298
 21
0.9261049414901345
 31
0.0
  0
SOLID
  5
410
330
117
100
AcDbEntity
  8
0
 62
     0
 48
0.3
100
AcDbTrace
 10
6.319587591894782
 20
0.9469382748234675
 30
0.0
 11
6.319587591894782
 21
0.9052716081568007
 31
0.0
 12
6.444587591894782
 22
0.9261049414901345
 32
0.0
 13
6.444587591894782
 23
0.9261049414901345
 33
0.0
  0
SOLID
  5
411
330
117
100
AcDbEntity
  8
0
 62
     0
 48
0.3
100
AcDbTrace
 10
5.969587591894782
 20
0.9469382748234675
 30
0.0
 11
5.969587591894782
 21
0.9052716081568007
 31
0.0
 12
5.844587591894782
 22
0.9261049414901345
 32
0.0
 13
5.844587591894782
 23
0.9261049414901345
 33
0.0
  0
MTEXT
  5
412
330
117
100
AcDbEntity
  8
0
 62
     0
 48
0.3
100
AcDbMText
 10
4.841474443696298
 20
0.9261049414901345
 30
0.0
 40
0.125
 41
0.0
 71
     5
 72
     1
  1
\A1;0.600
 73
     1
 44
1.0
  0
POINT
  5
413
330
117
100
AcDbEntity
  8
Defpoints
 62
     0
 48
0.3
100
AcDbPoint
 10
5.844587591894782
 20
1.579830320764253
 30
0.0
  0
POINT
  5
414
330
117
100
AcDbEntity
  8
Defpoints
 62
     0
 48
0.3
100
AcDbPoint
 10
6.444587591894782
 20
2.15283032076425
 30
0.0
  0
POINT
  5
415
330
117
100
AcDbEntity
  8
Defpoints
 62
     0
 48
0.3
100
AcDbPoint
 10
6.444587591894782
 20
0.9261049414901345
 30
0.0
  0
ENDBLK
  5
123
330
117
100
AcDbEntity
  8
0
 48
0.3
100
AcDbBlockEnd
  0
BLOCK
  5
156
330
14B
100
AcDbEntity
  8
0
 48
0.3
100
AcDbBlockBegin
  2
*D3
 70
     1
 10
0.0
 20
0.0
 30
0.0
  3
*D3
  1

  0
LINE
  5
159
330
14B
100
AcDbEntity
  8
0
 62
     0
 48
0.3
370
    -2
100
AcDbLine
 10
5.563587591894783
 20
3.223830320764252
 30
0.0
 11
5.563587591894783
 21
5.86997131857333
 31
0.0
  0
LINE
  5
15A
330
14B
100
AcDbEntity
  8
0
 62
     0
 48
0.3
370
    -2
100
AcDbLine
 10
5.281587591894782
 20
4.805330320764253
 30
0.0
 11
5.281587591894782
 21
5.86997131857333
 31
0.0
  0
LINE
  5
15B
330
14B
100
AcDbEntity
  8
0
 62
     0
 48
0.3
370
    -2
100
AcDbLine
 10
5.688587591894783
 20
5.68997131857333
 30
0.0
 11
5.813587591894783
 21
5.68997131857333
 31
0.0
  0
LINE
  5
15C
330
14B
100
AcDbEntity
  8
0
 62
     0
 48
0.3
370
    -2
100
AcDbLine
 10
5.156587591894782
 20
5.68997131857333
 30
0.0
 11
5.031587591894782
 21
5.68997131857333
 31
0.0
  0
SOLID
  5
15D
330
14B
100
AcDbEntity
  8
0
 62
     0
 48
0.3
100
AcDbTrace
 10
5.688587591894783
 20
5.710804651906664
 30
0.0
 11
5.688587591894783
 21
5.669137985239997
 31
0.0
 12
5.563587591894783
 22
5.68997131857333
 32
0.0
 13
5.563587591894783
 23
5.68997131857333
 33
0.0
  0
SOLID
  5
15E
330
14B
100
AcDbEntity
  8
0
 62
     0
 48
0.3
100
AcDbTrace
 10
5.156587591894782
 20
5.710804651906664
 30
0.0
 11
5.156587591894782
 21
5.669137985239997
 31
0.0
 12
5.281587591894782
 22
5.68997131857333
 32
0.0
 13
5.281587591894782
 23
5.68997131857333
 33
0.0
  0
MTEXT
  5
15F
330
14B
100
AcDbEntity
  8
0
 62
     0
 48
0.3
100
AcDbMText
 10
4.70200425856145
 20
5.68997131857333
 30
0.0
 40
0.125
 41
0.0
 71
     5
 72
     1
  1
\A1;0.282
 73
     1
 44
1.0
  0
POINT
  5
160
330
14B
100
AcDbEntity
  8
Defpoints
 62
     0
 48
0.3
100
AcDbPoint
 10
5.563587591894783
 20
3.161330320764252
 30
0.0
  0
POINT
  5
161
330
14B
100
AcDbEntity
  8
Defpoints
 62
     0
 48
0.3
100
AcDbPoint
 10
5.281587591894782
 20
4.742830320764253
 30
0.0
  0
POINT
  5
162
330
14B
100
AcDbEntity
  8
Defpoints
 62
     0
 48
0.3
100
AcDbPoint
 10
5.281587591894782
 20
5.68997131857333
 30
0.0
  0
ENDBLK
  5
157
330
14B
100
AcDbEntity
  8
0
 48
0.3
100
AcDbBlockEnd
  0
BLOCK
  5
188
330
17F
100
AcDbEntity
  8
0
 48
0.3
100
AcDbBlockBegin
  2
*D4
 70
     1
 10
0.0
 20
0.0
 30
0.0
  3
*D4
  1

  0
LINE
  5
350
330
17F
100
AcDbEntity
  8
0
 62
     0
 48
0.3
370
    -2
100
AcDbLine
 10
0.614375227732531
 20
5.339839079536615
 30
0.0
 11
0.739375227732531
 21
5.339839079536615
 31
0.0
  0
LINE
  5
351
330
17F
100
AcDbEntity
  8
0
 62
     0
 48
0.3
370
    -2
100
AcDbLine
 10
0.739375227732531
 20
5.339839079536615
 30
0.0
 11
1.121132032540328
 21
4.652943246692331
 31
0.0
  0
MTEXT
  5
352
330
17F
100
AcDbEntity
  8
0
 62
     0
 48
0.3
100
AcDbMText
 10
-0.0068747722674689
 20
5.339839079536617
 30
0.0
 40
0.125
 41
0.0
 71
     5
 72
     1
  1
\A1;%%c3.163 50T
 73
     1
 44
1.0
  0
SOLID
  5
353
330
17F
100
AcDbEntity
  8
0
 62
     0
 48
0.3
100
AcDbTrace
 10
1.139341976454872
 20
4.663063805985522
 30
0.0
 11
1.102922088625784
 21
4.642822687399141
 31
0.0
 12
1.181855388299464
 22
4.543683583205071
 32
0.0
 13
1.181855388299464
 23
4.543683583205071
 33
0.0
  0
LINE
  5
354
330
17F
100
AcDbEntity
  8
0
 62
     0
 48
0.3
370
    -2
100
AcDbLine
 10
1.860127285364056
 20
3.161330320764252
 30
0.0
 11
2.040127285364055
 21
3.161330320764252
 31
0.0
  0
LINE
  5
355
330
17F
100
AcDbEntity
  8
0
 62
     0
 48
0.3
370
    -2
100
AcDbLine
 10
1.950127285364055
 20
3.071330320764253
 30
0.0
 11
1.950127285364055
 21
3.251330320764251
 31
0.0
  0
POINT
  5
356
330
17F
100
AcDbEntity
  8
Defpoints
 62
     0
 48
0.3
100
AcDbPoint
 10
1.181855388299464
 20
4.543683583205071
 30
0.0
  0
POINT
  5
357
330
17F
100
AcDbEntity
  8
Defpoints
 62
     0
 48
0.3
100
AcDbPoint
 10
2.718399182428646
 20
1.778977058323433
 30
0.0
  0
ENDBLK
  5
189
330
17F
100
AcDbEntity
  8
0
 48
0.3
100
AcDbBlockEnd
  0
BLOCK
  5
19E
330
195
100
AcDbEntity
  8
0
 48
0.3
100
AcDbBlockBegin
  2
*D5
 70
     1
 10
0.0
 20
0.0
 30
0.0
  3
*D5
  1

  0
LINE
  5
360
330
195
100
AcDbEntity
  8
0
 62
     0
 48
0.3
370
    -2
100
AcDbLine
 10
0.0974395907174781
 20
4.47372245724728
 30
0.0
 11
0.2224395907174785
 21
4.47372245724728
 31
0.0
  0
LINE
  5
361
330
195
100
AcDbEntity
  8
0
 62
     0
 48
0.3
370
    -2
100
AcDbLine
 10
0.2224395907174785
 20
4.47372245724728
 30
0.0
 11
1.047513741583892
 21
3.846976760691283
 31
0.0
  0
MTEXT
  5
362
330
195
100
AcDbEntity
  8
0
 62
     0
 48
0.3
100
AcDbMText
 10
-0.5238104092825218
 20
4.47372245724728
 30
0.0
 40
0.125
 41
0.0
 71
     5
 72
     1
  1
\A1;%%c2.017 32T
 73
     1
 44
1.0
  0
SOLID
  5
363
330
195
100
AcDbEntity
  8
0
 62
     0
 48
0.3
100
AcDbTrace
 10
1.06011568320878
 20
3.863566481757673
 30
0.0
 11
1.034911799959002
 21
3.830387039624893
 31
0.0
 12
1.147052067982234
 22
3.771365110941941
 32
0.0
 13
1.147052067982234
 23
3.771365110941941
 33
0.0
  0
LINE
  5
364
330
195
100
AcDbEntity
  8
0
 62
     0
 48
0.3
370
    -2
100
AcDbLine
 10
1.860127285364056
 20
3.161330320764252
 30
0.0
 11
2.040127285364055
 21
3.161330320764252
 31
0.0
  0
LINE
  5
365
330
195
100
AcDbEntity
  8
0
 62
     0
 48
0.3
370
    -2
100
AcDbLine
 10
1.950127285364055
 20
3.071330320764253
 30
0.0
 11
1.950127285364055
 21
3.251330320764251
 31
0.0
  0
POINT
  5
366
330
195
100
AcDbEntity
  8
Defpoints
 62
     0
 48
0.3
100
AcDbPoint
 10
1.147052067982234
 20
3.771365110941941
 30
0.0
  0
POINT
  5
367
330
195
100
AcDbEntity
  8
Defpoints
 62
     0
 48
0.3
100
AcDbPoint
 10
2.753202502745878
 20
2.551295530586562
 30
0.0
  0
ENDBLK
  5
19F
330
195
100
AcDbEntity
  8
0
 48
0.3
100
AcDbBlockEnd
  0
BLOCK
  5
1B3
330
1AB
100
AcDbEntity
  8
0
 48
0.3
100
AcDbBlockBegin
  2
*D6
 70
     1
 10
0.0
 20
0.0
 30
0.0
  3
*D6
  1

  0
LINE
  5
3A8
330
1AB
100
AcDbEntity
  8
0
 62
     0
 48
0.3
370
    -2
100
AcDbLine
 10
-0.2021861413729909
 20
3.286253510001801
 30
0.0
 11
0.9393284429062369
 21
3.219998455947931
 31
0.0
  0
MTEXT
  5
3A9
330
1AB
100
AcDbEntity
  8
0
 62
     0
 48
0.3
100
AcDbMText
 10
-0.6359361413729912
 20
3.286253510001801
 30
0.0
 40
0.125
 41
0.0
 71
     5
 72
     1
  1
\A1;%%c1.7750
 73
     1
 44
1.0
  0
SOLID
  5
3AA
330
1AB
100
AcDbEntity
  8
0
 62
     0
 48
0.3
100
AcDbTrace
 10
0.9405356061816208
 20
3.240796786039656
 30
0.0
 11
0.9381212796308522
 21
3.199200125856205
 31
0.0
 12
1.064118423456584
 22
3.212755476295625
 32
0.0
 13
1.064118423456584
 23
3.212755476295625
 33
0.0
  0
LINE
  5
3AB
330
1AB
100
AcDbEntity
  8
0
 62
     0
 48
0.3
370
    -2
100
AcDbLine
 10
1.860127285364056
 20
3.161330320764253
 30
0.0
 11
2.040127285364058
 21
3.161330320764253
 31
0.0
  0
LINE
  5
3AC
330
1AB
100
AcDbEntity
  8
0
 62
     0
 48
0.3
370
    -2
100
AcDbLine
 10
1.950127285364055
 20
3.071330320764253
 30
0.0
 11
1.950127285364055
 21
3.251330320764253
 31
0.0
  0
POINT
  5
3AD
330
1AB
100
AcDbEntity
  8
Defpoints
 62
     0
 48
0.3
100
AcDbPoint
 10
1.064118423456584
 20
3.212755476295625
 30
0.0
  0
POINT
  5
3AE
330
1AB
100
AcDbEntity
  8
Defpoints
 62
     0
 48
0.3
100
AcDbPoint
 10
2.836136147271528
 20
3.109905165232881
 30
0.0
  0
ENDBLK
  5
1B4
330
1AB
100
AcDbEntity
  8
0
 48
0.3
100
AcDbBlockEnd
  0
BLOCK
  5
291
330
288
100
AcDbEntity
  8
0
 48
0.3
100
AcDbBlockBegin
  2
*D7
 70
     1
 10
0.0
 20
0.0
 30
0.0
  3
*D7
  1

  0
LINE
  5
2C9
330
288
100
AcDbEntity
  8
0
 62
     0
 48
0.3
370
    -2
100
AcDbLine
 10
-0.1202827560131144
 20
2.515046926190771
 30
0.0
 11
0.0047172439868856
 21
2.515046926190771
 31
0.0
  0
LINE
  5
2CA
330
288
100
AcDbEntity
  8
0
 62
     0
 48
0.3
370
    -2
100
AcDbLine
 10
0.0047172439868856
 20
2.515046926190771
 30
0.0
 11
1.071825182024776
 21
2.869550154766287
 31
0.0
  0
MTEXT
  5
2CB
330
288
100
AcDbEntity
  8
0
 62
     0
 48
0.3
100
AcDbMText
 10
-0.5227827560131147
 20
2.515046926190771
 30
0.0
 40
0.125
 41
0.0
 71
     5
 72
     1
  1
\A1;%%c1.6010
 73
     1
 44
1.0
  0
SOLID
  5
2CC
330
288
100
AcDbEntity
  8
0
 62
     0
 48
0.3
100
AcDbTrace
 10
1.0652571069753
 20
2.889321046701711
 30
0.0
 11
1.078393257074255
 21
2.849779262830863
 31
0.0
 12
1.190450533637322
 22
2.908958605063148
 32
0.0
 13
1.190450533637322
 23
2.908958605063148
 33
0.0
  0
LINE
  5
2CD
330
288
100
AcDbEntity
  8
0
 62
     0
 48
0.3
370
    -2
100
AcDbLine
 10
1.860127285364056
 20
3.161330320764253
 30
0.0
 11
2.040127285364055
 21
3.161330320764253
 31
0.0
  0
LINE
  5
2CE
330
288
100
AcDbEntity
  8
0
 62
     0
 48
0.3
370
    -2
100
AcDbLine
 10
1.950127285364055
 20
3.071330320764253
 30
0.0
 11
1.950127285364055
 21
3.251330320764253
 31
0.0
  0
POINT
  5
2CF
330
288
100
AcDbEntity
  8
Defpoints
 62
     0
 48
0.3
100
AcDbPoint
 10
1.190450533637322
 20
2.908958605063148
 30
0.0
  0
POINT
  5
2D0
330
288
100
AcDbEntity
  8
Defpoints
 62
     0
 48
0.3
100
AcDbPoint
 10
2.70980403709079
 20
3.413702036465353
 30
0.0
  0
ENDBLK
  5
292
330
288
100
AcDbEntity
  8
0
 48
0.3
100
AcDbBlockEnd
  0
BLOCK
  5
2A7
330
29E
100
AcDbEntity
  8
0
 48
0.3
100
AcDbBlockBegin
  2
*D8
 70
     1
 10
0.0
 20
0.0
 30
0.0
  3
*D8
  1

  0
LINE
  5
2D9
330
29E
100
AcDbEntity
  8
0
 62
     0
 48
0.3
370
    -2
100
AcDbLine
 10
0.1257395403706942
 20
1.639735630562545
 30
0.0
 11
0.2507395403706941
 21
1.639735630562545
 31
0.0
  0
LINE
  5
2DA
330
29E
100
AcDbEntity
  8
0
 62
     0
 48
0.3
370
    -2
100
AcDbLine
 10
0.2507395403706941
 20
1.639735630562545
 30
0.0
 11
1.316501519165919
 21
2.593995641399574
 31
0.0
  0
MTEXT
  5
2DB
330
29E
100
AcDbEntity
  8
0
 62
     0
 48
0.3
100
AcDbMText
 10
-0.2871771262959724
 20
1.639735630562545
 30
0.0
 40
0.125
 41
0.0
 71
     5
 72
     1
  1
\A1;%%c1.4510
 73
     1
 44
1.0
  0
SOLID
  5
2DC
330
29E
100
AcDbEntity
  8
0
 62
     0
 48
0.3
100
AcDbTrace
 10
1.302604432173839
 20
2.60951655473972
 30
0.0
 11
1.330398606157999
 21
2.578474728059425
 31
0.0
 12
1.409626999206795
 22
2.677378163352055
 32
0.0
 13
1.409626999206795
 23
2.677378163352055
 33
0.0
  0
LINE
  5
2DD
330
29E
100
AcDbEntity
  8
0
 62
     0
 48
0.3
370
    -2
100
AcDbLine
 10
1.860127285364056
 20
3.161330320764252
 30
0.0
 11
2.040127285364055
 21
3.161330320764252
 31
0.0
  0
LINE
  5
2DE
330
29E
100
AcDbEntity
  8
0
 62
     0
 48
0.3
370
    -2
100
AcDbLine
 10
1.950127285364055
 20
3.071330320764252
 30
0.0
 11
1.950127285364055
 21
3.251330320764251
 31
0.0
  0
POINT
  5
2DF
330
29E
100
AcDbEntity
  8
Defpoints
 62
     0
 48
0.3
100
AcDbPoint
 10
1.409626999206795
 20
2.677378163352055
 30
0.0
  0
POINT
  5
2E0
330
29E
100
AcDbEntity
  8
Defpoints
 62
     0
 48
0.3
100
AcDbPoint
 10
2.490627571521315
 20
3.64528247817645
 30
0.0
  0
ENDBLK
  5
2A8
330
29E
100
AcDbEntity
  8
0
 48
0.3
100
AcDbBlockEnd
  0
BLOCK
  5
320
330
315
100
AcDbEntity
  8
0
 48
0.3
100
AcDbBlockBegin
  2
*D9
 70
     1
 10
0.0
 20
0.0
 30
0.0
  3
*D9
  1

  0
LINE
  5
4DC
330
315
100
AcDbEntity
  8
0
 62
     0
 48
0.3
370
    -2
100
AcDbLine
 10
3.553367893122681
 20
2.335149914940648
 30
0.0
 11
3.553367893122681
 21
3.097481716480888
 31
0.0
  0
LINE
  5
4DD
330
315
100
AcDbEntity
  8
0
 62
     0
 48
0.3
370
    -2
100
AcDbLine
 10
3.44336789312268
 20
2.335149914940648
 30
0.0
 11
3.44336789312268
 21
3.097481716480888
 31
0.0
  0
LINE
  5
4DE
330
315
100
AcDbEntity
  8
0
 62
     0
 48
0.3
370
    -2
100
AcDbLine
 10
3.678367893122681
 20
2.917481716480887
 30
0.0
 11
3.803367893122681
 21
2.917481716480887
 31
0.0
  0
LINE
  5
4DF
330
315
100
AcDbEntity
  8
0
 62
     0
 48
0.3
370
    -2
100
AcDbLine
 10
3.31836789312268
 20
2.917481716480887
 30
0.0
 11
3.19336789312268
 21
2.917481716480887
 31
0.0
  0
SOLID
  5
4E0
330
315
100
AcDbEntity
  8
0
 62
     0
 48
0.3
100
AcDbTrace
 10
3.678367893122681
 20
2.938315049814223
 30
0.0
 11
3.678367893122681
 21
2.896648383147556
 31
0.0
 12
3.553367893122681
 22
2.917481716480887
 32
0.0
 13
3.553367893122681
 23
2.917481716480887
 33
0.0
  0
SOLID
  5
4E1
330
315
100
AcDbEntity
  8
0
 62
     0
 48
0.3
100
AcDbTrace
 10
3.31836789312268
 20
2.938315049814223
 30
0.0
 11
3.31836789312268
 21
2.896648383147556
 31
0.0
 12
3.44336789312268
 22
2.917481716480887
 32
0.0
 13
3.44336789312268
 23
2.917481716480887
 33
0.0
  0
MTEXT
  5
4E2
330
315
100
AcDbEntity
  8
0
 62
     0
 48
0.3
100
AcDbMText
 10
2.91586789312268
 20
2.917481716480887
 30
0.0
 40
0.125
 41
0.0
 71
     5
 72
     1
  1
\A1;0.110
 73
     1
 44
1.0
  0
POINT
  5
4E3
330
315
100
AcDbEntity
  8
Defpoints
 62
     0
 48
0.3
100
AcDbPoint
 10
3.553367893122681
 20
2.272649914940648
 30
0.0
  0
POINT
  5
4E4
330
315
100
AcDbEntity
  8
Defpoints
 62
     0
 48
0.3
100
AcDbPoint
 10
3.44336789312268
 20
2.272649914940648
 30
0.0
  0
POINT
  5
4E5
330
315
100
AcDbEntity
  8
Defpoints
 62
     0
 48
0.3
100
AcDbPoint
 10
3.44336789312268
 20
2.917481716480887
 30
0.0
  0
ENDBLK
  5
321
330
315
100
AcDbEntity
  8
0
 48
0.3
100
AcDbBlockEnd
  0
BLOCK
  5
33A
330
32F
100
AcDbEntity
  8
0
 48
0.3
100
AcDbBlockBegin
  2
*D10
 70
     1
 10
0.0
 20
0.0
 30
0.0
  3
*D10
  1

  0
LINE
  5
6A4
330
32F
100
AcDbEntity
  8
0
 62
     0
 48
0.3
370
    -2
100
AcDbLine
 10
3.918367893122681
 20
2.423262059104895
 30
0.0
 11
3.918367893122681
 21
2.757430745864977
 31
0.0
  0
LINE
  5
6A5
330
32F
100
AcDbEntity
  8
0
 62
     0
 48
0.3
370
    -2
100
AcDbLine
 10
3.44336789312268
 20
2.335149914940648
 30
0.0
 11
3.44336789312268
 21
2.757430745864977
 31
0.0
  0
LINE
  5
6A6
330
32F
100
AcDbEntity
  8
0
 62
     0
 48
0.3
370
    -2
100
AcDbLine
 10
3.793367893122681
 20
2.577430745864977
 30
0.0
 11
3.56836789312268
 21
2.577430745864977
 31
0.0
  0
LINE
  5
6A7
330
32F
100
AcDbEntity
  8
0
 62
     0
 48
0.3
370
    -2
100
AcDbLine
 10
3.44336789312268
 20
2.577430745864977
 30
0.0
 11
3.31836789312268
 21
2.577430745864977
 31
0.0
  0
SOLID
  5
6A8
330
32F
100
AcDbEntity
  8
0
 62
     0
 48
0.3
100
AcDbTrace
 10
3.793367893122681
 20
2.59826407919831
 30
0.0
 11
3.793367893122681
 21
2.556597412531643
 31
0.0
 12
3.918367893122681
 22
2.577430745864977
 32
0.0
 13
3.918367893122681
 23
2.577430745864977
 33
0.0
  0
SOLID
  5
6A9
330
32F
100
AcDbEntity
  8
0
 62
     0
 48
0.3
100
AcDbTrace
 10
3.56836789312268
 20
2.59826407919831
 30
0.0
 11
3.56836789312268
 21
2.556597412531643
 31
0.0
 12
3.44336789312268
 22
2.577430745864977
 32
0.0
 13
3.44336789312268
 23
2.577430745864977
 33
0.0
  0
MTEXT
  5
6AA
330
32F
100
AcDbEntity
  8
0
 62
     0
 48
0.3
100
AcDbMText
 10
2.988784559789346
 20
2.577430745864977
 30
0.0
 40
0.125
 41
0.0
 71
     5
 72
     1
  1
\A1;0.475
 73
     1
 44
1.0
  0
POINT
  5
6AB
330
32F
100
AcDbEntity
  8
Defpoints
 62
     0
 48
0.3
100
AcDbPoint
 10
3.918367893122681
 20
2.360762059104895
 30
0.0
  0
POINT
  5
6AC
330
32F
100
AcDbEntity
  8
Defpoints
 62
     0
 48
0.3
100
AcDbPoint
 10
3.44336789312268
 20
2.272649914940648
 30
0.0
  0
POINT
  5
6AD
330
32F
100
AcDbEntity
  8
Defpoints
 62
     0
 48
0.3
100
AcDbPoint
 10
3.44336789312268
 20
2.577430745864977
 30
0.0
  0
ENDBLK
  5
33B
330
32F
100
AcDbEntity
  8
0
 48
0.3
100
AcDbBlockEnd
  0
BLOCK
  5
395
330
38C
100
AcDbEntity
  8
0
 48
0.3
100
AcDbBlockBegin
  2
*D11
 70
     1
 10
0.0
 20
0.0
 30
0.0
  3
*D11
  1

  0
LINE
  5
398
330
38C
100
AcDbEntity
  8
0
 62
     0
 48
0.3
370
    -2
100
AcDbLine
 10
-0.3989229729990182
 20
3.916520453558926
 30
0.0
 11
-0.2739229729990167
 21
3.916520453558926
 31
0.0
  0
LINE
  5
399
330
38C
100
AcDbEntity
  8
0
 62
     0
 48
0.3
370
    -2
100
AcDbLine
 10
-0.2739229729990167
 20
3.916520453558926
 30
0.0
 11
0.9085364778914312
 21
3.515008974047883
 31
0.0
  0
MTEXT
  5
39A
330
38C
100
AcDbEntity
  8
0
 62
     0
 48
0.3
100
AcDbMText
 10
-0.7701729729990186
 20
3.916520453558926
 30
0.0
 40
0.125
 41
0.0
 71
     5
 72
     1
  1
\A1;\U+22051.950
 73
     1
 44
1.0
  0
SOLID
  5
39B
330
38C
100
AcDbEntity
  8
0
 62
     0
 48
0.3
100
AcDbTrace
 10
0.9152349372339239
 20
3.534736072674259
 30
0.0
 11
0.9018380185489379
 21
3.495281875421508
 31
0.0
 12
1.026899069649684
 22
3.474818217992926
 32
0.0
 13
1.026899069649684
 23
3.474818217992926
 33
0.0
  0
LINE
  5
39C
330
38C
100
AcDbEntity
  8
0
 62
     0
 48
0.3
370
    -2
100
AcDbLine
 10
1.860127285364056
 20
3.161330320764253
 30
0.0
 11
2.040127285364055
 21
3.161330320764253
 31
0.0
  0
LINE
  5
39D
330
38C
100
AcDbEntity
  8
0
 62
     0
 48
0.3
370
    -2
100
AcDbLine
 10
1.950127285364055
 20
3.071330320764253
 30
0.0
 11
1.950127285364055
 21
3.251330320764253
 31
0.0
  0
POINT
  5
39E
330
38C
100
AcDbEntity
  8
Defpoints
 62
     0
 48
0.3
100
AcDbPoint
 10
1.026899069649684
 20
3.474818217992926
 30
0.0
  0
POINT
  5
39F
330
38C
100
AcDbEntity
  8
Defpoints
 62
     0
 48
0.3
100
AcDbPoint
 10
2.87335550107843
 20
2.847842423535579
 30
0.0
  0
ENDBLK
  5
396
330
38C
100
AcDbEntity
  8
0
 48
0.3
100
AcDbBlockEnd
  0
BLOCK
  5
3B9
330
3B0
100
AcDbEntity
  8
0
 48
0.3
100
AcDbBlockBegin
  2
*D12
 70
     1
 10
0.0
 20
0.0
 30
0.0
  3
*D12
  1

  0
LINE
  5
3BC
330
3B0
100
AcDbEntity
  8
0
 62
     0
 48
0.3
370
    -2
100
AcDbLine
 10
1.077963423636048
 20
1.140663909695669
 30
0.0
 11
1.202963423636047
 21
1.140663909695669
 31
0.0
  0
LINE
  5
3BD
330
3B0
100
AcDbEntity
  8
0
 62
     0
 48
0.3
370
    -2
100
AcDbLine
 10
1.202963423636047
 20
1.140663909695669
 30
0.0
 11
1.698688734555824
 21
2.481327633146433
 31
0.0
  0
MTEXT
  5
3BE
330
3B0
100
AcDbEntity
  8
0
 62
     0
 48
0.3
100
AcDbMText
 10
0.7171300903027147
 20
1.140663909695669
 30
0.0
 40
0.125
 41
0.0
 71
     5
 72
     1
  1
\A1;\U+22051.200
 73
     1
 44
1.0
  0
SOLID
  5
3BF
330
3B0
100
AcDbEntity
  8
0
 62
     0
 48
0.3
100
AcDbTrace
 10
1.67914842744037
 20
2.488552878859314
 30
0.0
 11
1.718229041671279
 21
2.474102387433553
 31
0.0
 12
1.742040208833107
 22
2.598569475839161
 32
0.0
 13
1.742040208833107
 23
2.598569475839161
 33
0.0
  0
LINE
  5
3C0
330
3B0
100
AcDbEntity
  8
0
 62
     0
 48
0.3
370
    -2
100
AcDbLine
 10
1.860127285364056
 20
3.161330320764252
 30
0.0
 11
2.040127285364055
 21
3.161330320764252
 31
0.0
  0
LINE
  5
3C1
330
3B0
100
AcDbEntity
  8
0
 62
     0
 48
0.3
370
    -2
100
AcDbLine
 10
1.950127285364055
 20
3.071330320764252
 30
0.0
 11
1.950127285364055
 21
3.251330320764251
 31
0.0
  0
POINT
  5
3C2
330
3B0
100
AcDbEntity
  8
Defpoints
 62
     0
 48
0.3
100
AcDbPoint
 10
1.742040208833107
 20
2.598569475839161
 30
0.0
  0
POINT
  5
3C3
330
3B0
100
AcDbEntity
  8
Defpoints
 62
     0
 48
0.3
100
AcDbPoint
 10
2.158214361895006
 20
3.724091165689343
 30
0.0
  0
ENDBLK
  5
3BA
330
3B0
100
AcDbEntity
  8
0
 48
0.3
100
AcDbBlockEnd
  0
BLOCK
  5
3D1
330
3C6
100
AcDbEntity
  8
0
 48
0.3
100
AcDbBlockBegin
  2
*D13
 70
     1
 10
0.0
 20
0.0
 30
0.0
  3
*D13
  1

  0
LINE
  5
4E6
330
3C6
100
AcDbEntity
  8
0
 62
     0
 48
0.3
370
    -2
100
AcDbLine
 10
4.298367893122681
 20
3.824330320764251
 30
0.0
 11
4.298367893122681
 21
3.629240969456161
 31
0.0
  0
LINE
  5
4E7
330
3C6
100
AcDbEntity
  8
0
 62
     0
 48
0.3
370
    -2
100
AcDbLine
 10
3.44336789312268
 20
3.824330320764251
 30
0.0
 11
3.44336789312268
 21
3.629240969456161
 31
0.0
  0
LINE
  5
4E8
330
3C6
100
AcDbEntity
  8
0
 62
     0
 48
0.3
370
    -2
100
AcDbLine
 10
4.173367893122681
 20
3.809240969456162
 30
0.0
 11
3.56836789312268
 21
3.809240969456162
 31
0.0
  0
LINE
  5
4E9
330
3C6
100
AcDbEntity
  8
0
 62
     0
 48
0.3
370
    -2
100
AcDbLine
 10
3.44336789312268
 20
3.809240969456162
 30
0.0
 11
3.31836789312268
 21
3.809240969456162
 31
0.0
  0
SOLID
  5
4EA
330
3C6
100
AcDbEntity
  8
0
 62
     0
 48
0.3
100
AcDbTrace
 10
4.173367893122681
 20
3.830074302789496
 30
0.0
 11
4.173367893122681
 21
3.788407636122828
 31
0.0
 12
4.298367893122681
 22
3.809240969456162
 32
0.0
 13
4.298367893122681
 23
3.809240969456162
 33
0.0
  0
SOLID
  5
4EB
330
3C6
100
AcDbEntity
  8
0
 62
     0
 48
0.3
100
AcDbTrace
 10
3.56836789312268
 20
3.830074302789496
 30
0.0
 11
3.56836789312268
 21
3.788407636122828
 31
0.0
 12
3.44336789312268
 22
3.809240969456162
 32
0.0
 13
3.44336789312268
 23
3.809240969456162
 33
0.0
  0
MTEXT
  5
4EC
330
3C6
100
AcDbEntity
  8
0
 62
     0
 48
0.3
100
AcDbMText
 10
2.988784559789346
 20
3.809240969456162
 30
0.0
 40
0.125
 41
0.0
 71
     5
 72
     1
  1
\A1;0.855
 73
     1
 44
1.0
  0
POINT
  5
4ED
330
3C6
100
AcDbEntity
  8
Defpoints
 62
     0
 48
0.3
100
AcDbPoint
 10
4.298367893122681
 20
3.886830320764251
 30
0.0
  0
POINT
  5
4EE
330
3C6
100
AcDbEntity
  8
Defpoints
 62
     0
 48
0.3
100
AcDbPoint
 10
3.44336789312268
 20
3.886830320764251
 30
0.0
  0
POINT
  5
4EF
330
3C6
100
AcDbEntity
  8
Defpoints
 62
     0
 48
0.3
100
AcDbPoint
 10
3.44336789312268
 20
3.809240969456162
 30
0.0
  0
ENDBLK
  5
3D2
330
3C6
100
AcDbEntity
  8
0
 48
0.3
100
AcDbBlockEnd
  0
BLOCK
  5
3F5
330
3EA
100
AcDbEntity
  8
0
 48
0.3
100
AcDbBlockBegin
  2
*D14
 70
     1
 10
0.0
 20
0.0
 30
0.0
  3
*D14
  1

  0
LINE
  5
3F8
330
3EA
100
AcDbEntity
  8
0
 62
     0
 48
0.3
370
    -2
100
AcDbLine
 10
6.844587591894782
 20
2.373330320764249
 30
0.0
 11
6.844587591894782
 21
0.115837997933006
 31
0.0
  0
LINE
  5
3F9
330
3EA
100
AcDbEntity
  8
0
 62
     0
 48
0.3
370
    -2
100
AcDbLine
 10
5.281587591894782
 20
1.517330320764253
 30
0.0
 11
5.281587591894782
 21
0.1158379979330062
 31
0.0
  0
LINE
  5
3FA
330
3EA
100
AcDbEntity
  8
0
 62
     0
 48
0.3
370
    -2
100
AcDbLine
 10
6.719587591894782
 20
0.2958379979330061
 30
0.0
 11
6.38225425856145
 21
0.2958379979330061
 31
0.0
  0
LINE
  5
3FB
330
3EA
100
AcDbEntity
  8
0
 62
     0
 48
0.3
370
    -2
100
AcDbLine
 10
5.406587591894782
 20
0.2958379979330061
 30
0.0
 11
5.743920925228116
 21
0.2958379979330061
 31
0.0
  0
SOLID
  5
3FC
330
3EA
100
AcDbEntity
  8
0
 62
     0
 48
0.3
100
AcDbTrace
 10
6.719587591894782
 20
0.3166713312663394
 30
0.0
 11
6.719587591894782
 21
0.2750046645996728
 31
0.0
 12
6.844587591894782
 22
0.2958379979330061
 32
0.0
 13
6.844587591894782
 23
0.2958379979330061
 33
0.0
  0
SOLID
  5
3FD
330
3EA
100
AcDbEntity
  8
0
 62
     0
 48
0.3
100
AcDbTrace
 10
5.406587591894782
 20
0.3166713312663394
 30
0.0
 11
5.406587591894782
 21
0.2750046645996728
 31
0.0
 12
5.281587591894782
 22
0.2958379979330061
 32
0.0
 13
5.281587591894782
 23
0.2958379979330061
 33
0.0
  0
MTEXT
  5
3FE
330
3EA
100
AcDbEntity
  8
0
 62
     0
 48
0.3
100
AcDbMText
 10
6.063087591894782
 20
0.2958379979330061
 30
0.0
 40
0.125
 41
0.0
 71
     5
 72
     1
  1
\A1;1.563
 73
     1
 44
1.0
  0
POINT
  5
3FF
330
3EA
100
AcDbEntity
  8
Defpoints
 62
     0
 48
0.3
100
AcDbPoint
 10
6.844587591894782
 20
2.435830320764249
 30
0.0
  0
POINT
  5
400
330
3EA
100
AcDbEntity
  8
Defpoints
 62
     0
 48
0.3
100
AcDbPoint
 10
5.281587591894782
 20
1.579830320764253
 30
0.0
  0
POINT
  5
401
330
3EA
100
AcDbEntity
  8
Defpoints
 62
     0
 48
0.3
100
AcDbPoint
 10
5.281587591894782
 20
0.2958379979330061
 30
0.0
  0
ENDBLK
  5
3F6
330
3EA
100
AcDbEntity
  8
0
 48
0.3
100
AcDbBlockEnd
  0
BLOCK
  5
422
330
417
100
AcDbEntity
  8
0
 48
0.3
100
AcDbBlockBegin
  2
*D15
 70
     1
 10
0.0
 20
0.0
 30
0.0
  3
*D15
  1

  0
LINE
  5
425
330
417
100
AcDbEntity
  8
0
 62
     0
 48
0.3
370
    -2
100
AcDbLine
 10
6.444587591894782
 20
2.123830320764251
 30
0.0
 11
6.444587591894782
 21
1.657980515489045
 31
0.0
  0
LINE
  5
426
330
417
100
AcDbEntity
  8
0
 62
     0
 48
0.3
370
    -2
100
AcDbLine
 10
6.632587591894782
 20
2.123830320764251
 30
0.0
 11
6.632587591894782
 21
1.657980515489045
 31
0.0
  0
LINE
  5
427
330
417
100
AcDbEntity
  8
0
 62
     0
 48
0.3
370
    -2
100
AcDbLine
 10
6.319587591894782
 20
1.837980515489046
 30
0.0
 11
6.194587591894782
 21
1.837980515489046
 31
0.0
  0
LINE
  5
428
330
417
100
AcDbEntity
  8
0
 62
     0
 48
0.3
370
    -2
100
AcDbLine
 10
6.757587591894782
 20
1.837980515489046
 30
0.0
 11
6.882587591894782
 21
1.837980515489046
 31
0.0
  0
SOLID
  5
429
330
417
100
AcDbEntity
  8
0
 62
     0
 48
0.3
100
AcDbTrace
 10
6.319587591894782
 20
1.858813848822379
 30
0.0
 11
6.319587591894782
 21
1.817147182155713
 31
0.0
 12
6.444587591894782
 22
1.837980515489046
 32
0.0
 13
6.444587591894782
 23
1.837980515489046
 33
0.0
  0
SOLID
  5
42A
330
417
100
AcDbEntity
  8
0
 62
     0
 48
0.3
100
AcDbTrace
 10
6.757587591894782
 20
1.858813848822379
 30
0.0
 11
6.757587591894782
 21
1.817147182155713
 31
0.0
 12
6.632587591894782
 22
1.837980515489046
 32
0.0
 13
6.632587591894782
 23
1.837980515489046
 33
0.0
  0
MTEXT
  5
42B
330
417
100
AcDbEntity
  8
0
 62
     0
 48
0.3
100
AcDbMText
 10
7.191337591894782
 20
1.837980515489046
 30
0.0
 40
0.125
 41
0.0
 71
     5
 72
     1
  1
\A1;0.188
 73
     1
 44
1.0
  0
POINT
  5
42C
330
417
100
AcDbEntity
  8
Defpoints
 62
     0
 48
0.3
100
AcDbPoint
 10
6.444587591894782
 20
2.186330320764251
 30
0.0
  0
POINT
  5
42D
330
417
100
AcDbEntity
  8
Defpoints
 62
     0
 48
0.3
100
AcDbPoint
 10
6.632587591894782
 20
2.186330320764251
 30
0.0
  0
POINT
  5
42E
330
417
100
AcDbEntity
  8
Defpoints
 62
     0
 48
0.3
100
AcDbPoint
 10
6.632587591894782
 20
1.837980515489046
 30
0.0
  0
ENDBLK
  5
423
330
417
100
AcDbEntity
  8
0
 48
0.3
100
AcDbBlockEnd
  0
BLOCK
  5
43C
330
431
100
AcDbEntity
  8
0
 48
0.3
100
AcDbBlockBegin
  2
*D16
 70
     1
 10
0.0
 20
0.0
 30
0.0
  3
*D16
  1

  0
LINE
  5
43F
330
431
100
AcDbEntity
  8
0
 62
     0
 48
0.3
370
    -2
100
AcDbLine
 10
6.632587591894782
 20
2.123830320764251
 30
0.0
 11
6.632587591894782
 21
1.228862599515281
 31
0.0
  0
LINE
  5
440
330
431
100
AcDbEntity
  8
0
 62
     0
 48
0.3
370
    -2
100
AcDbLine
 10
6.844587591894782
 20
2.310830320764249
 30
0.0
 11
6.844587591894782
 21
1.228862599515281
 31
0.0
  0
LINE
  5
441
330
431
100
AcDbEntity
  8
0
 62
     0
 48
0.3
370
    -2
100
AcDbLine
 10
6.507587591894782
 20
1.408862599515281
 30
0.0
 11
6.382587591894782
 21
1.408862599515281
 31
0.0
  0
LINE
  5
442
330
431
100
AcDbEntity
  8
0
 62
     0
 48
0.3
370
    -2
100
AcDbLine
 10
6.969587591894782
 20
1.408862599515281
 30
0.0
 11
7.094587591894782
 21
1.408862599515281
 31
0.0
  0
SOLID
  5
443
330
431
100
AcDbEntity
  8
0
 62
     0
 48
0.3
100
AcDbTrace
 10
6.507587591894782
 20
1.429695932848614
 30
0.0
 11
6.507587591894782
 21
1.388029266181946
 31
0.0
 12
6.632587591894782
 22
1.408862599515281
 32
0.0
 13
6.632587591894782
 23
1.408862599515281
 33
0.0
  0
SOLID
  5
444
330
431
100
AcDbEntity
  8
0
 62
     0
 48
0.3
100
AcDbTrace
 10
6.969587591894782
 20
1.429695932848614
 30
0.0
 11
6.969587591894782
 21
1.388029266181946
 31
0.0
 12
6.844587591894782
 22
1.408862599515281
 32
0.0
 13
6.844587591894782
 23
1.408862599515281
 33
0.0
  0
MTEXT
  5
445
330
431
100
AcDbEntity
  8
0
 62
     0
 48
0.3
100
AcDbMText
 10
7.403337591894782
 20
1.408862599515281
 30
0.0
 40
0.125
 41
0.0
 71
     5
 72
     1
  1
\A1;0.212
 73
     1
 44
1.0
  0
POINT
  5
446
330
431
100
AcDbEntity
  8
Defpoints
 62
     0
 48
0.3
100
AcDbPoint
 10
6.632587591894782
 20
2.186330320764251
 30
0.0
  0
POINT
  5
447
330
431
100
AcDbEntity
  8
Defpoints
 62
     0
 48
0.3
100
AcDbPoint
 10
6.844587591894782
 20
2.373330320764249
 30
0.0
  0
POINT
  5
448
330
431
100
AcDbEntity
  8
Defpoints
 62
     0
 48
0.3
100
AcDbPoint
 10
6.844587591894782
 20
1.408862599515281
 30
0.0
  0
ENDBLK
  5
43D
330
431
100
AcDbEntity
  8
0
 48
0.3
100
AcDbBlockEnd
  0
BLOCK
  5
456
330
44B
100
AcDbEntity
  8
0
 48
0.3
100
AcDbBlockBegin
  2
*D17
 70
     1
 10
0.0
 20
0.0
 30
0.0
  3
*D17
  1

  0
LINE
  5
459
330
44B
100
AcDbEntity
  8
0
 62
     0
 48
0.3
370
    -2
100
AcDbLine
 10
6.907087591894782
 20
3.761330320764252
 30
0.0
 11
7.626164995969502
 21
3.761330320764252
 31
0.0
  0
LINE
  5
45A
330
44B
100
AcDbEntity
  8
0
 62
     0
 48
0.3
370
    -2
100
AcDbLine
 10
6.907087591894782
 20
2.561330320764251
 30
0.0
 11
7.626164995969502
 21
2.561330320764251
 31
0.0
  0
LINE
  5
45B
330
44B
100
AcDbEntity
  8
0
 62
     0
 48
0.3
370
    -2
100
AcDbLine
 10
7.446164995969502
 20
3.636330320764252
 30
0.0
 11
7.446164995969502
 21
3.313830320764251
 31
0.0
  0
LINE
  5
45C
330
44B
100
AcDbEntity
  8
0
 62
     0
 48
0.3
370
    -2
100
AcDbLine
 10
7.446164995969502
 20
2.68633032076425
 30
0.0
 11
7.446164995969502
 21
3.008830320764252
 31
0.0
  0
SOLID
  5
45D
330
44B
100
AcDbEntity
  8
0
 62
     0
 48
0.3
100
AcDbTrace
 10
7.42533166263617
 20
3.636330320764252
 30
0.0
 11
7.466998329302835
 21
3.636330320764252
 31
0.0
 12
7.446164995969502
 22
3.761330320764252
 32
0.0
 13
7.446164995969502
 23
3.761330320764252
 33
0.0
  0
SOLID
  5
45E
330
44B
100
AcDbEntity
  8
0
 62
     0
 48
0.3
100
AcDbTrace
 10
7.42533166263617
 20
2.68633032076425
 30
0.0
 11
7.466998329302835
 21
2.68633032076425
 31
0.0
 12
7.446164995969502
 22
2.561330320764251
 32
0.0
 13
7.446164995969502
 23
2.561330320764251
 33
0.0
  0
MTEXT
  5
45F
330
44B
100
AcDbEntity
  8
0
 62
     0
 48
0.3
100
AcDbMText
 10
7.446164995969502
 20
3.161330320764253
 30
0.0
 40
0.125
 41
0.0
 71
     5
 72
     1
  1
\A1;1.200
 73
     1
 44
1.0
  0
POINT
  5
460
330
44B
100
AcDbEntity
  8
Defpoints
 62
     0
 48
0.3
100
AcDbPoint
 10
6.844587591894782
 20
3.761330320764252
 30
0.0
  0
POINT
  5
461
330
44B
100
AcDbEntity
  8
Defpoints
 62
     0
 48
0.3
100
AcDbPoint
 10
6.844587591894782
 20
2.561330320764251
 30
0.0
  0
POINT
  5
462
330
44B
100
AcDbEntity
  8
Defpoints
 62
     0
 48
0.3
100
AcDbPoint
 10
7.446164995969502
 20
2.561330320764251
 30
0.0
  0
ENDBLK
  5
457
330
44B
100
AcDbEntity
  8
0
 48
0.3
100
AcDbBlockEnd
  0
BLOCK
  5
470
330
465
100
AcDbEntity
  8
0
 48
0.3
100
AcDbBlockBegin
  2
*D18
 70
     1
 10
0.0
 20
0.0
 30
0.0
  3
*D18
  1

  0
LINE
  5
4A2
330
465
100
AcDbEntity
  8
0
 62
     0
 48
0.3
370
    -2
100
AcDbLine
 10
6.907087591894782
 20
3.88683032076425
 30
0.0
 11
8.149788357464892
 21
3.88683032076425
 31
0.0
  0
LINE
  5
4A3
330
465
100
AcDbEntity
  8
0
 62
     0
 48
0.3
370
    -2
100
AcDbLine
 10
6.907087591894782
 20
2.435830320764249
 30
0.0
 11
8.149788357464892
 21
2.435830320764249
 31
0.0
  0
LINE
  5
4A4
330
465
100
AcDbEntity
  8
0
 62
     0
 48
0.3
370
    -2
100
AcDbLine
 10
7.969788357464892
 20
3.76183032076425
 30
0.0
 11
7.969788357464892
 21
3.161330320764247
 31
0.0
  0
LINE
  5
4A5
330
465
100
AcDbEntity
  8
0
 62
     0
 48
0.3
370
    -2
100
AcDbLine
 10
7.969788357464892
 20
2.560830320764249
 30
0.0
 11
7.969788357464892
 21
2.856330320764247
 31
0.0
  0
SOLID
  5
4A6
330
465
100
AcDbEntity
  8
0
 62
     0
 48
0.3
100
AcDbTrace
 10
7.948955024131557
 20
3.76183032076425
 30
0.0
 11
7.990621690798226
 21
3.76183032076425
 31
0.0
 12
7.969788357464892
 22
3.88683032076425
 32
0.0
 13
7.969788357464892
 23
3.88683032076425
 33
0.0
  0
SOLID
  5
4A7
330
465
100
AcDbEntity
  8
0
 62
     0
 48
0.3
100
AcDbTrace
 10
7.948955024131557
 20
2.560830320764249
 30
0.0
 11
7.990621690798226
 21
2.560830320764249
 31
0.0
 12
7.969788357464892
 22
2.435830320764249
 32
0.0
 13
7.969788357464892
 23
2.435830320764249
 33
0.0
  0
MTEXT
  5
4A8
330
465
100
AcDbEntity
  8
0
 62
     0
 48
0.3
100
AcDbMText
 10
7.969788357464892
 20
3.008830320764248
 30
0.0
 40
0.125
 41
0.0
 71
     5
 72
     1
  1
\A1;1.451
 73
     1
 44
1.0
  0
POINT
  5
4A9
330
465
100
AcDbEntity
  8
Defpoints
 62
     0
 48
0.3
100
AcDbPoint
 10
6.844587591894782
 20
3.88683032076425
 30
0.0
  0
POINT
  5
4AA
330
465
100
AcDbEntity
  8
Defpoints
 62
     0
 48
0.3
100
AcDbPoint
 10
6.844587591894782
 20
2.435830320764249
 30
0.0
  0
POINT
  5
4AB
330
465
100
AcDbEntity
  8
Defpoints
 62
     0
 48
0.3
100
AcDbPoint
 10
7.969788357464892
 20
2.435830320764249
 30
0.0
  0
ENDBLK
  5
471
330
465
100
AcDbEntity
  8
0
 48
0.3
100
AcDbBlockEnd
  0
BLOCK
  5
48A
330
47F
100
AcDbEntity
  8
0
 48
0.3
100
AcDbBlockBegin
  2
*D19
 70
     1
 10
0.0
 20
0.0
 30
0.0
  3
*D19
  1

  0
LINE
  5
498
330
47F
100
AcDbEntity
  8
0
 62
     0
 48
0.3
370
    -2
100
AcDbLine
 10
6.695087591894782
 20
4.136330320764251
 30
0.0
 11
8.61970674743287
 21
4.136330320764251
 31
0.0
  0
LINE
  5
499
330
47F
100
AcDbEntity
  8
0
 62
     0
 48
0.3
370
    -2
100
AcDbLine
 10
6.695087591894782
 20
2.186330320764251
 30
0.0
 11
8.61970674743287
 21
2.186330320764251
 31
0.0
  0
LINE
  5
49A
330
47F
100
AcDbEntity
  8
0
 62
     0
 48
0.3
370
    -2
100
AcDbLine
 10
8.439706747432872
 20
4.011330320764251
 30
0.0
 11
8.439706747432872
 21
3.639902537585163
 31
0.0
  0
LINE
  5
49B
330
47F
100
AcDbEntity
  8
0
 62
     0
 48
0.3
370
    -2
100
AcDbLine
 10
8.439706747432872
 20
2.311330320764251
 30
0.0
 11
8.439706747432872
 21
3.334902537585163
 31
0.0
  0
SOLID
  5
49C
330
47F
100
AcDbEntity
  8
0
 62
     0
 48
0.3
100
AcDbTrace
 10
8.41887341409954
 20
4.011330320764251
 30
0.0
 11
8.460540080766206
 21
4.011330320764251
 31
0.0
 12
8.439706747432872
 22
4.136330320764251
 32
0.0
 13
8.439706747432872
 23
4.136330320764251
 33
0.0
  0
SOLID
  5
49D
330
47F
100
AcDbEntity
  8
0
 62
     0
 48
0.3
100
AcDbTrace
 10
8.418873414099536
 20
2.311330320764251
 30
0.0
 11
8.460540080766206
 21
2.311330320764251
 31
0.0
 12
8.439706747432872
 22
2.186330320764251
 32
0.0
 13
8.439706747432872
 23
2.186330320764251
 33
0.0
  0
MTEXT
  5
49E
330
47F
100
AcDbEntity
  8
0
 62
     0
 48
0.3
100
AcDbMText
 10
8.439706747432872
 20
3.487402537585163
 30
0.0
 40
0.125
 41
0.0
 71
     5
 72
     1
  1
\A1;1.950
 73
     1
 44
1.0
  0
POINT
  5
49F
330
47F
100
AcDbEntity
  8
Defpoints
 62
     0
 48
0.3
100
AcDbPoint
 10
6.632587591894782
 20
4.136330320764251
 30
0.0
  0
POINT
  5
4A0
330
47F
100
AcDbEntity
  8
Defpoints
 62
     0
 48
0.3
100
AcDbPoint
 10
6.632587591894782
 20
2.186330320764251
 30
0.0
  0
POINT
  5
4A1
330
47F
100
AcDbEntity
  8
Defpoints
 62
     0
 48
0.3
100
AcDbPoint
 10
8.439706747432872
 20
2.186330320764251
 30
0.0
  0
ENDBLK
  5
48B
330
47F
100
AcDbEntity
  8
0
 48
0.3
100
AcDbBlockEnd
  0
BLOCK
  5
516
330
50D
100
AcDbEntity
  8
0
 48
0.3
100
AcDbBlockBegin
  2
*D20
 70
     1
 10
0.0
 20
0.0
 30
0.0
  3
*D20
  1

  0
LINE
  5
519
330
50D
100
AcDbEntity
  8
0
 62
     0
 48
0.3
370
    -2
100
AcDbLine
 10
-0.4524220425550285
 20
5.295168354883143
 30
0.0
 11
-0.3274220425550285
 21
5.295168354883143
 31
0.0
  0
LINE
  5
51A
330
50D
100
AcDbEntity
  8
0
 62
     0
 48
0.3
370
    -2
100
AcDbLine
 10
-0.3274220425550285
 20
5.295168354883143
 30
0.0
 11
-0.0191100299099367
 21
4.462893907960471
 31
0.0
  0
MTEXT
  5
51B
330
50D
100
AcDbEntity
  8
0
 62
     0
 48
0.3
100
AcDbMText
 10
-0.8549220425550283
 20
5.295168354883143
 30
0.0
 40
0.125
 41
0.0
 71
     5
 72
     1
  1
\A1;\U+22052.526
 73
     1
 44
1.0
  0
SOLID
  5
51C
330
50D
100
AcDbEntity
  8
0
 62
     0
 48
0.3
100
AcDbTrace
 10
0.0004259269103715
 20
4.470130907953066
 30
0.0
 11
-0.0386459867302451
 21
4.455656907967876
 31
0.0
 12
0.0243119700456367
 22
4.345678167038621
 32
0.0
 13
0.0243119700456367
 23
4.345678167038621
 33
0.0
  0
LINE
  5
51D
330
50D
100
AcDbEntity
  8
0
 62
     0
 48
0.3
370
    -2
100
AcDbLine
 10
0.3730478575967491
 20
3.161330320764252
 30
0.0
 11
0.5530478575967494
 21
3.161330320764252
 31
0.0
  0
LINE
  5
51E
330
50D
100
AcDbEntity
  8
0
 62
     0
 48
0.3
370
    -2
100
AcDbLine
 10
0.4630478575967488
 20
3.071330320764253
 30
0.0
 11
0.4630478575967489
 21
3.251330320764251
 31
0.0
  0
POINT
  5
51F
330
50D
100
AcDbEntity
  8
Defpoints
 62
     0
 48
0.3
100
AcDbPoint
 10
0.0243119700456367
 20
4.345678167038621
 30
0.0
  0
POINT
  5
520
330
50D
100
AcDbEntity
  8
Defpoints
 62
     0
 48
0.3
100
AcDbPoint
 10
0.9017837451478618
 20
1.976982474489883
 30
0.0
  0
ENDBLK
  5
517
330
50D
100
AcDbEntity
  8
0
 48
0.3
100
AcDbBlockEnd
  0
BLOCK
  5
52C
330
523
100
AcDbEntity
  8
0
 48
0.3
100
AcDbBlockBegin
  2
*D21
 70
     1
 10
0.0
 20
0.0
 30
0.0
  3
*D21
  1

  0
LINE
  5
52F
330
523
100
AcDbEntity
  8
0
 62
     0
 48
0.3
370
    -2
100
AcDbLine
 10
0.2749129011671701
 20
5.569979802186076
 30
0.0
 11
0.3999129011671701
 21
5.569979802186079
 31
0.0
  0
LINE
  5
530
330
523
100
AcDbEntity
  8
0
 62
     0
 48
0.3
370
    -2
100
AcDbLine
 10
0.3999129011671701
 20
5.569979802186079
 30
0.0
 11
0.4365175569314171
 21
4.173482677451032
 31
0.0
  0
MTEXT
  5
531
330
523
100
AcDbEntity
  8
0
 62
     0
 48
0.3
100
AcDbMText
 10
-0.1067537654994974
 20
5.569979802186079
 30
0.0
 40
0.125
 41
0.0
 71
     5
 72
     1
  1
\A1;\U+22051.775
 73
     1
 44
1.0
  0
SOLID
  5
532
330
523
100
AcDbEntity
  8
0
 62
     0
 48
0.3
100
AcDbTrace
 10
0.4573437371101576
 20
4.174028568411225
 30
0.0
 11
0.4156913767526767
 21
4.172936786490841
 31
0.0
 12
0.4397929026925694
 22
4.048525596378588
 32
0.0
 13
0.4397929026925694
 23
4.048525596378588
 33
0.0
  0
LINE
  5
533
330
523
100
AcDbEntity
  8
0
 62
     0
 48
0.3
370
    -2
100
AcDbLine
 10
0.3730478575967483
 20
3.161330320764251
 30
0.0
 11
0.5530478575967484
 21
3.161330320764251
 31
0.0
  0
LINE
  5
534
330
523
100
AcDbEntity
  8
0
 62
     0
 48
0.3
370
    -2
100
AcDbLine
 10
0.4630478575967482
 20
3.071330320764252
 30
0.0
 11
0.4630478575967484
 21
3.251330320764251
 31
0.0
  0
POINT
  5
535
330
523
100
AcDbEntity
  8
Defpoints
 62
     0
 48
0.3
100
AcDbPoint
 10
0.4397929026925694
 20
4.048525596378588
 30
0.0
  0
POINT
  5
536
330
523
100
AcDbEntity
  8
Defpoints
 62
     0
 48
0.3
100
AcDbPoint
 10
0.4863028125009275
 20
2.274135045149912
 30
0.0
  0
ENDBLK
  5
52D
330
523
100
AcDbEntity
  8
0
 48
0.3
100
AcDbBlockEnd
  0
BLOCK
  5
542
330
539
100
AcDbEntity
  8
0
 48
0.3
100
AcDbBlockBegin
  2
*D22
 70
     1
 10
0.0
 20
0.0
 30
0.0
  3
*D22
  1

  0
LINE
  5
545
330
539
100
AcDbEntity
  8
0
 62
     0
 48
0.3
370
    -2
100
AcDbLine
 10
1.195037193954979
 20
5.147229284025584
 30
0.0
 11
1.070037193954979
 21
5.147229284025583
 31
0.0
  0
LINE
  5
546
330
539
100
AcDbEntity
  8
0
 62
     0
 48
0.3
370
    -2
100
AcDbLine
 10
1.070037193954979
 20
5.147229284025583
 30
0.0
 11
0.7335722863204377
 21
4.046410420791207
 31
0.0
  0
MTEXT
  5
547
330
539
100
AcDbEntity
  8
0
 62
     0
 48
0.3
100
AcDbMText
 10
1.545453860621648
 20
5.147229284025584
 30
0.0
 40
0.125
 41
0.0
 71
     5
 72
     1
  1
\A1;\U+22051.601
 73
     1
 44
1.0
  0
SOLID
  5
548
330
539
100
AcDbEntity
  8
0
 62
     0
 48
0.3
100
AcDbTrace
 10
0.7136488192749903
 20
4.052500021653886
 30
0.0
 11
0.7534957533658852
 21
4.040320819928528
 31
0.0
 12
0.6970346811443589
 22
3.926869618518523
 32
0.0
 13
0.6970346811443589
 23
3.926869618518523
 33
0.0
  0
LINE
  5
549
330
539
100
AcDbEntity
  8
0
 62
     0
 48
0.3
370
    -2
100
AcDbLine
 10
0.3730478575967484
 20
3.161330320764253
 30
0.0
 11
0.5530478575967484
 21
3.161330320764253
 31
0.0
  0
LINE
  5
54A
330
539
100
AcDbEntity
  8
0
 62
     0
 48
0.3
370
    -2
100
AcDbLine
 10
0.4630478575967482
 20
3.071330320764253
 30
0.0
 11
0.4630478575967482
 21
3.251330320764253
 31
0.0
  0
POINT
  5
54B
330
539
100
AcDbEntity
  8
Defpoints
 62
     0
 48
0.3
100
AcDbPoint
 10
0.6970346811443589
 20
3.926869618518523
 30
0.0
  0
POINT
  5
54C
330
539
100
AcDbEntity
  8
Defpoints
 62
     0
 48
0.3
100
AcDbPoint
 10
0.2290610340491379
 20
2.395791023009982
 30
0.0
  0
ENDBLK
  5
543
330
539
100
AcDbEntity
  8
0
 48
0.3
100
AcDbBlockEnd
  0
BLOCK
  5
558
330
54F
100
AcDbEntity
  8
0
 48
0.3
100
AcDbBlockBegin
  2
*D23
 70
     1
 10
0.0
 20
0.0
 30
0.0
  3
*D23
  1

  0
LINE
  5
55B
330
54F
100
AcDbEntity
  8
0
 62
     0
 48
0.3
370
    -2
100
AcDbLine
 10
1.500707914404088
 20
4.677506496942275
 30
0.0
 11
1.375707914404088
 21
4.677506496942275
 31
0.0
  0
LINE
  5
55C
330
54F
100
AcDbEntity
  8
0
 62
     0
 48
0.3
370
    -2
100
AcDbLine
 10
1.375707914404088
 20
4.677506496942275
 30
0.0
 11
0.9016700594845003
 21
3.890000900663796
 31
0.0
  0
MTEXT
  5
55D
330
54F
100
AcDbEntity
  8
0
 62
     0
 48
0.3
100
AcDbMText
 10
1.861541247737422
 20
4.677506496942275
 30
0.0
 40
0.125
 41
0.0
 71
     5
 72
     1
  1
\A1;\U+22051.451
 73
     1
 44
1.0
  0
SOLID
  5
55E
330
54F
100
AcDbEntity
  8
0
 62
     0
 48
0.3
100
AcDbTrace
 10
0.883820985902795
 20
3.900745124695927
 30
0.0
 11
0.919519133066206
 21
3.879256676631665
 31
0.0
 12
0.837204715291709
 22
3.782906459173563
 32
0.0
 13
0.837204715291709
 23
3.782906459173563
 33
0.0
  0
LINE
  5
55F
330
54F
100
AcDbEntity
  8
0
 62
     0
 48
0.3
370
    -2
100
AcDbLine
 10
0.3730478575967486
 20
3.161330320764251
 30
0.0
 11
0.5530478575967486
 21
3.161330320764252
 31
0.0
  0
LINE
  5
560
330
54F
100
AcDbEntity
  8
0
 62
     0
 48
0.3
370
    -2
100
AcDbLine
 10
0.4630478575967488
 20
3.071330320764251
 30
0.0
 11
0.4630478575967484
 21
3.251330320764251
 31
0.0
  0
POINT
  5
561
330
54F
100
AcDbEntity
  8
Defpoints
 62
     0
 48
0.3
100
AcDbPoint
 10
0.837204715291709
 20
3.782906459173563
 30
0.0
  0
POINT
  5
562
330
54F
100
AcDbEntity
  8
Defpoints
 62
     0
 48
0.3
100
AcDbPoint
 10
0.088890999901788
 20
2.539754182354938
 30
0.0
  0
ENDBLK
  5
559
330
54F
100
AcDbEntity
  8
0
 48
0.3
100
AcDbBlockEnd
  0
BLOCK
  5
56E
330
565
100
AcDbEntity
  8
0
 48
0.3
100
AcDbBlockBegin
  2
*D24
 70
     1
 10
0.0
 20
0.0
 30
0.0
  3
*D24
  1

  0
LINE
  5
571
330
565
100
AcDbEntity
  8
0
 62
     0
 48
0.3
370
    -2
100
AcDbLine
 10
1.735839276388823
 20
4.243012906658316
 30
0.0
 11
1.610839276388823
 21
4.243012906658318
 31
0.0
  0
LINE
  5
572
330
565
100
AcDbEntity
  8
0
 62
     0
 48
0.3
370
    -2
100
AcDbLine
 10
1.610839276388823
 20
4.243012906658318
 30
0.0
 11
0.9906696457006807
 21
3.658562910925041
 31
0.0
  0
MTEXT
  5
573
330
565
100
AcDbEntity
  8
0
 62
     0
 48
0.3
100
AcDbMText
 10
2.096672609722154
 20
4.243012906658318
 30
0.0
 40
0.125
 41
0.0
 71
     5
 72
     1
  1
\A1;\U+22051.200
 73
     1
 44
1.0
  0
SOLID
  5
574
330
565
100
AcDbEntity
  8
0
 62
     0
 48
0.3
100
AcDbTrace
 10
0.9763813528799683
 20
3.673724456560213
 30
0.0
 11
1.004957938521392
 21
3.643401365289872
 31
0.0
 12
0.8997003718896579
 22
3.572833154000768
 32
0.0
 13
0.8997003718896579
 23
3.572833154000768
 33
0.0
  0
LINE
  5
575
330
565
100
AcDbEntity
  8
0
 62
     0
 48
0.3
370
    -2
100
AcDbLine
 10
0.3730478575967488
 20
3.161330320764251
 30
0.0
 11
0.5530478575967484
 21
3.161330320764251
 31
0.0
  0
LINE
  5
576
330
565
100
AcDbEntity
  8
0
 62
     0
 48
0.3
370
    -2
100
AcDbLine
 10
0.4630478575967484
 20
3.071330320764251
 30
0.0
 11
0.4630478575967488
 21
3.251330320764251
 31
0.0
  0
POINT
  5
577
330
565
100
AcDbEntity
  8
Defpoints
 62
     0
 48
0.3
100
AcDbPoint
 10
0.8997003718896579
 20
3.572833154000768
 30
0.0
  0
POINT
  5
578
330
565
100
AcDbEntity
  8
Defpoints
 62
     0
 48
0.3
100
AcDbPoint
 10
0.0263953433038391
 20
2.749827487527733
 30
0.0
  0
ENDBLK
  5
56F
330
565
100
AcDbEntity
  8
0
 48
0.3
100
AcDbBlockEnd
  0
BLOCK
  5
584
330
57B
100
AcDbEntity
  8
0
 48
0.3
100
AcDbBlockBegin
  2
*D25
 70
     1
 10
0.0
 20
0.0
 30
0.0
  3
*D25
  1

  0
LINE
  5
587
330
57B
100
AcDbEntity
  8
0
 62
     0
 48
0.3
370
    -2
100
AcDbLine
 10
6.364814342573417
 20
5.076770870855846
 30
0.0
 11
6.489814342573417
 21
5.076770870855846
 31
0.0
  0
LINE
  5
588
330
57B
100
AcDbEntity
  8
0
 62
     0
 48
0.3
370
    -2
100
AcDbLine
 10
6.489814342573417
 20
5.076770870855846
 30
0.0
 11
6.630614101211691
 21
4.508581303022943
 31
0.0
  0
MTEXT
  5
589
330
57B
100
AcDbEntity
  8
0
 62
     0
 48
0.3
100
AcDbMText
 10
5.962314342573417
 20
5.076770870855844
 30
0.0
 40
0.125
 41
0.0
 71
     5
 72
     1
  1
\A1;\U+22052.526
 73
     1
 44
1.0
  0
SOLID
  5
58A
330
57B
100
AcDbEntity
  8
0
 62
     0
 48
0.3
100
AcDbTrace
 10
6.650835807837816
 20
4.51359232676115
 30
0.0
 11
6.610392394585574
 21
4.503570279284737
 31
0.0
 12
6.660680243640933
 22
4.387251063266216
 32
0.0
 13
6.660680243640933
 23
4.387251063266216
 33
0.0
  0
LINE
  5
58B
330
57B
100
AcDbEntity
  8
0
 62
     0
 48
0.3
370
    -2
100
AcDbLine
 10
6.874468546745953
 20
3.161330320764252
 30
0.0
 11
7.054468546745955
 21
3.161330320764252
 31
0.0
  0
LINE
  5
58C
330
57B
100
AcDbEntity
  8
0
 62
     0
 48
0.3
370
    -2
100
AcDbLine
 10
6.964468546745956
 20
3.071330320764252
 30
0.0
 11
6.964468546745956
 21
3.251330320764251
 31
0.0
  0
POINT
  5
58D
330
57B
100
AcDbEntity
  8
Defpoints
 62
     0
 48
0.3
100
AcDbPoint
 10
6.660680243640933
 20
4.387251063266216
 30
0.0
  0
POINT
  5
58E
330
57B
100
AcDbEntity
  8
Defpoints
 62
     0
 48
0.3
100
AcDbPoint
 10
7.268256849850978
 20
1.935409578262285
 30
0.0
  0
ENDBLK
  5
585
330
57B
100
AcDbEntity
  8
0
 48
0.3
100
AcDbBlockEnd
  0
BLOCK
  5
59A
330
591
100
AcDbEntity
  8
0
 48
0.3
100
AcDbBlockBegin
  2
*D26
 70
     1
 10
0.0
 20
0.0
 30
0.0
  3
*D26
  1

  0
LINE
  5
59D
330
591
100
AcDbEntity
  8
0
 62
     0
 48
0.3
370
    -2
100
AcDbLine
 10
7.402504293566757
 20
5.006312457686107
 30
0.0
 11
7.277504293566757
 21
5.006312457686107
 31
0.0
  0
LINE
  5
59E
330
591
100
AcDbEntity
  8
0
 62
     0
 48
0.3
370
    -2
100
AcDbLine
 10
7.277504293566757
 20
5.006312457686107
 30
0.0
 11
7.133586646630697
 21
4.158085089145808
 31
0.0
  0
MTEXT
  5
59F
330
591
100
AcDbEntity
  8
0
 62
     0
 48
0.3
100
AcDbMText
 10
7.784170960233422
 20
5.006312457686107
 30
0.0
 40
0.125
 41
0.0
 71
     5
 72
     1
  1
\A1;\U+22051.772
 73
     1
 44
1.0
  0
SOLID
  5
5A0
330
591
100
AcDbEntity
  8
0
 62
     0
 48
0.3
100
AcDbTrace
 10
7.113046859942977
 20
4.161570048342245
 30
0.0
 11
7.154126433318413
 21
4.154600129949371
 31
0.0
 12
7.112676891452067
 22
4.034846369019502
 32
0.0
 13
7.112676891452067
 23
4.034846369019502
 33
0.0
  0
LINE
  5
5A1
330
591
100
AcDbEntity
  8
0
 62
     0
 48
0.3
370
    -2
100
AcDbLine
 10
6.874468546745953
 20
3.161330320764252
 30
0.0
 11
7.054468546745955
 21
3.161330320764252
 31
0.0
  0
LINE
  5
5A2
330
591
100
AcDbEntity
  8
0
 62
     0
 48
0.3
370
    -2
100
AcDbLine
 10
6.964468546745953
 20
3.071330320764251
 30
0.0
 11
6.964468546745953
 21
3.251330320764251
 31
0.0
  0
POINT
  5
5A3
330
591
100
AcDbEntity
  8
Defpoints
 62
     0
 48
0.3
100
AcDbPoint
 10
7.112676891452067
 20
4.034846369019502
 30
0.0
  0
POINT
  5
5A4
330
591
100
AcDbEntity
  8
Defpoints
 62
     0
 48
0.3
100
AcDbPoint
 10
6.81626020203984
 20
2.287814272508998
 30
0.0
  0
ENDBLK
  5
59B
330
591
100
AcDbEntity
  8
0
 48
0.3
100
AcDbBlockEnd
  0
BLOCK
  5
5B0
330
5A7
100
AcDbEntity
  8
0
 48
0.3
100
AcDbBlockBegin
  2
*D27
 70
     1
 10
0.0
 20
0.0
 30
0.0
  3
*D27
  1

  0
LINE
  5
5B3
330
5A7
100
AcDbEntity
  8
0
 62
     0
 48
0.3
370
    -2
100
AcDbLine
 10
7.908036628407892
 20
4.560075795278684
 30
0.0
 11
7.783036628407887
 21
4.560075795278684
 31
0.0
  0
LINE
  5
5B4
330
5A7
100
AcDbEntity
  8
0
 62
     0
 48
0.3
370
    -2
100
AcDbLine
 10
7.783036628407887
 20
4.560075795278684
 30
0.0
 11
7.330653578250669
 21
3.787056716804798
 31
0.0
  0
MTEXT
  5
5B5
330
5A7
100
AcDbEntity
  8
0
 62
     0
 48
0.3
100
AcDbMText
 10
8.268869961741227
 20
4.560075795278684
 30
0.0
 40
0.125
 41
0.0
 71
     5
 72
     1
  1
\A1;\U+22051.200
 73
     1
 44
1.0
  0
SOLID
  5
5B6
330
5A7
100
AcDbEntity
  8
0
 62
     0
 48
0.3
100
AcDbTrace
 10
7.312672934686286
 20
3.79757927518137
 30
0.0
 11
7.348634221815053
 21
3.776534158428225
 31
0.0
 12
7.267518227991235
 22
3.679172855418497
 32
0.0
 13
7.267518227991235
 23
3.679172855418497
 33
0.0
  0
LINE
  5
5B7
330
5A7
100
AcDbEntity
  8
0
 62
     0
 48
0.3
370
    -2
100
AcDbLine
 10
6.874468546745952
 20
3.161330320764251
 30
0.0
 11
7.054468546745952
 21
3.161330320764251
 31
0.0
  0
LINE
  5
5B8
330
5A7
100
AcDbEntity
  8
0
 62
     0
 48
0.3
370
    -2
100
AcDbLine
 10
6.964468546745952
 20
3.071330320764251
 30
0.0
 11
6.964468546745952
 21
3.25133032076425
 31
0.0
  0
POINT
  5
5B9
330
5A7
100
AcDbEntity
  8
Defpoints
 62
     0
 48
0.3
100
AcDbPoint
 10
7.267518227991235
 20
3.679172855418497
 30
0.0
  0
POINT
  5
5BA
330
5A7
100
AcDbEntity
  8
Defpoints
 62
     0
 48
0.3
100
AcDbPoint
 10
6.661418865500673
 20
2.643487786110003
 30
0.0
  0
ENDBLK
  5
5B1
330
5A7
100
AcDbEntity
  8
0
 48
0.3
100
AcDbBlockEnd
  0
BLOCK
  5
5C8
330
5BD
100
AcDbEntity
  8
0
 48
0.3
100
AcDbBlockBegin
  2
*D28
 70
     1
 10
0.0
 20
0.0
 30
0.0
  3
*D28
  1

  0
LINE
  5
5CB
330
5BD
100
AcDbEntity
  8
0
 62
     0
 48
0.3
370
    -2
100
AcDbLine
 10
3.44336789312268
 20
1.835830320764254
 30
0.0
 11
3.44336789312268
 21
0.1877999083282622
 31
0.0
  0
LINE
  5
5CC
330
5BD
100
AcDbEntity
  8
0
 62
     0
 48
0.3
370
    -2
100
AcDbLine
 10
4.427367893122679
 20
2.212830320764251
 30
0.0
 11
4.427367893122679
 21
0.187799908328262
 31
0.0
  0
LINE
  5
5CD
330
5BD
100
AcDbEntity
  8
0
 62
     0
 48
0.3
370
    -2
100
AcDbLine
 10
3.31836789312268
 20
0.3677999083282621
 30
0.0
 11
3.19336789312268
 21
0.3677999083282621
 31
0.0
  0
LINE
  5
5CE
330
5BD
100
AcDbEntity
  8
0
 62
     0
 48
0.3
370
    -2
100
AcDbLine
 10
4.552367893122679
 20
0.3677999083282621
 30
0.0
 11
4.677367893122679
 21
0.3677999083282621
 31
0.0
  0
SOLID
  5
5CF
330
5BD
100
AcDbEntity
  8
0
 62
     0
 48
0.3
100
AcDbTrace
 10
3.31836789312268
 20
0.3886332416615955
 30
0.0
 11
3.31836789312268
 21
0.3469665749949288
 31
0.0
 12
3.44336789312268
 22
0.3677999083282621
 32
0.0
 13
3.44336789312268
 23
0.3677999083282621
 33
0.0
  0
SOLID
  5
5D0
330
5BD
100
AcDbEntity
  8
0
 62
     0
 48
0.3
100
AcDbTrace
 10
4.552367893122679
 20
0.3886332416615955
 30
0.0
 11
4.552367893122679
 21
0.3469665749949288
 31
0.0
 12
4.427367893122679
 22
0.3677999083282621
 32
0.0
 13
4.427367893122679
 23
0.3677999083282621
 33
0.0
  0
MTEXT
  5
5D1
330
5BD
100
AcDbEntity
  8
0
 62
     0
 48
0.3
100
AcDbMText
 10
3.93536789312268
 20
0.3677999083282621
 30
0.0
 40
0.125
 41
0.0
 71
     5
 72
     1
  1
\A1;0.984
 73
     1
 44
1.0
  0
POINT
  5
5D2
330
5BD
100
AcDbEntity
  8
Defpoints
 62
     0
 48
0.3
100
AcDbPoint
 10
3.44336789312268
 20
1.898330320764254
 30
0.0
  0
POINT
  5
5D3
330
5BD
100
AcDbEntity
  8
Defpoints
 62
     0
 48
0.3
100
AcDbPoint
 10
4.427367893122679
 20
2.275330320764251
 30
0.0
  0
POINT
  5
5D4
330
5BD
100
AcDbEntity
  8
Defpoints
 62
     0
 48
0.3
100
AcDbPoint
 10
4.427367893122679
 20
0.3677999083282621
 30
0.0
  0
ENDBLK
  5
5C9
330
5BD
100
AcDbEntity
  8
0
 48
0.3
100
AcDbBlockEnd
  0
BLOCK
  5
5E2
330
5D7
100
AcDbEntity
  8
0
 48
0.3
100
AcDbBlockBegin
  2
*D29
 70
     1
 10
0.0
 20
0.0
 30
0.0
  3
*D29
  1

  0
LINE
  5
5E5
330
5D7
100
AcDbEntity
  8
0
 62
     0
 48
0.3
370
    -2
100
AcDbLine
 10
4.006367893122678
 20
1.835830320764253
 30
0.0
 11
4.006367893122678
 21
0.9980717282788694
 31
0.0
  0
LINE
  5
5E6
330
5D7
100
AcDbEntity
  8
0
 62
     0
 48
0.3
370
    -2
100
AcDbLine
 10
3.44336789312268
 20
1.835830320764254
 30
0.0
 11
3.44336789312268
 21
0.9980717282788694
 31
0.0
  0
LINE
  5
5E7
330
5D7
100
AcDbEntity
  8
0
 62
     0
 48
0.3
370
    -2
100
AcDbLine
 10
3.881367893122678
 20
1.178071728278869
 30
0.0
 11
3.56836789312268
 21
1.178071728278869
 31
0.0
  0
LINE
  5
5E8
330
5D7
100
AcDbEntity
  8
0
 62
     0
 48
0.3
370
    -2
100
AcDbLine
 10
3.44336789312268
 20
1.178071728278869
 30
0.0
 11
3.31836789312268
 21
1.178071728278869
 31
0.0
  0
SOLID
  5
5E9
330
5D7
100
AcDbEntity
  8
0
 62
     0
 48
0.3
100
AcDbTrace
 10
3.881367893122678
 20
1.198905061612202
 30
0.0
 11
3.881367893122678
 21
1.157238394945536
 31
0.0
 12
4.006367893122678
 22
1.178071728278869
 32
0.0
 13
4.006367893122678
 23
1.178071728278869
 33
0.0
  0
SOLID
  5
5EA
330
5D7
100
AcDbEntity
  8
0
 62
     0
 48
0.3
100
AcDbTrace
 10
3.56836789312268
 20
1.198905061612202
 30
0.0
 11
3.56836789312268
 21
1.157238394945536
 31
0.0
 12
3.44336789312268
 22
1.178071728278869
 32
0.0
 13
3.44336789312268
 23
1.178071728278869
 33
0.0
  0
MTEXT
  5
5EB
330
5D7
100
AcDbEntity
  8
0
 62
     0
 48
0.3
100
AcDbMText
 10
2.988784559789346
 20
1.178071728278869
 30
0.0
 40
0.125
 41
0.0
 71
     5
 72
     1
  1
\A1;0.563
 73
     1
 44
1.0
  0
POINT
  5
5EC
330
5D7
100
AcDbEntity
  8
Defpoints
 62
     0
 48
0.3
100
AcDbPoint
 10
4.006367893122678
 20
1.898330320764253
 30
0.0
  0
POINT
  5
5ED
330
5D7
100
AcDbEntity
  8
Defpoints
 62
     0
 48
0.3
100
AcDbPoint
 10
3.44336789312268
 20
1.898330320764254
 30
0.0
  0
POINT
  5
5EE
330
5D7
100
AcDbEntity
  8
Defpoints
 62
     0
 48
0.3
100
AcDbPoint
 10
3.44336789312268
 20
1.178071728278869
 30
0.0
  0
ENDBLK
  5
5E3
330
5D7
100
AcDbEntity
  8
0
 48
0.3
100
AcDbBlockEnd
  0
BLOCK
  5
5FC
330
5F1
100
AcDbEntity
  8
0
 48
0.3
100
AcDbBlockBegin
  2
*D30
 70
     1
 10
0.0
 20
0.0
 30
0.0
  3
*D30
  1

  0
LINE
  5
5FF
330
5F1
100
AcDbEntity
  8
0
 62
     0
 48
0.3
370
    -2
100
AcDbLine
 10
3.72536789312268
 20
3.223830320764253
 30
0.0
 11
3.72536789312268
 21
5.292000067655195
 31
0.0
  0
LINE
  5
600
330
5F1
100
AcDbEntity
  8
0
 62
     0
 48
0.3
370
    -2
100
AcDbLine
 10
3.44336789312268
 20
4.486830320764251
 30
0.0
 11
3.44336789312268
 21
5.292000067655195
 31
0.0
  0
LINE
  5
601
330
5F1
100
AcDbEntity
  8
0
 62
     0
 48
0.3
370
    -2
100
AcDbLine
 10
3.85036789312268
 20
5.112000067655195
 30
0.0
 11
3.97536789312268
 21
5.112000067655195
 31
0.0
  0
LINE
  5
602
330
5F1
100
AcDbEntity
  8
0
 62
     0
 48
0.3
370
    -2
100
AcDbLine
 10
3.31836789312268
 20
5.112000067655195
 30
0.0
 11
3.19336789312268
 21
5.112000067655195
 31
0.0
  0
SOLID
  5
603
330
5F1
100
AcDbEntity
  8
0
 62
     0
 48
0.3
100
AcDbTrace
 10
3.85036789312268
 20
5.132833400988528
 30
0.0
 11
3.85036789312268
 21
5.091166734321862
 31
0.0
 12
3.72536789312268
 22
5.112000067655195
 32
0.0
 13
3.72536789312268
 23
5.112000067655195
 33
0.0
  0
SOLID
  5
604
330
5F1
100
AcDbEntity
  8
0
 62
     0
 48
0.3
100
AcDbTrace
 10
3.31836789312268
 20
5.132833400988528
 30
0.0
 11
3.31836789312268
 21
5.091166734321862
 31
0.0
 12
3.44336789312268
 22
5.112000067655195
 32
0.0
 13
3.44336789312268
 23
5.112000067655195
 33
0.0
  0
MTEXT
  5
605
330
5F1
100
AcDbEntity
  8
0
 62
     0
 48
0.3
100
AcDbMText
 10
2.863784559789346
 20
5.112000067655195
 30
0.0
 40
0.125
 41
0.0
 71
     5
 72
     1
  1
\A1;0.282
 73
     1
 44
1.0
  0
POINT
  5
606
330
5F1
100
AcDbEntity
  8
Defpoints
 62
     0
 48
0.3
100
AcDbPoint
 10
3.72536789312268
 20
3.161330320764253
 30
0.0
  0
POINT
  5
607
330
5F1
100
AcDbEntity
  8
Defpoints
 62
     0
 48
0.3
100
AcDbPoint
 10
3.44336789312268
 20
4.424330320764251
 30
0.0
  0
POINT
  5
608
330
5F1
100
AcDbEntity
  8
Defpoints
 62
     0
 48
0.3
100
AcDbPoint
 10
3.44336789312268
 20
5.112000067655195
 30
0.0
  0
ENDBLK
  5
5FD
330
5F1
100
AcDbEntity
  8
0
 48
0.3
100
AcDbBlockEnd
  0
BLOCK
  5
64B
330
640
100
AcDbEntity
  8
0
 48
0.3
100
AcDbBlockBegin
  2
*D31
 70
     1
 10
0.0
 20
0.0
 30
0.0
  3
*D31
  1

  0
LINE
  5
64E
330
640
100
AcDbEntity
  8
0
 62
     0
 48
0.3
370
    -2
100
AcDbLine
 10
4.377367893122679
 20
3.948830320764252
 30
0.0
 11
4.377367893122679
 21
4.661185731433921
 31
0.0
  0
LINE
  5
64F
330
640
100
AcDbEntity
  8
0
 62
     0
 48
0.3
370
    -2
100
AcDbLine
 10
4.427367893122679
 20
3.948830320764252
 30
0.0
 11
4.427367893122679
 21
4.661185731433921
 31
0.0
  0
LINE
  5
650
330
640
100
AcDbEntity
  8
0
 62
     0
 48
0.3
370
    -2
100
AcDbLine
 10
4.252367893122679
 20
4.48118573143392
 30
0.0
 11
4.127367893122679
 21
4.48118573143392
 31
0.0
  0
LINE
  5
651
330
640
100
AcDbEntity
  8
0
 62
     0
 48
0.3
370
    -2
100
AcDbLine
 10
4.552367893122679
 20
4.48118573143392
 30
0.0
 11
4.677367893122679
 21
4.48118573143392
 31
0.0
  0
SOLID
  5
652
330
640
100
AcDbEntity
  8
0
 62
     0
 48
0.3
100
AcDbTrace
 10
4.252367893122679
 20
4.502019064767253
 30
0.0
 11
4.252367893122679
 21
4.460352398100587
 31
0.0
 12
4.377367893122679
 22
4.48118573143392
 32
0.0
 13
4.377367893122679
 23
4.48118573143392
 33
0.0
  0
SOLID
  5
653
330
640
100
AcDbEntity
  8
0
 62
     0
 48
0.3
100
AcDbTrace
 10
4.552367893122679
 20
4.502019064767253
 30
0.0
 11
4.552367893122679
 21
4.460352398100587
 31
0.0
 12
4.427367893122679
 22
4.48118573143392
 32
0.0
 13
4.427367893122679
 23
4.48118573143392
 33
0.0
  0
MTEXT
  5
654
330
640
100
AcDbEntity
  8
0
 62
     0
 48
0.3
100
AcDbMText
 10
4.986117893122679
 20
4.48118573143392
 30
0.0
 40
0.125
 41
0.0
 71
     5
 72
     1
  1
\A1;0.050
 73
     1
 44
1.0
  0
POINT
  5
655
330
640
100
AcDbEntity
  8
Defpoints
 62
     0
 48
0.3
100
AcDbPoint
 10
4.377367893122679
 20
3.886330320764252
 30
0.0
  0
POINT
  5
656
330
640
100
AcDbEntity
  8
Defpoints
 62
     0
 48
0.3
100
AcDbPoint
 10
4.427367893122679
 20
3.886330320764252
 30
0.0
  0
POINT
  5
657
330
640
100
AcDbEntity
  8
Defpoints
 62
     0
 48
0.3
100
AcDbPoint
 10
4.427367893122679
 20
4.48118573143392
 30
0.0
  0
ENDBLK
  5
64C
330
640
100
AcDbEntity
  8
0
 48
0.3
100
AcDbBlockEnd
  0
BLOCK
  5
663
330
65A
100
AcDbEntity
  8
0
 48
0.3
100
AcDbBlockBegin
  2
*D32
 70
     1
 10
0.0
 20
0.0
 30
0.0
  3
*D32
  1

  0
LINE
  5
666
330
65A
100
AcDbEntity
  8
0
 62
     0
 48
0.3
370
    -2
100
AcDbLine
 10
7.901855174895592
 20
4.550154256603276
 30
0.0
 11
7.776855174895592
 21
4.550154256603278
 31
0.0
  0
LINE
  5
667
330
65A
100
AcDbEntity
  8
0
 62
     0
 48
0.3
370
    -2
100
AcDbLine
 10
7.776855174895592
 20
4.550154256603278
 30
0.0
 11
7.474931630691618
 21
4.033997748785187
 31
0.0
  0
MTEXT
  5
668
330
65A
100
AcDbEntity
  8
0
 62
     0
 48
0.3
100
AcDbMText
 10
8.283521841562258
 20
4.550154256603278
 30
0.0
 40
0.125
 41
0.0
 71
     5
 72
     1
  1
\A1;\U+22051.772
 73
     1
 44
1.0
  0
SOLID
  5
669
330
65A
100
AcDbEntity
  8
0
 62
     0
 48
0.3
100
AcDbTrace
 10
7.456948869646017
 20
4.044516688035633
 30
0.0
 11
7.492914391737221
 21
4.023478809534741
 31
0.0
 12
7.411817995188942
 22
3.926101182511578
 32
0.0
 13
7.411817995188942
 23
3.926101182511578
 33
0.0
  0
LINE
  5
66A
330
65A
100
AcDbEntity
  8
0
 62
     0
 48
0.3
370
    -2
100
AcDbLine
 10
6.874468546745952
 20
3.16133032076425
 30
0.0
 11
7.054468546745952
 21
3.161330320764251
 31
0.0
  0
LINE
  5
66B
330
65A
100
AcDbEntity
  8
0
 62
     0
 48
0.3
370
    -2
100
AcDbLine
 10
6.964468546745952
 20
3.071330320764248
 30
0.0
 11
6.964468546745953
 21
3.25133032076425
 31
0.0
  0
POINT
  5
66C
330
65A
100
AcDbEntity
  8
Defpoints
 62
     0
 48
0.3
100
AcDbPoint
 10
7.411817995188942
 20
3.926101182511578
 30
0.0
  0
POINT
  5
66D
330
65A
100
AcDbEntity
  8
Defpoints
 62
     0
 48
0.3
100
AcDbPoint
 10
6.517119098302966
 20
2.396559459016919
 30
0.0
  0
ENDBLK
  5
664
330
65A
100
AcDbEntity
  8
0
 48
0.3
100
AcDbBlockEnd
  0
BLOCK
  5
679
330
670
100
AcDbEntity
  8
0
 48
0.3
100
AcDbBlockBegin
  2
*D33
 70
     1
 10
0.0
 20
0.0
 30
0.0
  3
*D33
  1

  0
LINE
  5
67C
330
670
100
AcDbEntity
  8
0
 62
     0
 48
0.3
370
    -2
100
AcDbLine
 10
8.042622363246
 20
1.596919817495315
 30
0.0
 11
7.917622363245997
 21
1.596919817495315
 31
0.0
  0
LINE
  5
67D
330
670
100
AcDbEntity
  8
0
 62
     0
 48
0.3
370
    -2
100
AcDbLine
 10
7.917622363245997
 20
1.596919817495315
 30
0.0
 11
7.406729450241226
 21
2.435447896924449
 31
0.0
  0
MTEXT
  5
67E
330
670
100
AcDbEntity
  8
0
 62
     0
 48
0.3
100
AcDbMText
 10
8.413872363245998
 20
1.596919817495314
 30
0.0
 40
0.125
 41
0.0
 71
     5
 72
     1
  1
\A1;\U+22051.450
 73
     1
 44
1.0
  0
SOLID
  5
67F
330
670
100
AcDbEntity
  8
0
 62
     0
 48
0.3
100
AcDbTrace
 10
7.424520686119651
 20
2.446287624951294
 30
0.0
 11
7.388938214362799
 21
2.424608168897603
 31
0.0
 12
7.341691082080156
 22
2.542195312195008
 32
0.0
 13
7.341691082080156
 23
2.542195312195008
 33
0.0
  0
LINE
  5
680
330
670
100
AcDbEntity
  8
0
 62
     0
 48
0.3
370
    -2
100
AcDbLine
 10
6.874468546745957
 20
3.161330320764252
 30
0.0
 11
7.054468546745956
 21
3.161330320764252
 31
0.0
  0
LINE
  5
681
330
670
100
AcDbEntity
  8
0
 62
     0
 48
0.3
370
    -2
100
AcDbLine
 10
6.964468546745957
 20
3.071330320764252
 30
0.0
 11
6.964468546745957
 21
3.251330320764251
 31
0.0
  0
POINT
  5
682
330
670
100
AcDbEntity
  8
Defpoints
 62
     0
 48
0.3
100
AcDbPoint
 10
7.341691082080156
 20
2.542195312195008
 30
0.0
  0
POINT
  5
683
330
670
100
AcDbEntity
  8
Defpoints
 62
     0
 48
0.3
100
AcDbPoint
 10
6.587246011411756
 20
3.780465329333495
 30
0.0
  0
ENDBLK
  5
67A
330
670
100
AcDbEntity
  8
0
 48
0.3
100
AcDbBlockEnd
  0
BLOCK
  5
68F
330
686
100
AcDbEntity
  8
0
 48
0.3
100
AcDbBlockBegin
  2
*D34
 70
     1
 10
0.0
 20
0.0
 30
0.0
  3
*D34
  1

  0
LINE
  5
692
330
686
100
AcDbEntity
  8
0
 62
     0
 48
0.3
370
    -2
100
AcDbLine
 10
7.521783838126747
 20
1.189092208755062
 30
0.0
 11
7.396783838126747
 21
1.189092208755062
 31
0.0
  0
LINE
  5
693
330
686
100
AcDbEntity
  8
0
 62
     0
 48
0.3
370
    -2
100
AcDbLine
 10
7.396783838126747
 20
1.189092208755062
 30
0.0
 11
7.119703139018644
 21
2.453144454369041
 31
0.0
  0
MTEXT
  5
694
330
686
100
AcDbEntity
  8
0
 62
     0
 48
0.3
100
AcDbMText
 10
7.882617171460081
 20
1.189092208755063
 30
0.0
 40
0.125
 41
0.0
 71
     5
 72
     1
  1
\A1;\U+22051.200
 73
     1
 44
1.0
  0
SOLID
  5
695
330
686
100
AcDbEntity
  8
0
 62
     0
 48
0.3
100
AcDbTrace
 10
7.140053307593218
 20
2.457605218514808
 30
0.0
 11
7.099352970444068
 21
2.448683690223274
 31
0.0
 12
7.092938554144041
 22
2.575245465816491
 32
0.0
 13
7.092938554144041
 23
2.575245465816491
 33
0.0
  0
LINE
  5
696
330
686
100
AcDbEntity
  8
0
 62
     0
 48
0.3
370
    -2
100
AcDbLine
 10
6.874468546745954
 20
3.161330320764252
 30
0.0
 11
7.054468546745955
 21
3.161330320764252
 31
0.0
  0
LINE
  5
697
330
686
100
AcDbEntity
  8
0
 62
     0
 48
0.3
370
    -2
100
AcDbLine
 10
6.964468546745954
 20
3.071330320764252
 30
0.0
 11
6.964468546745954
 21
3.251330320764251
 31
0.0
  0
POINT
  5
698
330
686
100
AcDbEntity
  8
Defpoints
 62
     0
 48
0.3
100
AcDbPoint
 10
7.092938554144041
 20
2.575245465816491
 30
0.0
  0
POINT
  5
699
330
686
100
AcDbEntity
  8
Defpoints
 62
     0
 48
0.3
100
AcDbPoint
 10
6.835998539347866
 20
3.747415175712009
 30
0.0
  0
ENDBLK
  5
690
330
686
100
AcDbEntity
  8
0
 48
0.3
100
AcDbBlockEnd
  0
BLOCK
  5
6D5
330
6CC
100
AcDbEntity
  8
0
 48
0.3
100
AcDbBlockBegin
  2
*D36
 70
     1
 10
0.0
 20
0.0
 30
0.0
  3
*D36
  1

  0
LINE
  5
6D8
330
6CC
100
AcDbEntity
  8
0
 62
     0
 48
0.3
370
    -2
100
AcDbLine
 10
1.239146590899252
 20
4.638326082193562
 30
0.0
 11
1.114146590899252
 21
4.638326082193561
 31
0.0
  0
LINE
  5
6D9
330
6CC
100
AcDbEntity
  8
0
 62
     0
 48
0.3
370
    -2
100
AcDbLine
 10
1.114146590899252
 20
4.638326082193561
 30
0.0
 11
0.6855075465529367
 21
3.665972705814809
 31
0.0
  0
MTEXT
  5
6DA
330
6CC
100
AcDbEntity
  8
0
 62
     0
 48
0.3
100
AcDbMText
 10
1.631229924232586
 20
4.638326082193561
 30
0.0
 40
0.125
 41
0.0
 71
     5
 72
     1
  1
\A1;\U+22050.853
 73
     1
 44
1.0
  0
SOLID
  5
6DB
330
6CC
100
AcDbEntity
  8
0
 62
     0
 48
0.3
100
AcDbTrace
 10
0.6664442953799781
 20
3.674376290317536
 30
0.0
 11
0.7045707977258952
 21
3.657569121312082
 31
0.0
 12
0.6350860395365748
 22
3.551593198777058
 32
0.0
 13
0.6350860395365748
 23
3.551593198777058
 33
0.0
  0
LINE
  5
6DC
330
6CC
100
AcDbEntity
  8
0
 62
     0
 48
0.3
370
    -2
100
AcDbLine
 10
0.373047857596748
 20
3.16133032076425
 30
0.0
 11
0.5530478575967479
 21
3.16133032076425
 31
0.0
  0
LINE
  5
6DD
330
6CC
100
AcDbEntity
  8
0
 62
     0
 48
0.3
370
    -2
100
AcDbLine
 10
0.463047857596748
 20
3.07133032076425
 30
0.0
 11
0.4630478575967479
 21
3.25133032076425
 31
0.0
  0
POINT
  5
6DE
330
6CC
100
AcDbEntity
  8
Defpoints
 62
     0
 48
0.3
100
AcDbPoint
 10
0.6350860395365748
 20
3.551593198777058
 30
0.0
  0
POINT
  5
6DF
330
6CC
100
AcDbEntity
  8
Defpoints
 62
     0
 48
0.3
100
AcDbPoint
 10
0.2910096756569213
 20
2.771067442751443
 30
0.0
  0
ENDBLK
  5
6D6
330
6CC
100
AcDbEntity
  8
0
 48
0.3
100
AcDbBlockEnd
  0
BLOCK
  5
6EC
330
6E3
100
AcDbEntity
  8
0
 48
0.3
100
AcDbBlockBegin
  2
*D37
 70
     1
 10
0.0
 20
0.0
 30
0.0
  3
*D37
  1

  0
LINE
  5
6EF
330
6E3
100
AcDbEntity
  8
0
 62
     0
 48
0.3
370
    -2
100
AcDbLine
 10
6.486301393932677
 20
1.460129726397634
 30
0.0
 11
6.61130139393268
 21
1.460129726397634
 31
0.0
  0
LINE
  5
6F0
330
6E3
100
AcDbEntity
  8
0
 62
     0
 48
0.3
370
    -2
100
AcDbLine
 10
6.61130139393268
 20
1.460129726397634
 30
0.0
 11
6.852367957616402
 21
2.621343554336768
 31
0.0
  0
MTEXT
  5
6F1
330
6E3
100
AcDbEntity
  8
0
 62
     0
 48
0.3
100
AcDbMText
 10
6.094218060599343
 20
1.460129726397635
 30
0.0
 40
0.125
 41
0.0
 71
     5
 72
     1
  1
\A1;\U+22050.853
 73
     1
 44
1.0
  0
SOLID
  5
6F2
330
6E3
100
AcDbEntity
  8
0
 62
     0
 48
0.3
100
AcDbTrace
 10
6.831969545466678
 20
2.625578239631781
 30
0.0
 11
6.872766369766125
 21
2.617108869041757
 31
0.0
 12
6.877776069386472
 22
2.74373402723511
 32
0.0
 13
6.877776069386472
 23
2.74373402723511
 33
0.0
  0
LINE
  5
6F3
330
6E3
100
AcDbEntity
  8
0
 62
     0
 48
0.3
370
    -2
100
AcDbLine
 10
6.874468546745952
 20
3.161330320764251
 30
0.0
 11
7.054468546745952
 21
3.16133032076425
 31
0.0
  0
LINE
  5
6F4
330
6E3
100
AcDbEntity
  8
0
 62
     0
 48
0.3
370
    -2
100
AcDbLine
 10
6.964468546745952
 20
3.071330320764249
 30
0.0
 11
6.964468546745951
 21
3.251330320764249
 31
0.0
  0
POINT
  5
6F5
330
6E3
100
AcDbEntity
  8
Defpoints
 62
     0
 48
0.3
100
AcDbPoint
 10
6.877776069386472
 20
2.74373402723511
 30
0.0
  0
POINT
  5
6F6
330
6E3
100
AcDbEntity
  8
Defpoints
 62
     0
 48
0.3
100
AcDbPoint
 10
7.051161024105433
 20
3.578926614293391
 30
0.0
  0
ENDBLK
  5
6ED
330
6E3
100
AcDbEntity
  8
0
 48
0.3
100
AcDbBlockEnd
  0
BLOCK
  5
704
330
6F9
100
AcDbEntity
  8
0
 48
0.3
100
AcDbBlockBegin
  2
*D38
 70
     1
 10
0.0
 20
0.0
 30
0.0
  3
*D38
  1

  0
LINE
  5
707
330
6F9
100
AcDbEntity
  8
0
 62
     0
 48
0.3
370
    -2
100
AcDbLine
 10
3.518367893122679
 20
4.110330320764251
 30
0.0
 11
3.518367893122679
 21
4.90011790077828
 31
0.0
  0
LINE
  5
708
330
6F9
100
AcDbEntity
  8
0
 62
     0
 48
0.3
370
    -2
100
AcDbLine
 10
3.44336789312268
 20
4.110330320764251
 30
0.0
 11
3.44336789312268
 21
4.90011790077828
 31
0.0
  0
LINE
  5
709
330
6F9
100
AcDbEntity
  8
0
 62
     0
 48
0.3
370
    -2
100
AcDbLine
 10
3.643367893122679
 20
4.72011790077828
 30
0.0
 11
3.768367893122679
 21
4.72011790077828
 31
0.0
  0
LINE
  5
70A
330
6F9
100
AcDbEntity
  8
0
 62
     0
 48
0.3
370
    -2
100
AcDbLine
 10
3.31836789312268
 20
4.72011790077828
 30
0.0
 11
3.19336789312268
 21
4.72011790077828
 31
0.0
  0
SOLID
  5
70B
330
6F9
100
AcDbEntity
  8
0
 62
     0
 48
0.3
100
AcDbTrace
 10
3.643367893122679
 20
4.740951234111613
 30
0.0
 11
3.643367893122679
 21
4.699284567444947
 31
0.0
 12
3.518367893122679
 22
4.72011790077828
 32
0.0
 13
3.518367893122679
 23
4.72011790077828
 33
0.0
  0
SOLID
  5
70C
330
6F9
100
AcDbEntity
  8
0
 62
     0
 48
0.3
100
AcDbTrace
 10
3.31836789312268
 20
4.740951234111613
 30
0.0
 11
3.31836789312268
 21
4.699284567444947
 31
0.0
 12
3.44336789312268
 22
4.72011790077828
 32
0.0
 13
3.44336789312268
 23
4.72011790077828
 33
0.0
  0
MTEXT
  5
70D
330
6F9
100
AcDbEntity
  8
0
 62
     0
 48
0.3
100
AcDbMText
 10
2.874201226456013
 20
4.72011790077828
 30
0.0
 40
0.125
 41
0.0
 71
     5
 72
     1
  1
\A1;0.075
 73
     1
 44
1.0
  0
POINT
  5
70E
330
6F9
100
AcDbEntity
  8
Defpoints
 62
     0
 48
0.3
100
AcDbPoint
 10
3.518367893122679
 20
4.047830320764251
 30
0.0
  0
POINT
  5
70F
330
6F9
100
AcDbEntity
  8
Defpoints
 62
     0
 48
0.3
100
AcDbPoint
 10
3.44336789312268
 20
4.047830320764251
 30
0.0
  0
POINT
  5
710
330
6F9
100
AcDbEntity
  8
Defpoints
 62
     0
 48
0.3
100
AcDbPoint
 10
3.44336789312268
 20
4.72011790077828
 30
0.0
  0
ENDBLK
  5
705
330
6F9
100
AcDbEntity
  8
0
 48
0.3
100
AcDbBlockEnd
  0
ENDSEC
  0
SECTION
  2
ENTITIES
  0
VIEWPORT
  5
77
330
58
100
AcDbEntity
 67
     1
  8
0
100
AcDbViewport
 10
3.18841228930465
 20
2.51694595543656
 30
0.0
 40
15.0809178570746
 41
7.901089572945609
 68
     1
 69
     1
 12
3.18841228930465
 22
2.51694595543656
 13
0.0
 23
0.0
 14
0.5
 24
0.5
 15
0.5
 25
0.5
 16
0.0
 26
0.0
 36
1.0
 17
0.0
 27
0.0
 37
0.0
 42
50.0
 43
0.0
 44
0.0
 45
7.901089572945609
 50
0.0
 51
0.0
 72
   100
 90
    32800
  1

281
     0
 71
     1
 74
     0
110
0.0
120
0.0
130
0.0
111
1.0
121
0.0
131
0.0
112
0.0
122
1.0
132
0.0
 79
     0
146
0.0
  0
LWPOLYLINE
  5
86
330
58
100
AcDbEntity
 67
     1
  8
0
100
AcDbPolyline
 90
        4
 70
     1
 43
0.0
 10
-1.439262267973588
 20
6.396855050259421
 10
8.966538218833356
 20
6.396855050259421
 10
8.966538218833356
 20
-1.41285528304607
 10
-1.439262267973588
 20
-1.41285528304607
  0
LINE
  5
8A
330
58
100
AcDbEntity
 67
     1
  8
0
100
AcDbLine
 10
8.966538218833356
 20
-1.41285528304607
 30
0.0
 11
8.966538218833356
 21
-0.4128552830460708
 31
0.0
  0
LINE
  5
8B
330
58
100
AcDbEntity
 67
     1
  8
0
100
AcDbLine
 10
8.966538218833356
 20
-0.4128552830460708
 30
0.0
 11
6.466538218833355
 21
-0.4128552830460703
 31
0.0
  0
LINE
  5
8C
330
58
100
AcDbEntity
 67
     1
  8
0
100
AcDbLine
 10
6.466538218833355
 20
-0.4128552830460703
 30
0.0
 11
4.966538218833356
 21
-0.4128552830460701
 31
0.0
  0
LINE
  5
8D
330
58
100
AcDbEntity
 67
     1
  8
0
100
AcDbLine
 10
4.966538218833356
 20
-0.4128552830460701
 30
0.0
 11
4.966538218833356
 21
-1.41285528304607
 31
0.0
  0
LINE
  5
8E
330
58
100
AcDbEntity
 67
     1
  8
0
100
AcDbLine
 10
6.466538218833355
 20
-0.4128552830460703
 30
0.0
 11
6.466538218833355
 21
-1.404250623233159
 31
0.0
  0
MTEXT
  5
8F
330
58
100
AcDbEntity
 67
     1
  8
0
100
AcDbMText
 10
5.020648721258949
 20
-0.5532836662080878
 30
0.0
 40
0.1
 41
1.5
 71
     1
 72
     5
  1
  Tolerances\P.XXXX = +/- .001\P.XXX  = +/- .005\P.XX   = +/- .015
 73
     1
 44
1.0
  0
MTEXT
  5
AA
330
58
100
AcDbEntity
 67
     1
  8
0
 48
0.3
100
AcDbMText
 10
6.604505128948594
 20
-0.5779304272488833
 30
0.0
 40
0.1
 41
2.5
 71
     1
 72
     5
  1
G0704 CNC  Belt Drive\PSpindle XL Timing Pulley\PDaniel E. Kemp\P{\fArial|b0|i0|c0|p32;\H1.625x;©\fMS Shell Dlg|b0|i0|c0|p32;\H0.6538x; }0{\fArial|b0|i0|c0|p32;8-25}-2011
 73
     1
 44
1.0
  0
MTEXT
  5
AC
330
58
100
AcDbEntity
 67
     1
  8
0
 48
0.3
100
AcDbMText
 10
-0.8330378939457148
 20
-0.9104262006358535
 30
0.0
 40
0.1625
 41
9.997099999999999
 71
     1
 72
     5
  1
{\fArial|b0|i0|c0|p32;© Daniel E. Kemp 2011}
 73
     1
 44
1.0
  0
CIRCLE
  5
B7
102
{ACAD_REACTORS
330
537
102
}
330
58
100
AcDbEntity
 67
     1
  8
0
  6
HIDDENX2
 48
0.3
100
AcDbCircle
 10
0.4630478575967484
 20
3.161330320764252
 30
0.0
 40
0.8875
  0
CIRCLE
  5
CA
102
{ACAD_REACTORS
330
38A
330
609
102
}
330
58
100
AcDbEntity
 67
     1
  8
0
 48
0.3
100
AcDbCircle
 10
3.72536789312268
 20
3.161330320764253
 30
0.0
 40
0.1
  0
LINE
  5
2E6
330
58
100
AcDbEntity
 67
     1
  8
0
  6
threads
 48
0.3
100
AcDbLine
 10
3.825367893122678
 20
3.961762059104896
 30
0.0
 11
3.825367893122678
 21
4.424330320764251
 31
0.0
  0
LINE
  5
2E8
330
58
100
AcDbEntity
 67
     1
  8
0
  6
threads
 48
0.3
100
AcDbLine
 10
3.62536789312268
 20
3.961762059104896
 30
0.0
 11
3.62536789312268
 21
4.424330320764251
 31
0.0
  0
LINE
  5
2EA
330
58
100
AcDbEntity
 67
     1
  8
0
  6
threads
 48
0.3
100
AcDbLine
 10
3.825367893122678
 20
2.360762059104895
 30
0.0
 11
3.825367893122678
 21
1.898330320764254
 31
0.0
  0
LINE
  5
2EC
330
58
100
AcDbEntity
 67
     1
  8
0
  6
threads
 48
0.3
100
AcDbLine
 10
3.62536789312268
 20
2.360762059104895
 30
0.0
 11
3.62536789312268
 21
1.898330320764254
 31
0.0
  0
LEADER
  5
387
102
{ACAD_XDICTIONARY
360
389
102
}
102
{ACAD_REACTORS
330
38A
102
}
330
58
100
AcDbEntity
 67
     1
  8
0
 48
0.3
100
AcDbLeader
  3
Standard
 73
     0
 40
0.2666666666666666
 41
0.85
 76
     3
 10
3.72536789312268
 20
3.161330320764253
 30
0.0
 10
3.177795865422663
 20
3.420352854911606
 30
0.0
 10
3.056959716451605
 20
3.420352854911606
 30
0.0
340
388
213
0.0
223
0.0625
233
0.0
1001
ACAD
1000
DSTYLE
1002
{
1070
   147
1040
0.09
1070
    77
1070
     0
1002
}
  0
MTEXT
  5
388
102
{ACAD_REACTORS
330
387
102
}
330
58
100
AcDbEntity
 67
     1
  8
0
 48
0.3
100
AcDbMText
 10
2.966959716451603
 20
3.357852854911606
 30
0.0
 40
0.1
 41
0.0
 71
     9
 72
     1
  1
(4) 1/4-20\P@ 90°
 73
     1
 44
1.0
  0
CIRCLE
  5
4B1
102
{ACAD_REACTORS
330
521
102
}
330
58
100
AcDbEntity
 67
     1
  8
0
 48
0.3
100
AcDbCircle
 10
0.4630478575967494
 20
3.161330320764253
 30
0.0
 40
1.262999999999999
  0
LINE
  5
4B3
102
{ACAD_REACTORS
330
609
102
}
330
58
100
AcDbEntity
 67
     1
  8
0
 48
0.3
100
AcDbLine
 10
3.44336789312268
 20
4.424330320764251
 30
0.0
 11
4.006367893122678
 21
4.424330320764251
 31
0.0
  0
LINE
  5
4B5
102
{ACAD_REACTORS
330
5D5
330
5EF
102
}
330
58
100
AcDbEntity
 67
     1
  8
0
 48
0.3
100
AcDbLine
 10
3.44336789312268
 20
1.898330320764254
 30
0.0
 11
4.006367893122678
 21
1.898330320764254
 31
0.0
  0
LINE
  5
4CD
102
{ACAD_REACTORS
330
5EF
102
}
330
58
100
AcDbEntity
 67
     1
  8
0
 48
0.3
100
AcDbLine
 10
4.006367893122678
 20
4.424330320764251
 30
0.0
 11
4.006367893122678
 21
1.898330320764253
 31
0.0
  0
LINE
  5
4CE
102
{ACAD_REACTORS
330
711
102
}
330
58
100
AcDbEntity
 67
     1
  8
0
 48
0.3
100
AcDbLine
 10
3.44336789312268
 20
1.898330320764254
 30
0.0
 11
3.44336789312268
 21
4.424330320764251
 31
0.0
  0
CIRCLE
  5
4F1
102
{ACAD_REACTORS
330
66E
102
}
330
58
100
AcDbEntity
 67
     1
  8
0
 48
0.3
100
AcDbCircle
 10
6.964468546745953
 20
3.161330320764251
 30
0.0
 40
0.8859999999999999
  0
CIRCLE
  5
4F2
102
{ACAD_REACTORS
330
58F
102
}
330
58
100
AcDbEntity
 67
     1
  8
0
 48
0.3
100
AcDbCircle
 10
6.964468546745953
 20
3.161330320764251
 30
0.0
 40
1.262999999999999
  0
LINE
  5
4FD
330
58
100
AcDbEntity
 67
     1
  8
0
  6
threads
 48
0.3
100
AcDbLine
 10
0.5635478575967488
 20
3.955496550214988
 30
0.0
 11
0.5635478575967488
 21
4.420325455782653
 31
0.0
  0
LINE
  5
4FF
330
58
100
AcDbEntity
 67
     1
  8
0
  6
threads
 48
0.3
100
AcDbLine
 10
0.3625478575967487
 20
3.955496550214988
 30
0.0
 11
0.3625478575967487
 21
4.420325455782653
 31
0.0
  0
LINE
  5
501
330
58
100
AcDbEntity
 67
     1
  8
0
  6
threads
 48
0.3
100
AcDbLine
 10
0.5635478575967488
 20
2.367164091313516
 30
0.0
 11
0.5635478575967488
 21
1.902335185745851
 31
0.0
  0
LINE
  5
503
330
58
100
AcDbEntity
 67
     1
  8
0
  6
threads
 48
0.3
100
AcDbLine
 10
0.3625478575967486
 20
2.367164091313516
 30
0.0
 11
0.3625478575967485
 21
1.902335185745851
 31
0.0
  0
LINE
  5
505
330
58
100
AcDbEntity
 67
     1
  8
0
  6
threads
 48
0.3
100
AcDbLine
 10
1.257214087047484
 20
3.261830320764251
 30
0.0
 11
1.722042992615149
 21
3.261830320764251
 31
0.0
  0
LINE
  5
507
330
58
100
AcDbEntity
 67
     1
  8
0
  6
threads
 48
0.3
100
AcDbLine
 10
1.257214087047484
 20
3.060830320764251
 30
0.0
 11
1.722042992615149
 21
3.060830320764251
 31
0.0
  0
LINE
  5
509
330
58
100
AcDbEntity
 67
     1
  8
0
  6
threads
 48
0.3
100
AcDbLine
 10
-0.3311183718539884
 20
3.261830320764251
 30
0.0
 11
-0.795947277421651
 21
3.261830320764251
 31
0.0
  0
LINE
  5
50B
330
58
100
AcDbEntity
 67
     1
  8
0
  6
threads
 48
0.3
100
AcDbLine
 10
-0.3311183718539884
 20
3.060830320764251
 30
0.0
 11
-0.795947277421651
 21
3.060830320764251
 31
0.0
  0
DIMENSION
  5
50C
102
{ACAD_XDICTIONARY
360
518
102
}
102
{ACAD_REACTORS
330
521
102
}
330
58
100
AcDbEntity
 67
     1
  8
0
 48
0.3
100
AcDbDimension
  2
*D20
 10
0.9017837451478618
 20
1.976982474489883
 30
0.0
 11
-0.8549220425550283
 21
5.295168354883143
 31
0.0
 70
   163
 71
     5
 42
2.525999999999998
  3
Standard
100
AcDbDiametricDimension
 15
0.0243119700456367
 25
4.345678167038621
 35
0.0
 40
0.0
1001
ACAD
1000
DSTYLE
1002
{
1070
   288
1070
     1
1002
}
  0
DIMENSION
  5
522
102
{ACAD_XDICTIONARY
360
52E
102
}
102
{ACAD_REACTORS
330
537
102
}
330
58
100
AcDbEntity
 67
     1
  8
0
 48
0.3
100
AcDbDimension
  2
*D21
 10
0.4863028125009275
 20
2.274135045149912
 30
0.0
 11
-0.1067537654994974
 21
5.569979802186079
 31
0.0
 70
   163
 71
     5
 42
1.774999999999996
  3
Standard
100
AcDbDiametricDimension
 15
0.4397929026925694
 25
4.048525596378588
 35
0.0
 40
0.0
1001
ACAD
1000
DSTYLE
1002
{
1070
   288
1070
     1
1002
}
  0
DIMENSION
  5
57A
102
{ACAD_XDICTIONARY
360
586
102
}
102
{ACAD_REACTORS
330
58F
102
}
330
58
100
AcDbEntity
 67
     1
  8
0
 48
0.3
100
AcDbDimension
  2
*D25
 10
7.268256849850978
 20
1.935409578262285
 30
0.0
 11
5.962314342573417
 21
5.076770870855844
 31
0.0
 70
   163
 71
     5
 42
2.525999999999998
  3
Standard
100
AcDbDiametricDimension
 15
6.660680243640933
 25
4.387251063266216
 35
0.0
 40
0.0
1001
ACAD
1000
DSTYLE
1002
{
1070
   288
1070
     1
1002
}
  0
DIMENSION
  5
5BC
102
{ACAD_XDICTIONARY
360
5CA
102
}
102
{ACAD_REACTORS
330
5D5
102
}
330
58
100
AcDbEntity
 67
     1
  8
0
 48
0.3
100
AcDbDimension
  2
*D28
 10
4.427367893122679
 20
0.3677999083282621
 30
0.0
 11
3.93536789312268
 21
0.3677999083282621
 31
0.0
 70
    32
 71
     5
 42
0.9840000000000006
  3
Standard
100
AcDbAlignedDimension
 13
3.44336789312268
 23
1.898330320764254
 33
0.0
 14
4.427367893122679
 24
2.275330320764251
 34
0.0
100
AcDbRotatedDimension
  0
DIMENSION
  5
5D6
102
{ACAD_XDICTIONARY
360
5E4
102
}
102
{ACAD_REACTORS
330
5EF
102
}
330
58
100
AcDbEntity
 67
     1
  8
0
 48
0.3
100
AcDbDimension
  2
*D29
 10
3.44336789312268
 20
1.178071728278869
 30
0.0
 11
2.988784559789346
 21
1.178071728278869
 31
0.0
 70
    32
 71
     5
 42
0.5629999999999999
  3
Standard
100
AcDbAlignedDimension
 13
4.006367893122678
 23
1.898330320764253
 33
0.0
 14
3.44336789312268
 24
1.898330320764254
 34
0.0
100
AcDbRotatedDimension
  0
DIMENSION
  5
5F0
102
{ACAD_XDICTIONARY
360
5FE
102
}
102
{ACAD_REACTORS
330
609
102
}
330
58
100
AcDbEntity
 67
     1
  8
0
 48
0.3
100
AcDbDimension
  2
*D30
 10
3.44336789312268
 20
5.112000067655195
 30
0.0
 11
2.863784559789346
 21
5.112000067655195
 31
0.0
 70
    32
 71
     5
 42
0.2819999999999991
  3
Standard
100
AcDbAlignedDimension
 13
3.72536789312268
 23
3.161330320764253
 33
0.0
 14
3.44336789312268
 24
4.424330320764251
 34
0.0
100
AcDbRotatedDimension
  0
MTEXT
  5
60F
330
58
100
AcDbEntity
 67
     1
  8
0
 48
0.3
100
AcDbMText
 10
-1.168868035968414
 20
1.086143844990334
 30
0.0
 40
0.15
 41
3.767599999999998
 71
     1
 72
     5
  1
www.econobelt.com\Ppart# - QPEXLA37040N12\P   or - QPEXLA37040N16\P   or - QPMXLA37040N08\P40 Teeth XL Timing Pulley
 73
     1
 44
1.0
  0
CIRCLE
  5
622
102
{ACAD_REACTORS
330
627
102
}
330
58
100
AcDbEntity
 67
     1
  8
0
 48
0.3
100
AcDbCircle
 10
6.964468546745952
 20
3.961330320764253
 30
0.0
 40
0.04
  0
CIRCLE
  5
623
330
58
100
AcDbEntity
 67
     1
  8
0
 48
0.3
100
AcDbCircle
 10
6.964468546745952
 20
2.361330320764252
 30
0.0
 40
0.04
  0
MTEXT
  5
624
102
{ACAD_REACTORS
330
625
102
}
330
58
100
AcDbEntity
 67
     1
  8
0
 48
0.3
100
AcDbMText
 10
7.543995601650843
 20
5.167492236366985
 30
0.0
 40
0.1
 41
0.0
 71
     1
 72
     1
  1
(2) 4-40 x .188\Pon 1.600 B.C.
 73
     1
 44
1.0
  0
LEADER
  5
625
102
{ACAD_XDICTIONARY
360
626
102
}
102
{ACAD_REACTORS
330
627
102
}
330
58
100
AcDbEntity
 67
     1
  8
0
 48
0.3
100
AcDbLeader
  3
Standard
 73
     0
 40
0.2666666666666667
 41
1.283333333333333
 76
     3
 10
6.964468546745952
 20
3.961330320764253
 30
0.0
 10
7.328995601650843
 20
5.104992236366985
 30
0.0
 10
7.453995601650843
 20
5.104992236366985
 30
0.0
340
624
213
0.0
223
-0.0625
233
0.0
1001
ACAD
1000
DSTYLE
1002
{
1070
   147
1040
0.09
1070
    77
1070
     0
1002
}
  0
CIRCLE
  5
628
102
{ACAD_REACTORS
330
684
102
}
330
58
100
AcDbEntity
 67
     1
  8
0
 48
0.3
100
AcDbCircle
 10
6.964468546745956
 20
3.161330320764252
 30
0.0
 40
0.725
  0
LINE
  5
62A
102
{ACAD_REACTORS
330
658
102
}
330
58
100
AcDbEntity
 67
     1
  8
0
 48
0.3
100
AcDbLine
 10
4.427367893122679
 20
3.886330320764252
 30
0.0
 11
4.377367893122679
 21
3.886330320764252
 31
0.0
  0
LINE
  5
62D
330
58
100
AcDbEntity
 67
     1
  8
0
 48
0.3
100
AcDbLine
 10
4.427367893122679
 20
2.436330320764251
 30
0.0
 11
4.377367893122679
 21
2.436330320764251
 31
0.0
  0
LINE
  5
62F
330
58
100
AcDbEntity
 67
     1
  8
0
 48
0.3
100
AcDbLine
 10
4.377367893122679
 20
4.047330320764251
 30
0.0
 11
4.006367893122678
 21
4.047330320764251
 31
0.0
  0
LINE
  5
630
330
58
100
AcDbEntity
 67
     1
  8
0
 48
0.3
100
AcDbLine
 10
4.377367893122679
 20
2.275330320764251
 30
0.0
 11
4.006367893122678
 21
2.275330320764251
 31
0.0
  0
LINE
  5
631
102
{ACAD_REACTORS
330
658
102
}
330
58
100
AcDbEntity
 67
     1
  8
0
 48
0.3
100
AcDbLine
 10
4.427367893122679
 20
3.886330320764252
 30
0.0
 11
4.427367893122679
 21
2.436330320764251
 31
0.0
  0
LINE
  5
632
330
58
100
AcDbEntity
 67
     1
  8
0
 48
0.3
100
AcDbLine
 10
4.377367893122679
 20
4.047330320764251
 30
0.0
 11
4.377367893122679
 21
2.275330320764251
 31
0.0
  0
LINE
  5
634
330
58
100
AcDbEntity
 67
     1
  8
0
  6
threads
 48
0.3
100
AcDbLine
 10
4.377367893122679
 20
3.999441236807538
 30
0.0
 11
4.189367893122678
 21
3.999441236807538
 31
0.0
  0
LINE
  5
636
330
58
100
AcDbEntity
 67
     1
  8
0
  6
threads
 48
0.3
100
AcDbLine
 10
4.377367893122679
 20
3.921330320764253
 30
0.0
 11
4.189367893122678
 21
3.921330320764253
 31
0.0
  0
LINE
  5
638
330
58
100
AcDbEntity
 67
     1
  8
0
  6
threads
 48
0.3
100
AcDbLine
 10
4.377367893122679
 20
2.401330320764254
 30
0.0
 11
4.189367893122678
 21
2.401330320764254
 31
0.0
  0
LINE
  5
63C
330
58
100
AcDbEntity
 67
     1
  8
0
  6
threads
 48
0.3
100
AcDbLine
 10
4.377367893122679
 20
2.321330320764253
 30
0.0
 11
4.189367893122678
 21
2.321330320764253
 31
0.0
  0
LINE
  5
63D
330
58
100
AcDbEntity
 67
     1
  8
0
  6
HIDDENX2
 48
0.3
100
AcDbLine
 10
4.189367893122678
 20
3.999441236807538
 30
0.0
 11
4.189367893122678
 21
3.921330320764253
 31
0.0
  0
LINE
  5
63E
330
58
100
AcDbEntity
 67
     1
  8
0
  6
HIDDENX2
 48
0.3
100
AcDbLine
 10
4.189367893122678
 20
2.401330320764254
 30
0.0
 11
4.189367893122678
 21
2.321330320764253
 31
0.0
  0
DIMENSION
  5
63F
102
{ACAD_XDICTIONARY
360
64D
102
}
102
{ACAD_REACTORS
330
658
102
}
330
58
100
AcDbEntity
 67
     1
  8
0
 48
0.3
100
AcDbDimension
  2
*D31
 10
4.427367893122679
 20
4.48118573143392
 30
0.0
 11
4.986117893122679
 21
4.48118573143392
 31
0.0
 70
    32
 71
     5
 42
0.0499999999999998
  3
Standard
100
AcDbAlignedDimension
 13
4.377367893122679
 23
3.886330320764252
 33
0.0
 14
4.427367893122679
 24
3.886330320764252
 34
0.0
100
AcDbRotatedDimension
  0
DIMENSION
  5
659
102
{ACAD_XDICTIONARY
360
665
102
}
102
{ACAD_REACTORS
330
66E
102
}
330
58
100
AcDbEntity
 67
     1
  8
0
 48
0.3
100
AcDbDimension
  2
*D32
 10
6.517119098302966
 20
2.396559459016919
 30
0.0
 11
8.283521841562258
 21
4.550154256603278
 31
0.0
 70
   163
 71
     5
 42
1.771999999999998
  3
Standard
100
AcDbDiametricDimension
 15
7.411817995188942
 25
3.926101182511578
 35
0.0
 40
0.0
1001
ACAD
1000
DSTYLE
1002
{
1070
   288
1070
     1
1002
}
  0
DIMENSION
  5
66F
102
{ACAD_XDICTIONARY
360
67B
102
}
102
{ACAD_REACTORS
330
684
102
}
330
58
100
AcDbEntity
 67
     1
  8
0
 48
0.3
100
AcDbDimension
  2
*D33
 10
6.587246011411756
 20
3.780465329333495
 30
0.0
 11
8.413872363245998
 21
1.596919817495314
 31
0.0
 70
   163
 71
     5
 42
1.45
  3
Standard
100
AcDbDiametricDimension
 15
7.341691082080156
 25
2.542195312195008
 35
0.0
 40
0.0
1001
ACAD
1000
DSTYLE
1002
{
1070
   288
1070
     1
1002
}
  0
MTEXT
  5
69B
330
58
100
AcDbEntity
 67
     1
  8
0
 48
0.3
100
AcDbMText
 10
5.411966832300088
 20
0.0499874978791048
 30
0.0
 40
0.1
 41
4.0895
 71
     1
 72
     5
  1
Note: Make the Tach Pickup Mount\P.350 shorter with this pulley
 73
     1
 44
1.0
  0
LINE
  5
6B7
102
{ACAD_REACTORS
330
711
102
}
330
58
100
AcDbEntity
 67
     1
  8
0
  6
HIDDENX2
 48
0.3
100
AcDbLine
 10
3.443367893122678
 20
4.047830320764251
 30
0.0
 11
3.518367893122679
 21
4.047830320764251
 31
0.0
  0
LINE
  5
6B8
330
58
100
AcDbEntity
 67
     1
  8
0
  6
HIDDENX2
 48
0.3
100
AcDbLine
 10
3.518367893122679
 20
2.274830320764252
 30
0.0
 11
3.443367893122677
 21
2.274830320764252
 31
0.0
  0
LINE
  5
6B9
102
{ACAD_REACTORS
330
711
102
}
330
58
100
AcDbEntity
 67
     1
  8
0
  6
HIDDENX2
 48
0.3
100
AcDbLine
 10
3.518367893122679
 20
4.047830320764251
 30
0.0
 11
3.518367893122679
 21
2.274830320764252
 31
0.0
  0
LINE
  5
6BA
330
58
100
AcDbEntity
 67
     1
  8
0
  6
HIDDENX2
 48
0.3
100
AcDbLine
 10
3.518367893122679
 20
2.734830320764253
 30
0.0
 11
4.427367893122679
 21
2.734830320764253
 31
0.0
  0
LINE
  5
6BB
330
58
100
AcDbEntity
 67
     1
  8
0
  6
HIDDENX2
 48
0.3
100
AcDbLine
 10
3.518367893122679
 20
3.587830320764252
 30
0.0
 11
4.427367893122679
 21
3.587830320764252
 31
0.0
  0
CIRCLE
  5
6BC
102
{ACAD_REACTORS
330
6E0
102
}
330
58
100
AcDbEntity
 67
     1
  8
0
 48
0.3
100
AcDbCircle
 10
0.4630478575967483
 20
3.161330320764251
 30
0.0
 40
0.4265
  0
LINE
  5
6BF
330
58
100
AcDbEntity
 67
     1
  8
0
  6
threads
 48
0.3
100
AcDbLine
 10
0.3625478575967487
 20
3.955496550214988
 30
0.0
 11
0.3625478575967486
 21
3.575820368895687
 31
0.0
  0
LINE
  5
6C0
330
58
100
AcDbEntity
 67
     1
  8
0
  6
threads
 48
0.3
100
AcDbLine
 10
0.5635478575967488
 20
3.955496550214988
 30
0.0
 11
0.5635478575967488
 21
3.575820368895686
 31
0.0
  0
LINE
  5
6C1
330
58
100
AcDbEntity
 67
     1
  8
0
  6
threads
 48
0.3
100
AcDbLine
 10
-0.3311183718539884
 20
3.261830320764251
 30
0.0
 11
0.0485578094653125
 21
3.261830320764251
 31
0.0
  0
LINE
  5
6C2
330
58
100
AcDbEntity
 67
     1
  8
0
  6
threads
 48
0.3
100
AcDbLine
 10
-0.3311183718539884
 20
3.060830320764251
 30
0.0
 11
0.0485578094653123
 21
3.060830320764251
 31
0.0
  0
LINE
  5
6C3
330
58
100
AcDbEntity
 67
     1
  8
0
  6
threads
 48
0.3
100
AcDbLine
 10
1.257214087047484
 20
3.261830320764251
 30
0.0
 11
0.877537905728184
 21
3.261830320764251
 31
0.0
  0
LINE
  5
6C4
330
58
100
AcDbEntity
 67
     1
  8
0
  6
threads
 48
0.3
100
AcDbLine
 10
1.257214087047484
 20
3.060830320764251
 30
0.0
 11
0.8775379057281842
 21
3.060830320764251
 31
0.0
  0
LINE
  5
6C5
330
58
100
AcDbEntity
 67
     1
  8
0
  6
threads
 48
0.3
100
AcDbLine
 10
0.3625478575967486
 20
2.367164091313516
 30
0.0
 11
0.3625478575967486
 21
2.746840272632815
 31
0.0
  0
LINE
  5
6C6
330
58
100
AcDbEntity
 67
     1
  8
0
  6
threads
 48
0.3
100
AcDbLine
 10
0.5635478575967488
 20
2.367164091313516
 30
0.0
 11
0.5635478575967488
 21
2.746840272632815
 31
0.0
  0
LINE
  5
6C7
330
58
100
AcDbEntity
 67
     1
  8
0
  6
threads
 48
0.3
100
AcDbLine
 10
3.62536789312268
 20
3.961762059104896
 30
0.0
 11
3.62536789312268
 21
3.587830320764252
 31
0.0
  0
LINE
  5
6C8
330
58
100
AcDbEntity
 67
     1
  8
0
  6
threads
 48
0.3
100
AcDbLine
 10
3.825367893122678
 20
3.961762059104896
 30
0.0
 11
3.825367893122678
 21
3.587830320764252
 31
0.0
  0
LINE
  5
6C9
330
58
100
AcDbEntity
 67
     1
  8
0
  6
threads
 48
0.3
100
AcDbLine
 10
3.62536789312268
 20
2.360762059104895
 30
0.0
 11
3.62536789312268
 21
2.734830320764253
 31
0.0
  0
LINE
  5
6CA
330
58
100
AcDbEntity
 67
     1
  8
0
  6
threads
 48
0.3
100
AcDbLine
 10
3.825367893122678
 20
2.360762059104895
 30
0.0
 11
3.825367893122678
 21
2.734830320764253
 31
0.0
  0
DIMENSION
  5
6CB
102
{ACAD_XDICTIONARY
360
6D7
102
}
102
{ACAD_REACTORS
330
6E0
102
}
330
58
100
AcDbEntity
 67
     1
  8
0
 48
0.3
100
AcDbDimension
  2
*D36
 10
0.2910096756569213
 20
2.771067442751443
 30
0.0
 11
1.631229924232586
 21
4.638326082193561
 31
0.0
 70
   163
 71
     5
 42
0.8530000000000011
  3
Standard
100
AcDbDiametricDimension
 15
0.6350860395365748
 25
3.551593198777058
 35
0.0
 40
0.0
1001
ACAD
1000
DSTYLE
1002
{
1070
   288
1070
     1
1002
}
  0
CIRCLE
  5
6E1
102
{ACAD_REACTORS
330
6F7
102
}
330
58
100
AcDbEntity
 67
     1
  8
0
 48
0.3
100
AcDbCircle
 10
6.964468546745953
 20
3.16133032076425
 30
0.0
 40
0.4265
  0
DIMENSION
  5
6E2
102
{ACAD_XDICTIONARY
360
6EE
102
}
102
{ACAD_REACTORS
330
6F7
102
}
330
58
100
AcDbEntity
 67
     1
  8
0
 48
0.3
100
AcDbDimension
  2
*D37
 10
7.051161024105433
 20
3.578926614293391
 30
0.0
 11
6.094218060599343
 21
1.460129726397635
 31
0.0
 70
   163
 71
     5
 42
0.8529999999999997
  3
Standard
100
AcDbDiametricDimension
 15
6.877776069386472
 25
2.74373402723511
 35
0.0
 40
0.0
1001
ACAD
1000
DSTYLE
1002
{
1070
   288
1070
     1
1002
}
  0
DIMENSION
  5
6F8
102
{ACAD_XDICTIONARY
360
706
102
}
102
{ACAD_REACTORS
330
711
102
}
330
58
100
AcDbEntity
 67
     1
  8
0
 48
0.3
100
AcDbDimension
  2
*D38
 10
3.44336789312268
 20
4.72011790077828
 30
0.0
 11
2.874201226456013
 21
4.72011790077828
 31
0.0
 70
    32
 71
     5
 42
0.0749999999999993
  3
Standard
100
AcDbAlignedDimension
 13
3.518367893122679
 23
4.047830320764251
 33
0.0
 14
3.44336789312268
 24
4.047830320764251
 34
0.0
100
AcDbRotatedDimension
  0
ENDSEC
  0
SECTION
  2
OBJECTS
  0
DICTIONARY
  5
C
330
0
100
AcDbDictionary
281
     1
  3
ACAD_GROUP
350
D
  3
ACAD_LAYOUT
350
1A
  3
ACAD_MLINESTYLE
350
17
  3
ACAD_PLOTSETTINGS
350
19
  3
ACAD_PLOTSTYLENAME
350
E
  3
AcadDim
350
386
  3
AcDbVariableDictionary
350
66
  0
DICTIONARY
  5
389
330
387
100
AcDbDictionary
280
     1
281
     1
  3
ACAD_DIMASSOC
360
38A
  0
DICTIONARY
  5
518
330
50C
100
AcDbDictionary
280
     1
281
     1
  3
ACAD_DIMASSOC
360
521
  0
DICTIONARY
  5
52E
330
522
100
AcDbDictionary
280
     1
281
     1
  3
ACAD_DIMASSOC
360
537
  0
DICTIONARY
  5
586
330
57A
100
AcDbDictionary
280
     1
281
     1
  3
ACAD_DIMASSOC
360
58F
  0
DICTIONARY
  5
5CA
330
5BC
100
AcDbDictionary
280
     1
281
     1
  3
ACAD_DIMASSOC
360
5D5
  0
DICTIONARY
  5
5E4
330
5D6
100
AcDbDictionary
280
     1
281
     1
  3
ACAD_DIMASSOC
360
5EF
  0
DICTIONARY
  5
5FE
330
5F0
100
AcDbDictionary
280
     1
281
     1
  3
ACAD_DIMASSOC
360
609
  0
DICTIONARY
  5
626
330
625
100
AcDbDictionary
280
     1
281
     1
  3
ACAD_DIMASSOC
360
627
  0
DICTIONARY
  5
64D
330
63F
100
AcDbDictionary
280
     1
281
     1
  3
ACAD_DIMASSOC
360
658
  0
DICTIONARY
  5
665
330
659
100
AcDbDictionary
280
     1
281
     1
  3
ACAD_DIMASSOC
360
66E
  0
DICTIONARY
  5
67B
330
66F
100
AcDbDictionary
280
     1
281
     1
  3
ACAD_DIMASSOC
360
684
  0
DICTIONARY
  5
6D7
330
6CB
100
AcDbDictionary
280
     1
281
     1
  3
ACAD_DIMASSOC
360
6E0
  0
DICTIONARY
  5
6EE
330
6E2
100
AcDbDictionary
280
     1
281
     1
  3
ACAD_DIMASSOC
360
6F7
  0
DICTIONARY
  5
706
330
6F8
100
AcDbDictionary
280
     1
281
     1
  3
ACAD_DIMASSOC
360
711
  0
DICTIONARY
  5
D
102
{ACAD_REACTORS
330
C
102
}
330
C
100
AcDbDictionary
281
     1
  0
DICTIONARY
  5
1A
102
{ACAD_REACTORS
330
C
102
}
330
C
100
AcDbDictionary
281
     1
  3
Layout1
350
59
  3
Layout2
350
5E
  3
Model
350
22
  0
DICTIONARY
  5
17
102
{ACAD_REACTORS
330
C
102
}
330
C
100
AcDbDictionary
281
     1
  3
Standard
350
18
  0
DICTIONARY
  5
19
102
{ACAD_REACTORS
330
C
102
}
330
C
100
AcDbDictionary
281
     1
  0
ACDBDICTIONARYWDFLT
  5
E
102
{ACAD_REACTORS
330
C
102
}
330
C
100
AcDbDictionary
281
     1
  3
Normal
350
F
100
AcDbDictionaryWithDefault
340
F
  0
XRECORD
  5
386
102
{ACAD_REACTORS
330
C
102
}
330
C
100
AcDbXrecord
280
     1
 90
   990106
  3

 60
     0
 61
     0
 62
     1
 63
     3
 64
     0
 65
     0
 66
     0
 67
     3
 68
     1
 69
     0
 70
     0
 71
     0
 72
     0
 40
0.0
170
     0
340
388
  0
DICTIONARY
  5
66
102
{ACAD_REACTORS
330
C
102
}
330
C
100
AcDbDictionary
281
     1
  3
DIMASSOC
350
67
  3
HIDETEXT
350
6B
  0
DIMASSOC
  5
38A
102
{ACAD_REACTORS
330
389
102
}
330
389
100
AcDbDimAssoc
330
387
 90
        1
 70
     0
 71
     0
  1
AcDbOsnapPointRef
 72
     3
331
CA
 73
     2
 91
        0
 40
0.0
 10
3.72536789312268
 20
3.161330320764253
 30
0.0
 75
     0
  0
DIMASSOC
  5
521
102
{ACAD_REACTORS
330
518
102
}
330
518
100
AcDbDimAssoc
330
50C
 90
        2
 70
     0
 71
     0
  1
AcDbOsnapPointRef
 72
     3
331
4B1
 73
     2
 91
        0
 40
0.0
 10
0.0
 20
0.0
 30
0.0
 75
     0
  0
DIMASSOC
  5
537
102
{ACAD_REACTORS
330
52E
102
}
330
52E
100
AcDbDimAssoc
330
522
 90
        2
 70
     0
 71
     0
  1
AcDbOsnapPointRef
 72
     3
331
B7
 73
     2
 91
        0
 40
0.0
 10
0.0
 20
0.0
 30
0.0
 75
     0
  0
DIMASSOC
  5
58F
102
{ACAD_REACTORS
330
586
102
}
330
586
100
AcDbDimAssoc
330
57A
 90
        2
 70
     0
 71
     0
  1
AcDbOsnapPointRef
 72
     3
331
4F2
 73
     2
 91
        0
 40
0.0
 10
0.0
 20
0.0
 30
0.0
 75
     0
  0
DIMASSOC
  5
5D5
102
{ACAD_REACTORS
330
5CA
102
}
330
5CA
100
AcDbDimAssoc
330
5BC
 90
        1
 70
     0
 71
     0
  1
AcDbOsnapPointRef
 72
    13
331
4B5
 73
     2
 91
        0
 40
0.0
 10
3.44336789312268
 20
1.898330320764254
 30
0.0
 75
     0
  0
DIMASSOC
  5
5EF
102
{ACAD_REACTORS
330
5E4
102
}
330
5E4
100
AcDbDimAssoc
330
5D6
 90
        3
 70
     0
 71
     0
  1
AcDbOsnapPointRef
 72
     1
331
4CD
 73
     2
 91
        0
 40
1.0
 10
4.006367893122678
 20
1.898330320764253
 30
0.0
 75
     0
  1
AcDbOsnapPointRef
 72
    13
331
4B5
 73
     2
 91
        0
 40
0.0
 10
3.44336789312268
 20
1.898330320764254
 30
0.0
 75
     0
  0
DIMASSOC
  5
609
102
{ACAD_REACTORS
330
5FE
102
}
330
5FE
100
AcDbDimAssoc
330
5F0
 90
        3
 70
     0
 71
     0
  1
AcDbOsnapPointRef
 72
     3
331
CA
 73
     2
 91
        0
 40
0.0
 10
3.72536789312268
 20
3.161330320764253
 30
0.0
 75
     0
  1
AcDbOsnapPointRef
 72
    13
331
4B3
 73
     2
 91
        0
 40
0.0
 10
3.44336789312268
 20
4.424330320764251
 30
0.0
 75
     0
  0
DIMASSOC
  5
627
102
{ACAD_REACTORS
330
626
102
}
330
626
100
AcDbDimAssoc
330
625
 90
        1
 70
     0
 71
     0
  1
AcDbOsnapPointRef
 72
     3
331
622
 73
     2
 91
        0
 40
0.0
 10
6.964468546745952
 20
3.961330320764253
 30
0.0
 75
     0
  0
DIMASSOC
  5
658
102
{ACAD_REACTORS
330
64D
102
}
330
64D
100
AcDbDimAssoc
330
63F
 90
        3
 70
     0
 71
     0
  1
AcDbOsnapPointRef
 72
     1
331
62A
 73
     2
 91
        0
 40
1.0
 10
4.377367893122679
 20
3.886330320764252
 30
0.0
 75
     0
  1
AcDbOsnapPointRef
 72
    13
331
631
 73
     2
 91
        0
 40
0.0
 10
4.427367893122679
 20
3.886330320764252
 30
0.0
 75
     0
  0
DIMASSOC
  5
66E
102
{ACAD_REACTORS
330
665
102
}
330
665
100
AcDbDimAssoc
330
659
 90
        2
 70
     0
 71
     0
  1
AcDbOsnapPointRef
 72
     3
331
4F1
 73
     2
 91
        0
 40
0.0
 10
0.0
 20
0.0
 30
0.0
 75
     0
  0
DIMASSOC
  5
684
102
{ACAD_REACTORS
330
67B
102
}
330
67B
100
AcDbDimAssoc
330
66F
 90
        2
 70
     0
 71
     0
  1
AcDbOsnapPointRef
 72
     3
331
628
 73
     2
 91
        0
 40
0.0
 10
0.0
 20
0.0
 30
0.0
 75
     0
  0
DIMASSOC
  5
6E0
102
{ACAD_REACTORS
330
6D7
102
}
330
6D7
100
AcDbDimAssoc
330
6CB
 90
        2
 70
     0
 71
     0
  1
AcDbOsnapPointRef
 72
     3
331
6BC
 73
     2
 91
        0
 40
0.0
 10
0.0
 20
0.0
 30
0.0
 75
     0
  0
DIMASSOC
  5
6F7
102
{ACAD_REACTORS
330
6EE
102
}
330
6EE
100
AcDbDimAssoc
330
6E2
 90
        2
 70
     0
 71
     0
  1
AcDbOsnapPointRef
 72
     3
331
6E1
 73
     2
 91
        0
 40
0.0
 10
0.0
 20
0.0
 30
0.0
 75
     0
  0
DIMASSOC
  5
711
102
{ACAD_REACTORS
330
706
102
}
330
706
100
AcDbDimAssoc
330
6F8
 90
        3
 70
     0
 71
     0
  1
AcDbOsnapPointRef
 72
    13
331
6B9
 73
     2
 91
        0
 40
0.0
 10
3.518367893122679
 20
4.047830320764251
 30
0.0
 75
     0
  1
AcDbOsnapPointRef
 72
     6
331
4CE
 73
     2
 91
        0
 40
0.8509501187648455
 10
3.44336789312268
 20
4.047830320764251
 30
0.0
332
6B7
 74
     2
 92
        0
 75
     0
  0
LAYOUT
  5
59
102
{ACAD_REACTORS
330
1A
102
}
330
1A
100
AcDbPlotSettings
  1

  2
none_device
  4
Letter_(8.50_x_11.00_Inches)
  6

 40
6.349999904632567
 41
6.349999904632567
 42
6.350006103515625
 43
6.350006103515625
 44
215.8999938964841
 45
279.3999938964843
 46
38.3032
 47
38.15079999999999
 48
0.0
 49
0.0
140
0.0
141
0.0
142
1.0
143
1.0
 70
   688
 72
     0
 73
     1
 74
     5
  7

 75
    16
147
1.0
148
0.0
149
0.0
100
AcDbLayout
  1
Layout1
 70
     1
 71
     1
 10
-1.75200024029589
 20
-1.757999996245374
 11
9.247999519408216
 21
6.741999763458729
 12
0.0
 22
0.0
 32
0.0
 14
-1.439262267973588
 24
-1.41285528304607
 34
0.0
 15
8.966538218833356
 25
6.396855050259421
 35
0.0
146
0.0
 13
0.0
 23
0.0
 33
0.0
 16
1.0
 26
0.0
 36
0.0
 17
0.0
 27
1.0
 37
0.0
 76
     0
330
58
331
77
  0
LAYOUT
  5
5E
102
{ACAD_REACTORS
330
1A
102
}
330
1A
100
AcDbPlotSettings
  1

  2
None
  4

  6

 40
0.0
 41
0.0
 42
0.0
 43
0.0
 44
0.0
 45
0.0
 46
0.0
 47
0.0
 48
0.0
 49
0.0
140
0.0
141
0.0
142
1.0
143
1.0
 70
   688
 72
     0
 73
     0
 74
     5
  7

 75
    16
147
1.0
148
0.0
149
0.0
100
AcDbLayout
  1
Layout2
 70
     1
 71
     2
 10
0.0
 20
0.0
 11
12.0
 21
9.0
 12
0.0
 22
0.0
 32
0.0
 14
0.0
 24
0.0
 34
0.0
 15
0.0
 25
0.0
 35
0.0
146
0.0
 13
0.0
 23
0.0
 33
0.0
 16
1.0
 26
0.0
 36
0.0
 17
0.0
 27
1.0
 37
0.0
 76
     0
330
5D
  0
LAYOUT
  5
22
102
{ACAD_REACTORS
330
1A
102
}
330
1A
100
AcDbPlotSettings
  1

  2
none_device
  4
ANSI_A_(8.50_x_11.00_Inches)
  6

 40
6.349999904632567
 41
19.04999923706053
 42
6.350006103515625
 43
19.04998779296875
 44
215.8999938964841
 45
279.3999938964843
 46
0.0
 47
0.0
 48
0.0
 49
0.0
140
0.0
141
0.0
142
1.0
143
2.584895464708373
 70
 11952
 72
     0
 73
     1
 74
     0
  7

 75
     0
147
0.3868628397755418
148
0.0
149
0.0
100
AcDbLayout
  1
Model
 70
     1
 71
     0
 10
0.0
 20
0.0
 11
12.0
 21
9.0
 12
0.0
 22
0.0
 32
0.0
 14
0.0
 24
0.0
 34
0.0
 15
0.0
 25
0.0
 35
0.0
146
0.0
 13
0.0
 23
0.0
 33
0.0
 16
1.0
 26
0.0
 36
0.0
 17
0.0
 27
1.0
 37
0.0
 76
     0
330
1F
  0
MLINESTYLE
  5
18
102
{ACAD_REACTORS
330
17
102
}
330
17
100
AcDbMlineStyle
  2
STANDARD
 70
     0
  3

 62
   256
 51
90.0
 52
90.0
 71
     2
 49
0.5
 62
   256
  6
BYLAYER
 49
-0.5
 62
   256
  6
BYLAYER
  0
ACDBPLACEHOLDER
  5
F
102
{ACAD_REACTORS
330
E
102
}
330
E
  0
DICTIONARYVAR
  5
67
102
{ACAD_REACTORS
330
66
102
}
330
66
100
DictionaryVariables
280
     0
  1
2
  0
DICTIONARYVAR
  5
6B
102
{ACAD_REACTORS
330
66
102
}
330
66
100
DictionaryVariables
280
     0
  1
1
  0
ENDSEC
  0
EOF
