  0
SECTION
  2
HEADER
  9
$ACADVER
  1
AC1015
  9
$ACADMAINTVER
 70
    13
  9
$DWGCODEPAGE
  3
ANSI_1252
  9
$INSBASE
 10
0.0
 20
0.0
 30
0.0
  9
$EXTMIN
 10
1.000000000000000E+20
 20
1.000000000000000E+20
 30
1.000000000000000E+20
  9
$EXTMAX
 10
-1.000000000000000E+20
 20
-1.000000000000000E+20
 30
-1.000000000000000E+20
  9
$LIMMIN
 10
0.0
 20
0.0
  9
$LIMMAX
 10
12.0
 20
9.0
  9
$ORTHOMODE
 70
     0
  9
$REGENMODE
 70
     1
  9
$FILLMODE
 70
     1
  9
$QTEXTMODE
 70
     0
  9
$MIRRTEXT
 70
     1
  9
$LTSCALE
 40
0.3
  9
$ATTMODE
 70
     1
  9
$TEXTSIZE
 40
0.2
  9
$TRACEWID
 40
0.05
  9
$TEXTSTYLE
  7
Standard
  9
$CLAYER
  8
0
  9
$CELTYPE
  6
ByLayer
  9
$CECOLOR
 62
   256
  9
$CELTSCALE
 40
0.3
  9
$DISPSILH
 70
     0
  9
$DIMSCALE
 40
1.0
  9
$DIMASZ
 40
0.125
  9
$DIMEXO
 40
0.0625
  9
$DIMDLI
 40
0.38
  9
$DIMRND
 40
0.0
  9
$DIMDLE
 40
0.0
  9
$DIMEXE
 40
0.18
  9
$DIMTP
 40
0.0
  9
$DIMTM
 40
0.0
  9
$DIMTXT
 40
0.125
  9
$DIMCEN
 40
0.09
  9
$DIMTSZ
 40
0.0
  9
$DIMTOL
 70
     0
  9
$DIMLIM
 70
     0
  9
$DIMTIH
 70
     1
  9
$DIMTOH
 70
     1
  9
$DIMSE1
 70
     0
  9
$DIMSE2
 70
     0
  9
$DIMTAD
 70
     0
  9
$DIMZIN
 70
     0
  9
$DIMBLK
  1

  9
$DIMASO
 70
     1
  9
$DIMSHO
 70
     1
  9
$DIMPOST
  1

  9
$DIMAPOST
  1

  9
$DIMALT
 70
     0
  9
$DIMALTD
 70
     2
  9
$DIMALTF
 40
25.4
  9
$DIMLFAC
 40
1.0
  9
$DIMTOFL
 70
     0
  9
$DIMTVP
 40
0.0
  9
$DIMTIX
 70
     0
  9
$DIMSOXD
 70
     0
  9
$DIMSAH
 70
     0
  9
$DIMBLK1
  1

  9
$DIMBLK2
  1

  9
$DIMSTYLE
  2
Standard
  9
$DIMCLRD
 70
     0
  9
$DIMCLRE
 70
     0
  9
$DIMCLRT
 70
     0
  9
$DIMTFAC
 40
1.0
  9
$DIMGAP
 40
0.09
  9
$DIMJUST
 70
     0
  9
$DIMSD1
 70
     0
  9
$DIMSD2
 70
     0
  9
$DIMTOLJ
 70
     1
  9
$DIMTZIN
 70
     0
  9
$DIMALTZ
 70
     0
  9
$DIMALTTZ
 70
     0
  9
$DIMUPT
 70
     0
  9
$DIMDEC
 70
     3
  9
$DIMTDEC
 70
     3
  9
$DIMALTU
 70
     2
  9
$DIMALTTD
 70
     2
  9
$DIMTXSTY
  7
Standard
  9
$DIMAUNIT
 70
     0
  9
$DIMADEC
 70
     0
  9
$DIMALTRND
 40
0.0
  9
$DIMAZIN
 70
     0
  9
$DIMDSEP
 70
    46
  9
$DIMATFIT
 70
     3
  9
$DIMFRAC
 70
     0
  9
$DIMLDRBLK
  1

  9
$DIMLUNIT
 70
     2
  9
$DIMLWD
 70
    -2
  9
$DIMLWE
 70
    -2
  9
$DIMTMOVE
 70
     0
  9
$LUNITS
 70
     2
  9
$LUPREC
 70
     4
  9
$SKETCHINC
 40
0.1
  9
$FILLETRAD
 40
0.5
  9
$AUNITS
 70
     0
  9
$AUPREC
 70
     0
  9
$MENU
  1
.
  9
$ELEVATION
 40
0.0
  9
$PELEVATION
 40
0.0
  9
$THICKNESS
 40
0.0
  9
$LIMCHECK
 70
     0
  9
$CHAMFERA
 40
0.5
  9
$CHAMFERB
 40
0.5
  9
$CHAMFERC
 40
1.0
  9
$CHAMFERD
 40
0.0
  9
$SKPOLY
 70
     0
  9
$TDCREATE
 40
2454412.621520173
  9
$TDUCREATE
 40
2454412.788186840
  9
$TDUPDATE
 40
2456108.745388263
  9
$TDUUPDATE
 40
2456108.912054930
  9
$TDINDWG
 40
0.0291078935
  9
$TDUSRTIMER
 40
0.0291078935
  9
$USRTIMER
 70
     1
  9
$ANGBASE
 50
0.0
  9
$ANGDIR
 70
     0
  9
$PDMODE
 70
     0
  9
$PDSIZE
 40
0.0
  9
$PLINEWID
 40
0.0
  9
$SPLFRAME
 70
     0
  9
$SPLINETYPE
 70
     6
  9
$SPLINESEGS
 70
     8
  9
$HANDSEED
  5
238
  9
$SURFTAB1
 70
     6
  9
$SURFTAB2
 70
     6
  9
$SURFTYPE
 70
     6
  9
$SURFU
 70
     6
  9
$SURFV
 70
     6
  9
$UCSBASE
  2

  9
$UCSNAME
  2

  9
$UCSORG
 10
0.0
 20
0.0
 30
0.0
  9
$UCSXDIR
 10
1.0
 20
0.0
 30
0.0
  9
$UCSYDIR
 10
0.0
 20
1.0
 30
0.0
  9
$UCSORTHOREF
  2

  9
$UCSORTHOVIEW
 70
     0
  9
$UCSORGTOP
 10
0.0
 20
0.0
 30
0.0
  9
$UCSORGBOTTOM
 10
0.0
 20
0.0
 30
0.0
  9
$UCSORGLEFT
 10
0.0
 20
0.0
 30
0.0
  9
$UCSORGRIGHT
 10
0.0
 20
0.0
 30
0.0
  9
$UCSORGFRONT
 10
0.0
 20
0.0
 30
0.0
  9
$UCSORGBACK
 10
0.0
 20
0.0
 30
0.0
  9
$PUCSBASE
  2

  9
$PUCSNAME
  2

  9
$PUCSORG
 10
0.0
 20
0.0
 30
0.0
  9
$PUCSXDIR
 10
1.0
 20
0.0
 30
0.0
  9
$PUCSYDIR
 10
0.0
 20
1.0
 30
0.0
  9
$PUCSORTHOREF
  2

  9
$PUCSORTHOVIEW
 70
     0
  9
$PUCSORGTOP
 10
0.0
 20
0.0
 30
0.0
  9
$PUCSORGBOTTOM
 10
0.0
 20
0.0
 30
0.0
  9
$PUCSORGLEFT
 10
0.0
 20
0.0
 30
0.0
  9
$PUCSORGRIGHT
 10
0.0
 20
0.0
 30
0.0
  9
$PUCSORGFRONT
 10
0.0
 20
0.0
 30
0.0
  9
$PUCSORGBACK
 10
0.0
 20
0.0
 30
0.0
  9
$USERI1
 70
     0
  9
$USERI2
 70
     0
  9
$USERI3
 70
     0
  9
$USERI4
 70
     0
  9
$USERI5
 70
     0
  9
$USERR1
 40
0.0
  9
$USERR2
 40
0.0
  9
$USERR3
 40
0.0
  9
$USERR4
 40
0.0
  9
$USERR5
 40
0.0
  9
$WORLDVIEW
 70
     1
  9
$SHADEDGE
 70
     3
  9
$SHADEDIF
 70
    70
  9
$TILEMODE
 70
     0
  9
$MAXACTVP
 70
    64
  9
$PINSBASE
 10
0.0
 20
0.0
 30
0.0
  9
$PLIMCHECK
 70
     0
  9
$PEXTMIN
 10
-1.439262267973588
 20
-1.41285528304607
 30
0.0
  9
$PEXTMAX
 10
8.966538218833356
 20
6.396855050259421
 30
0.0
  9
$PLIMMIN
 10
-1.75200024029589
 20
-1.757999996245374
  9
$PLIMMAX
 10
9.247999519408216
 20
6.741999763458729
  9
$UNITMODE
 70
     0
  9
$VISRETAIN
 70
     1
  9
$PLINEGEN
 70
     0
  9
$PSLTSCALE
 70
     1
  9
$TREEDEPTH
 70
  3020
  9
$CMLSTYLE
  2
Standard
  9
$CMLJUST
 70
     0
  9
$CMLSCALE
 40
1.0
  9
$PROXYGRAPHICS
 70
     1
  9
$MEASUREMENT
 70
     0
  9
$CELWEIGHT
370
    -1
  9
$ENDCAPS
280
     0
  9
$JOINSTYLE
280
     0
  9
$LWDISPLAY
290
     0
  9
$INSUNITS
 70
     1
  9
$HYPERLINKBASE
  1

  9
$STYLESHEET
  1

  9
$XEDIT
290
     1
  9
$CEPSNTYPE
380
     0
  9
$PSTYLEMODE
290
     1
  9
$FINGERPRINTGUID
  2
{FDEAD576-A652-11D2-9A35-0060089B3A3F}
  9
$VERSIONGUID
  2
{C81EA9A6-0ADB-4F02-B457-CF2C1E7DF300}
  9
$EXTNAMES
290
     1
  9
$PSVPSCALE
 40
0.0
  9
$OLESTARTUP
290
     0
  0
ENDSEC
  0
SECTION
  2
CLASSES
  0
CLASS
  1
ACDBDICTIONARYWDFLT
  2
AcDbDictionaryWithDefault
  3
AutoCAD 2000
 90
        0
280
     0
281
     0
  0
CLASS
  1
ACDBPLACEHOLDER
  2
AcDbPlaceHolder
  3
AutoCAD 2000
 90
        0
280
     0
281
     0
  0
CLASS
  1
LAYOUT
  2
AcDbLayout
  3
AutoCAD 2000
 90
        0
280
     0
281
     0
  0
CLASS
  1
DICTIONARYVAR
  2
AcDbDictionaryVar
  3
AutoCAD 2000
 90
        0
280
     0
281
     0
  0
CLASS
  1
DIMASSOC
  2
AcDbDimAssoc
  3
"AcDbDimAssoc|Product Desc:     AcDim ARX App For Dimension|Company:          Autodesk, Inc.|WEB Address:      www.autodesk.com"
 90
        0
280
     0
281
     0
  0
ENDSEC
  0
SECTION
  2
TABLES
  0
TABLE
  2
VPORT
  5
8
330
0
100
AcDbSymbolTable
 70
     1
  0
VPORT
  5
74
330
8
100
AcDbSymbolTableRecord
100
AcDbViewportTableRecord
  2
*Active
 70
     0
 10
0.0
 20
0.0
 11
1.0
 21
1.0
 12
20.48748698095427
 22
9.784138269231398
 13
0.0
 23
0.0
 14
0.5
 24
0.5
 15
0.5
 25
0.5
 16
0.0
 26
0.0
 36
1.0
 17
0.0
 27
0.0
 37
0.0
 40
19.56827653846278
 41
2.093949044585985
 42
50.0
 43
0.0
 44
0.0
 50
0.0
 51
0.0
 71
     0
 72
   100
 73
     1
 74
     3
 75
     0
 76
     0
 77
     0
 78
     0
281
     0
 65
     1
110
0.0
120
0.0
130
0.0
111
1.0
121
0.0
131
0.0
112
0.0
122
1.0
132
0.0
 79
     0
146
0.0
  0
ENDTAB
  0
TABLE
  2
LTYPE
  5
5
330
0
100
AcDbSymbolTable
 70
     3
  0
LTYPE
  5
14
330
5
100
AcDbSymbolTableRecord
100
AcDbLinetypeTableRecord
  2
ByBlock
 70
     0
  3

 72
    65
 73
     0
 40
0.0
  0
LTYPE
  5
15
330
5
100
AcDbSymbolTableRecord
100
AcDbLinetypeTableRecord
  2
ByLayer
 70
     0
  3

 72
    65
 73
     0
 40
0.0
  0
LTYPE
  5
16
330
5
100
AcDbSymbolTableRecord
100
AcDbLinetypeTableRecord
  2
Continuous
 70
     0
  3
Solid line
 72
    65
 73
     0
 40
0.0
  0
LTYPE
  5
92
330
5
100
AcDbSymbolTableRecord
100
AcDbLinetypeTableRecord
  2
HIDDENX2
 70
     0
  3
Hidden (2x) ____ ____ ____ ____ ____ ____ ____
 72
    65
 73
     2
 40
0.75
 49
0.5
 74
     0
 49
-0.25
 74
     0
  0
LTYPE
  5
93
330
5
100
AcDbSymbolTableRecord
100
AcDbLinetypeTableRecord
  2
threads
 70
     0
  3
Zig zag /\/\/\/\/\/\/\/\/\/\/\/\/\/\/\/\/\/\/\/
 72
    65
 73
     4
 40
0.8001000000000001
 49
0.0001
 74
     0
 49
-0.2
 74
     4
 75
   131
340
91
 46
0.2
 50
0.0
 44
-0.2
 45
0.0
 49
-0.4
 74
     4
 75
   131
340
91
 46
0.2
 50
180.0
 44
0.2
 45
0.0
 49
-0.2
 74
     0
  0
ENDTAB
  0
TABLE
  2
LAYER
  5
2
330
0
100
AcDbSymbolTable
 70
     2
  0
LAYER
  5
10
330
2
100
AcDbSymbolTableRecord
100
AcDbLayerTableRecord
  2
0
 70
     0
 62
     7
  6
Continuous
370
    -3
390
F
  0
LAYER
  5
DC
330
2
100
AcDbSymbolTableRecord
100
AcDbLayerTableRecord
  2
Defpoints
 70
     0
 62
     7
  6
Continuous
290
     0
370
    -3
390
F
  0
ENDTAB
  0
TABLE
  2
STYLE
  5
3
330
0
100
AcDbSymbolTable
 70
     2
  0
STYLE
  5
11
330
3
100
AcDbSymbolTableRecord
100
AcDbTextStyleTableRecord
  2
Standard
 70
     0
 40
0.0
 41
1.0
 50
0.0
 71
     0
 42
0.2
  3
txt
  4

  0
STYLE
  5
91
330
3
100
AcDbSymbolTableRecord
100
AcDbTextStyleTableRecord
  2

 70
     1
 40
0.0
 41
1.0
 50
0.0
 71
     0
 42
0.2
  3
ltypeshp.shx
  4

  0
ENDTAB
  0
TABLE
  2
VIEW
  5
6
330
0
100
AcDbSymbolTable
 70
     0
  0
ENDTAB
  0
TABLE
  2
UCS
  5
7
330
0
100
AcDbSymbolTable
 70
     0
  0
ENDTAB
  0
TABLE
  2
APPID
  5
9
330
0
100
AcDbSymbolTable
 70
     1
  0
APPID
  5
12
330
9
100
AcDbSymbolTableRecord
100
AcDbRegAppTableRecord
  2
ACAD
 70
     0
  0
ENDTAB
  0
TABLE
  2
DIMSTYLE
  5
A
330
0
100
AcDbSymbolTable
 70
     1
100
AcDbDimStyleTable
 71
     1
340
27
  0
DIMSTYLE
105
27
102
{ACAD_REACTORS
330
DB
330
136
330
150
330
180
330
196
330
1AC
330
1D7
330
1ED
102
}
330
A
100
AcDbSymbolTableRecord
100
AcDbDimStyleTableRecord
  2
Standard
 70
     0
 41
0.125
140
0.125
271
     3
272
     3
340
11
  0
ENDTAB
  0
TABLE
  2
BLOCK_RECORD
  5
1
330
0
100
AcDbSymbolTable
 70
     9
  0
BLOCK_RECORD
  5
1F
330
1
100
AcDbSymbolTableRecord
100
AcDbBlockTableRecord
  2
*Model_Space
340
22
  0
BLOCK_RECORD
  5
58
330
1
100
AcDbSymbolTableRecord
100
AcDbBlockTableRecord
  2
*Paper_Space
340
59
  0
BLOCK_RECORD
  5
5D
330
1
100
AcDbSymbolTableRecord
100
AcDbBlockTableRecord
  2
*Paper_Space0
340
5E
  0
BLOCK_RECORD
  5
DD
330
1
100
AcDbSymbolTableRecord
100
AcDbBlockTableRecord
  2
*D1
340
0
  0
BLOCK_RECORD
  5
137
330
1
100
AcDbSymbolTableRecord
100
AcDbBlockTableRecord
  2
*D2
340
0
  0
BLOCK_RECORD
  5
151
330
1
100
AcDbSymbolTableRecord
100
AcDbBlockTableRecord
  2
*D3
340
0
  0
BLOCK_RECORD
  5
181
330
1
100
AcDbSymbolTableRecord
100
AcDbBlockTableRecord
  2
*D4
340
0
  0
BLOCK_RECORD
  5
197
330
1
100
AcDbSymbolTableRecord
100
AcDbBlockTableRecord
  2
*D5
340
0
  0
BLOCK_RECORD
  5
1AD
330
1
100
AcDbSymbolTableRecord
100
AcDbBlockTableRecord
  2
*D6
340
0
  0
BLOCK_RECORD
  5
1D8
330
1
100
AcDbSymbolTableRecord
100
AcDbBlockTableRecord
  2
*D7
340
0
  0
BLOCK_RECORD
  5
1EE
330
1
100
AcDbSymbolTableRecord
100
AcDbBlockTableRecord
  2
*D8
340
0
  0
ENDTAB
  0
ENDSEC
  0
SECTION
  2
BLOCKS
  0
BLOCK
  5
20
330
1F
100
AcDbEntity
  8
0
100
AcDbBlockBegin
  2
*Model_Space
 70
     0
 10
0.0
 20
0.0
 30
0.0
  3
*Model_Space
  1

  0
ENDBLK
  5
21
330
1F
100
AcDbEntity
  8
0
100
AcDbBlockEnd
  0
BLOCK
  5
5A
330
58
100
AcDbEntity
 67
     1
  8
0
100
AcDbBlockBegin
  2
*Paper_Space
 70
     0
 10
0.0
 20
0.0
 30
0.0
  3
*Paper_Space
  1

  0
ENDBLK
  5
5B
330
58
100
AcDbEntity
 67
     1
  8
0
100
AcDbBlockEnd
  0
BLOCK
  5
5F
330
5D
100
AcDbEntity
  8
0
100
AcDbBlockBegin
  2
*Paper_Space0
 70
     0
 10
0.0
 20
0.0
 30
0.0
  3
*Paper_Space0
  1

  0
ENDBLK
  5
60
330
5D
100
AcDbEntity
  8
0
100
AcDbBlockEnd
  0
BLOCK
  5
E8
330
DD
100
AcDbEntity
  8
0
 48
0.3
100
AcDbBlockBegin
  2
*D1
 70
     1
 10
0.0
 20
0.0
 30
0.0
  3
*D1
  1

  0
LINE
  5
EB
330
DD
100
AcDbEntity
  8
0
 62
     0
 48
0.3
370
    -2
100
AcDbLine
 10
5.149209332658363
 20
2.867632440529359
 30
0.0
 11
5.149209332658363
 21
1.315646911689468
 31
0.0
  0
LINE
  5
EC
330
DD
100
AcDbEntity
  8
0
 62
     0
 48
0.3
370
    -2
100
AcDbLine
 10
6.733209332658362
 20
2.989132440529358
 30
0.0
 11
6.733209332658362
 21
1.315646911689468
 31
0.0
  0
LINE
  5
ED
330
DD
100
AcDbEntity
  8
0
 62
     0
 48
0.3
370
    -2
100
AcDbLine
 10
5.274209332658363
 20
1.495646911689467
 30
0.0
 11
5.622042665991695
 21
1.495646911689467
 31
0.0
  0
LINE
  5
EE
330
DD
100
AcDbEntity
  8
0
 62
     0
 48
0.3
370
    -2
100
AcDbLine
 10
6.608209332658362
 20
1.495646911689467
 30
0.0
 11
6.260375999325031
 21
1.495646911689467
 31
0.0
  0
SOLID
  5
EF
330
DD
100
AcDbEntity
  8
0
 62
     0
 48
0.3
100
AcDbTrace
 10
5.274209332658363
 20
1.516480245022801
 30
0.0
 11
5.274209332658363
 21
1.474813578356136
 31
0.0
 12
5.149209332658363
 22
1.495646911689467
 32
0.0
 13
5.149209332658363
 23
1.495646911689467
 33
0.0
  0
SOLID
  5
F0
330
DD
100
AcDbEntity
  8
0
 62
     0
 48
0.3
100
AcDbTrace
 10
6.608209332658362
 20
1.516480245022801
 30
0.0
 11
6.608209332658362
 21
1.474813578356136
 31
0.0
 12
6.733209332658362
 22
1.495646911689467
 32
0.0
 13
6.733209332658362
 23
1.495646911689467
 33
0.0
  0
MTEXT
  5
F1
330
DD
100
AcDbEntity
  8
0
 62
     0
 48
0.3
100
AcDbMText
 10
5.941209332658362
 20
1.495646911689467
 30
0.0
 40
0.125
 41
0.0
 71
     5
 72
     1
  1
\A1;1.584
 73
     1
 44
1.0
  0
POINT
  5
F2
330
DD
100
AcDbEntity
  8
Defpoints
 62
     0
 48
0.3
100
AcDbPoint
 10
5.149209332658363
 20
2.930132440529359
 30
0.0
  0
POINT
  5
F3
330
DD
100
AcDbEntity
  8
Defpoints
 62
     0
 48
0.3
100
AcDbPoint
 10
6.733209332658362
 20
3.051632440529358
 30
0.0
  0
POINT
  5
F4
330
DD
100
AcDbEntity
  8
Defpoints
 62
     0
 48
0.3
100
AcDbPoint
 10
6.733209332658362
 20
1.495646911689467
 30
0.0
  0
ENDBLK
  5
E9
330
DD
100
AcDbEntity
  8
0
 48
0.3
100
AcDbBlockEnd
  0
BLOCK
  5
142
330
137
100
AcDbEntity
  8
0
 48
0.3
100
AcDbBlockBegin
  2
*D2
 70
     1
 10
0.0
 20
0.0
 30
0.0
  3
*D2
  1

  0
LINE
  5
145
330
137
100
AcDbEntity
  8
0
 62
     0
 48
0.3
370
    -2
100
AcDbLine
 10
6.133209332658362
 20
2.989132440529358
 30
0.0
 11
6.133209332658362
 21
2.423202836720836
 31
0.0
  0
LINE
  5
146
330
137
100
AcDbEntity
  8
0
 62
     0
 48
0.3
370
    -2
100
AcDbLine
 10
6.733209332658362
 20
2.989132440529358
 30
0.0
 11
6.733209332658362
 21
2.423202836720836
 31
0.0
  0
LINE
  5
147
330
137
100
AcDbEntity
  8
0
 62
     0
 48
0.3
370
    -2
100
AcDbLine
 10
6.258209332658362
 20
2.603202836720834
 30
0.0
 11
6.608209332658362
 21
2.603202836720834
 31
0.0
  0
LINE
  5
148
330
137
100
AcDbEntity
  8
0
 62
     0
 48
0.3
370
    -2
100
AcDbLine
 10
6.733209332658362
 20
2.603202836720834
 30
0.0
 11
6.858209332658362
 21
2.603202836720834
 31
0.0
  0
SOLID
  5
149
330
137
100
AcDbEntity
  8
0
 62
     0
 48
0.3
100
AcDbTrace
 10
6.258209332658362
 20
2.624036170054167
 30
0.0
 11
6.258209332658362
 21
2.5823695033875
 31
0.0
 12
6.133209332658362
 22
2.603202836720834
 32
0.0
 13
6.133209332658362
 23
2.603202836720834
 33
0.0
  0
SOLID
  5
14A
330
137
100
AcDbEntity
  8
0
 62
     0
 48
0.3
100
AcDbTrace
 10
6.608209332658362
 20
2.624036170054167
 30
0.0
 11
6.608209332658362
 21
2.5823695033875
 31
0.0
 12
6.733209332658362
 22
2.603202836720834
 32
0.0
 13
6.733209332658362
 23
2.603202836720834
 33
0.0
  0
MTEXT
  5
14B
330
137
100
AcDbEntity
  8
0
 62
     0
 48
0.3
100
AcDbMText
 10
7.166959332658362
 20
2.603202836720834
 30
0.0
 40
0.125
 41
0.0
 71
     5
 72
     1
  1
\A1;0.600
 73
     1
 44
1.0
  0
POINT
  5
14C
330
137
100
AcDbEntity
  8
Defpoints
 62
     0
 48
0.3
100
AcDbPoint
 10
6.133209332658362
 20
3.051632440529358
 30
0.0
  0
POINT
  5
14D
330
137
100
AcDbEntity
  8
Defpoints
 62
     0
 48
0.3
100
AcDbPoint
 10
6.733209332658362
 20
3.051632440529358
 30
0.0
  0
POINT
  5
14E
330
137
100
AcDbEntity
  8
Defpoints
 62
     0
 48
0.3
100
AcDbPoint
 10
6.733209332658362
 20
2.603202836720834
 30
0.0
  0
ENDBLK
  5
143
330
137
100
AcDbEntity
  8
0
 48
0.3
100
AcDbBlockEnd
  0
BLOCK
  5
15C
330
151
100
AcDbEntity
  8
0
 48
0.3
100
AcDbBlockBegin
  2
*D3
 70
     1
 10
0.0
 20
0.0
 30
0.0
  3
*D3
  1

  0
LINE
  5
15F
330
151
100
AcDbEntity
  8
0
 62
     0
 48
0.3
370
    -2
100
AcDbLine
 10
5.482209332658363
 20
3.740632440529358
 30
0.0
 11
5.482209332658363
 21
5.464351061268999
 31
0.0
  0
LINE
  5
160
330
151
100
AcDbEntity
  8
0
 62
     0
 48
0.3
370
    -2
100
AcDbLine
 10
5.149209332658363
 20
4.48863244052936
 30
0.0
 11
5.149209332658363
 21
5.464351061268999
 31
0.0
  0
LINE
  5
161
330
151
100
AcDbEntity
  8
0
 62
     0
 48
0.3
370
    -2
100
AcDbLine
 10
5.607209332658363
 20
5.284351061268997
 30
0.0
 11
5.732209332658362
 21
5.284351061268997
 31
0.0
  0
LINE
  5
162
330
151
100
AcDbEntity
  8
0
 62
     0
 48
0.3
370
    -2
100
AcDbLine
 10
5.024209332658363
 20
5.284351061268997
 30
0.0
 11
4.899209332658365
 21
5.284351061268997
 31
0.0
  0
SOLID
  5
163
330
151
100
AcDbEntity
  8
0
 62
     0
 48
0.3
100
AcDbTrace
 10
5.607209332658363
 20
5.30518439460233
 30
0.0
 11
5.607209332658363
 21
5.263517727935664
 31
0.0
 12
5.482209332658363
 22
5.284351061268997
 32
0.0
 13
5.482209332658363
 23
5.284351061268997
 33
0.0
  0
SOLID
  5
164
330
151
100
AcDbEntity
  8
0
 62
     0
 48
0.3
100
AcDbTrace
 10
5.024209332658363
 20
5.30518439460233
 30
0.0
 11
5.024209332658363
 21
5.263517727935664
 31
0.0
 12
5.149209332658363
 22
5.284351061268997
 32
0.0
 13
5.149209332658363
 23
5.284351061268997
 33
0.0
  0
MTEXT
  5
165
330
151
100
AcDbEntity
  8
0
 62
     0
 48
0.3
100
AcDbMText
 10
4.56962599932503
 20
5.284351061268997
 30
0.0
 40
0.125
 41
0.0
 71
     5
 72
     1
  1
\A1;0.333
 73
     1
 44
1.0
  0
POINT
  5
166
330
151
100
AcDbEntity
  8
Defpoints
 62
     0
 48
0.3
100
AcDbPoint
 10
5.482209332658363
 20
3.678132440529358
 30
0.0
  0
POINT
  5
167
330
151
100
AcDbEntity
  8
Defpoints
 62
     0
 48
0.3
100
AcDbPoint
 10
5.149209332658363
 20
4.42613244052936
 30
0.0
  0
POINT
  5
168
330
151
100
AcDbEntity
  8
Defpoints
 62
     0
 48
0.3
100
AcDbPoint
 10
5.149209332658363
 20
5.284351061268997
 30
0.0
  0
ENDBLK
  5
15D
330
151
100
AcDbEntity
  8
0
 48
0.3
100
AcDbBlockEnd
  0
BLOCK
  5
18A
330
181
100
AcDbEntity
  8
0
 48
0.3
100
AcDbBlockBegin
  2
*D4
 70
     1
 10
0.0
 20
0.0
 30
0.0
  3
*D4
  1

  0
LINE
  5
18D
330
181
100
AcDbEntity
  8
0
 62
     0
 48
0.3
370
    -2
100
AcDbLine
 10
0.1570574544733312
 20
4.137989320778968
 30
0.0
 11
0.2820574544733311
 21
4.137989320778968
 31
0.0
  0
LINE
  5
18E
330
181
100
AcDbEntity
  8
0
 62
     0
 48
0.3
370
    -2
100
AcDbLine
 10
0.2820574544733311
 20
4.137989320778968
 30
0.0
 11
1.09939483072681
 21
3.91137781716627
 31
0.0
  0
MTEXT
  5
18F
330
181
100
AcDbEntity
  8
0
 62
     0
 48
0.3
100
AcDbMText
 10
-0.2246092121933358
 20
4.137989320778968
 30
0.0
 40
0.125
 41
0.0
 71
     5
 72
     1
  1
\A1;\U+22051.496
 73
     1
 44
1.0
  0
SOLID
  5
190
330
181
100
AcDbEntity
  8
0
 62
     0
 48
0.3
100
AcDbTrace
 10
1.104961014781721
 20
3.931453807125537
 30
0.0
 11
1.093828646671902
 21
3.891301827207001
 31
0.0
 12
1.219850770482422
 22
3.877980712836815
 32
0.0
 13
1.219850770482422
 23
3.877980712836815
 33
0.0
  0
LINE
  5
191
330
181
100
AcDbEntity
  8
0
 62
     0
 48
0.3
370
    -2
100
AcDbLine
 10
1.850659113980004
 20
3.678132440529358
 30
0.0
 11
2.030659113980004
 21
3.678132440529358
 31
0.0
  0
LINE
  5
192
330
181
100
AcDbEntity
  8
0
 62
     0
 48
0.3
370
    -2
100
AcDbLine
 10
1.940659113980004
 20
3.588132440529359
 30
0.0
 11
1.940659113980004
 21
3.768132440529357
 31
0.0
  0
POINT
  5
193
330
181
100
AcDbEntity
  8
Defpoints
 62
     0
 48
0.3
100
AcDbPoint
 10
1.219850770482422
 20
3.877980712836815
 30
0.0
  0
POINT
  5
194
330
181
100
AcDbEntity
  8
Defpoints
 62
     0
 48
0.3
100
AcDbPoint
 10
2.661467457477582
 20
3.478284168221903
 30
0.0
  0
ENDBLK
  5
18B
330
181
100
AcDbEntity
  8
0
 48
0.3
100
AcDbBlockEnd
  0
BLOCK
  5
1A0
330
197
100
AcDbEntity
  8
0
 48
0.3
100
AcDbBlockBegin
  2
*D5
 70
     1
 10
0.0
 20
0.0
 30
0.0
  3
*D5
  1

  0
LINE
  5
1A3
330
197
100
AcDbEntity
  8
0
 62
     0
 48
0.3
370
    -2
100
AcDbLine
 10
0.3594362602327106
 20
2.750878573293231
 30
0.0
 11
0.4844362602327106
 21
2.750878573293231
 31
0.0
  0
LINE
  5
1A4
330
197
100
AcDbEntity
  8
0
 62
     0
 48
0.3
370
    -2
100
AcDbLine
 10
0.4844362602327106
 20
2.750878573293231
 30
0.0
 11
1.306759244520625
 21
3.274494972621107
 31
0.0
  0
MTEXT
  5
1A5
330
197
100
AcDbEntity
  8
0
 62
     0
 48
0.3
100
AcDbMText
 10
-0.0222304064339563
 20
2.750878573293231
 30
0.0
 40
0.125
 41
0.0
 71
     5
 72
     1
  1
\A1;\U+22051.253
 73
     1
 44
1.0
  0
SOLID
  5
1A6
330
197
100
AcDbEntity
  8
0
 62
     0
 48
0.3
100
AcDbTrace
 10
1.295569472178969
 20
3.292068155961632
 30
0.0
 11
1.317949016862282
 21
3.256921789280585
 31
0.0
 12
1.412198344563769
 22
3.341633606671051
 32
0.0
 13
1.412198344563769
 23
3.341633606671051
 33
0.0
  0
LINE
  5
1A7
330
197
100
AcDbEntity
  8
0
 62
     0
 48
0.3
370
    -2
100
AcDbLine
 10
1.85065911398
 20
3.678132440529357
 30
0.0
 11
2.030659113980003
 21
3.678132440529357
 31
0.0
  0
LINE
  5
1A8
330
197
100
AcDbEntity
  8
0
 62
     0
 48
0.3
370
    -2
100
AcDbLine
 10
1.940659113980003
 20
3.588132440529359
 30
0.0
 11
1.94065911398
 21
3.768132440529357
 31
0.0
  0
POINT
  5
1A9
330
197
100
AcDbEntity
  8
Defpoints
 62
     0
 48
0.3
100
AcDbPoint
 10
1.412198344563769
 20
3.341633606671051
 30
0.0
  0
POINT
  5
1AA
330
197
100
AcDbEntity
  8
Defpoints
 62
     0
 48
0.3
100
AcDbPoint
 10
2.469119883396237
 20
4.014631274387667
 30
0.0
  0
ENDBLK
  5
1A1
330
197
100
AcDbEntity
  8
0
 48
0.3
100
AcDbBlockEnd
  0
BLOCK
  5
1B6
330
1AD
100
AcDbEntity
  8
0
 48
0.3
100
AcDbBlockBegin
  2
*D6
 70
     1
 10
0.0
 20
0.0
 30
0.0
  3
*D6
  1

  0
LINE
  5
226
330
1AD
100
AcDbEntity
  8
0
 62
     0
 48
0.3
370
    -2
100
AcDbLine
 10
1.30387086360709
 20
2.010188372135937
 30
0.0
 11
1.42887086360709
 21
2.010188372135937
 31
0.0
  0
LINE
  5
227
330
1AD
100
AcDbEntity
  8
0
 62
     0
 48
0.3
370
    -2
100
AcDbLine
 10
1.42887086360709
 20
2.010188372135937
 30
0.0
 11
1.845763793818659
 21
3.368863741480333
 31
0.0
  0
MTEXT
  5
228
330
1AD
100
AcDbEntity
  8
0
 62
     0
 48
0.3
100
AcDbMText
 10
0.8597041969404239
 20
2.010188372135937
 30
0.0
 40
0.125
 41
0.0
 71
     5
 72
     1
  1
\A1;%%c0.3940
 73
     1
 44
1.0
  0
SOLID
  5
229
330
1AD
100
AcDbEntity
  8
0
 62
     0
 48
0.3
100
AcDbTrace
 10
1.825846953333791
 20
3.374974980542759
 30
0.0
 11
1.865680634303528
 21
3.362752502417909
 31
0.0
 12
1.882431228193213
 22
3.488364784389539
 32
0.0
 13
1.882431228193213
 23
3.488364784389539
 33
0.0
  0
LINE
  5
22A
330
1AD
100
AcDbEntity
  8
0
 62
     0
 48
0.3
370
    -2
100
AcDbLine
 10
1.850659113980003
 20
3.678132440529358
 30
0.0
 11
2.030659113980003
 21
3.678132440529357
 31
0.0
  0
LINE
  5
22B
330
1AD
100
AcDbEntity
  8
0
 62
     0
 48
0.3
370
    -2
100
AcDbLine
 10
1.940659113980003
 20
3.588132440529359
 30
0.0
 11
1.940659113980004
 21
3.768132440529357
 31
0.0
  0
POINT
  5
22C
330
1AD
100
AcDbEntity
  8
Defpoints
 62
     0
 48
0.3
100
AcDbPoint
 10
1.882431228193213
 20
3.488364784389539
 30
0.0
  0
POINT
  5
22D
330
1AD
100
AcDbEntity
  8
Defpoints
 62
     0
 48
0.3
100
AcDbPoint
 10
1.998886999766793
 20
3.867900096669178
 30
0.0
  0
ENDBLK
  5
1B7
330
1AD
100
AcDbEntity
  8
0
 48
0.3
100
AcDbBlockEnd
  0
BLOCK
  5
1E1
330
1D8
100
AcDbEntity
  8
0
 48
0.3
100
AcDbBlockBegin
  2
*D7
 70
     1
 10
0.0
 20
0.0
 30
0.0
  3
*D7
  1

  0
LINE
  5
1E4
330
1D8
100
AcDbEntity
  8
0
 62
     0
 48
0.3
370
    -2
100
AcDbLine
 10
0.7507967762878632
 20
4.984240211598105
 30
0.0
 11
0.8757967762878633
 21
4.984240211598105
 31
0.0
  0
LINE
  5
1E5
330
1D8
100
AcDbEntity
  8
0
 62
     0
 48
0.3
370
    -2
100
AcDbLine
 10
0.8757967762878633
 20
4.984240211598105
 30
0.0
 11
1.224404646527077
 21
4.55665494328824
 31
0.0
  0
MTEXT
  5
1E6
330
1D8
100
AcDbEntity
  8
0
 62
     0
 48
0.3
100
AcDbMText
 10
0.3795467762878628
 20
4.984240211598105
 30
0.0
 40
0.125
 41
0.0
 71
     5
 72
     1
  1
\A1;\U+22052.017
 73
     1
 44
1.0
  0
SOLID
  5
1E7
330
1D8
100
AcDbEntity
  8
0
 62
     0
 48
0.3
100
AcDbTrace
 10
1.240551582690122
 20
4.569819449747821
 30
0.0
 11
1.208257710364034
 21
4.543490436828657
 31
0.0
 12
1.303391685284569
 22
4.459773326309978
 32
0.0
 13
1.303391685284569
 23
4.459773326309978
 33
0.0
  0
LINE
  5
1E8
330
1D8
100
AcDbEntity
  8
0
 62
     0
 48
0.3
370
    -2
100
AcDbLine
 10
1.85065911398
 20
3.678132440529357
 30
0.0
 11
2.030659113980003
 21
3.678132440529357
 31
0.0
  0
LINE
  5
1E9
330
1D8
100
AcDbEntity
  8
0
 62
     0
 48
0.3
370
    -2
100
AcDbLine
 10
1.94065911398
 20
3.588132440529357
 30
0.0
 11
1.940659113980003
 21
3.768132440529357
 31
0.0
  0
POINT
  5
1EA
330
1D8
100
AcDbEntity
  8
Defpoints
 62
     0
 48
0.3
100
AcDbPoint
 10
1.303391685284569
 20
4.459773326309978
 30
0.0
  0
POINT
  5
1EB
330
1D8
100
AcDbEntity
  8
Defpoints
 62
     0
 48
0.3
100
AcDbPoint
 10
2.577926542675437
 20
2.89649155474874
 30
0.0
  0
ENDBLK
  5
1E2
330
1D8
100
AcDbEntity
  8
0
 48
0.3
100
AcDbBlockEnd
  0
BLOCK
  5
1F9
330
1EE
100
AcDbEntity
  8
0
 48
0.3
100
AcDbBlockBegin
  2
*D8
 70
     1
 10
0.0
 20
0.0
 30
0.0
  3
*D8
  1

  0
LINE
  5
207
330
1EE
100
AcDbEntity
  8
0
 62
     0
 48
0.3
370
    -2
100
AcDbLine
 10
5.570209332658365
 20
2.607132440529357
 30
0.0
 11
5.570209332658365
 21
1.91356700372879
 31
0.0
  0
LINE
  5
208
330
1EE
100
AcDbEntity
  8
0
 62
     0
 48
0.3
370
    -2
100
AcDbLine
 10
6.133209332658362
 20
2.607132440529357
 30
0.0
 11
6.133209332658362
 21
1.91356700372879
 31
0.0
  0
LINE
  5
209
330
1EE
100
AcDbEntity
  8
0
 62
     0
 48
0.3
370
    -2
100
AcDbLine
 10
5.695209332658365
 20
2.093567003728789
 30
0.0
 11
6.008209332658362
 21
2.093567003728789
 31
0.0
  0
LINE
  5
20A
330
1EE
100
AcDbEntity
  8
0
 62
     0
 48
0.3
370
    -2
100
AcDbLine
 10
6.133209332658362
 20
2.093567003728789
 30
0.0
 11
6.818597851451306
 21
2.093567003728789
 31
0.0
  0
SOLID
  5
20B
330
1EE
100
AcDbEntity
  8
0
 62
     0
 48
0.3
100
AcDbTrace
 10
5.695209332658365
 20
2.114400337062122
 30
0.0
 11
5.695209332658365
 21
2.072733670395455
 31
0.0
 12
5.570209332658365
 22
2.093567003728789
 32
0.0
 13
5.570209332658365
 23
2.093567003728789
 33
0.0
  0
SOLID
  5
20C
330
1EE
100
AcDbEntity
  8
0
 62
     0
 48
0.3
100
AcDbTrace
 10
6.008209332658362
 20
2.114400337062122
 30
0.0
 11
6.008209332658362
 21
2.072733670395455
 31
0.0
 12
6.133209332658362
 22
2.093567003728789
 32
0.0
 13
6.133209332658362
 23
2.093567003728789
 33
0.0
  0
MTEXT
  5
20D
330
1EE
100
AcDbEntity
  8
0
 62
     0
 48
0.3
100
AcDbMText
 10
7.14818118478464
 20
2.093567003728789
 30
0.0
 40
0.125
 41
0.0
 71
     5
 72
     1
  1
\A1;0.563
 73
     1
 44
1.0
  0
POINT
  5
20E
330
1EE
100
AcDbEntity
  8
Defpoints
 62
     0
 48
0.3
100
AcDbPoint
 10
5.570209332658365
 20
2.669632440529357
 30
0.0
  0
POINT
  5
20F
330
1EE
100
AcDbEntity
  8
Defpoints
 62
     0
 48
0.3
100
AcDbPoint
 10
6.133209332658362
 20
2.669632440529357
 30
0.0
  0
POINT
  5
210
330
1EE
100
AcDbEntity
  8
Defpoints
 62
     0
 48
0.3
100
AcDbPoint
 10
6.133209332658362
 20
2.093567003728789
 30
0.0
  0
ENDBLK
  5
1FA
330
1EE
100
AcDbEntity
  8
0
 48
0.3
100
AcDbBlockEnd
  0
ENDSEC
  0
SECTION
  2
ENTITIES
  0
VIEWPORT
  5
77
330
58
100
AcDbEntity
 67
     1
  8
0
100
AcDbViewport
 10
4.615275333102501
 20
2.634923572769964
 30
0.0
 40
20.00271763805379
 41
8.520638162703432
 68
     1
 69
     1
 12
4.615275333102501
 22
2.634923572769964
 13
0.0
 23
0.0
 14
0.5
 24
0.5
 15
0.5
 25
0.5
 16
0.0
 26
0.0
 36
1.0
 17
0.0
 27
0.0
 37
0.0
 42
50.0
 43
0.0
 44
0.0
 45
8.520638162703432
 50
0.0
 51
0.0
 72
   100
 90
    32800
  1

281
     0
 71
     1
 74
     0
110
0.0
120
0.0
130
0.0
111
1.0
121
0.0
131
0.0
112
0.0
122
1.0
132
0.0
 79
     0
146
0.0
  0
LWPOLYLINE
  5
86
330
58
100
AcDbEntity
 67
     1
  8
0
100
AcDbPolyline
 90
        4
 70
     1
 43
0.0
 10
-1.439262267973588
 20
6.396855050259421
 10
8.966538218833356
 20
6.396855050259421
 10
8.966538218833356
 20
-1.41285528304607
 10
-1.439262267973588
 20
-1.41285528304607
  0
LINE
  5
8A
330
58
100
AcDbEntity
 67
     1
  8
0
100
AcDbLine
 10
8.966538218833356
 20
-1.41285528304607
 30
0.0
 11
8.966538218833356
 21
-0.4128552830460708
 31
0.0
  0
LINE
  5
8B
330
58
100
AcDbEntity
 67
     1
  8
0
100
AcDbLine
 10
8.966538218833356
 20
-0.4128552830460708
 30
0.0
 11
6.466538218833355
 21
-0.4128552830460703
 31
0.0
  0
LINE
  5
8C
330
58
100
AcDbEntity
 67
     1
  8
0
100
AcDbLine
 10
6.466538218833355
 20
-0.4128552830460703
 30
0.0
 11
4.966538218833356
 21
-0.4128552830460701
 31
0.0
  0
LINE
  5
8D
330
58
100
AcDbEntity
 67
     1
  8
0
100
AcDbLine
 10
4.966538218833356
 20
-0.4128552830460701
 30
0.0
 11
4.966538218833356
 21
-1.41285528304607
 31
0.0
  0
LINE
  5
8E
330
58
100
AcDbEntity
 67
     1
  8
0
100
AcDbLine
 10
6.466538218833355
 20
-0.4128552830460703
 30
0.0
 11
6.466538218833355
 21
-1.404250623233159
 31
0.0
  0
MTEXT
  5
8F
330
58
100
AcDbEntity
 67
     1
  8
0
100
AcDbMText
 10
5.020648721258949
 20
-0.5532836662080878
 30
0.0
 40
0.1
 41
1.5
 71
     1
 72
     5
  1
  Tolerances\P.XXXX = +/- .001\P.XXX  = +/- .005\P.XX   = +/- .015
 73
     1
 44
1.0
  0
MTEXT
  5
AA
330
58
100
AcDbEntity
 67
     1
  8
0
 48
0.3
100
AcDbMText
 10
6.648060223755074
 20
-0.4695764861614931
 30
0.0
 40
0.1
 41
2.5
 71
     1
 72
     5
  1
G0704 Belt Drive\PMotor Timing Pulley Blank \PNormal Speed\PDaniel E. Kemp\P{\fArial|b0|i0|c0|p32;\H1.625x;©\fMS Shell Dlg|b0|i0|c0|p32;\H0.6538x; }6-16-2010
 73
     1
 44
1.0
  0
MTEXT
  5
AC
330
58
100
AcDbEntity
 67
     1
  8
0
 48
0.3
100
AcDbMText
 10
-0.8330378939457148
 20
-0.9104262006358535
 30
0.0
 40
0.1625
 41
9.997099999999999
 71
     1
 72
     5
  1
{\fArial|b0|i0|c0|p32;© Daniel E. Kemp 2010}
 73
     1
 44
1.0
  0
CIRCLE
  5
B3
102
{ACAD_REACTORS
330
1AB
102
}
330
58
100
AcDbEntity
 67
     1
  8
0
 48
0.3
100
AcDbCircle
 10
1.940659113980004
 20
3.678132440529358
 30
0.0
 40
0.6265
  0
CIRCLE
  5
B4
102
{ACAD_REACTORS
330
1C1
102
}
330
58
100
AcDbEntity
 67
     1
  8
0
 48
0.3
100
AcDbCircle
 10
1.940659113980004
 20
3.678132440529358
 30
0.0
 40
0.1985
  0
CIRCLE
  5
B5
102
{ACAD_REACTORS
330
195
102
}
330
58
100
AcDbEntity
 67
     1
  8
0
  6
HIDDENX2
 48
0.3
100
AcDbCircle
 10
1.940659113980004
 20
3.678132440529358
 30
0.0
 40
0.7480000000000003
  0
LINE
  5
BE
330
58
100
AcDbEntity
 67
     1
  8
0
 48
0.3
100
AcDbLine
 10
6.133209332658362
 20
4.304632440529358
 30
0.0
 11
6.733209332658362
 21
4.304632440529358
 31
0.0
  0
LINE
  5
BF
102
{ACAD_REACTORS
330
F5
330
14F
102
}
330
58
100
AcDbEntity
 67
     1
  8
0
 48
0.3
100
AcDbLine
 10
6.733209332658362
 20
4.304632440529358
 30
0.0
 11
6.733209332658362
 21
3.051632440529358
 31
0.0
  0
LINE
  5
C0
102
{ACAD_REACTORS
330
14F
102
}
330
58
100
AcDbEntity
 67
     1
  8
0
 48
0.3
100
AcDbLine
 10
6.733209332658362
 20
3.051632440529358
 30
0.0
 11
6.133209332658362
 21
3.051632440529358
 31
0.0
  0
LINE
  5
C2
102
{ACAD_REACTORS
330
169
102
}
330
58
100
AcDbEntity
 67
     1
  8
0
 48
0.3
100
AcDbLine
 10
5.570209332658365
 20
4.42613244052936
 30
0.0
 11
5.149209332658363
 21
4.42613244052936
 31
0.0
  0
LINE
  5
C3
330
58
100
AcDbEntity
 67
     1
  8
0
 48
0.3
100
AcDbLine
 10
5.149209332658363
 20
4.42613244052936
 30
0.0
 11
5.149209332658363
 21
2.930132440529359
 31
0.0
  0
LINE
  5
C4
102
{ACAD_REACTORS
330
F5
102
}
330
58
100
AcDbEntity
 67
     1
  8
0
 48
0.3
100
AcDbLine
 10
5.149209332658363
 20
2.930132440529359
 30
0.0
 11
5.570209332658363
 21
2.930132440529359
 31
0.0
  0
LINE
  5
C6
330
58
100
AcDbEntity
 67
     1
  8
0
  6
HIDDENX2
 48
0.3
100
AcDbLine
 10
5.149209332658363
 20
3.876632440529359
 30
0.0
 11
6.733209332658362
 21
3.876632440529359
 31
0.0
  0
LINE
  5
C8
330
58
100
AcDbEntity
 67
     1
  8
0
  6
HIDDENX2
 48
0.3
100
AcDbLine
 10
5.149209332658363
 20
3.479632440529358
 30
0.0
 11
6.733209332658362
 21
3.479632440529358
 31
0.0
  0
CIRCLE
  5
CE
102
{ACAD_REACTORS
330
169
330
1C5
102
}
330
58
100
AcDbEntity
 67
     1
  8
0
 48
0.3
100
AcDbCircle
 10
5.482209332658363
 20
3.678132440529358
 30
0.0
 40
0.07
  0
LINE
  5
D0
330
58
100
AcDbEntity
 67
     1
  8
0
  6
threads
 48
0.3
100
AcDbLine
 10
5.552209332658363
 20
3.876632440529359
 30
0.0
 11
5.552209332658363
 21
4.42613244052936
 31
0.0
  0
LINE
  5
D2
330
58
100
AcDbEntity
 67
     1
  8
0
  6
threads
 48
0.3
100
AcDbLine
 10
5.412209332658363
 20
3.876632440529359
 30
0.0
 11
5.412209332658363
 21
4.42613244052936
 31
0.0
  0
LINE
  5
D4
330
58
100
AcDbEntity
 67
     1
  8
0
  6
threads
 48
0.3
100
AcDbLine
 10
2.010659113980004
 20
3.863880253437076
 30
0.0
 11
2.010659113980004
 21
4.422849836593129
 31
0.0
  0
LINE
  5
D6
330
58
100
AcDbEntity
 67
     1
  8
0
  6
threads
 48
0.3
100
AcDbLine
 10
1.870659113980004
 20
3.863880253437076
 30
0.0
 11
1.870659113980004
 21
4.422849836593129
 31
0.0
  0
LINE
  5
D8
330
58
100
AcDbEntity
 67
     1
  8
0
  6
threads
 48
0.3
100
AcDbLine
 10
2.12640692688772
 20
3.748132440529358
 30
0.0
 11
2.685376510043771
 21
3.748132440529358
 31
0.0
  0
LINE
  5
DA
330
58
100
AcDbEntity
 67
     1
  8
0
  6
threads
 48
0.3
100
AcDbLine
 10
2.12640692688772
 20
3.608132440529359
 30
0.0
 11
2.685376510043771
 21
3.608132440529359
 31
0.0
  0
DIMENSION
  5
DB
102
{ACAD_XDICTIONARY
360
EA
102
}
102
{ACAD_REACTORS
330
F5
102
}
330
58
100
AcDbEntity
 67
     1
  8
0
 48
0.3
100
AcDbDimension
  2
*D1
 10
6.733209332658362
 20
1.495646911689467
 30
0.0
 11
5.941209332658362
 21
1.495646911689467
 31
0.0
 70
    32
 71
     5
 42
1.583999999999999
  3
Standard
100
AcDbAlignedDimension
 13
5.149209332658363
 23
2.930132440529359
 33
0.0
 14
6.733209332658362
 24
3.051632440529358
 34
0.0
100
AcDbRotatedDimension
  0
DIMENSION
  5
136
102
{ACAD_XDICTIONARY
360
144
102
}
102
{ACAD_REACTORS
330
14F
102
}
330
58
100
AcDbEntity
 67
     1
  8
0
 48
0.3
100
AcDbDimension
  2
*D2
 10
6.733209332658362
 20
2.603202836720834
 30
0.0
 11
7.166959332658362
 21
2.603202836720834
 31
0.0
 70
    32
 71
     5
 42
0.6000000000000007
  3
Standard
100
AcDbAlignedDimension
 13
6.133209332658362
 23
3.051632440529358
 33
0.0
 14
6.733209332658362
 24
3.051632440529358
 34
0.0
100
AcDbRotatedDimension
  0
DIMENSION
  5
150
102
{ACAD_XDICTIONARY
360
15E
102
}
102
{ACAD_REACTORS
330
169
102
}
330
58
100
AcDbEntity
 67
     1
  8
0
 48
0.3
100
AcDbDimension
  2
*D3
 10
5.149209332658363
 20
5.284351061268997
 30
0.0
 11
4.56962599932503
 21
5.284351061268997
 31
0.0
 70
    32
 71
     5
 42
0.3330000000000002
  3
Standard
100
AcDbAlignedDimension
 13
5.482209332658363
 23
3.678132440529358
 33
0.0
 14
5.149209332658363
 24
4.42613244052936
 34
0.0
100
AcDbRotatedDimension
  0
DIMENSION
  5
180
102
{ACAD_XDICTIONARY
360
18C
102
}
102
{ACAD_REACTORS
330
195
102
}
330
58
100
AcDbEntity
 67
     1
  8
0
 48
0.3
100
AcDbDimension
  2
*D4
 10
2.661467457477582
 20
3.478284168221903
 30
0.0
 11
-0.2246092121933358
 21
4.137989320778968
 31
0.0
 70
   163
 71
     5
 42
1.495999999999999
  3
Standard
100
AcDbDiametricDimension
 15
1.219850770482422
 25
3.877980712836815
 35
0.0
 40
0.0
1001
ACAD
1000
DSTYLE
1002
{
1070
   288
1070
     1
1002
}
  0
DIMENSION
  5
196
102
{ACAD_XDICTIONARY
360
1A2
102
}
102
{ACAD_REACTORS
330
1AB
102
}
330
58
100
AcDbEntity
 67
     1
  8
0
 48
0.3
100
AcDbDimension
  2
*D5
 10
2.469119883396237
 20
4.014631274387667
 30
0.0
 11
-0.0222304064339563
 21
2.750878573293231
 31
0.0
 70
   163
 71
     5
 42
1.252999999999999
  3
Standard
100
AcDbDiametricDimension
 15
1.412198344563769
 25
3.341633606671051
 35
0.0
 40
0.0
1001
ACAD
1000
DSTYLE
1002
{
1070
   288
1070
     1
1002
}
  0
DIMENSION
  5
1AC
102
{ACAD_XDICTIONARY
360
1B8
102
}
102
{ACAD_REACTORS
330
1C1
102
}
330
58
100
AcDbEntity
 67
     1
  8
0
 48
0.3
100
AcDbDimension
  2
*D6
 10
1.998886999766793
 20
3.867900096669178
 30
0.0
 11
0.8597041969404239
 21
2.010188372135937
 31
0.0
 70
   163
  1
%%c0.3940
 71
     5
 42
0.3970000000000002
  3
Standard
100
AcDbDiametricDimension
 15
1.882431228193213
 25
3.488364784389539
 35
0.0
 40
0.0
1001
ACAD
1000
DSTYLE
1002
{
1070
   288
1070
     1
1002
}
  0
LEADER
  5
1C2
102
{ACAD_XDICTIONARY
360
1C4
102
}
102
{ACAD_REACTORS
330
1C5
102
}
330
58
100
AcDbEntity
 67
     1
  8
0
 48
0.3
100
AcDbLeader
  3
Standard
 73
     0
 40
0.3333333333333333
 41
1.458333333333333
 76
     3
 10
5.482209332658363
 20
3.678132440529358
 30
0.0
 10
4.855819163564518
 20
2.306464452598856
 30
0.0
 10
4.720899942075206
 20
2.306464452598856
 30
0.0
340
1C3
213
0.0
223
-1.836360349933379
233
0.0
1001
ACAD
1000
DSTYLE
1002
{
1070
   147
1040
0.09
1070
    77
1070
     0
1002
}
  0
MTEXT
  5
1C3
102
{ACAD_REACTORS
330
1C2
102
}
330
58
100
AcDbEntity
 67
     1
  8
0
 48
0.3
100
AcDbMText
 10
4.522964575473588
 20
2.1227606050687
 30
0.0
 40
0.125
 41
0.0
 71
     9
 72
     1
  1
\A1;2@ 8-32 thru\Pat 90%%d
 73
     1
 44
1.0
  0
CIRCLE
  5
1C6
102
{ACAD_REACTORS
330
1EC
102
}
330
58
100
AcDbEntity
 67
     1
  8
0
 48
0.3
100
AcDbCircle
 10
1.940659113980003
 20
3.678132440529357
 30
0.0
 40
1.008499999999999
  0
LINE
  5
1C8
330
58
100
AcDbEntity
 67
     1
  8
0
 48
0.3
100
AcDbLine
 10
5.570209332658365
 20
4.686632440529358
 30
0.0
 11
6.133209332658362
 21
4.686632440529358
 31
0.0
  0
LINE
  5
1CA
330
58
100
AcDbEntity
 67
     1
  8
0
 48
0.3
100
AcDbLine
 10
5.570209332658363
 20
2.669632440529357
 30
0.0
 11
6.133209332658362
 21
2.669632440529357
 31
0.0
  0
LINE
  5
1D5
102
{ACAD_REACTORS
330
206
102
}
330
58
100
AcDbEntity
 67
     1
  8
0
 48
0.3
100
AcDbLine
 10
6.133209332658362
 20
4.686632440529358
 30
0.0
 11
6.133209332658362
 21
2.669632440529357
 31
0.0
  0
LINE
  5
1D6
102
{ACAD_REACTORS
330
206
102
}
330
58
100
AcDbEntity
 67
     1
  8
0
 48
0.3
100
AcDbLine
 10
5.570209332658365
 20
4.686632440529358
 30
0.0
 11
5.570209332658365
 21
2.669632440529357
 31
0.0
  0
DIMENSION
  5
1D7
102
{ACAD_XDICTIONARY
360
1E3
102
}
102
{ACAD_REACTORS
330
1EC
102
}
330
58
100
AcDbEntity
 67
     1
  8
0
 48
0.3
100
AcDbDimension
  2
*D7
 10
2.577926542675437
 20
2.89649155474874
 30
0.0
 11
0.3795467762878628
 21
4.984240211598105
 31
0.0
 70
   163
 71
     5
 42
2.016999999999999
  3
Standard
100
AcDbDiametricDimension
 15
1.303391685284569
 25
4.459773326309978
 35
0.0
 40
0.0
1001
ACAD
1000
DSTYLE
1002
{
1070
   288
1070
     1
1002
}
  0
DIMENSION
  5
1ED
102
{ACAD_XDICTIONARY
360
1FB
102
}
102
{ACAD_REACTORS
330
206
102
}
330
58
100
AcDbEntity
 67
     1
  8
0
 48
0.3
100
AcDbDimension
  2
*D8
 10
6.133209332658362
 20
2.093567003728789
 30
0.0
 11
7.14818118478464
 21
2.093567003728789
 31
0.0
 70
   160
 71
     5
 42
0.5629999999999991
  3
Standard
100
AcDbAlignedDimension
 13
5.570209332658365
 23
2.669632440529357
 33
0.0
 14
6.133209332658362
 24
2.669632440529357
 34
0.0
100
AcDbRotatedDimension
  0
MTEXT
  5
236
330
58
100
AcDbEntity
 67
     1
  8
0
 48
0.3
100
AcDbMText
 10
-0.4632693670922095
 20
5.037294166573197
 30
0.0
 40
0.125
 41
0.7613
 71
     1
 72
     5
  1
32T
 73
     1
 44
1.0
  0
MTEXT
  5
237
330
58
100
AcDbEntity
 67
     1
  8
0
 48
0.3
100
AcDbMText
 10
-0.8336436405863366
 20
2.801940774258446
 30
0.0
 40
0.125
 41
0.0
 71
     1
 72
     5
  1
20T
 73
     1
 44
1.0
  0
ENDSEC
  0
SECTION
  2
OBJECTS
  0
DICTIONARY
  5
C
330
0
100
AcDbDictionary
281
     1
  3
ACAD_GROUP
350
D
  3
ACAD_LAYOUT
350
1A
  3
ACAD_MLINESTYLE
350
17
  3
ACAD_PLOTSETTINGS
350
19
  3
ACAD_PLOTSTYLENAME
350
E
  3
AcDbVariableDictionary
350
66
  0
DICTIONARY
  5
EA
330
DB
100
AcDbDictionary
280
     1
281
     1
  3
ACAD_DIMASSOC
360
F5
  0
DICTIONARY
  5
144
330
136
100
AcDbDictionary
280
     1
281
     1
  3
ACAD_DIMASSOC
360
14F
  0
DICTIONARY
  5
15E
330
150
100
AcDbDictionary
280
     1
281
     1
  3
ACAD_DIMASSOC
360
169
  0
DICTIONARY
  5
18C
330
180
100
AcDbDictionary
280
     1
281
     1
  3
ACAD_DIMASSOC
360
195
  0
DICTIONARY
  5
1A2
330
196
100
AcDbDictionary
280
     1
281
     1
  3
ACAD_DIMASSOC
360
1AB
  0
DICTIONARY
  5
1B8
330
1AC
100
AcDbDictionary
280
     1
281
     1
  3
ACAD_DIMASSOC
360
1C1
  0
DICTIONARY
  5
1C4
330
1C2
100
AcDbDictionary
280
     1
281
     1
  3
ACAD_DIMASSOC
360
1C5
  0
DICTIONARY
  5
1E3
330
1D7
100
AcDbDictionary
280
     1
281
     1
  3
ACAD_DIMASSOC
360
1EC
  0
DICTIONARY
  5
1FB
330
1ED
100
AcDbDictionary
280
     1
281
     1
  3
ACAD_DIMASSOC
360
206
  0
DICTIONARY
  5
D
102
{ACAD_REACTORS
330
C
102
}
330
C
100
AcDbDictionary
281
     1
  0
DICTIONARY
  5
1A
102
{ACAD_REACTORS
330
C
102
}
330
C
100
AcDbDictionary
281
     1
  3
Layout1
350
59
  3
Layout2
350
5E
  3
Model
350
22
  0
DICTIONARY
  5
17
102
{ACAD_REACTORS
330
C
102
}
330
C
100
AcDbDictionary
281
     1
  3
Standard
350
18
  0
DICTIONARY
  5
19
102
{ACAD_REACTORS
330
C
102
}
330
C
100
AcDbDictionary
281
     1
  0
ACDBDICTIONARYWDFLT
  5
E
102
{ACAD_REACTORS
330
C
102
}
330
C
100
AcDbDictionary
281
     1
  3
Normal
350
F
100
AcDbDictionaryWithDefault
340
F
  0
DICTIONARY
  5
66
102
{ACAD_REACTORS
330
C
102
}
330
C
100
AcDbDictionary
281
     1
  3
DIMASSOC
350
67
  3
HIDETEXT
350
6B
  0
DIMASSOC
  5
F5
102
{ACAD_REACTORS
330
EA
102
}
330
EA
100
AcDbDimAssoc
330
DB
 90
        3
 70
     0
 71
     0
  1
AcDbOsnapPointRef
 72
    13
331
C4
 73
     2
 91
        0
 40
0.0
 10
5.149209332658363
 20
2.930132440529359
 30
0.0
 75
     0
  1
AcDbOsnapPointRef
 72
     1
331
BF
 73
     2
 91
        0
 40
1.0
 10
6.733209332658362
 20
3.051632440529358
 30
0.0
 75
     0
  0
DIMASSOC
  5
14F
102
{ACAD_REACTORS
330
144
102
}
330
144
100
AcDbDimAssoc
330
136
 90
        3
 70
     0
 71
     0
  1
AcDbOsnapPointRef
 72
     1
331
C0
 73
     2
 91
        0
 40
1.0
 10
6.133209332658362
 20
3.051632440529358
 30
0.0
 75
     0
  1
AcDbOsnapPointRef
 72
     1
331
BF
 73
     2
 91
        0
 40
1.0
 10
6.733209332658362
 20
3.051632440529358
 30
0.0
 75
     0
  0
DIMASSOC
  5
169
102
{ACAD_REACTORS
330
15E
102
}
330
15E
100
AcDbDimAssoc
330
150
 90
        3
 70
     0
 71
     0
  1
AcDbOsnapPointRef
 72
     3
331
CE
 73
     2
 91
        0
 40
0.0
 10
5.482209332658363
 20
3.678132440529358
 30
0.0
 75
     0
  1
AcDbOsnapPointRef
 72
     1
331
C2
 73
     2
 91
        0
 40
1.0
 10
5.149209332658363
 20
4.42613244052936
 30
0.0
 75
     0
  0
DIMASSOC
  5
195
102
{ACAD_REACTORS
330
18C
102
}
330
18C
100
AcDbDimAssoc
330
180
 90
        2
 70
     0
 71
     0
  1
AcDbOsnapPointRef
 72
     3
331
B5
 73
     2
 91
        0
 40
0.0
 10
0.0
 20
0.0
 30
0.0
 75
     0
  0
DIMASSOC
  5
1AB
102
{ACAD_REACTORS
330
1A2
102
}
330
1A2
100
AcDbDimAssoc
330
196
 90
        2
 70
     0
 71
     0
  1
AcDbOsnapPointRef
 72
     3
331
B3
 73
     2
 91
        0
 40
0.0
 10
0.0
 20
0.0
 30
0.0
 75
     0
  0
DIMASSOC
  5
1C1
102
{ACAD_REACTORS
330
1B8
102
}
330
1B8
100
AcDbDimAssoc
330
1AC
 90
        2
 70
     0
 71
     0
  1
AcDbOsnapPointRef
 72
     3
331
B4
 73
     2
 91
        0
 40
0.0
 10
1.940659113980004
 20
3.678132440529358
 30
0.0
 75
     0
  0
DIMASSOC
  5
1C5
102
{ACAD_REACTORS
330
1C4
102
}
330
1C4
100
AcDbDimAssoc
330
1C2
 90
        1
 70
     0
 71
     0
  1
AcDbOsnapPointRef
 72
     3
331
CE
 73
     2
 91
        0
 40
0.0
 10
5.482209332658363
 20
3.678132440529358
 30
0.0
 75
     0
  0
DIMASSOC
  5
1EC
102
{ACAD_REACTORS
330
1E3
102
}
330
1E3
100
AcDbDimAssoc
330
1D7
 90
        2
 70
     0
 71
     0
  1
AcDbOsnapPointRef
 72
     3
331
1C6
 73
     2
 91
        0
 40
0.0
 10
0.0
 20
0.0
 30
0.0
 75
     0
  0
DIMASSOC
  5
206
102
{ACAD_REACTORS
330
1FB
102
}
330
1FB
100
AcDbDimAssoc
330
1ED
 90
        3
 70
     0
 71
     0
  1
AcDbOsnapPointRef
 72
     1
331
1D6
 73
     2
 91
        0
 40
1.0
 10
5.570209332658365
 20
2.669632440529357
 30
0.0
 75
     0
  1
AcDbOsnapPointRef
 72
     1
331
1D5
 73
     2
 91
        0
 40
1.0
 10
6.133209332658362
 20
2.669632440529357
 30
0.0
 75
     0
  0
LAYOUT
  5
59
102
{ACAD_REACTORS
330
1A
102
}
330
1A
100
AcDbPlotSettings
  1

  2
none_device
  4
Letter_(8.50_x_11.00_Inches)
  6

 40
6.349999904632567
 41
6.349999904632567
 42
6.350006103515625
 43
6.350006103515625
 44
215.8999938964841
 45
279.3999938964843
 46
38.3032
 47
38.15079999999999
 48
0.0
 49
0.0
140
0.0
141
0.0
142
1.0
143
1.0
 70
   688
 72
     0
 73
     1
 74
     5
  7

 75
    16
147
1.0
148
0.0
149
0.0
100
AcDbLayout
  1
Layout1
 70
     1
 71
     1
 10
-1.75200024029589
 20
-1.757999996245374
 11
9.247999519408216
 21
6.741999763458729
 12
0.0
 22
0.0
 32
0.0
 14
-1.439262267973588
 24
-1.41285528304607
 34
0.0
 15
8.966538218833356
 25
6.396855050259421
 35
0.0
146
0.0
 13
0.0
 23
0.0
 33
0.0
 16
1.0
 26
0.0
 36
0.0
 17
0.0
 27
1.0
 37
0.0
 76
     0
330
58
331
77
  0
LAYOUT
  5
5E
102
{ACAD_REACTORS
330
1A
102
}
330
1A
100
AcDbPlotSettings
  1

  2
None
  4

  6

 40
0.0
 41
0.0
 42
0.0
 43
0.0
 44
0.0
 45
0.0
 46
0.0
 47
0.0
 48
0.0
 49
0.0
140
0.0
141
0.0
142
1.0
143
1.0
 70
   688
 72
     0
 73
     0
 74
     5
  7

 75
    16
147
1.0
148
0.0
149
0.0
100
AcDbLayout
  1
Layout2
 70
     1
 71
     2
 10
0.0
 20
0.0
 11
12.0
 21
9.0
 12
0.0
 22
0.0
 32
0.0
 14
0.0
 24
0.0
 34
0.0
 15
0.0
 25
0.0
 35
0.0
146
0.0
 13
0.0
 23
0.0
 33
0.0
 16
1.0
 26
0.0
 36
0.0
 17
0.0
 27
1.0
 37
0.0
 76
     0
330
5D
  0
LAYOUT
  5
22
102
{ACAD_REACTORS
330
1A
102
}
330
1A
100
AcDbPlotSettings
  1

  2
none_device
  4
ANSI_A_(8.50_x_11.00_Inches)
  6

 40
6.349999904632567
 41
19.04999923706053
 42
6.350006103515625
 43
19.04998779296875
 44
215.8999938964841
 45
279.3999938964843
 46
0.0
 47
0.0
 48
0.0
 49
0.0
140
0.0
141
0.0
142
1.0
143
2.584895464708373
 70
 11952
 72
     0
 73
     1
 74
     0
  7

 75
     0
147
0.3868628397755418
148
0.0
149
0.0
100
AcDbLayout
  1
Model
 70
     1
 71
     0
 10
0.0
 20
0.0
 11
12.0
 21
9.0
 12
0.0
 22
0.0
 32
0.0
 14
0.0
 24
0.0
 34
0.0
 15
0.0
 25
0.0
 35
0.0
146
0.0
 13
0.0
 23
0.0
 33
0.0
 16
1.0
 26
0.0
 36
0.0
 17
0.0
 27
1.0
 37
0.0
 76
     0
330
1F
  0
MLINESTYLE
  5
18
102
{ACAD_REACTORS
330
17
102
}
330
17
100
AcDbMlineStyle
  2
STANDARD
 70
     0
  3

 62
   256
 51
90.0
 52
90.0
 71
     2
 49
0.5
 62
   256
  6
BYLAYER
 49
-0.5
 62
   256
  6
BYLAYER
  0
ACDBPLACEHOLDER
  5
F
102
{ACAD_REACTORS
330
E
102
}
330
E
  0
DICTIONARYVAR
  5
67
102
{ACAD_REACTORS
330
66
102
}
330
66
100
DictionaryVariables
280
     0
  1
2
  0
DICTIONARYVAR
  5
6B
102
{ACAD_REACTORS
330
66
102
}
330
66
100
DictionaryVariables
280
     0
  1
1
  0
ENDSEC
  0
EOF
