  0
SECTION
  2
HEADER
  9
$ACADVER
  1
AC1015
  9
$ACADMAINTVER
 70
    13
  9
$DWGCODEPAGE
  3
ANSI_1252
  9
$INSBASE
 10
0.0
 20
0.0
 30
0.0
  9
$EXTMIN
 10
1.000000000000000E+20
 20
1.000000000000000E+20
 30
1.000000000000000E+20
  9
$EXTMAX
 10
-1.000000000000000E+20
 20
-1.000000000000000E+20
 30
-1.000000000000000E+20
  9
$LIMMIN
 10
0.0
 20
0.0
  9
$LIMMAX
 10
12.0
 20
9.0
  9
$ORTHOMODE
 70
     0
  9
$REGENMODE
 70
     1
  9
$FILLMODE
 70
     1
  9
$QTEXTMODE
 70
     0
  9
$MIRRTEXT
 70
     1
  9
$LTSCALE
 40
0.3
  9
$ATTMODE
 70
     1
  9
$TEXTSIZE
 40
0.2
  9
$TRACEWID
 40
0.05
  9
$TEXTSTYLE
  7
Standard
  9
$CLAYER
  8
0
  9
$CELTYPE
  6
ByLayer
  9
$CECOLOR
 62
   256
  9
$CELTSCALE
 40
0.3
  9
$DISPSILH
 70
     0
  9
$DIMSCALE
 40
1.0
  9
$DIMASZ
 40
0.125
  9
$DIMEXO
 40
0.0625
  9
$DIMDLI
 40
0.38
  9
$DIMRND
 40
0.0
  9
$DIMDLE
 40
0.0
  9
$DIMEXE
 40
0.18
  9
$DIMTP
 40
0.0
  9
$DIMTM
 40
0.0
  9
$DIMTXT
 40
0.125
  9
$DIMCEN
 40
0.09
  9
$DIMTSZ
 40
0.0
  9
$DIMTOL
 70
     0
  9
$DIMLIM
 70
     0
  9
$DIMTIH
 70
     1
  9
$DIMTOH
 70
     1
  9
$DIMSE1
 70
     0
  9
$DIMSE2
 70
     0
  9
$DIMTAD
 70
     0
  9
$DIMZIN
 70
     0
  9
$DIMBLK
  1

  9
$DIMASO
 70
     1
  9
$DIMSHO
 70
     1
  9
$DIMPOST
  1

  9
$DIMAPOST
  1

  9
$DIMALT
 70
     0
  9
$DIMALTD
 70
     2
  9
$DIMALTF
 40
25.4
  9
$DIMLFAC
 40
1.0
  9
$DIMTOFL
 70
     0
  9
$DIMTVP
 40
0.0
  9
$DIMTIX
 70
     0
  9
$DIMSOXD
 70
     0
  9
$DIMSAH
 70
     0
  9
$DIMBLK1
  1

  9
$DIMBLK2
  1

  9
$DIMSTYLE
  2
Standard
  9
$DIMCLRD
 70
     0
  9
$DIMCLRE
 70
     0
  9
$DIMCLRT
 70
     0
  9
$DIMTFAC
 40
1.0
  9
$DIMGAP
 40
0.09
  9
$DIMJUST
 70
     0
  9
$DIMSD1
 70
     0
  9
$DIMSD2
 70
     0
  9
$DIMTOLJ
 70
     1
  9
$DIMTZIN
 70
     0
  9
$DIMALTZ
 70
     0
  9
$DIMALTTZ
 70
     0
  9
$DIMUPT
 70
     0
  9
$DIMDEC
 70
     3
  9
$DIMTDEC
 70
     3
  9
$DIMALTU
 70
     2
  9
$DIMALTTD
 70
     2
  9
$DIMTXSTY
  7
Standard
  9
$DIMAUNIT
 70
     0
  9
$DIMADEC
 70
     0
  9
$DIMALTRND
 40
0.0
  9
$DIMAZIN
 70
     0
  9
$DIMDSEP
 70
    46
  9
$DIMATFIT
 70
     3
  9
$DIMFRAC
 70
     0
  9
$DIMLDRBLK
  1

  9
$DIMLUNIT
 70
     2
  9
$DIMLWD
 70
    -2
  9
$DIMLWE
 70
    -2
  9
$DIMTMOVE
 70
     0
  9
$LUNITS
 70
     2
  9
$LUPREC
 70
     4
  9
$SKETCHINC
 40
0.1
  9
$FILLETRAD
 40
0.5
  9
$AUNITS
 70
     0
  9
$AUPREC
 70
     0
  9
$MENU
  1
.
  9
$ELEVATION
 40
0.0
  9
$PELEVATION
 40
0.0
  9
$THICKNESS
 40
0.0
  9
$LIMCHECK
 70
     0
  9
$CHAMFERA
 40
0.5
  9
$CHAMFERB
 40
0.5
  9
$CHAMFERC
 40
1.0
  9
$CHAMFERD
 40
0.0
  9
$SKPOLY
 70
     0
  9
$TDCREATE
 40
2454293.759598379
  9
$TDUCREATE
 40
2454293.926265046
  9
$TDUPDATE
 40
2455642.684104988
  9
$TDUUPDATE
 40
2455642.850771655
  9
$TDINDWG
 40
0.0400397685
  9
$TDUSRTIMER
 40
0.0400397685
  9
$USRTIMER
 70
     1
  9
$ANGBASE
 50
0.0
  9
$ANGDIR
 70
     0
  9
$PDMODE
 70
     0
  9
$PDSIZE
 40
0.0
  9
$PLINEWID
 40
0.0
  9
$SPLFRAME
 70
     0
  9
$SPLINETYPE
 70
     6
  9
$SPLINESEGS
 70
     8
  9
$HANDSEED
  5
36C
  9
$SURFTAB1
 70
     6
  9
$SURFTAB2
 70
     6
  9
$SURFTYPE
 70
     6
  9
$SURFU
 70
     6
  9
$SURFV
 70
     6
  9
$UCSBASE
  2

  9
$UCSNAME
  2

  9
$UCSORG
 10
0.0
 20
0.0
 30
0.0
  9
$UCSXDIR
 10
1.0
 20
0.0
 30
0.0
  9
$UCSYDIR
 10
0.0
 20
1.0
 30
0.0
  9
$UCSORTHOREF
  2

  9
$UCSORTHOVIEW
 70
     0
  9
$UCSORGTOP
 10
0.0
 20
0.0
 30
0.0
  9
$UCSORGBOTTOM
 10
0.0
 20
0.0
 30
0.0
  9
$UCSORGLEFT
 10
0.0
 20
0.0
 30
0.0
  9
$UCSORGRIGHT
 10
0.0
 20
0.0
 30
0.0
  9
$UCSORGFRONT
 10
0.0
 20
0.0
 30
0.0
  9
$UCSORGBACK
 10
0.0
 20
0.0
 30
0.0
  9
$PUCSBASE
  2

  9
$PUCSNAME
  2

  9
$PUCSORG
 10
0.0
 20
0.0
 30
0.0
  9
$PUCSXDIR
 10
1.0
 20
0.0
 30
0.0
  9
$PUCSYDIR
 10
0.0
 20
1.0
 30
0.0
  9
$PUCSORTHOREF
  2

  9
$PUCSORTHOVIEW
 70
     0
  9
$PUCSORGTOP
 10
0.0
 20
0.0
 30
0.0
  9
$PUCSORGBOTTOM
 10
0.0
 20
0.0
 30
0.0
  9
$PUCSORGLEFT
 10
0.0
 20
0.0
 30
0.0
  9
$PUCSORGRIGHT
 10
0.0
 20
0.0
 30
0.0
  9
$PUCSORGFRONT
 10
0.0
 20
0.0
 30
0.0
  9
$PUCSORGBACK
 10
0.0
 20
0.0
 30
0.0
  9
$USERI1
 70
     0
  9
$USERI2
 70
     0
  9
$USERI3
 70
     0
  9
$USERI4
 70
     0
  9
$USERI5
 70
     0
  9
$USERR1
 40
0.0
  9
$USERR2
 40
0.0
  9
$USERR3
 40
0.0
  9
$USERR4
 40
0.0
  9
$USERR5
 40
0.0
  9
$WORLDVIEW
 70
     1
  9
$SHADEDGE
 70
     3
  9
$SHADEDIF
 70
    70
  9
$TILEMODE
 70
     0
  9
$MAXACTVP
 70
    64
  9
$PINSBASE
 10
0.0
 20
0.0
 30
0.0
  9
$PLIMCHECK
 70
     0
  9
$PEXTMIN
 10
0.2965759179903777
 20
0.5900508454536873
 30
0.0
  9
$PEXTMAX
 10
20.29657591799038
 20
16.09005084545368
 30
0.0
  9
$PLIMMIN
 10
-0.7499995194082186
 20
-0.2499999962453767
  9
$PLIMMAX
 10
21.25
 20
16.74999952316284
  9
$UNITMODE
 70
     0
  9
$VISRETAIN
 70
     1
  9
$PLINEGEN
 70
     0
  9
$PSLTSCALE
 70
     0
  9
$TREEDEPTH
 70
  3020
  9
$CMLSTYLE
  2
Standard
  9
$CMLJUST
 70
     0
  9
$CMLSCALE
 40
1.0
  9
$PROXYGRAPHICS
 70
     1
  9
$MEASUREMENT
 70
     0
  9
$CELWEIGHT
370
    -1
  9
$ENDCAPS
280
     0
  9
$JOINSTYLE
280
     0
  9
$LWDISPLAY
290
     0
  9
$INSUNITS
 70
     1
  9
$HYPERLINKBASE
  1

  9
$STYLESHEET
  1

  9
$XEDIT
290
     1
  9
$CEPSNTYPE
380
     0
  9
$PSTYLEMODE
290
     1
  9
$FINGERPRINTGUID
  2
{FDEAD576-A652-11D2-9A35-0060089B3A3F}
  9
$VERSIONGUID
  2
{DDDF9F7E-9176-4D8A-9688-B8E34C1D9575}
  9
$EXTNAMES
290
     1
  9
$PSVPSCALE
 40
0.0
  9
$OLESTARTUP
290
     0
  0
ENDSEC
  0
SECTION
  2
CLASSES
  0
CLASS
  1
ACDBDICTIONARYWDFLT
  2
AcDbDictionaryWithDefault
  3
AutoCAD 2000
 90
        0
280
     0
281
     0
  0
CLASS
  1
ACDBPLACEHOLDER
  2
AcDbPlaceHolder
  3
AutoCAD 2000
 90
        0
280
     0
281
     0
  0
CLASS
  1
LAYOUT
  2
AcDbLayout
  3
AutoCAD 2000
 90
        0
280
     0
281
     0
  0
CLASS
  1
DICTIONARYVAR
  2
AcDbDictionaryVar
  3
AutoCAD 2000
 90
        0
280
     0
281
     0
  0
CLASS
  1
DIMASSOC
  2
AcDbDimAssoc
  3
"AcDbDimAssoc|Product Desc:     AcDim ARX App For Dimension|Company:          Autodesk, Inc.|WEB Address:      www.autodesk.com"
 90
        0
280
     0
281
     0
  0
ENDSEC
  0
SECTION
  2
TABLES
  0
TABLE
  2
VPORT
  5
8
330
0
100
AcDbSymbolTable
 70
     1
  0
VPORT
  5
74
330
8
100
AcDbSymbolTableRecord
100
AcDbViewportTableRecord
  2
*Active
 70
     0
 10
0.0
 20
0.0
 11
1.0
 21
1.0
 12
17.1725029554147
 22
9.784138269231398
 13
0.0
 23
0.0
 14
0.5
 24
0.5
 15
0.5
 25
0.5
 16
0.0
 26
0.0
 36
1.0
 17
0.0
 27
0.0
 37
0.0
 40
19.56827653846279
 41
1.75513698630137
 42
50.0
 43
0.0
 44
0.0
 50
0.0
 51
0.0
 71
     0
 72
   100
 73
     1
 74
     3
 75
     0
 76
     0
 77
     0
 78
     0
281
     0
 65
     1
110
0.0
120
0.0
130
0.0
111
1.0
121
0.0
131
0.0
112
0.0
122
1.0
132
0.0
 79
     0
146
0.0
  0
ENDTAB
  0
TABLE
  2
LTYPE
  5
5
330
0
100
AcDbSymbolTable
 70
     3
  0
LTYPE
  5
14
330
5
100
AcDbSymbolTableRecord
100
AcDbLinetypeTableRecord
  2
ByBlock
 70
     0
  3

 72
    65
 73
     0
 40
0.0
  0
LTYPE
  5
15
330
5
100
AcDbSymbolTableRecord
100
AcDbLinetypeTableRecord
  2
ByLayer
 70
     0
  3

 72
    65
 73
     0
 40
0.0
  0
LTYPE
  5
16
330
5
100
AcDbSymbolTableRecord
100
AcDbLinetypeTableRecord
  2
Continuous
 70
     0
  3
Solid line
 72
    65
 73
     0
 40
0.0
  0
LTYPE
  5
7C
330
5
100
AcDbSymbolTableRecord
100
AcDbLinetypeTableRecord
  2
HIDDENX2
 70
     0
  3
Hidden (2x) ____ ____ ____ ____ ____ ____ ____
 72
    65
 73
     2
 40
0.75
 49
0.5
 74
     0
 49
-0.25
 74
     0
  0
LTYPE
  5
7D
330
5
100
AcDbSymbolTableRecord
100
AcDbLinetypeTableRecord
  2
threads
 70
     0
  3
Zig zag /\/\/\/\/\/\/\/\/\/\/\/\/\/\/\/\/\/\/\/
 72
    65
 73
     4
 40
0.8001000000000001
 49
0.0001
 74
     0
 49
-0.2
 74
     4
 75
   131
340
7B
 46
0.2
 50
0.0
 44
-0.2
 45
0.0
 49
-0.4
 74
     4
 75
   131
340
7B
 46
0.2
 50
180.0
 44
0.2
 45
0.0
 49
-0.2
 74
     0
  0
ENDTAB
  0
TABLE
  2
LAYER
  5
2
330
0
100
AcDbSymbolTable
 70
     2
  0
LAYER
  5
10
330
2
100
AcDbSymbolTableRecord
100
AcDbLayerTableRecord
  2
0
 70
     0
 62
     7
  6
Continuous
370
    -3
390
F
  0
LAYER
  5
83
330
2
100
AcDbSymbolTableRecord
100
AcDbLayerTableRecord
  2
Defpoints
 70
     0
 62
     7
  6
Continuous
290
     0
370
    -3
390
F
  0
ENDTAB
  0
TABLE
  2
STYLE
  5
3
330
0
100
AcDbSymbolTable
 70
     2
  0
STYLE
  5
11
330
3
100
AcDbSymbolTableRecord
100
AcDbTextStyleTableRecord
  2
Standard
 70
     0
 40
0.0
 41
1.0
 50
0.0
 71
     0
 42
0.2
  3
txt
  4

  0
STYLE
  5
7B
330
3
100
AcDbSymbolTableRecord
100
AcDbTextStyleTableRecord
  2

 70
     1
 40
0.0
 41
1.0
 50
0.0
 71
     0
 42
0.2
  3
ltypeshp.shx
  4

  0
ENDTAB
  0
TABLE
  2
VIEW
  5
6
330
0
100
AcDbSymbolTable
 70
     0
  0
ENDTAB
  0
TABLE
  2
UCS
  5
7
330
0
100
AcDbSymbolTable
 70
     0
  0
ENDTAB
  0
TABLE
  2
APPID
  5
9
330
0
100
AcDbSymbolTable
 70
     1
  0
APPID
  5
12
330
9
100
AcDbSymbolTableRecord
100
AcDbRegAppTableRecord
  2
ACAD
 70
     0
  0
ENDTAB
  0
TABLE
  2
DIMSTYLE
  5
A
330
0
100
AcDbSymbolTable
 70
     1
100
AcDbDimStyleTable
 71
     1
340
27
  0
DIMSTYLE
105
27
102
{ACAD_REACTORS
330
155
330
16F
330
19F
330
1D9
330
1F3
330
20D
330
227
330
241
330
25B
330
275
330
28F
330
2A9
330
2C3
330
2DD
330
2F5
330
30B
330
31F
330
34E
102
}
330
A
100
AcDbSymbolTableRecord
100
AcDbDimStyleTableRecord
  2
Standard
 70
     0
 41
0.125
140
0.125
271
     3
272
     3
340
11
  0
ENDTAB
  0
TABLE
  2
BLOCK_RECORD
  5
1
330
0
100
AcDbSymbolTable
 70
    20
  0
BLOCK_RECORD
  5
1F
330
1
100
AcDbSymbolTableRecord
100
AcDbBlockTableRecord
  2
*Model_Space
340
22
  0
BLOCK_RECORD
  5
58
330
1
100
AcDbSymbolTableRecord
100
AcDbBlockTableRecord
  2
*Paper_Space
340
59
  0
BLOCK_RECORD
  5
5D
330
1
100
AcDbSymbolTableRecord
100
AcDbBlockTableRecord
  2
*Paper_Space0
340
5E
  0
BLOCK_RECORD
  5
156
330
1
100
AcDbSymbolTableRecord
100
AcDbBlockTableRecord
  2
*D2
340
0
  0
BLOCK_RECORD
  5
170
330
1
100
AcDbSymbolTableRecord
100
AcDbBlockTableRecord
  2
*D3
340
0
  0
BLOCK_RECORD
  5
1A0
330
1
100
AcDbSymbolTableRecord
100
AcDbBlockTableRecord
  2
*D4
340
0
  0
BLOCK_RECORD
  5
1DA
330
1
100
AcDbSymbolTableRecord
100
AcDbBlockTableRecord
  2
*D5
340
0
  0
BLOCK_RECORD
  5
1F4
330
1
100
AcDbSymbolTableRecord
100
AcDbBlockTableRecord
  2
*D6
340
0
  0
BLOCK_RECORD
  5
20E
330
1
100
AcDbSymbolTableRecord
100
AcDbBlockTableRecord
  2
*D7
340
0
  0
BLOCK_RECORD
  5
228
330
1
100
AcDbSymbolTableRecord
100
AcDbBlockTableRecord
  2
*D8
340
0
  0
BLOCK_RECORD
  5
242
330
1
100
AcDbSymbolTableRecord
100
AcDbBlockTableRecord
  2
*D9
340
0
  0
BLOCK_RECORD
  5
25C
330
1
100
AcDbSymbolTableRecord
100
AcDbBlockTableRecord
  2
*D10
340
0
  0
BLOCK_RECORD
  5
276
330
1
100
AcDbSymbolTableRecord
100
AcDbBlockTableRecord
  2
*D11
340
0
  0
BLOCK_RECORD
  5
290
330
1
100
AcDbSymbolTableRecord
100
AcDbBlockTableRecord
  2
*D12
340
0
  0
BLOCK_RECORD
  5
2AA
330
1
100
AcDbSymbolTableRecord
100
AcDbBlockTableRecord
  2
*D13
340
0
  0
BLOCK_RECORD
  5
2C4
330
1
100
AcDbSymbolTableRecord
100
AcDbBlockTableRecord
  2
*D14
340
0
  0
BLOCK_RECORD
  5
2DE
330
1
100
AcDbSymbolTableRecord
100
AcDbBlockTableRecord
  2
*D15
340
0
  0
BLOCK_RECORD
  5
2F6
330
1
100
AcDbSymbolTableRecord
100
AcDbBlockTableRecord
  2
*D16
340
0
  0
BLOCK_RECORD
  5
30C
330
1
100
AcDbSymbolTableRecord
100
AcDbBlockTableRecord
  2
*D17
340
0
  0
BLOCK_RECORD
  5
320
330
1
100
AcDbSymbolTableRecord
100
AcDbBlockTableRecord
  2
*D18
340
0
  0
BLOCK_RECORD
  5
34F
330
1
100
AcDbSymbolTableRecord
100
AcDbBlockTableRecord
  2
*D19
340
0
  0
ENDTAB
  0
ENDSEC
  0
SECTION
  2
BLOCKS
  0
BLOCK
  5
20
330
1F
100
AcDbEntity
  8
0
100
AcDbBlockBegin
  2
*Model_Space
 70
     0
 10
0.0
 20
0.0
 30
0.0
  3
*Model_Space
  1

  0
ENDBLK
  5
21
330
1F
100
AcDbEntity
  8
0
100
AcDbBlockEnd
  0
BLOCK
  5
5A
330
58
100
AcDbEntity
 67
     1
  8
0
100
AcDbBlockBegin
  2
*Paper_Space
 70
     0
 10
0.0
 20
0.0
 30
0.0
  3
*Paper_Space
  1

  0
ENDBLK
  5
5B
330
58
100
AcDbEntity
 67
     1
  8
0
100
AcDbBlockEnd
  0
BLOCK
  5
5F
330
5D
100
AcDbEntity
  8
0
100
AcDbBlockBegin
  2
*Paper_Space0
 70
     0
 10
0.0
 20
0.0
 30
0.0
  3
*Paper_Space0
  1

  0
ENDBLK
  5
60
330
5D
100
AcDbEntity
  8
0
100
AcDbBlockEnd
  0
BLOCK
  5
161
330
156
100
AcDbEntity
  8
0
 48
0.3
100
AcDbBlockBegin
  2
*D2
 70
     1
 10
0.0
 20
0.0
 30
0.0
  3
*D2
  1

  0
LINE
  5
164
330
156
100
AcDbEntity
  8
0
 62
     0
 48
0.3
370
    -2
100
AcDbLine
 10
12.79388796432799
 20
13.71431366533101
 30
0.0
 11
15.2984786453405
 21
13.71431366533101
 31
0.0
  0
LINE
  5
165
330
156
100
AcDbEntity
  8
0
 62
     0
 48
0.3
370
    -2
100
AcDbLine
 10
12.79388796432799
 20
8.989313665331019
 30
0.0
 11
15.2984786453405
 21
8.989313665331019
 31
0.0
  0
LINE
  5
166
330
156
100
AcDbEntity
  8
0
 62
     0
 48
0.3
370
    -2
100
AcDbLine
 10
15.1184786453405
 20
13.58931366533101
 30
0.0
 11
15.1184786453405
 21
11.50431366533101
 31
0.0
  0
LINE
  5
167
330
156
100
AcDbEntity
  8
0
 62
     0
 48
0.3
370
    -2
100
AcDbLine
 10
15.1184786453405
 20
9.114313665331019
 30
0.0
 11
15.1184786453405
 21
11.19931366533101
 31
0.0
  0
SOLID
  5
168
330
156
100
AcDbEntity
  8
0
 62
     0
 48
0.3
100
AcDbTrace
 10
15.09764531200717
 20
13.58931366533101
 30
0.0
 11
15.13931197867383
 21
13.58931366533101
 31
0.0
 12
15.1184786453405
 22
13.71431366533101
 32
0.0
 13
15.1184786453405
 23
13.71431366533101
 33
0.0
  0
SOLID
  5
169
330
156
100
AcDbEntity
  8
0
 62
     0
 48
0.3
100
AcDbTrace
 10
15.09764531200716
 20
9.114313665331019
 30
0.0
 11
15.13931197867383
 21
9.114313665331019
 31
0.0
 12
15.1184786453405
 22
8.989313665331019
 32
0.0
 13
15.1184786453405
 23
8.989313665331019
 33
0.0
  0
MTEXT
  5
16A
330
156
100
AcDbEntity
  8
0
 62
     0
 48
0.3
100
AcDbMText
 10
15.1184786453405
 20
11.35181366533102
 30
0.0
 40
0.125
 41
0.0
 71
     5
 72
     1
  1
\A1;4.725
 73
     1
 44
1.0
  0
POINT
  5
16B
330
156
100
AcDbEntity
  8
Defpoints
 62
     0
 48
0.3
100
AcDbPoint
 10
12.73138796432799
 20
13.71431366533101
 30
0.0
  0
POINT
  5
16C
330
156
100
AcDbEntity
  8
Defpoints
 62
     0
 48
0.3
100
AcDbPoint
 10
12.73138796432799
 20
8.989313665331019
 30
0.0
  0
POINT
  5
16D
330
156
100
AcDbEntity
  8
Defpoints
 62
     0
 48
0.3
100
AcDbPoint
 10
15.1184786453405
 20
8.989313665331019
 30
0.0
  0
ENDBLK
  5
162
330
156
100
AcDbEntity
  8
0
 48
0.3
100
AcDbBlockEnd
  0
BLOCK
  5
17C
330
170
100
AcDbEntity
  8
0
 48
0.3
100
AcDbBlockBegin
  2
*D3
 70
     1
 10
0.0
 20
0.0
 30
0.0
  3
*D3
  1

  0
LINE
  5
195
330
170
100
AcDbEntity
  8
0
 62
     0
 48
0.3
370
    -2
100
AcDbLine
 10
12.79388796432799
 20
13.71431366533101
 30
0.0
 11
13.96764156334032
 21
13.71431366533101
 31
0.0
  0
LINE
  5
196
330
170
100
AcDbEntity
  8
0
 62
     0
 48
0.3
370
    -2
100
AcDbLine
 10
12.60588796432799
 20
13.21431366533102
 30
0.0
 11
13.96764156334032
 21
13.21431366533102
 31
0.0
  0
LINE
  5
197
330
170
100
AcDbEntity
  8
0
 62
     0
 48
0.3
370
    -2
100
AcDbLine
 10
13.78764156334032
 20
13.83931366533102
 30
0.0
 11
13.78764156334032
 21
13.96431366533102
 31
0.0
  0
LINE
  5
198
330
170
100
AcDbEntity
  8
0
 62
     0
 48
0.3
370
    -2
100
AcDbLine
 10
13.78764156334032
 20
13.08931366533101
 30
0.0
 11
13.78764156334032
 21
12.96431366533101
 31
0.0
  0
SOLID
  5
199
330
170
100
AcDbEntity
  8
0
 62
     0
 48
0.3
100
AcDbTrace
 10
13.76680823000699
 20
13.83931366533102
 30
0.0
 11
13.80847489667366
 21
13.83931366533102
 31
0.0
 12
13.78764156334032
 22
13.71431366533101
 32
0.0
 13
13.78764156334032
 23
13.71431366533101
 33
0.0
  0
SOLID
  5
19A
330
170
100
AcDbEntity
  8
0
 62
     0
 48
0.3
100
AcDbTrace
 10
13.76680823000699
 20
13.08931366533101
 30
0.0
 11
13.80847489667366
 21
13.08931366533101
 31
0.0
 12
13.78764156334032
 22
13.21431366533102
 32
0.0
 13
13.78764156334032
 23
13.21431366533102
 33
0.0
  0
MTEXT
  5
19B
330
170
100
AcDbEntity
  8
0
 62
     0
 48
0.3
100
AcDbMText
 10
13.78764156334032
 20
13.40181366533101
 30
0.0
 40
0.125
 41
0.0
 71
     5
 72
     1
  1
\A1;0.500
 73
     1
 44
1.0
  0
POINT
  5
19C
330
170
100
AcDbEntity
  8
Defpoints
 62
     0
 48
0.3
100
AcDbPoint
 10
12.73138796432799
 20
13.71431366533101
 30
0.0
  0
POINT
  5
19D
330
170
100
AcDbEntity
  8
Defpoints
 62
     0
 48
0.3
100
AcDbPoint
 10
12.54338796432799
 20
13.21431366533102
 30
0.0
  0
POINT
  5
19E
330
170
100
AcDbEntity
  8
Defpoints
 62
     0
 48
0.3
100
AcDbPoint
 10
13.78764156334032
 20
13.21431366533102
 30
0.0
  0
ENDBLK
  5
17D
330
170
100
AcDbEntity
  8
0
 48
0.3
100
AcDbBlockEnd
  0
BLOCK
  5
1AC
330
1A0
100
AcDbEntity
  8
0
 48
0.3
100
AcDbBlockBegin
  2
*D4
 70
     1
 10
0.0
 20
0.0
 30
0.0
  3
*D4
  1

  0
LINE
  5
1CF
330
1A0
100
AcDbEntity
  8
0
 62
     0
 48
0.3
370
    -2
100
AcDbLine
 10
12.60588796432799
 20
9.489313665331019
 30
0.0
 11
13.92538335113215
 21
9.489313665331019
 31
0.0
  0
LINE
  5
1D0
330
1A0
100
AcDbEntity
  8
0
 62
     0
 48
0.3
370
    -2
100
AcDbLine
 10
12.79388796432799
 20
8.989313665331019
 30
0.0
 11
13.92538335113215
 21
8.989313665331019
 31
0.0
  0
LINE
  5
1D1
330
1A0
100
AcDbEntity
  8
0
 62
     0
 48
0.3
370
    -2
100
AcDbLine
 10
13.74538335113215
 20
9.614313665331019
 30
0.0
 11
13.74538335113215
 21
9.739313665331019
 31
0.0
  0
LINE
  5
1D2
330
1A0
100
AcDbEntity
  8
0
 62
     0
 48
0.3
370
    -2
100
AcDbLine
 10
13.74538335113215
 20
8.864313665331019
 30
0.0
 11
13.74538335113215
 21
8.739313665331019
 31
0.0
  0
SOLID
  5
1D3
330
1A0
100
AcDbEntity
  8
0
 62
     0
 48
0.3
100
AcDbTrace
 10
13.72455001779882
 20
9.614313665331019
 30
0.0
 11
13.76621668446549
 21
9.614313665331019
 31
0.0
 12
13.74538335113215
 22
9.489313665331019
 32
0.0
 13
13.74538335113215
 23
9.489313665331019
 33
0.0
  0
SOLID
  5
1D4
330
1A0
100
AcDbEntity
  8
0
 62
     0
 48
0.3
100
AcDbTrace
 10
13.72455001779882
 20
8.864313665331019
 30
0.0
 11
13.76621668446549
 21
8.864313665331019
 31
0.0
 12
13.74538335113215
 22
8.989313665331019
 32
0.0
 13
13.74538335113215
 23
8.989313665331019
 33
0.0
  0
MTEXT
  5
1D5
330
1A0
100
AcDbEntity
  8
0
 62
     0
 48
0.3
100
AcDbMText
 10
13.74538335113215
 20
9.239313665331019
 30
0.0
 40
0.125
 41
0.0
 71
     5
 72
     1
  1
\A1;0.500
 73
     1
 44
1.0
  0
POINT
  5
1D6
330
1A0
100
AcDbEntity
  8
Defpoints
 62
     0
 48
0.3
100
AcDbPoint
 10
12.54338796432799
 20
9.489313665331019
 30
0.0
  0
POINT
  5
1D7
330
1A0
100
AcDbEntity
  8
Defpoints
 62
     0
 48
0.3
100
AcDbPoint
 10
12.73138796432799
 20
8.989313665331019
 30
0.0
  0
POINT
  5
1D8
330
1A0
100
AcDbEntity
  8
Defpoints
 62
     0
 48
0.3
100
AcDbPoint
 10
13.74538335113215
 20
8.989313665331019
 30
0.0
  0
ENDBLK
  5
1AD
330
1A0
100
AcDbEntity
  8
0
 48
0.3
100
AcDbBlockEnd
  0
BLOCK
  5
1E5
330
1DA
100
AcDbEntity
  8
0
 48
0.3
100
AcDbBlockBegin
  2
*D5
 70
     1
 10
0.0
 20
0.0
 30
0.0
  3
*D5
  1

  0
LINE
  5
1E8
330
1DA
100
AcDbEntity
  8
0
 62
     0
 48
0.3
370
    -2
100
AcDbLine
 10
6.977387964327993
 20
11.41431366533102
 30
0.0
 11
6.977387964327993
 21
15.04636150180786
 31
0.0
  0
LINE
  5
1E9
330
1DA
100
AcDbEntity
  8
0
 62
     0
 48
0.3
370
    -2
100
AcDbLine
 10
12.73138796432799
 20
13.77681366533102
 30
0.0
 11
12.73138796432799
 21
15.04636150180786
 31
0.0
  0
LINE
  5
1EA
330
1DA
100
AcDbEntity
  8
0
 62
     0
 48
0.3
370
    -2
100
AcDbLine
 10
7.102387964327993
 20
14.86636150180786
 30
0.0
 11
9.514387964327994
 21
14.86636150180786
 31
0.0
  0
LINE
  5
1EB
330
1DA
100
AcDbEntity
  8
0
 62
     0
 48
0.3
370
    -2
100
AcDbLine
 10
12.60638796432799
 20
14.86636150180786
 30
0.0
 11
10.19438796432799
 21
14.86636150180786
 31
0.0
  0
SOLID
  5
1EC
330
1DA
100
AcDbEntity
  8
0
 62
     0
 48
0.3
100
AcDbTrace
 10
7.102387964327993
 20
14.88719483514119
 30
0.0
 11
7.102387964327993
 21
14.84552816847453
 31
0.0
 12
6.977387964327993
 22
14.86636150180786
 32
0.0
 13
6.977387964327993
 23
14.86636150180786
 33
0.0
  0
SOLID
  5
1ED
330
1DA
100
AcDbEntity
  8
0
 62
     0
 48
0.3
100
AcDbTrace
 10
12.60638796432799
 20
14.88719483514119
 30
0.0
 11
12.60638796432799
 21
14.84552816847453
 31
0.0
 12
12.73138796432799
 22
14.86636150180786
 32
0.0
 13
12.73138796432799
 23
14.86636150180786
 33
0.0
  0
MTEXT
  5
1EE
330
1DA
100
AcDbEntity
  8
0
 62
     0
 48
0.3
100
AcDbMText
 10
9.854387964327994
 20
14.86636150180786
 30
0.0
 40
0.125
 41
0.0
 71
     5
 72
     1
  1
\A1;5.754
 73
     1
 44
1.0
  0
POINT
  5
1EF
330
1DA
100
AcDbEntity
  8
Defpoints
 62
     0
 48
0.3
100
AcDbPoint
 10
6.977387964327993
 20
11.35181366533102
 30
0.0
  0
POINT
  5
1F0
330
1DA
100
AcDbEntity
  8
Defpoints
 62
     0
 48
0.3
100
AcDbPoint
 10
12.73138796432799
 20
13.71431366533101
 30
0.0
  0
POINT
  5
1F1
330
1DA
100
AcDbEntity
  8
Defpoints
 62
     0
 48
0.3
100
AcDbPoint
 10
12.73138796432799
 20
14.86636150180786
 30
0.0
  0
ENDBLK
  5
1E6
330
1DA
100
AcDbEntity
  8
0
 48
0.3
100
AcDbBlockEnd
  0
BLOCK
  5
1FF
330
1F4
100
AcDbEntity
  8
0
 48
0.3
100
AcDbBlockBegin
  2
*D6
 70
     1
 10
0.0
 20
0.0
 30
0.0
  3
*D6
  1

  0
LINE
  5
202
330
1F4
100
AcDbEntity
  8
0
 62
     0
 48
0.3
370
    -2
100
AcDbLine
 10
4.856387964327988
 20
3.535411020147415
 30
0.0
 11
4.856387964327988
 21
2.270802934406624
 31
0.0
  0
LINE
  5
203
330
1F4
100
AcDbEntity
  8
0
 62
     0
 48
0.3
370
    -2
100
AcDbLine
 10
12.73138796432799
 20
3.535411020147414
 30
0.0
 11
12.73138796432799
 21
2.270802934406624
 31
0.0
  0
LINE
  5
204
330
1F4
100
AcDbEntity
  8
0
 62
     0
 48
0.3
370
    -2
100
AcDbLine
 10
4.981387964327988
 20
2.450802934406624
 30
0.0
 11
8.453887964327989
 21
2.450802934406624
 31
0.0
  0
LINE
  5
205
330
1F4
100
AcDbEntity
  8
0
 62
     0
 48
0.3
370
    -2
100
AcDbLine
 10
12.60638796432798
 20
2.450802934406624
 30
0.0
 11
9.133887964327989
 21
2.450802934406624
 31
0.0
  0
SOLID
  5
206
330
1F4
100
AcDbEntity
  8
0
 62
     0
 48
0.3
100
AcDbTrace
 10
4.981387964327988
 20
2.471636267739957
 30
0.0
 11
4.981387964327988
 21
2.42996960107329
 31
0.0
 12
4.856387964327988
 22
2.450802934406624
 32
0.0
 13
4.856387964327988
 23
2.450802934406624
 33
0.0
  0
SOLID
  5
207
330
1F4
100
AcDbEntity
  8
0
 62
     0
 48
0.3
100
AcDbTrace
 10
12.60638796432798
 20
2.471636267739957
 30
0.0
 11
12.60638796432798
 21
2.42996960107329
 31
0.0
 12
12.73138796432799
 22
2.450802934406624
 32
0.0
 13
12.73138796432799
 23
2.450802934406624
 33
0.0
  0
MTEXT
  5
208
330
1F4
100
AcDbEntity
  8
0
 62
     0
 48
0.3
100
AcDbMText
 10
8.793887964327989
 20
2.450802934406624
 30
0.0
 40
0.125
 41
0.0
 71
     5
 72
     1
  1
\A1;7.875
 73
     1
 44
1.0
  0
POINT
  5
209
330
1F4
100
AcDbEntity
  8
Defpoints
 62
     0
 48
0.3
100
AcDbPoint
 10
4.856387964327988
 20
3.597911020147415
 30
0.0
  0
POINT
  5
20A
330
1F4
100
AcDbEntity
  8
Defpoints
 62
     0
 48
0.3
100
AcDbPoint
 10
12.73138796432799
 20
3.597911020147414
 30
0.0
  0
POINT
  5
20B
330
1F4
100
AcDbEntity
  8
Defpoints
 62
     0
 48
0.3
100
AcDbPoint
 10
12.73138796432799
 20
2.450802934406624
 30
0.0
  0
ENDBLK
  5
200
330
1F4
100
AcDbEntity
  8
0
 48
0.3
100
AcDbBlockEnd
  0
BLOCK
  5
219
330
20E
100
AcDbEntity
  8
0
 48
0.3
100
AcDbBlockBegin
  2
*D7
 70
     1
 10
0.0
 20
0.0
 30
0.0
  3
*D7
  1

  0
LINE
  5
21C
330
20E
100
AcDbEntity
  8
0
 62
     0
 48
0.3
370
    -2
100
AcDbLine
 10
12.79388796432799
 20
6.097911020147414
 30
0.0
 11
15.38284871621036
 21
6.097911020147413
 31
0.0
  0
LINE
  5
21D
330
20E
100
AcDbEntity
  8
0
 62
     0
 48
0.3
370
    -2
100
AcDbLine
 10
12.79388796432799
 20
3.597911020147415
 30
0.0
 11
15.38284871621036
 21
3.597911020147414
 31
0.0
  0
LINE
  5
21E
330
20E
100
AcDbEntity
  8
0
 62
     0
 48
0.3
370
    -2
100
AcDbLine
 10
15.20284871621036
 20
5.972911020147413
 30
0.0
 11
15.20284871621036
 21
5.000411020147414
 31
0.0
  0
LINE
  5
21F
330
20E
100
AcDbEntity
  8
0
 62
     0
 48
0.3
370
    -2
100
AcDbLine
 10
15.20284871621036
 20
3.722911020147414
 30
0.0
 11
15.20284871621036
 21
4.695411020147414
 31
0.0
  0
SOLID
  5
220
330
20E
100
AcDbEntity
  8
0
 62
     0
 48
0.3
100
AcDbTrace
 10
15.18201538287703
 20
5.972911020147413
 30
0.0
 11
15.2236820495437
 21
5.972911020147413
 31
0.0
 12
15.20284871621036
 22
6.097911020147413
 32
0.0
 13
15.20284871621036
 23
6.097911020147413
 33
0.0
  0
SOLID
  5
221
330
20E
100
AcDbEntity
  8
0
 62
     0
 48
0.3
100
AcDbTrace
 10
15.18201538287703
 20
3.722911020147414
 30
0.0
 11
15.2236820495437
 21
3.722911020147414
 31
0.0
 12
15.20284871621036
 22
3.597911020147414
 32
0.0
 13
15.20284871621036
 23
3.597911020147414
 33
0.0
  0
MTEXT
  5
222
330
20E
100
AcDbEntity
  8
0
 62
     0
 48
0.3
100
AcDbMText
 10
15.20284871621036
 20
4.847911020147416
 30
0.0
 40
0.125
 41
0.0
 71
     5
 72
     1
  1
\A1;2.500
 73
     1
 44
1.0
  0
POINT
  5
223
330
20E
100
AcDbEntity
  8
Defpoints
 62
     0
 48
0.3
100
AcDbPoint
 10
12.73138796432799
 20
6.097911020147414
 30
0.0
  0
POINT
  5
224
330
20E
100
AcDbEntity
  8
Defpoints
 62
     0
 48
0.3
100
AcDbPoint
 10
12.73138796432799
 20
3.597911020147415
 30
0.0
  0
POINT
  5
225
330
20E
100
AcDbEntity
  8
Defpoints
 62
     0
 48
0.3
100
AcDbPoint
 10
15.20284871621036
 20
3.597911020147414
 30
0.0
  0
ENDBLK
  5
21A
330
20E
100
AcDbEntity
  8
0
 48
0.3
100
AcDbBlockEnd
  0
BLOCK
  5
233
330
228
100
AcDbEntity
  8
0
 48
0.3
100
AcDbBlockBegin
  2
*D8
 70
     1
 10
0.0
 20
0.0
 30
0.0
  3
*D8
  1

  0
LINE
  5
236
330
228
100
AcDbEntity
  8
0
 62
     0
 48
0.3
370
    -2
100
AcDbLine
 10
9.450137964327993
 20
6.097911020147414
 30
0.0
 11
13.65026305290843
 21
6.097911020147413
 31
0.0
  0
LINE
  5
237
330
228
100
AcDbEntity
  8
0
 62
     0
 48
0.3
370
    -2
100
AcDbLine
 10
9.450137964327993
 20
5.722911020147414
 30
0.0
 11
13.65026305290843
 21
5.722911020147413
 31
0.0
  0
LINE
  5
238
330
228
100
AcDbEntity
  8
0
 62
     0
 48
0.3
370
    -2
100
AcDbLine
 10
13.47026305290843
 20
6.222911020147413
 30
0.0
 11
13.47026305290843
 21
6.347911020147413
 31
0.0
  0
LINE
  5
239
330
228
100
AcDbEntity
  8
0
 62
     0
 48
0.3
370
    -2
100
AcDbLine
 10
13.47026305290843
 20
5.597911020147413
 30
0.0
 11
13.47026305290843
 21
5.472911020147413
 31
0.0
  0
SOLID
  5
23A
330
228
100
AcDbEntity
  8
0
 62
     0
 48
0.3
100
AcDbTrace
 10
13.4494297195751
 20
6.222911020147413
 30
0.0
 11
13.49109638624176
 21
6.222911020147413
 31
0.0
 12
13.47026305290843
 22
6.097911020147413
 32
0.0
 13
13.47026305290843
 23
6.097911020147413
 33
0.0
  0
SOLID
  5
23B
330
228
100
AcDbEntity
  8
0
 62
     0
 48
0.3
100
AcDbTrace
 10
13.4494297195751
 20
5.597911020147413
 30
0.0
 11
13.49109638624176
 21
5.597911020147413
 31
0.0
 12
13.47026305290843
 22
5.722911020147413
 32
0.0
 13
13.47026305290843
 23
5.722911020147413
 33
0.0
  0
MTEXT
  5
23C
330
228
100
AcDbEntity
  8
0
 62
     0
 48
0.3
100
AcDbMText
 10
13.47026305290843
 20
5.910411020147415
 30
0.0
 40
0.125
 41
0.0
 71
     5
 72
     1
  1
\A1;0.375
 73
     1
 44
1.0
  0
POINT
  5
23D
330
228
100
AcDbEntity
  8
Defpoints
 62
     0
 48
0.3
100
AcDbPoint
 10
9.387637964327993
 20
6.097911020147414
 30
0.0
  0
POINT
  5
23E
330
228
100
AcDbEntity
  8
Defpoints
 62
     0
 48
0.3
100
AcDbPoint
 10
9.387637964327993
 20
5.722911020147414
 30
0.0
  0
POINT
  5
23F
330
228
100
AcDbEntity
  8
Defpoints
 62
     0
 48
0.3
100
AcDbPoint
 10
13.47026305290843
 20
5.722911020147413
 30
0.0
  0
ENDBLK
  5
234
330
228
100
AcDbEntity
  8
0
 48
0.3
100
AcDbBlockEnd
  0
BLOCK
  5
24D
330
242
100
AcDbEntity
  8
0
 48
0.3
100
AcDbBlockBegin
  2
*D9
 70
     1
 10
0.0
 20
0.0
 30
0.0
  3
*D9
  1

  0
LINE
  5
250
330
242
100
AcDbEntity
  8
0
 62
     0
 48
0.3
370
    -2
100
AcDbLine
 10
6.914887964327992
 20
5.782911020147414
 30
0.0
 11
3.866687331544916
 21
5.782911020147415
 31
0.0
  0
LINE
  5
251
330
242
100
AcDbEntity
  8
0
 62
     0
 48
0.3
370
    -2
100
AcDbLine
 10
4.793887964327989
 20
6.097911020147415
 30
0.0
 11
3.866687331544916
 21
6.097911020147415
 31
0.0
  0
LINE
  5
252
330
242
100
AcDbEntity
  8
0
 62
     0
 48
0.3
370
    -2
100
AcDbLine
 10
4.046687331544916
 20
5.657911020147415
 30
0.0
 11
4.046687331544916
 21
5.532911020147415
 31
0.0
  0
LINE
  5
253
330
242
100
AcDbEntity
  8
0
 62
     0
 48
0.3
370
    -2
100
AcDbLine
 10
4.046687331544917
 20
6.222911020147415
 30
0.0
 11
4.046687331544917
 21
6.347911020147415
 31
0.0
  0
SOLID
  5
254
330
242
100
AcDbEntity
  8
0
 62
     0
 48
0.3
100
AcDbTrace
 10
4.025853998211583
 20
5.657911020147415
 30
0.0
 11
4.067520664878249
 21
5.657911020147415
 31
0.0
 12
4.046687331544916
 22
5.782911020147415
 32
0.0
 13
4.046687331544916
 23
5.782911020147415
 33
0.0
  0
SOLID
  5
255
330
242
100
AcDbEntity
  8
0
 62
     0
 48
0.3
100
AcDbTrace
 10
4.025853998211584
 20
6.222911020147415
 30
0.0
 11
4.06752066487825
 21
6.222911020147415
 31
0.0
 12
4.046687331544917
 22
6.097911020147415
 32
0.0
 13
4.046687331544917
 23
6.097911020147415
 33
0.0
  0
MTEXT
  5
256
330
242
100
AcDbEntity
  8
0
 62
     0
 48
0.3
100
AcDbMText
 10
4.046687331544915
 20
5.940411020147416
 30
0.0
 40
0.125
 41
0.0
 71
     5
 72
     1
  1
\A1;0.315
 73
     1
 44
1.0
  0
POINT
  5
257
330
242
100
AcDbEntity
  8
Defpoints
 62
     0
 48
0.3
100
AcDbPoint
 10
6.977387964327992
 20
5.782911020147414
 30
0.0
  0
POINT
  5
258
330
242
100
AcDbEntity
  8
Defpoints
 62
     0
 48
0.3
100
AcDbPoint
 10
4.856387964327989
 20
6.097911020147415
 30
0.0
  0
POINT
  5
259
330
242
100
AcDbEntity
  8
Defpoints
 62
     0
 48
0.3
100
AcDbPoint
 10
4.046687331544917
 20
6.097911020147415
 30
0.0
  0
ENDBLK
  5
24E
330
242
100
AcDbEntity
  8
0
 48
0.3
100
AcDbBlockEnd
  0
BLOCK
  5
267
330
25C
100
AcDbEntity
  8
0
 48
0.3
100
AcDbBlockBegin
  2
*D10
 70
     1
 10
0.0
 20
0.0
 30
0.0
  3
*D10
  1

  0
LINE
  5
26A
330
25C
100
AcDbEntity
  8
0
 62
     0
 48
0.3
370
    -2
100
AcDbLine
 10
5.932387964327992
 20
5.347911020147415
 30
0.0
 11
2.704587170021717
 21
5.347911020147415
 31
0.0
  0
LINE
  5
26B
330
25C
100
AcDbEntity
  8
0
 62
     0
 48
0.3
370
    -2
100
AcDbLine
 10
5.932387964327992
 20
6.097911020147415
 30
0.0
 11
2.704587170021717
 21
6.097911020147415
 31
0.0
  0
LINE
  5
26C
330
25C
100
AcDbEntity
  8
0
 62
     0
 48
0.3
370
    -2
100
AcDbLine
 10
2.884587170021717
 20
5.472911020147415
 30
0.0
 11
2.884587170021717
 21
5.570411020147415
 31
0.0
  0
LINE
  5
26D
330
25C
100
AcDbEntity
  8
0
 62
     0
 48
0.3
370
    -2
100
AcDbLine
 10
2.884587170021717
 20
5.972911020147415
 30
0.0
 11
2.884587170021717
 21
5.875411020147415
 31
0.0
  0
SOLID
  5
26E
330
25C
100
AcDbEntity
  8
0
 62
     0
 48
0.3
100
AcDbTrace
 10
2.863753836688383
 20
5.472911020147415
 30
0.0
 11
2.90542050335505
 21
5.472911020147415
 31
0.0
 12
2.884587170021717
 22
5.347911020147415
 32
0.0
 13
2.884587170021717
 23
5.347911020147415
 33
0.0
  0
SOLID
  5
26F
330
25C
100
AcDbEntity
  8
0
 62
     0
 48
0.3
100
AcDbTrace
 10
2.863753836688383
 20
5.972911020147415
 30
0.0
 11
2.90542050335505
 21
5.972911020147415
 31
0.0
 12
2.884587170021717
 22
6.097911020147415
 32
0.0
 13
2.884587170021717
 23
6.097911020147415
 33
0.0
  0
MTEXT
  5
270
330
25C
100
AcDbEntity
  8
0
 62
     0
 48
0.3
100
AcDbMText
 10
2.884587170021716
 20
5.722911020147416
 30
0.0
 40
0.125
 41
0.0
 71
     5
 72
     1
  1
\A1;0.750
 73
     1
 44
1.0
  0
POINT
  5
271
330
25C
100
AcDbEntity
  8
Defpoints
 62
     0
 48
0.3
100
AcDbPoint
 10
5.994887964327992
 20
5.347911020147415
 30
0.0
  0
POINT
  5
272
330
25C
100
AcDbEntity
  8
Defpoints
 62
     0
 48
0.3
100
AcDbPoint
 10
5.994887964327992
 20
6.097911020147415
 30
0.0
  0
POINT
  5
273
330
25C
100
AcDbEntity
  8
Defpoints
 62
     0
 48
0.3
100
AcDbPoint
 10
2.884587170021717
 20
6.097911020147415
 30
0.0
  0
ENDBLK
  5
268
330
25C
100
AcDbEntity
  8
0
 48
0.3
100
AcDbBlockEnd
  0
BLOCK
  5
281
330
276
100
AcDbEntity
  8
0
 48
0.3
100
AcDbBlockBegin
  2
*D11
 70
     1
 10
0.0
 20
0.0
 30
0.0
  3
*D11
  1

  0
LINE
  5
284
330
276
100
AcDbEntity
  8
0
 62
     0
 48
0.3
370
    -2
100
AcDbLine
 10
12.54338796432799
 20
9.426813665331019
 30
0.0
 11
12.54338796432799
 21
8.290872550489638
 31
0.0
  0
LINE
  5
285
330
276
100
AcDbEntity
  8
0
 62
     0
 48
0.3
370
    -2
100
AcDbLine
 10
12.73138796432799
 20
8.926813665331019
 30
0.0
 11
12.73138796432799
 21
8.290872550489638
 31
0.0
  0
LINE
  5
286
330
276
100
AcDbEntity
  8
0
 62
     0
 48
0.3
370
    -2
100
AcDbLine
 10
12.41838796432799
 20
8.470872550489637
 30
0.0
 11
12.29338796432799
 21
8.470872550489637
 31
0.0
  0
LINE
  5
287
330
276
100
AcDbEntity
  8
0
 62
     0
 48
0.3
370
    -2
100
AcDbLine
 10
12.85638796432799
 20
8.470872550489637
 30
0.0
 11
12.98138796432799
 21
8.470872550489637
 31
0.0
  0
SOLID
  5
288
330
276
100
AcDbEntity
  8
0
 62
     0
 48
0.3
100
AcDbTrace
 10
12.41838796432799
 20
8.491705883822971
 30
0.0
 11
12.41838796432799
 21
8.450039217156303
 31
0.0
 12
12.54338796432799
 22
8.470872550489637
 32
0.0
 13
12.54338796432799
 23
8.470872550489637
 33
0.0
  0
SOLID
  5
289
330
276
100
AcDbEntity
  8
0
 62
     0
 48
0.3
100
AcDbTrace
 10
12.85638796432799
 20
8.491705883822971
 30
0.0
 11
12.85638796432799
 21
8.450039217156303
 31
0.0
 12
12.73138796432799
 22
8.470872550489637
 32
0.0
 13
12.73138796432799
 23
8.470872550489637
 33
0.0
  0
MTEXT
  5
28A
330
276
100
AcDbEntity
  8
0
 62
     0
 48
0.3
100
AcDbMText
 10
13.29013796432799
 20
8.470872550489637
 30
0.0
 40
0.125
 41
0.0
 71
     5
 72
     1
  1
\A1;0.188
 73
     1
 44
1.0
  0
POINT
  5
28B
330
276
100
AcDbEntity
  8
Defpoints
 62
     0
 48
0.3
100
AcDbPoint
 10
12.54338796432799
 20
9.489313665331019
 30
0.0
  0
POINT
  5
28C
330
276
100
AcDbEntity
  8
Defpoints
 62
     0
 48
0.3
100
AcDbPoint
 10
12.73138796432799
 20
8.989313665331019
 30
0.0
  0
POINT
  5
28D
330
276
100
AcDbEntity
  8
Defpoints
 62
     0
 48
0.3
100
AcDbPoint
 10
12.73138796432799
 20
8.470872550489637
 30
0.0
  0
ENDBLK
  5
282
330
276
100
AcDbEntity
  8
0
 48
0.3
100
AcDbBlockEnd
  0
BLOCK
  5
29B
330
290
100
AcDbEntity
  8
0
 48
0.3
100
AcDbBlockBegin
  2
*D12
 70
     1
 10
0.0
 20
0.0
 30
0.0
  3
*D12
  1

  0
LINE
  5
29E
330
290
100
AcDbEntity
  8
0
 62
     0
 48
0.3
370
    -2
100
AcDbLine
 10
12.73138796432799
 20
8.926813665331019
 30
0.0
 11
12.73138796432799
 21
7.86877582730996
 31
0.0
  0
LINE
  5
29F
330
290
100
AcDbEntity
  8
0
 62
     0
 48
0.3
370
    -2
100
AcDbLine
 10
9.231387964327993
 20
9.426813665331021
 30
0.0
 11
9.231387964327993
 21
7.86877582730996
 31
0.0
  0
LINE
  5
2A0
330
290
100
AcDbEntity
  8
0
 62
     0
 48
0.3
370
    -2
100
AcDbLine
 10
12.60638796432799
 20
8.04877582730996
 30
0.0
 11
11.30055463099465
 21
8.04877582730996
 31
0.0
  0
LINE
  5
2A1
330
290
100
AcDbEntity
  8
0
 62
     0
 48
0.3
370
    -2
100
AcDbLine
 10
9.356387964327993
 20
8.04877582730996
 30
0.0
 11
10.66222129766132
 21
8.04877582730996
 31
0.0
  0
SOLID
  5
2A2
330
290
100
AcDbEntity
  8
0
 62
     0
 48
0.3
100
AcDbTrace
 10
12.60638796432799
 20
8.069609160643294
 30
0.0
 11
12.60638796432799
 21
8.027942493976626
 31
0.0
 12
12.73138796432799
 22
8.04877582730996
 32
0.0
 13
12.73138796432799
 23
8.04877582730996
 33
0.0
  0
SOLID
  5
2A3
330
290
100
AcDbEntity
  8
0
 62
     0
 48
0.3
100
AcDbTrace
 10
9.356387964327993
 20
8.069609160643294
 30
0.0
 11
9.356387964327993
 21
8.027942493976626
 31
0.0
 12
9.231387964327993
 22
8.04877582730996
 32
0.0
 13
9.231387964327993
 23
8.04877582730996
 33
0.0
  0
MTEXT
  5
2A4
330
290
100
AcDbEntity
  8
0
 62
     0
 48
0.3
100
AcDbMText
 10
10.98138796432799
 20
8.04877582730996
 30
0.0
 40
0.125
 41
0.0
 71
     5
 72
     1
  1
\A1;3.500
 73
     1
 44
1.0
  0
POINT
  5
2A5
330
290
100
AcDbEntity
  8
Defpoints
 62
     0
 48
0.3
100
AcDbPoint
 10
12.73138796432799
 20
8.989313665331019
 30
0.0
  0
POINT
  5
2A6
330
290
100
AcDbEntity
  8
Defpoints
 62
     0
 48
0.3
100
AcDbPoint
 10
9.231387964327993
 20
9.489313665331021
 30
0.0
  0
POINT
  5
2A7
330
290
100
AcDbEntity
  8
Defpoints
 62
     0
 48
0.3
100
AcDbPoint
 10
9.231387964327993
 20
8.04877582730996
 30
0.0
  0
ENDBLK
  5
29C
330
290
100
AcDbEntity
  8
0
 48
0.3
100
AcDbBlockEnd
  0
BLOCK
  5
2B5
330
2AA
100
AcDbEntity
  8
0
 48
0.3
100
AcDbBlockBegin
  2
*D13
 70
     1
 10
0.0
 20
0.0
 30
0.0
  3
*D13
  1

  0
LINE
  5
2B8
330
2AA
100
AcDbEntity
  8
0
 62
     0
 48
0.3
370
    -2
100
AcDbLine
 10
9.231387964327993
 20
9.426813665331021
 30
0.0
 11
9.231387964327993
 21
7.86877582730996
 31
0.0
  0
LINE
  5
2B9
330
2AA
100
AcDbEntity
  8
0
 62
     0
 48
0.3
370
    -2
100
AcDbLine
 10
5.606387964327992
 20
9.426813665331023
 30
0.0
 11
5.606387964327992
 21
7.86877582730996
 31
0.0
  0
LINE
  5
2BA
330
2AA
100
AcDbEntity
  8
0
 62
     0
 48
0.3
370
    -2
100
AcDbLine
 10
9.106387964327993
 20
8.04877582730996
 30
0.0
 11
7.758887964327993
 21
8.04877582730996
 31
0.0
  0
LINE
  5
2BB
330
2AA
100
AcDbEntity
  8
0
 62
     0
 48
0.3
370
    -2
100
AcDbLine
 10
5.731387964327992
 20
8.04877582730996
 30
0.0
 11
7.078887964327993
 21
8.04877582730996
 31
0.0
  0
SOLID
  5
2BC
330
2AA
100
AcDbEntity
  8
0
 62
     0
 48
0.3
100
AcDbTrace
 10
9.106387964327993
 20
8.069609160643294
 30
0.0
 11
9.106387964327993
 21
8.027942493976626
 31
0.0
 12
9.231387964327993
 22
8.04877582730996
 32
0.0
 13
9.231387964327993
 23
8.04877582730996
 33
0.0
  0
SOLID
  5
2BD
330
2AA
100
AcDbEntity
  8
0
 62
     0
 48
0.3
100
AcDbTrace
 10
5.731387964327992
 20
8.069609160643294
 30
0.0
 11
5.731387964327992
 21
8.027942493976626
 31
0.0
 12
5.606387964327992
 22
8.04877582730996
 32
0.0
 13
5.606387964327992
 23
8.04877582730996
 33
0.0
  0
MTEXT
  5
2BE
330
2AA
100
AcDbEntity
  8
0
 62
     0
 48
0.3
100
AcDbMText
 10
7.418887964327993
 20
8.04877582730996
 30
0.0
 40
0.125
 41
0.0
 71
     5
 72
     1
  1
\A1;3.625
 73
     1
 44
1.0
  0
POINT
  5
2BF
330
2AA
100
AcDbEntity
  8
Defpoints
 62
     0
 48
0.3
100
AcDbPoint
 10
9.231387964327993
 20
9.489313665331021
 30
0.0
  0
POINT
  5
2C0
330
2AA
100
AcDbEntity
  8
Defpoints
 62
     0
 48
0.3
100
AcDbPoint
 10
5.606387964327992
 20
9.489313665331023
 30
0.0
  0
POINT
  5
2C1
330
2AA
100
AcDbEntity
  8
Defpoints
 62
     0
 48
0.3
100
AcDbPoint
 10
5.606387964327992
 20
8.04877582730996
 30
0.0
  0
ENDBLK
  5
2B6
330
2AA
100
AcDbEntity
  8
0
 48
0.3
100
AcDbBlockEnd
  0
BLOCK
  5
2CF
330
2C4
100
AcDbEntity
  8
0
 48
0.3
100
AcDbBlockBegin
  2
*D14
 70
     1
 10
0.0
 20
0.0
 30
0.0
  3
*D14
  1

  0
LINE
  5
2D2
330
2C4
100
AcDbEntity
  8
0
 62
     0
 48
0.3
370
    -2
100
AcDbLine
 10
5.343888615505365
 20
13.71431366533102
 30
0.0
 11
3.444050651018593
 21
13.71431366533102
 31
0.0
  0
LINE
  5
2D3
330
2C4
100
AcDbEntity
  8
0
 62
     0
 48
0.3
370
    -2
100
AcDbLine
 10
6.914887964327993
 20
11.35181366533102
 30
0.0
 11
3.444050651018592
 21
11.35181366533102
 31
0.0
  0
LINE
  5
2D4
330
2C4
100
AcDbEntity
  8
0
 62
     0
 48
0.3
370
    -2
100
AcDbLine
 10
3.624050651018592
 20
13.58931366533102
 30
0.0
 11
3.624050651018592
 21
12.68556366533102
 31
0.0
  0
LINE
  5
2D5
330
2C4
100
AcDbEntity
  8
0
 62
     0
 48
0.3
370
    -2
100
AcDbLine
 10
3.624050651018592
 20
11.47681366533102
 30
0.0
 11
3.624050651018592
 21
12.38056366533102
 31
0.0
  0
SOLID
  5
2D6
330
2C4
100
AcDbEntity
  8
0
 62
     0
 48
0.3
100
AcDbTrace
 10
3.603217317685259
 20
13.58931366533102
 30
0.0
 11
3.644883984351926
 21
13.58931366533102
 31
0.0
 12
3.624050651018592
 22
13.71431366533102
 32
0.0
 13
3.624050651018592
 23
13.71431366533102
 33
0.0
  0
SOLID
  5
2D7
330
2C4
100
AcDbEntity
  8
0
 62
     0
 48
0.3
100
AcDbTrace
 10
3.603217317685258
 20
11.47681366533102
 30
0.0
 11
3.644883984351925
 21
11.47681366533102
 31
0.0
 12
3.624050651018592
 22
11.35181366533102
 32
0.0
 13
3.624050651018592
 23
11.35181366533102
 33
0.0
  0
MTEXT
  5
2D8
330
2C4
100
AcDbEntity
  8
0
 62
     0
 48
0.3
100
AcDbMText
 10
3.62405065101859
 20
12.53306366533102
 30
0.0
 40
0.125
 41
0.0
 71
     5
 72
     1
  1
\A1;2.363
 73
     1
 44
1.0
  0
POINT
  5
2D9
330
2C4
100
AcDbEntity
  8
Defpoints
 62
     0
 48
0.3
100
AcDbPoint
 10
5.406388615505365
 20
13.71431366533102
 30
0.0
  0
POINT
  5
2DA
330
2C4
100
AcDbEntity
  8
Defpoints
 62
     0
 48
0.3
100
AcDbPoint
 10
6.977387964327993
 20
11.35181366533102
 30
0.0
  0
POINT
  5
2DB
330
2C4
100
AcDbEntity
  8
Defpoints
 62
     0
 48
0.3
100
AcDbPoint
 10
3.624050651018592
 20
11.35181366533102
 30
0.0
  0
ENDBLK
  5
2D0
330
2C4
100
AcDbEntity
  8
0
 48
0.3
100
AcDbBlockEnd
  0
BLOCK
  5
2E7
330
2DE
100
AcDbEntity
  8
0
 48
0.3
100
AcDbBlockBegin
  2
*D15
 70
     1
 10
0.0
 20
0.0
 30
0.0
  3
*D15
  1

  0
LINE
  5
2EA
330
2DE
100
AcDbEntity
  8
0
 62
     0
 48
0.3
370
    -2
100
AcDbLine
 10
8.756645737849311
 20
10.64467076395022
 30
0.0
 11
8.631645737849307
 21
10.64467076395022
 31
0.0
  0
LINE
  5
2EB
330
2DE
100
AcDbEntity
  8
0
 62
     0
 48
0.3
370
    -2
100
AcDbLine
 10
8.631645737849307
 20
10.64467076395022
 30
0.0
 11
7.995747352331353
 21
10.91649722081573
 31
0.0
  0
MTEXT
  5
2EC
330
2DE
100
AcDbEntity
  8
0
 62
     0
 48
0.3
100
AcDbMText
 10
9.138312404515977
 20
10.64467076395022
 30
0.0
 40
0.125
 41
0.0
 71
     5
 72
     1
  1
\A1;\U+22051.965
 73
     1
 44
1.0
  0
SOLID
  5
2ED
330
2DE
100
AcDbEntity
  8
0
 62
     0
 48
0.3
100
AcDbTrace
 10
8.00393614925602
 20
10.9356537179565
 30
0.0
 11
7.987558555406685
 21
10.89734072367496
 31
0.0
 12
7.88080836948673
 22
10.96563000236373
 32
0.0
 13
7.88080836948673
 23
10.96563000236373
 33
0.0
  0
LINE
  5
2EE
330
2DE
100
AcDbEntity
  8
0
 62
     0
 48
0.3
370
    -2
100
AcDbLine
 10
6.887387964327995
 20
11.35181366533102
 30
0.0
 11
7.067387964327995
 21
11.35181366533102
 31
0.0
  0
LINE
  5
2EF
330
2DE
100
AcDbEntity
  8
0
 62
     0
 48
0.3
370
    -2
100
AcDbLine
 10
6.977387964327994
 20
11.26181366533102
 30
0.0
 11
6.977387964327995
 21
11.44181366533102
 31
0.0
  0
POINT
  5
2F0
330
2DE
100
AcDbEntity
  8
Defpoints
 62
     0
 48
0.3
100
AcDbPoint
 10
7.88080836948673
 20
10.96563000236373
 30
0.0
  0
POINT
  5
2F1
330
2DE
100
AcDbEntity
  8
Defpoints
 62
     0
 48
0.3
100
AcDbPoint
 10
6.073967559169259
 20
11.7379973282983
 30
0.0
  0
ENDBLK
  5
2E8
330
2DE
100
AcDbEntity
  8
0
 48
0.3
100
AcDbBlockEnd
  0
BLOCK
  5
2FF
330
2F6
100
AcDbEntity
  8
0
 48
0.3
100
AcDbBlockBegin
  2
*D16
 70
     1
 10
0.0
 20
0.0
 30
0.0
  3
*D16
  1

  0
LINE
  5
302
330
2F6
100
AcDbEntity
  8
0
 62
     0
 48
0.3
370
    -2
100
AcDbLine
 10
9.855285404287032
 20
10.09739167959736
 30
0.0
 11
9.730285404287032
 21
10.09739167959736
 31
0.0
  0
LINE
  5
303
330
2F6
100
AcDbEntity
  8
0
 62
     0
 48
0.3
370
    -2
100
AcDbLine
 10
9.730285404287032
 20
10.09739167959736
 30
0.0
 11
9.409781312208316
 21
9.706747278031658
 31
0.0
  0
MTEXT
  5
304
330
2F6
100
AcDbEntity
  8
0
 62
     0
 48
0.3
100
AcDbMText
 10
10.22653540428703
 20
10.09739167959736
 30
0.0
 40
0.125
 41
0.0
 71
     5
 72
     1
  1
\A1;\U+22050.313
 73
     1
 44
1.0
  0
SOLID
  5
305
330
2F6
100
AcDbEntity
  8
0
 62
     0
 48
0.3
100
AcDbTrace
 10
9.393675118674936
 20
9.719961600096866
 30
0.0
 11
9.425887505741696
 21
9.693532955966448
 31
0.0
 12
9.330495379817062
 22
9.610110116831375
 32
0.0
 13
9.330495379817062
 23
9.610110116831375
 33
0.0
  0
LINE
  5
306
330
2F6
100
AcDbEntity
  8
0
 62
     0
 48
0.3
370
    -2
100
AcDbLine
 10
9.141387964327991
 20
9.489313665331021
 30
0.0
 11
9.321387964327993
 21
9.489313665331023
 31
0.0
  0
LINE
  5
307
330
2F6
100
AcDbEntity
  8
0
 62
     0
 48
0.3
370
    -2
100
AcDbLine
 10
9.231387964327993
 20
9.399313665331023
 30
0.0
 11
9.231387964327991
 21
9.579313665331023
 31
0.0
  0
POINT
  5
308
330
2F6
100
AcDbEntity
  8
Defpoints
 62
     0
 48
0.3
100
AcDbPoint
 10
9.330495379817062
 20
9.610110116831375
 30
0.0
  0
POINT
  5
309
330
2F6
100
AcDbEntity
  8
Defpoints
 62
     0
 48
0.3
100
AcDbPoint
 10
9.132280548838924
 20
9.368517213830667
 30
0.0
  0
ENDBLK
  5
300
330
2F6
100
AcDbEntity
  8
0
 48
0.3
100
AcDbBlockEnd
  0
BLOCK
  5
314
330
30C
100
AcDbEntity
  8
0
 48
0.3
100
AcDbBlockBegin
  2
*D17
 70
     1
 10
0.0
 20
0.0
 30
0.0
  3
*D17
  1

  0
LINE
  5
317
330
30C
100
AcDbEntity
  8
0
 62
     0
 48
0.3
370
    -2
100
AcDbLine
 10
10.06946965379151
 20
9.698997430110392
 30
0.0
 11
9.45014506246939
 21
9.544045575701071
 31
0.0
  0
MTEXT
  5
318
330
30C
100
AcDbEntity
  8
0
 62
     0
 48
0.3
100
AcDbMText
 10
10.43030298712484
 20
9.698997430110392
 30
0.0
 40
0.125
 41
0.0
 71
     5
 72
     1
  1
\A1;\U+22050.201
 73
     1
 44
1.0
  0
SOLID
  5
319
330
30C
100
AcDbEntity
  8
0
 62
     0
 48
0.3
100
AcDbTrace
 10
9.445088529730103
 20
9.564255950621747
 30
0.0
 11
9.455201595208677
 21
9.523835200780395
 31
0.0
 12
9.328882812945334
 22
9.513706379265343
 32
0.0
 13
9.328882812945334
 23
9.513706379265343
 33
0.0
  0
LINE
  5
31A
330
30C
100
AcDbEntity
  8
0
 62
     0
 48
0.3
370
    -2
100
AcDbLine
 10
9.141387964327993
 20
9.489313665331019
 30
0.0
 11
9.321387964327993
 21
9.489313665331019
 31
0.0
  0
LINE
  5
31B
330
30C
100
AcDbEntity
  8
0
 62
     0
 48
0.3
370
    -2
100
AcDbLine
 10
9.231387964327991
 20
9.399313665331019
 30
0.0
 11
9.231387964327993
 21
9.579313665331019
 31
0.0
  0
POINT
  5
31C
330
30C
100
AcDbEntity
  8
Defpoints
 62
     0
 48
0.3
100
AcDbPoint
 10
9.328882812945334
 20
9.513706379265343
 30
0.0
  0
POINT
  5
31D
330
30C
100
AcDbEntity
  8
Defpoints
 62
     0
 48
0.3
100
AcDbPoint
 10
9.133893115710653
 20
9.464920951396695
 30
0.0
  0
ENDBLK
  5
315
330
30C
100
AcDbEntity
  8
0
 48
0.3
100
AcDbBlockEnd
  0
BLOCK
  5
329
330
320
100
AcDbEntity
  8
0
 48
0.3
100
AcDbBlockBegin
  2
*D18
 70
     1
 10
0.0
 20
0.0
 30
0.0
  3
*D18
  1

  0
LINE
  5
32C
330
320
100
AcDbEntity
  8
0
 62
     0
 48
0.3
370
    -2
100
AcDbLine
 10
3.726022804803268
 20
9.508162517417886
 30
0.0
 11
3.851022804803269
 21
9.508162517417888
 31
0.0
  0
LINE
  5
32D
330
320
100
AcDbEntity
  8
0
 62
     0
 48
0.3
370
    -2
100
AcDbLine
 10
3.851022804803269
 20
9.508162517417888
 30
0.0
 11
4.948194821334277
 21
9.826495253569117
 31
0.0
  0
MTEXT
  5
32E
330
320
100
AcDbEntity
  8
0
 62
     0
 48
0.3
100
AcDbMText
 10
3.323522804803269
 20
9.508162517417886
 30
0.0
 40
0.125
 41
0.0
 71
     5
 72
     1
  1
\A1;R5.349
 73
     1
 44
1.0
  0
SOLID
  5
32F
330
320
100
AcDbEntity
  8
0
 62
     0
 48
0.3
100
AcDbTrace
 10
4.942389657484861
 20
9.846503448151818
 30
0.0
 11
4.953999985183694
 21
9.806487058986416
 31
0.0
 12
5.06824398883048
 22
9.861326236665616
 32
0.0
 13
5.06824398883048
 23
9.861326236665616
 33
0.0
  0
LINE
  5
330
330
320
100
AcDbEntity
  8
0
 62
     0
 48
0.3
370
    -2
100
AcDbLine
 10
10.11538796432799
 20
11.35181366533101
 30
0.0
 11
10.29538796432799
 21
11.35181366533101
 31
0.0
  0
LINE
  5
331
330
320
100
AcDbEntity
  8
0
 62
     0
 48
0.3
370
    -2
100
AcDbLine
 10
10.205387964328
 20
11.26181366533101
 30
0.0
 11
10.20538796432799
 21
11.44181366533101
 31
0.0
  0
POINT
  5
332
330
320
100
AcDbEntity
  8
Defpoints
 62
     0
 48
0.3
100
AcDbPoint
 10
5.06824398883048
 20
9.861326236665616
 30
0.0
  0
POINT
  5
333
330
320
100
AcDbEntity
  8
Defpoints
 62
     0
 48
0.3
100
AcDbPoint
 10
10.205387964328
 20
11.35181366533101
 30
0.0
  0
ENDBLK
  5
32A
330
320
100
AcDbEntity
  8
0
 48
0.3
100
AcDbBlockEnd
  0
BLOCK
  5
358
330
34F
100
AcDbEntity
  8
0
 48
0.3
100
AcDbBlockBegin
  2
*D19
 70
     1
 10
0.0
 20
0.0
 30
0.0
  3
*D19
  1

  0
LINE
  5
35B
330
34F
100
AcDbEntity
  8
0
 62
     0
 48
0.3
370
    -2
100
AcDbLine
 10
6.283418678365664
 20
10.1745781907561
 30
0.0
 11
6.408418678365665
 21
10.1745781907561
 31
0.0
  0
LINE
  5
35C
330
34F
100
AcDbEntity
  8
0
 62
     0
 48
0.3
370
    -2
100
AcDbLine
 10
6.408418678365665
 20
10.1745781907561
 30
0.0
 11
6.81420619384993
 21
11.01417967743341
 31
0.0
  0
MTEXT
  5
35D
330
34F
100
AcDbEntity
  8
0
 62
     0
 48
0.3
100
AcDbMText
 10
5.912168678365663
 20
10.1745781907561
 30
0.0
 40
0.125
 41
0.0
 71
     5
 72
     1
  1
\A1;\U+22050.500
 73
     1
 44
1.0
  0
SOLID
  5
35E
330
34F
100
AcDbEntity
  8
0
 62
     0
 48
0.3
100
AcDbTrace
 10
6.795448750077841
 20
11.02324533134886
 30
0.0
 11
6.83296363762202
 21
11.00511402351796
 31
0.0
 12
6.868600117342619
 22
11.12672434006594
 32
0.0
 13
6.868600117342619
 23
11.12672434006594
 33
0.0
  0
LINE
  5
35F
330
34F
100
AcDbEntity
  8
0
 62
     0
 48
0.3
370
    -2
100
AcDbLine
 10
6.887387964327993
 20
11.35181366533102
 30
0.0
 11
7.067387964327992
 21
11.35181366533102
 31
0.0
  0
LINE
  5
360
330
34F
100
AcDbEntity
  8
0
 62
     0
 48
0.3
370
    -2
100
AcDbLine
 10
6.977387964327994
 20
11.26181366533102
 30
0.0
 11
6.977387964327993
 21
11.44181366533101
 31
0.0
  0
POINT
  5
361
330
34F
100
AcDbEntity
  8
Defpoints
 62
     0
 48
0.3
100
AcDbPoint
 10
6.868600117342619
 20
11.12672434006594
 30
0.0
  0
POINT
  5
362
330
34F
100
AcDbEntity
  8
Defpoints
 62
     0
 48
0.3
100
AcDbPoint
 10
7.086175811313371
 20
11.57690299059609
 30
0.0
  0
ENDBLK
  5
359
330
34F
100
AcDbEntity
  8
0
 48
0.3
100
AcDbBlockEnd
  0
ENDSEC
  0
SECTION
  2
ENTITIES
  0
VIEWPORT
  5
77
330
58
100
AcDbEntity
 67
     1
  8
0
100
AcDbViewport
 10
4.907105535989732
 20
8.210356249258623
 30
0.0
 40
40.9069818790205
 41
17.56698096276551
 68
     1
 69
     1
 12
4.907105535989732
 22
8.210356249258623
 13
0.0
 23
0.0
 14
0.5
 24
0.5
 15
0.5
 25
0.5
 16
0.0
 26
0.0
 36
1.0
 17
0.0
 27
0.0
 37
0.0
 42
50.0
 43
0.0
 44
0.0
 45
17.56698096276551
 50
0.0
 51
0.0
 72
   100
 90
    32800
  1

281
     0
 71
     1
 74
     0
110
0.0
120
0.0
130
0.0
111
1.0
121
0.0
131
0.0
112
0.0
122
1.0
132
0.0
 79
     0
146
0.0
  0
LINE
  5
AC
330
58
100
AcDbEntity
 67
     1
  8
0
 48
0.3
100
AcDbLine
 10
0.2965759179903813
 20
16.09005084545368
 30
0.0
 11
20.29657591799038
 21
16.09005084545368
 31
0.0
  0
LINE
  5
AD
330
58
100
AcDbEntity
 67
     1
  8
0
 48
0.3
100
AcDbLine
 10
20.29657591799038
 20
16.09005084545368
 30
0.0
 11
20.29657591799038
 21
0.5900508454536873
 31
0.0
  0
LINE
  5
AE
330
58
100
AcDbEntity
 67
     1
  8
0
 48
0.3
100
AcDbLine
 10
20.29657591799038
 20
0.5900508454536873
 30
0.0
 11
0.2965759179903777
 21
0.5900508454536898
 31
0.0
  0
LINE
  5
AF
330
58
100
AcDbEntity
 67
     1
  8
0
 48
0.3
100
AcDbLine
 10
0.2965759179903777
 20
0.5900508454536898
 30
0.0
 11
0.2965759179903813
 21
16.09005084545368
 31
0.0
  0
LINE
  5
B0
330
58
100
AcDbEntity
 67
     1
  8
0
 48
0.3
100
AcDbLine
 10
20.29657591799038
 20
0.5900508454536873
 30
0.0
 11
20.29657591799038
 21
1.590050845453687
 31
0.0
  0
LINE
  5
B1
330
58
100
AcDbEntity
 67
     1
  8
0
 48
0.3
100
AcDbLine
 10
20.29657591799038
 20
1.590050845453687
 30
0.0
 11
17.29657591799037
 21
1.590050845453687
 31
0.0
  0
LINE
  5
B2
330
58
100
AcDbEntity
 67
     1
  8
0
 48
0.3
100
AcDbLine
 10
17.29657591799037
 20
1.590050845453687
 30
0.0
 11
17.29657591799037
 21
0.5900508454536876
 31
0.0
  0
LINE
  5
B7
330
58
100
AcDbEntity
 67
     1
  8
0
 48
0.3
100
AcDbLine
 10
17.29657591799037
 20
1.590050845453687
 30
0.0
 11
15.29657591799037
 21
1.590050845453687
 31
0.0
  0
LINE
  5
B8
330
58
100
AcDbEntity
 67
     1
  8
0
 48
0.3
100
AcDbLine
 10
15.29657591799037
 20
1.590050845453687
 30
0.0
 11
15.29657591799037
 21
0.590050845453688
 31
0.0
  0
MTEXT
  5
BE
330
58
100
AcDbEntity
 67
     1
  8
0
100
AcDbMText
 10
15.62142945844486
 20
1.384490141010731
 30
0.0
 40
0.1
 41
1.5
 71
     1
 72
     5
  1
  Tolerances\P.XXXX = +/- .001\P.XXX  = +/- .005\P.XX   = +/- .015
 73
     1
 44
1.0
  0
LINE
  5
DF
330
58
100
AcDbEntity
 67
     1
  8
0
 48
0.3
100
AcDbLine
 10
12.73138796432799
 20
13.71431366533101
 30
0.0
 11
12.73138796432799
 21
8.989313665331019
 31
0.0
  0
CIRCLE
  5
E3
102
{ACAD_REACTORS
330
1F2
330
2DC
330
2F2
102
}
330
58
100
AcDbEntity
 67
     1
  8
0
 48
0.3
100
AcDbCircle
 10
6.977387964327993
 20
11.35181366533102
 30
0.0
 40
0.9825000000000001
  0
CIRCLE
  5
EC
330
58
100
AcDbEntity
 67
     1
  8
0
 48
0.3
100
AcDbCircle
 10
7.724387964327993
 20
12.64565561858497
 30
0.0
 40
0.234
  0
CIRCLE
  5
ED
330
58
100
AcDbEntity
 67
     1
  8
0
 48
0.3
100
AcDbCircle
 10
7.724387964327993
 20
10.05797171207706
 30
0.0
 40
0.234
  0
CIRCLE
  5
EE
330
58
100
AcDbEntity
 67
     1
  8
0
 48
0.3
100
AcDbCircle
 10
5.483387964327993
 20
11.35181366533102
 30
0.0
 40
0.234
  0
CIRCLE
  5
FC
330
58
100
AcDbEntity
 67
     1
  8
0
 48
0.3
100
AcDbCircle
 10
5.606387964327993
 20
13.21431366533102
 30
0.0
 40
0.1005
  0
CIRCLE
  5
FD
330
58
100
AcDbEntity
 67
     1
  8
0
 48
0.3
100
AcDbCircle
 10
9.231387964327993
 20
13.21431366533102
 30
0.0
 40
0.1005
  0
CIRCLE
  5
FE
330
58
100
AcDbEntity
 67
     1
  8
0
 48
0.3
100
AcDbCircle
 10
12.54338796432799
 20
13.21431366533102
 30
0.0
 40
0.1005
  0
CIRCLE
  5
FF
330
58
100
AcDbEntity
 67
     1
  8
0
 48
0.3
100
AcDbCircle
 10
12.54338796432799
 20
9.489313665331019
 30
0.0
 40
0.1005
  0
CIRCLE
  5
100
102
{ACAD_REACTORS
330
31E
102
}
330
58
100
AcDbEntity
 67
     1
  8
0
 48
0.3
100
AcDbCircle
 10
9.231387964327993
 20
9.489313665331021
 30
0.0
 40
0.1005
  0
CIRCLE
  5
101
330
58
100
AcDbEntity
 67
     1
  8
0
 48
0.3
100
AcDbCircle
 10
5.606387964327992
 20
9.489313665331023
 30
0.0
 40
0.1005
  0
CIRCLE
  5
102
330
58
100
AcDbEntity
 67
     1
  8
0
 48
0.3
100
AcDbCircle
 10
5.606387964327993
 20
13.21431366533102
 30
0.0
 40
0.15625
  0
CIRCLE
  5
103
330
58
100
AcDbEntity
 67
     1
  8
0
 48
0.3
100
AcDbCircle
 10
9.231387964327993
 20
13.21431366533102
 30
0.0
 40
0.15625
  0
CIRCLE
  5
104
102
{ACAD_REACTORS
330
18A
102
}
330
58
100
AcDbEntity
 67
     1
  8
0
 48
0.3
100
AcDbCircle
 10
12.54338796432799
 20
13.21431366533102
 30
0.0
 40
0.15625
  0
CIRCLE
  5
105
102
{ACAD_REACTORS
330
1BA
330
28E
102
}
330
58
100
AcDbEntity
 67
     1
  8
0
 48
0.3
100
AcDbCircle
 10
12.54338796432799
 20
9.489313665331019
 30
0.0
 40
0.15625
  0
CIRCLE
  5
106
102
{ACAD_REACTORS
330
2A8
330
2C2
330
30A
102
}
330
58
100
AcDbEntity
 67
     1
  8
0
 48
0.3
100
AcDbCircle
 10
9.231387964327993
 20
9.489313665331021
 30
0.0
 40
0.15625
  0
CIRCLE
  5
107
102
{ACAD_REACTORS
330
2C2
102
}
330
58
100
AcDbEntity
 67
     1
  8
0
 48
0.3
100
AcDbCircle
 10
5.606387964327992
 20
9.489313665331023
 30
0.0
 40
0.15625
  0
ARC
  5
10B
102
{ACAD_REACTORS
330
334
102
}
330
58
100
AcDbEntity
 67
     1
  8
0
 48
0.3
100
AcDbCircle
 10
10.20538796432799
 20
11.35181366533102
 30
0.0
 40
5.349
100
AcDbArc
 50
153.7894320584472
 51
206.2105679415527
  0
LINE
  5
110
102
{ACAD_REACTORS
330
16E
330
18A
330
1F2
330
2DC
102
}
330
58
100
AcDbEntity
 67
     1
  8
0
 48
0.3
100
AcDbLine
 10
5.406388615505365
 20
13.71431366533102
 30
0.0
 11
12.73138796432799
 21
13.71431366533101
 31
0.0
  0
LINE
  5
111
102
{ACAD_REACTORS
330
1BA
330
28E
330
2A8
102
}
330
58
100
AcDbEntity
 67
     1
  8
0
 48
0.3
100
AcDbLine
 10
5.406388615505366
 20
8.989313665331021
 30
0.0
 11
12.73138796432799
 21
8.989313665331019
 31
0.0
  0
LINE
  5
112
102
{ACAD_REACTORS
330
20C
102
}
330
58
100
AcDbEntity
 67
     1
  8
0
 48
0.3
100
AcDbLine
 10
12.73138796432799
 20
6.097911020147414
 30
0.0
 11
12.73138796432799
 21
3.597911020147414
 31
0.0
  0
LINE
  5
12D
102
{ACAD_REACTORS
330
226
330
25A
102
}
330
58
100
AcDbEntity
 67
     1
  8
0
 48
0.3
100
AcDbLine
 10
12.73138796432799
 20
6.097911020147414
 30
0.0
 11
4.856387964327989
 21
6.097911020147415
 31
0.0
  0
LINE
  5
12E
330
58
100
AcDbEntity
 67
     1
  8
0
 48
0.3
100
AcDbLine
 10
4.856387964327989
 20
6.097911020147415
 30
0.0
 11
4.856387964327988
 21
3.597911020147415
 31
0.0
  0
LINE
  5
12F
102
{ACAD_REACTORS
330
20C
330
226
102
}
330
58
100
AcDbEntity
 67
     1
  8
0
 48
0.3
100
AcDbLine
 10
4.856387964327988
 20
3.597911020147415
 30
0.0
 11
12.73138796432799
 21
3.597911020147415
 31
0.0
  0
LINE
  5
130
330
58
100
AcDbEntity
 67
     1
  8
0
 48
0.3
100
AcDbLine
 10
5.406388615505364
 20
6.097911020147415
 30
0.0
 11
5.406388615505364
 21
3.597911020147415
 31
0.0
  0
LINE
  5
132
330
58
100
AcDbEntity
 67
     1
  8
0
  6
HIDDENX2
 48
0.3
100
AcDbLine
 10
7.959887964327992
 20
6.097911020147415
 30
0.0
 11
7.959887964327992
 21
5.347911020147415
 31
0.0
  0
LINE
  5
133
102
{ACAD_REACTORS
330
274
102
}
330
58
100
AcDbEntity
 67
     1
  8
0
  6
HIDDENX2
 48
0.3
100
AcDbLine
 10
7.959887964327992
 20
5.347911020147415
 30
0.0
 11
5.994887964327992
 21
5.347911020147415
 31
0.0
  0
LINE
  5
134
102
{ACAD_REACTORS
330
274
102
}
330
58
100
AcDbEntity
 67
     1
  8
0
  6
HIDDENX2
 48
0.3
100
AcDbLine
 10
5.994887964327992
 20
5.347911020147415
 30
0.0
 11
5.994887964327992
 21
6.097911020147415
 31
0.0
  0
LINE
  5
136
330
58
100
AcDbEntity
 67
     1
  8
0
  6
HIDDENX2
 48
0.3
100
AcDbLine
 10
5.249387964327993
 20
6.097911020147415
 30
0.0
 11
5.249387964327993
 21
3.597911020147415
 31
0.0
  0
LINE
  5
138
330
58
100
AcDbEntity
 67
     1
  8
0
  6
HIDDENX2
 48
0.3
100
AcDbLine
 10
5.717387964327993
 20
6.097911020147415
 30
0.0
 11
5.717387964327992
 21
3.597911020147415
 31
0.0
  0
LINE
  5
13B
330
58
100
AcDbEntity
 67
     1
  8
0
  6
HIDDENX2
 48
0.3
100
AcDbLine
 10
7.490387964327992
 20
6.097911020147415
 30
0.0
 11
7.490387964327992
 21
3.597911020147415
 31
0.0
  0
LINE
  5
13C
330
58
100
AcDbEntity
 67
     1
  8
0
  6
HIDDENX2
 48
0.3
100
AcDbLine
 10
7.959887964327992
 20
5.347911020147415
 30
0.0
 11
7.959887964327992
 21
3.597911020147415
 31
0.0
  0
LINE
  5
13E
102
{ACAD_REACTORS
330
240
102
}
330
58
100
AcDbEntity
 67
     1
  8
0
  6
HIDDENX2
 48
0.3
100
AcDbLine
 10
9.387637964327993
 20
6.097911020147414
 30
0.0
 11
9.387637964327993
 21
5.722911020147414
 31
0.0
  0
LINE
  5
13F
102
{ACAD_REACTORS
330
240
102
}
330
58
100
AcDbEntity
 67
     1
  8
0
  6
HIDDENX2
 48
0.3
100
AcDbLine
 10
9.387637964327993
 20
5.722911020147414
 30
0.0
 11
9.075137964327993
 21
5.722911020147414
 31
0.0
  0
LINE
  5
140
330
58
100
AcDbEntity
 67
     1
  8
0
  6
HIDDENX2
 48
0.3
100
AcDbLine
 10
9.075137964327993
 20
5.722911020147414
 30
0.0
 11
9.075137964327993
 21
6.097911020147414
 31
0.0
  0
LINE
  5
142
330
58
100
AcDbEntity
 67
     1
  8
0
  6
HIDDENX2
 48
0.3
100
AcDbLine
 10
9.130887964327992
 20
5.722911020147414
 30
0.0
 11
9.130887964327992
 21
3.597911020147415
 31
0.0
  0
LINE
  5
144
330
58
100
AcDbEntity
 67
     1
  8
0
  6
HIDDENX2
 48
0.3
100
AcDbLine
 10
9.331887964327993
 20
5.722911020147414
 30
0.0
 11
9.331887964327993
 21
3.597911020147415
 31
0.0
  0
CIRCLE
  5
148
330
58
100
AcDbEntity
 67
     1
  8
0
 48
0.3
100
AcDbCircle
 10
6.977387964327992
 20
5.782911020147414
 30
0.0
 40
0.094
  0
CIRCLE
  5
149
102
{ACAD_REACTORS
330
25A
102
}
330
58
100
AcDbEntity
 67
     1
  8
0
 48
0.3
100
AcDbCircle
 10
6.977387964327992
 20
5.782911020147414
 30
0.0
 40
0.128
  0
LINE
  5
14E
330
58
100
AcDbEntity
 67
     1
  8
0
  6
HIDDENX2
 48
0.3
100
AcDbLine
 10
7.105387964327993
 20
13.71431366533102
 30
0.0
 11
7.105387964327993
 21
12.71431366533102
 31
0.0
  0
LINE
  5
14F
330
58
100
AcDbEntity
 67
     1
  8
0
  6
HIDDENX2
 48
0.3
100
AcDbLine
 10
7.105387964327993
 20
12.71431366533102
 30
0.0
 11
6.849387964327993
 21
12.71431366533102
 31
0.0
  0
LINE
  5
150
330
58
100
AcDbEntity
 67
     1
  8
0
  6
HIDDENX2
 48
0.3
100
AcDbLine
 10
6.849387964327993
 20
12.71431366533102
 30
0.0
 11
6.849387964327993
 21
13.71431366533102
 31
0.0
  0
LINE
  5
152
330
58
100
AcDbEntity
 67
     1
  8
0
  6
threads
 48
0.3
100
AcDbLine
 10
7.071387964327993
 20
12.71431366533102
 30
0.0
 11
7.071387964327993
 21
12.3298066356534
 31
0.0
  0
LINE
  5
154
330
58
100
AcDbEntity
 67
     1
  8
0
  6
threads
 48
0.3
100
AcDbLine
 10
6.883387964327993
 20
12.71431366533102
 30
0.0
 11
6.883387964327993
 21
12.3298066356534
 31
0.0
  0
DIMENSION
  5
155
102
{ACAD_XDICTIONARY
360
163
102
}
102
{ACAD_REACTORS
330
16E
102
}
330
58
100
AcDbEntity
 67
     1
  8
0
 48
0.3
100
AcDbDimension
  2
*D2
 10
15.1184786453405
 20
8.989313665331019
 30
0.0
 11
15.1184786453405
 21
11.35181366533102
 31
0.0
 70
    32
 71
     5
 42
4.724999999999999
  3
Standard
100
AcDbAlignedDimension
 13
12.73138796432799
 23
13.71431366533101
 33
0.0
 14
12.73138796432799
 24
8.989313665331019
 34
0.0
 50
90.0
100
AcDbRotatedDimension
  0
DIMENSION
  5
16F
102
{ACAD_XDICTIONARY
360
17E
102
}
102
{ACAD_REACTORS
330
18A
102
}
330
58
100
AcDbEntity
 67
     1
  8
0
 48
0.3
100
AcDbDimension
  2
*D3
 10
13.78764156334032
 20
13.21431366533102
 30
0.0
 11
13.78764156334032
 21
13.40181366533101
 31
0.0
 70
   160
 71
     5
 42
0.5
  3
Standard
100
AcDbAlignedDimension
 13
12.73138796432799
 23
13.71431366533101
 33
0.0
 14
12.54338796432799
 24
13.21431366533102
 34
0.0
 50
90.0
100
AcDbRotatedDimension
  0
DIMENSION
  5
19F
102
{ACAD_XDICTIONARY
360
1AE
102
}
102
{ACAD_REACTORS
330
1BA
102
}
330
58
100
AcDbEntity
 67
     1
  8
0
 48
0.3
100
AcDbDimension
  2
*D4
 10
13.74538335113215
 20
8.989313665331019
 30
0.0
 11
13.74538335113215
 21
9.239313665331019
 31
0.0
 70
   160
 71
     5
 42
0.5
  3
Standard
100
AcDbAlignedDimension
 13
12.54338796432799
 23
9.489313665331019
 33
0.0
 14
12.73138796432799
 24
8.989313665331019
 34
0.0
 50
90.0
100
AcDbRotatedDimension
  0
DIMENSION
  5
1D9
102
{ACAD_XDICTIONARY
360
1E7
102
}
102
{ACAD_REACTORS
330
1F2
102
}
330
58
100
AcDbEntity
 67
     1
  8
0
 48
0.3
100
AcDbDimension
  2
*D5
 10
12.73138796432799
 20
14.86636150180786
 30
0.0
 11
9.854387964327994
 21
14.86636150180786
 31
0.0
 70
    32
 71
     5
 42
5.753999999999999
  3
Standard
100
AcDbAlignedDimension
 13
6.977387964327993
 23
11.35181366533102
 33
0.0
 14
12.73138796432799
 24
13.71431366533101
 34
0.0
100
AcDbRotatedDimension
  0
DIMENSION
  5
1F3
102
{ACAD_XDICTIONARY
360
201
102
}
102
{ACAD_REACTORS
330
20C
102
}
330
58
100
AcDbEntity
 67
     1
  8
0
 48
0.3
100
AcDbDimension
  2
*D6
 10
12.73138796432799
 20
2.450802934406624
 30
0.0
 11
8.793887964327989
 21
2.450802934406624
 31
0.0
 70
    32
 71
     5
 42
7.875
  3
Standard
100
AcDbAlignedDimension
 13
4.856387964327988
 23
3.597911020147415
 33
0.0
 14
12.73138796432799
 24
3.597911020147414
 34
0.0
100
AcDbRotatedDimension
  0
DIMENSION
  5
20D
102
{ACAD_XDICTIONARY
360
21B
102
}
102
{ACAD_REACTORS
330
226
102
}
330
58
100
AcDbEntity
 67
     1
  8
0
 48
0.3
100
AcDbDimension
  2
*D7
 10
15.20284871621036
 20
3.597911020147414
 30
0.0
 11
15.20284871621036
 21
4.847911020147416
 31
0.0
 70
    32
 71
     5
 42
2.499999999999998
  3
Standard
100
AcDbAlignedDimension
 13
12.73138796432799
 23
6.097911020147414
 33
0.0
 14
12.73138796432799
 24
3.597911020147415
 34
0.0
 50
90.0
100
AcDbRotatedDimension
  0
DIMENSION
  5
227
102
{ACAD_XDICTIONARY
360
235
102
}
102
{ACAD_REACTORS
330
240
102
}
330
58
100
AcDbEntity
 67
     1
  8
0
 48
0.3
100
AcDbDimension
  2
*D8
 10
13.47026305290843
 20
5.722911020147413
 30
0.0
 11
13.47026305290843
 21
5.910411020147415
 31
0.0
 70
    32
 71
     5
 42
0.375
  3
Standard
100
AcDbAlignedDimension
 13
9.387637964327993
 23
6.097911020147414
 33
0.0
 14
9.387637964327993
 24
5.722911020147414
 34
0.0
 50
90.0
100
AcDbRotatedDimension
  0
DIMENSION
  5
241
102
{ACAD_XDICTIONARY
360
24F
102
}
102
{ACAD_REACTORS
330
25A
102
}
330
58
100
AcDbEntity
 67
     1
  8
0
 48
0.3
100
AcDbDimension
  2
*D9
 10
4.046687331544917
 20
6.097911020147415
 30
0.0
 11
4.046687331544915
 21
5.940411020147416
 31
0.0
 70
    32
 71
     5
 42
0.3149999999999995
  3
Standard
100
AcDbAlignedDimension
 13
6.977387964327992
 23
5.782911020147414
 33
0.0
 14
4.856387964327989
 24
6.097911020147415
 34
0.0
 50
90.0
100
AcDbRotatedDimension
  0
DIMENSION
  5
25B
102
{ACAD_XDICTIONARY
360
269
102
}
102
{ACAD_REACTORS
330
274
102
}
330
58
100
AcDbEntity
 67
     1
  8
0
 48
0.3
100
AcDbDimension
  2
*D10
 10
2.884587170021717
 20
6.097911020147415
 30
0.0
 11
2.884587170021716
 21
5.722911020147416
 31
0.0
 70
    32
 71
     5
 42
0.75
  3
Standard
100
AcDbAlignedDimension
 13
5.994887964327992
 23
5.347911020147415
 33
0.0
 14
5.994887964327992
 24
6.097911020147415
 34
0.0
 50
90.0
100
AcDbRotatedDimension
  0
DIMENSION
  5
275
102
{ACAD_XDICTIONARY
360
283
102
}
102
{ACAD_REACTORS
330
28E
102
}
330
58
100
AcDbEntity
 67
     1
  8
0
 48
0.3
100
AcDbDimension
  2
*D11
 10
12.73138796432799
 20
8.470872550489637
 30
0.0
 11
13.29013796432799
 21
8.470872550489637
 31
0.0
 70
    32
 71
     5
 42
0.1880000000000006
  3
Standard
100
AcDbAlignedDimension
 13
12.54338796432799
 23
9.489313665331019
 33
0.0
 14
12.73138796432799
 24
8.989313665331019
 34
0.0
100
AcDbRotatedDimension
  0
DIMENSION
  5
28F
102
{ACAD_XDICTIONARY
360
29D
102
}
102
{ACAD_REACTORS
330
2A8
102
}
330
58
100
AcDbEntity
 67
     1
  8
0
 48
0.3
100
AcDbDimension
  2
*D12
 10
9.231387964327993
 20
8.04877582730996
 30
0.0
 11
10.98138796432799
 21
8.04877582730996
 31
0.0
 70
    32
 71
     5
 42
3.499999999999998
  3
Standard
100
AcDbAlignedDimension
 13
12.73138796432799
 23
8.989313665331019
 33
0.0
 14
9.231387964327993
 24
9.489313665331021
 34
0.0
100
AcDbRotatedDimension
  0
DIMENSION
  5
2A9
102
{ACAD_XDICTIONARY
360
2B7
102
}
102
{ACAD_REACTORS
330
2C2
102
}
330
58
100
AcDbEntity
 67
     1
  8
0
 48
0.3
100
AcDbDimension
  2
*D13
 10
5.606387964327992
 20
8.04877582730996
 30
0.0
 11
7.418887964327993
 21
8.04877582730996
 31
0.0
 70
    32
 71
     5
 42
3.625
  3
Standard
100
AcDbAlignedDimension
 13
9.231387964327993
 23
9.489313665331021
 33
0.0
 14
5.606387964327992
 24
9.489313665331023
 34
0.0
100
AcDbRotatedDimension
  0
DIMENSION
  5
2C3
102
{ACAD_XDICTIONARY
360
2D1
102
}
102
{ACAD_REACTORS
330
2DC
102
}
330
58
100
AcDbEntity
 67
     1
  8
0
 48
0.3
100
AcDbDimension
  2
*D14
 10
3.624050651018592
 20
11.35181366533102
 30
0.0
 11
3.62405065101859
 21
12.53306366533102
 31
0.0
 70
    32
 71
     5
 42
2.362499999999998
  3
Standard
100
AcDbAlignedDimension
 13
5.406388615505365
 23
13.71431366533102
 33
0.0
 14
6.977387964327993
 24
11.35181366533102
 34
0.0
 50
90.0
100
AcDbRotatedDimension
  0
DIMENSION
  5
2DD
102
{ACAD_XDICTIONARY
360
2E9
102
}
102
{ACAD_REACTORS
330
2F2
102
}
330
58
100
AcDbEntity
 67
     1
  8
0
 48
0.3
100
AcDbDimension
  2
*D15
 10
6.073967559169259
 20
11.7379973282983
 30
0.0
 11
9.138312404515977
 21
10.64467076395022
 31
0.0
 70
   163
 71
     5
 42
1.965000000000002
  3
Standard
100
AcDbDiametricDimension
 15
7.88080836948673
 25
10.96563000236373
 35
0.0
 40
0.0
1001
ACAD
1000
DSTYLE
1002
{
1070
   288
1070
     1
1002
}
  0
LEADER
  5
2F3
330
58
100
AcDbEntity
 67
     1
  8
0
 48
0.3
100
AcDbLeader
  3
Standard
 73
     0
 40
0.125
 41
3.0
 76
     3
 10
7.958387964327993
 20
12.64565561858497
 30
0.0
 10
8.864065749409292
 20
12.20642868425765
 30
0.0
 10
9.244389451836212
 20
12.20642868425765
 30
0.0
340
2F4
213
0.0
223
-0.0625
233
0.0
1001
ACAD
1000
DSTYLE
1002
{
1070
   147
1040
0.09
1070
    77
1070
     0
1002
}
  0
MTEXT
  5
2F4
102
{ACAD_REACTORS
330
2F3
102
}
330
58
100
AcDbEntity
 67
     1
  8
0
 48
0.3
100
AcDbMText
 10
9.334389451836212
 20
12.26892868425765
 30
0.0
 40
0.125
 41
0.0
 71
     1
 72
     1
  1
3@ %%c.468 thru on 2.988 B.C.
 73
     1
 44
1.0
  0
DIMENSION
  5
2F5
102
{ACAD_XDICTIONARY
360
301
102
}
102
{ACAD_REACTORS
330
30A
102
}
330
58
100
AcDbEntity
 67
     1
  8
0
 48
0.3
100
AcDbDimension
  2
*D16
 10
9.132280548838924
 20
9.368517213830667
 30
0.0
 11
10.22653540428703
 21
10.09739167959736
 31
0.0
 70
   163
 71
     5
 42
0.3125000000000018
  3
Standard
100
AcDbDiametricDimension
 15
9.330495379817062
 25
9.610110116831375
 35
0.0
 40
0.0
1001
ACAD
1000
DSTYLE
1002
{
1070
   288
1070
     1
1002
}
  0
DIMENSION
  5
30B
102
{ACAD_XDICTIONARY
360
316
102
}
102
{ACAD_REACTORS
330
31E
102
}
330
58
100
AcDbEntity
 67
     1
  8
0
 48
0.3
100
AcDbDimension
  2
*D17
 10
9.133893115710653
 20
9.464920951396695
 30
0.0
 11
10.06946965379151
 21
9.698997430110392
 31
0.0
 70
   163
 71
     5
 42
0.2009999999999987
  3
Standard
100
AcDbDiametricDimension
 15
9.328882812945334
 25
9.513706379265343
 35
0.0
 40
0.0
1001
ACAD
1000
DSTYLE
1002
{
1070
   288
1070
     1
1002
}
  0
DIMENSION
  5
31F
102
{ACAD_XDICTIONARY
360
32B
102
}
102
{ACAD_REACTORS
330
334
102
}
330
58
100
AcDbEntity
 67
     1
  8
0
 48
0.3
100
AcDbDimension
  2
*D18
 10
10.205387964328
 20
11.35181366533101
 30
0.0
 11
3.323522804803269
 21
9.508162517417886
 31
0.0
 70
   164
 71
     5
 42
5.349000000000004
  3
Standard
100
AcDbRadialDimension
 15
5.06824398883048
 25
9.861326236665616
 35
0.0
 40
0.0
1001
ACAD
1000
DSTYLE
1002
{
1070
   288
1070
     1
1002
}
  0
CIRCLE
  5
335
102
{ACAD_REACTORS
330
363
102
}
330
58
100
AcDbEntity
 67
     1
  8
0
 48
0.3
100
AcDbCircle
 10
6.977387964327995
 20
11.35181366533102
 30
0.0
 40
0.25
  0
LINE
  5
337
330
58
100
AcDbEntity
 67
     1
  8
0
  6
HIDDENX2
 48
0.3
100
AcDbLine
 10
7.227387964327995
 20
5.347911020147415
 30
0.0
 11
7.227387964327995
 21
3.597911020147415
 31
0.0
  0
LINE
  5
339
330
58
100
AcDbEntity
 67
     1
  8
0
  6
HIDDENX2
 48
0.3
100
AcDbLine
 10
6.727387964327994
 20
5.347911020147415
 30
0.0
 11
6.727387964327994
 21
3.597911020147415
 31
0.0
  0
DIMENSION
  5
34E
102
{ACAD_XDICTIONARY
360
35A
102
}
102
{ACAD_REACTORS
330
363
102
}
330
58
100
AcDbEntity
 67
     1
  8
0
 48
0.3
100
AcDbDimension
  2
*D19
 10
7.086175811313371
 20
11.57690299059609
 30
0.0
 11
5.912168678365663
 21
10.1745781907561
 31
0.0
 70
   163
 71
     5
 42
0.4999999999999983
  3
Standard
100
AcDbDiametricDimension
 15
6.868600117342619
 25
11.12672434006594
 35
0.0
 40
0.0
1001
ACAD
1000
DSTYLE
1002
{
1070
   288
1070
     1
1002
}
  0
MTEXT
  5
364
330
58
100
AcDbEntity
 67
     1
  8
0
 48
0.3
100
AcDbMText
 10
17.51707573917449
 20
1.527123234326053
 30
0.0
 40
0.125
 41
3.0
 71
     1
 72
     5
  1
G0704 Y Axis Extension\PBasic Head Spacer\PDaniel E. Kemp\P{\fArial|b0|i0|c0|p32;\H1.3x;©\fMS Shell Dlg|b0|i0|c0|p32;\H0.6538x; }03-14-2011
 73
     1
 44
1.0
  0
MTEXT
  5
366
330
58
100
AcDbEntity
 67
     1
  8
0
 48
0.3
100
AcDbMText
 10
1.808574528830671
 20
1.458247940086742
 30
0.0
 40
0.1625
 41
5.331404642746068
 71
     1
 72
     5
  1
{\fArial|b0|i0|c0|p32;© Daniel E. Kemp 2011}
 73
     1
 44
1.0
  0
ENDSEC
  0
SECTION
  2
OBJECTS
  0
DICTIONARY
  5
C
330
0
100
AcDbDictionary
281
     1
  3
ACAD_GROUP
350
D
  3
ACAD_LAYOUT
350
1A
  3
ACAD_MLINESTYLE
350
17
  3
ACAD_PLOTSETTINGS
350
19
  3
ACAD_PLOTSTYLENAME
350
E
  3
AcDbVariableDictionary
350
66
  0
DICTIONARY
  5
163
330
155
100
AcDbDictionary
280
     1
281
     1
  3
ACAD_DIMASSOC
360
16E
  0
DICTIONARY
  5
17E
330
16F
100
AcDbDictionary
280
     1
281
     1
  3
ACAD_DIMASSOC
360
18A
  0
DICTIONARY
  5
1AE
330
19F
100
AcDbDictionary
280
     1
281
     1
  3
ACAD_DIMASSOC
360
1BA
  0
DICTIONARY
  5
1E7
330
1D9
100
AcDbDictionary
280
     1
281
     1
  3
ACAD_DIMASSOC
360
1F2
  0
DICTIONARY
  5
201
330
1F3
100
AcDbDictionary
280
     1
281
     1
  3
ACAD_DIMASSOC
360
20C
  0
DICTIONARY
  5
21B
330
20D
100
AcDbDictionary
280
     1
281
     1
  3
ACAD_DIMASSOC
360
226
  0
DICTIONARY
  5
235
330
227
100
AcDbDictionary
280
     1
281
     1
  3
ACAD_DIMASSOC
360
240
  0
DICTIONARY
  5
24F
330
241
100
AcDbDictionary
280
     1
281
     1
  3
ACAD_DIMASSOC
360
25A
  0
DICTIONARY
  5
269
330
25B
100
AcDbDictionary
280
     1
281
     1
  3
ACAD_DIMASSOC
360
274
  0
DICTIONARY
  5
283
330
275
100
AcDbDictionary
280
     1
281
     1
  3
ACAD_DIMASSOC
360
28E
  0
DICTIONARY
  5
29D
330
28F
100
AcDbDictionary
280
     1
281
     1
  3
ACAD_DIMASSOC
360
2A8
  0
DICTIONARY
  5
2B7
330
2A9
100
AcDbDictionary
280
     1
281
     1
  3
ACAD_DIMASSOC
360
2C2
  0
DICTIONARY
  5
2D1
330
2C3
100
AcDbDictionary
280
     1
281
     1
  3
ACAD_DIMASSOC
360
2DC
  0
DICTIONARY
  5
2E9
330
2DD
100
AcDbDictionary
280
     1
281
     1
  3
ACAD_DIMASSOC
360
2F2
  0
DICTIONARY
  5
301
330
2F5
100
AcDbDictionary
280
     1
281
     1
  3
ACAD_DIMASSOC
360
30A
  0
DICTIONARY
  5
316
330
30B
100
AcDbDictionary
280
     1
281
     1
  3
ACAD_DIMASSOC
360
31E
  0
DICTIONARY
  5
32B
330
31F
100
AcDbDictionary
280
     1
281
     1
  3
ACAD_DIMASSOC
360
334
  0
DICTIONARY
  5
35A
330
34E
100
AcDbDictionary
280
     1
281
     1
  3
ACAD_DIMASSOC
360
363
  0
DICTIONARY
  5
D
102
{ACAD_REACTORS
330
C
102
}
330
C
100
AcDbDictionary
281
     1
  0
DICTIONARY
  5
1A
102
{ACAD_REACTORS
330
C
102
}
330
C
100
AcDbDictionary
281
     1
  3
Layout1
350
59
  3
Layout2
350
5E
  3
Model
350
22
  0
DICTIONARY
  5
17
102
{ACAD_REACTORS
330
C
102
}
330
C
100
AcDbDictionary
281
     1
  3
Standard
350
18
  0
DICTIONARY
  5
19
102
{ACAD_REACTORS
330
C
102
}
330
C
100
AcDbDictionary
281
     1
  0
ACDBDICTIONARYWDFLT
  5
E
102
{ACAD_REACTORS
330
C
102
}
330
C
100
AcDbDictionary
281
     1
  3
Normal
350
F
100
AcDbDictionaryWithDefault
340
F
  0
DICTIONARY
  5
66
102
{ACAD_REACTORS
330
C
102
}
330
C
100
AcDbDictionary
281
     1
  3
DIMASSOC
350
67
  3
HIDETEXT
350
6B
  0
DIMASSOC
  5
16E
102
{ACAD_REACTORS
330
163
102
}
330
163
100
AcDbDimAssoc
330
155
 90
        1
 70
     0
 71
     0
  1
AcDbOsnapPointRef
 72
     1
331
110
 73
     2
 91
        0
 40
1.0
 10
12.73138796432799
 20
13.71431366533101
 30
0.0
 75
     0
  0
DIMASSOC
  5
18A
102
{ACAD_REACTORS
330
17E
102
}
330
17E
100
AcDbDimAssoc
330
16F
 90
        3
 70
     0
 71
     0
  1
AcDbOsnapPointRef
 72
     1
331
110
 73
     2
 91
        0
 40
1.0
 10
12.73138796432799
 20
13.71431366533101
 30
0.0
 75
     0
  1
AcDbOsnapPointRef
 72
     3
331
104
 73
     2
 91
        0
 40
0.0
 10
12.54338796432799
 20
13.21431366533102
 30
0.0
 75
     0
  0
DIMASSOC
  5
1BA
102
{ACAD_REACTORS
330
1AE
102
}
330
1AE
100
AcDbDimAssoc
330
19F
 90
        3
 70
     0
 71
     0
  1
AcDbOsnapPointRef
 72
     3
331
105
 73
     2
 91
        0
 40
0.0
 10
12.54338796432799
 20
9.489313665331019
 30
0.0
 75
     0
  1
AcDbOsnapPointRef
 72
     1
331
111
 73
     2
 91
        0
 40
1.0
 10
12.73138796432799
 20
8.989313665331019
 30
0.0
 75
     0
  0
DIMASSOC
  5
1F2
102
{ACAD_REACTORS
330
1E7
102
}
330
1E7
100
AcDbDimAssoc
330
1D9
 90
        3
 70
     0
 71
     0
  1
AcDbOsnapPointRef
 72
     3
331
E3
 73
     2
 91
        0
 40
0.0
 10
6.977387964327993
 20
11.35181366533102
 30
0.0
 75
     0
  1
AcDbOsnapPointRef
 72
     1
331
110
 73
     2
 91
        0
 40
1.0
 10
12.73138796432799
 20
13.71431366533101
 30
0.0
 75
     0
  0
DIMASSOC
  5
20C
102
{ACAD_REACTORS
330
201
102
}
330
201
100
AcDbDimAssoc
330
1F3
 90
        3
 70
     0
 71
     0
  1
AcDbOsnapPointRef
 72
    13
331
12F
 73
     2
 91
        0
 40
0.0
 10
4.856387964327988
 20
3.597911020147415
 30
0.0
 75
     0
  1
AcDbOsnapPointRef
 72
     1
331
112
 73
     2
 91
        0
 40
1.0
 10
12.73138796432799
 20
3.597911020147414
 30
0.0
 75
     0
  0
DIMASSOC
  5
226
102
{ACAD_REACTORS
330
21B
102
}
330
21B
100
AcDbDimAssoc
330
20D
 90
        3
 70
     0
 71
     0
  1
AcDbOsnapPointRef
 72
    13
331
12D
 73
     2
 91
        0
 40
0.0
 10
12.73138796432799
 20
6.097911020147414
 30
0.0
 75
     0
  1
AcDbOsnapPointRef
 72
     1
331
12F
 73
     2
 91
        0
 40
1.0
 10
12.73138796432799
 20
3.597911020147415
 30
0.0
 75
     0
  0
DIMASSOC
  5
240
102
{ACAD_REACTORS
330
235
102
}
330
235
100
AcDbDimAssoc
330
227
 90
        3
 70
     0
 71
     0
  1
AcDbOsnapPointRef
 72
    13
331
13E
 73
     2
 91
        0
 40
0.0
 10
9.387637964327993
 20
6.097911020147414
 30
0.0
 75
     0
  1
AcDbOsnapPointRef
 72
    13
331
13F
 73
     2
 91
        0
 40
0.0
 10
9.387637964327993
 20
5.722911020147414
 30
0.0
 75
     0
  0
DIMASSOC
  5
25A
102
{ACAD_REACTORS
330
24F
102
}
330
24F
100
AcDbDimAssoc
330
241
 90
        3
 70
     0
 71
     0
  1
AcDbOsnapPointRef
 72
     3
331
149
 73
     2
 91
        0
 40
0.0
 10
6.977387964327992
 20
5.782911020147414
 30
0.0
 75
     0
  1
AcDbOsnapPointRef
 72
     1
331
12D
 73
     2
 91
        0
 40
1.0
 10
4.856387964327989
 20
6.097911020147415
 30
0.0
 75
     0
  0
DIMASSOC
  5
274
102
{ACAD_REACTORS
330
269
102
}
330
269
100
AcDbDimAssoc
330
25B
 90
        3
 70
     0
 71
     0
  1
AcDbOsnapPointRef
 72
     1
331
133
 73
     2
 91
        0
 40
1.0
 10
5.994887964327992
 20
5.347911020147415
 30
0.0
 75
     0
  1
AcDbOsnapPointRef
 72
     1
331
134
 73
     2
 91
        0
 40
1.0
 10
5.994887964327992
 20
6.097911020147415
 30
0.0
 75
     0
  0
DIMASSOC
  5
28E
102
{ACAD_REACTORS
330
283
102
}
330
283
100
AcDbDimAssoc
330
275
 90
        3
 70
     0
 71
     0
  1
AcDbOsnapPointRef
 72
     3
331
105
 73
     2
 91
        0
 40
0.0
 10
12.54338796432799
 20
9.489313665331019
 30
0.0
 75
     0
  1
AcDbOsnapPointRef
 72
     1
331
111
 73
     2
 91
        0
 40
1.0
 10
12.73138796432799
 20
8.989313665331019
 30
0.0
 75
     0
  0
DIMASSOC
  5
2A8
102
{ACAD_REACTORS
330
29D
102
}
330
29D
100
AcDbDimAssoc
330
28F
 90
        3
 70
     0
 71
     0
  1
AcDbOsnapPointRef
 72
     1
331
111
 73
     2
 91
        0
 40
1.0
 10
12.73138796432799
 20
8.989313665331019
 30
0.0
 75
     0
  1
AcDbOsnapPointRef
 72
     3
331
106
 73
     2
 91
        0
 40
0.0
 10
9.231387964327993
 20
9.489313665331021
 30
0.0
 75
     0
  0
DIMASSOC
  5
2C2
102
{ACAD_REACTORS
330
2B7
102
}
330
2B7
100
AcDbDimAssoc
330
2A9
 90
        3
 70
     0
 71
     0
  1
AcDbOsnapPointRef
 72
     3
331
106
 73
     2
 91
        0
 40
0.0
 10
9.231387964327993
 20
9.489313665331021
 30
0.0
 75
     0
  1
AcDbOsnapPointRef
 72
     3
331
107
 73
     2
 91
        0
 40
0.0
 10
5.606387964327992
 20
9.489313665331023
 30
0.0
 75
     0
  0
DIMASSOC
  5
2DC
102
{ACAD_REACTORS
330
2D1
102
}
330
2D1
100
AcDbDimAssoc
330
2C3
 90
        3
 70
     0
 71
     0
  1
AcDbOsnapPointRef
 72
    13
331
110
 73
     2
 91
        0
 40
0.0
 10
5.406388615505365
 20
13.71431366533102
 30
0.0
 75
     0
  1
AcDbOsnapPointRef
 72
     3
331
E3
 73
     2
 91
        0
 40
0.0
 10
6.977387964327993
 20
11.35181366533102
 30
0.0
 75
     0
  0
DIMASSOC
  5
2F2
102
{ACAD_REACTORS
330
2E9
102
}
330
2E9
100
AcDbDimAssoc
330
2DD
 90
        2
 70
     0
 71
     0
  1
AcDbOsnapPointRef
 72
     3
331
E3
 73
     2
 91
        0
 40
0.0
 10
0.0
 20
0.0
 30
0.0
 75
     0
  0
DIMASSOC
  5
30A
102
{ACAD_REACTORS
330
301
102
}
330
301
100
AcDbDimAssoc
330
2F5
 90
        2
 70
     0
 71
     0
  1
AcDbOsnapPointRef
 72
     3
331
106
 73
     2
 91
        0
 40
0.0
 10
0.0
 20
0.0
 30
0.0
 75
     0
  0
DIMASSOC
  5
31E
102
{ACAD_REACTORS
330
316
102
}
330
316
100
AcDbDimAssoc
330
30B
 90
        2
 70
     0
 71
     0
  1
AcDbOsnapPointRef
 72
     3
331
100
 73
     2
 91
        0
 40
0.0
 10
0.0
 20
0.0
 30
0.0
 75
     0
  0
DIMASSOC
  5
334
102
{ACAD_REACTORS
330
32B
102
}
330
32B
100
AcDbDimAssoc
330
31F
 90
        2
 70
     0
 71
     0
  1
AcDbOsnapPointRef
 72
     3
331
10B
 73
     2
 91
        0
 40
0.0
 10
0.0
 20
0.0
 30
0.0
 75
     0
  0
DIMASSOC
  5
363
102
{ACAD_REACTORS
330
35A
102
}
330
35A
100
AcDbDimAssoc
330
34E
 90
        2
 70
     0
 71
     0
  1
AcDbOsnapPointRef
 72
     3
331
335
 73
     2
 91
        0
 40
0.0
 10
0.0
 20
0.0
 30
0.0
 75
     0
  0
LAYOUT
  5
59
102
{ACAD_REACTORS
330
1A
102
}
330
1A
100
AcDbPlotSettings
  1

  2
none_device
  4
ANSI_C_(17.00_x_22.00_Inches)
  6

 40
6.349999904632568
 41
19.04999923706054
 42
6.350006103515625
 43
19.04998779296875
 44
431.7999877929687
 45
558.7999877929687
 46
0.0
 47
0.0
 48
0.0
 49
0.0
140
0.0
141
0.0
142
1.0
143
1.0
 70
   688
 72
     0
 73
     1
 74
     5
  7

 75
    16
147
1.0
148
0.0
149
0.0
100
AcDbLayout
  1
Layout1
 70
     0
 71
     1
 10
-0.7499995194082186
 20
-0.2499999962453767
 11
21.25
 21
16.74999952316284
 12
0.0
 22
0.0
 32
0.0
 14
0.2965759179903777
 24
0.5900508454536873
 34
0.0
 15
20.29657591799038
 25
16.09005084545368
 35
0.0
146
0.0
 13
0.0
 23
0.0
 33
0.0
 16
1.0
 26
0.0
 36
0.0
 17
0.0
 27
1.0
 37
0.0
 76
     0
330
58
331
77
  0
LAYOUT
  5
5E
102
{ACAD_REACTORS
330
1A
102
}
330
1A
100
AcDbPlotSettings
  1

  2
None
  4

  6

 40
0.0
 41
0.0
 42
0.0
 43
0.0
 44
0.0
 45
0.0
 46
0.0
 47
0.0
 48
0.0
 49
0.0
140
0.0
141
0.0
142
1.0
143
1.0
 70
   688
 72
     0
 73
     0
 74
     5
  7

 75
    16
147
1.0
148
0.0
149
0.0
100
AcDbLayout
  1
Layout2
 70
     1
 71
     2
 10
0.0
 20
0.0
 11
12.0
 21
9.0
 12
0.0
 22
0.0
 32
0.0
 14
0.0
 24
0.0
 34
0.0
 15
0.0
 25
0.0
 35
0.0
146
0.0
 13
0.0
 23
0.0
 33
0.0
 16
1.0
 26
0.0
 36
0.0
 17
0.0
 27
1.0
 37
0.0
 76
     0
330
5D
  0
LAYOUT
  5
22
102
{ACAD_REACTORS
330
1A
102
}
330
1A
100
AcDbPlotSettings
  1

  2
none_device
  4
ANSI_A_(8.50_x_11.00_Inches)
  6

 40
6.349999904632568
 41
19.04999923706054
 42
6.350006103515625
 43
19.04998779296875
 44
215.8999938964843
 45
279.3999938964843
 46
0.0
 47
0.0
 48
0.0
 49
0.0
140
0.0
141
0.0
142
1.0
143
2.584895464708373
 70
 11952
 72
     0
 73
     1
 74
     0
  7

 75
     0
147
0.3868628397755418
148
0.0
149
0.0
100
AcDbLayout
  1
Model
 70
     1
 71
     0
 10
0.0
 20
0.0
 11
12.0
 21
9.0
 12
0.0
 22
0.0
 32
0.0
 14
0.0
 24
0.0
 34
0.0
 15
0.0
 25
0.0
 35
0.0
146
0.0
 13
0.0
 23
0.0
 33
0.0
 16
1.0
 26
0.0
 36
0.0
 17
0.0
 27
1.0
 37
0.0
 76
     0
330
1F
  0
MLINESTYLE
  5
18
102
{ACAD_REACTORS
330
17
102
}
330
17
100
AcDbMlineStyle
  2
STANDARD
 70
     0
  3

 62
   256
 51
90.0
 52
90.0
 71
     2
 49
0.5
 62
   256
  6
BYLAYER
 49
-0.5
 62
   256
  6
BYLAYER
  0
ACDBPLACEHOLDER
  5
F
102
{ACAD_REACTORS
330
E
102
}
330
E
  0
DICTIONARYVAR
  5
67
102
{ACAD_REACTORS
330
66
102
}
330
66
100
DictionaryVariables
280
     0
  1
2
  0
DICTIONARYVAR
  5
6B
102
{ACAD_REACTORS
330
66
102
}
330
66
100
DictionaryVariables
280
     0
  1
1
  0
ENDSEC
  0
EOF
