  0
SECTION
  2
HEADER
  9
$ACADVER
  1
AC1015
  9
$ACADMAINTVER
 70
    13
  9
$DWGCODEPAGE
  3
ANSI_1252
  9
$INSBASE
 10
0.0
 20
0.0
 30
0.0
  9
$EXTMIN
 10
1.000000000000000E+20
 20
1.000000000000000E+20
 30
1.000000000000000E+20
  9
$EXTMAX
 10
-1.000000000000000E+20
 20
-1.000000000000000E+20
 30
-1.000000000000000E+20
  9
$LIMMIN
 10
0.0
 20
0.0
  9
$LIMMAX
 10
12.0
 20
9.0
  9
$ORTHOMODE
 70
     0
  9
$REGENMODE
 70
     1
  9
$FILLMODE
 70
     1
  9
$QTEXTMODE
 70
     0
  9
$MIRRTEXT
 70
     1
  9
$LTSCALE
 40
0.3
  9
$ATTMODE
 70
     1
  9
$TEXTSIZE
 40
0.2
  9
$TRACEWID
 40
0.05
  9
$TEXTSTYLE
  7
STANDARD
  9
$CLAYER
  8
0
  9
$CELTYPE
  6
ByLayer
  9
$CECOLOR
 62
   256
  9
$CELTSCALE
 40
1.0
  9
$DISPSILH
 70
     0
  9
$DIMSCALE
 40
1.0
  9
$DIMASZ
 40
0.125
  9
$DIMEXO
 40
0.0625
  9
$DIMDLI
 40
0.38
  9
$DIMRND
 40
0.0
  9
$DIMDLE
 40
0.0
  9
$DIMEXE
 40
0.18
  9
$DIMTP
 40
0.0
  9
$DIMTM
 40
0.0
  9
$DIMTXT
 40
0.1
  9
$DIMCEN
 40
0.09
  9
$DIMTSZ
 40
0.0
  9
$DIMTOL
 70
     0
  9
$DIMLIM
 70
     0
  9
$DIMTIH
 70
     1
  9
$DIMTOH
 70
     1
  9
$DIMSE1
 70
     0
  9
$DIMSE2
 70
     0
  9
$DIMTAD
 70
     0
  9
$DIMZIN
 70
     0
  9
$DIMBLK
  1

  9
$DIMASO
 70
     1
  9
$DIMSHO
 70
     1
  9
$DIMPOST
  1

  9
$DIMAPOST
  1

  9
$DIMALT
 70
     0
  9
$DIMALTD
 70
     2
  9
$DIMALTF
 40
25.4
  9
$DIMLFAC
 40
1.0
  9
$DIMTOFL
 70
     0
  9
$DIMTVP
 40
0.0
  9
$DIMTIX
 70
     0
  9
$DIMSOXD
 70
     0
  9
$DIMSAH
 70
     0
  9
$DIMBLK1
  1

  9
$DIMBLK2
  1

  9
$DIMSTYLE
  2
STANDARD
  9
$DIMCLRD
 70
     0
  9
$DIMCLRE
 70
     0
  9
$DIMCLRT
 70
     0
  9
$DIMTFAC
 40
1.0
  9
$DIMGAP
 40
0.09
  9
$DIMJUST
 70
     0
  9
$DIMSD1
 70
     0
  9
$DIMSD2
 70
     0
  9
$DIMTOLJ
 70
     1
  9
$DIMTZIN
 70
     0
  9
$DIMALTZ
 70
     0
  9
$DIMALTTZ
 70
     0
  9
$DIMUPT
 70
     0
  9
$DIMDEC
 70
     4
  9
$DIMTDEC
 70
     4
  9
$DIMALTU
 70
     2
  9
$DIMALTTD
 70
     2
  9
$DIMTXSTY
  7
STANDARD
  9
$DIMAUNIT
 70
     0
  9
$DIMADEC
 70
     0
  9
$DIMALTRND
 40
0.0
  9
$DIMAZIN
 70
     0
  9
$DIMDSEP
 70
    46
  9
$DIMATFIT
 70
     3
  9
$DIMFRAC
 70
     0
  9
$DIMLDRBLK
  1

  9
$DIMLUNIT
 70
     2
  9
$DIMLWD
 70
    -2
  9
$DIMLWE
 70
    -2
  9
$DIMTMOVE
 70
     0
  9
$LUNITS
 70
     2
  9
$LUPREC
 70
     4
  9
$SKETCHINC
 40
0.1
  9
$FILLETRAD
 40
0.1875
  9
$AUNITS
 70
     0
  9
$AUPREC
 70
     0
  9
$MENU
  1
.
  9
$ELEVATION
 40
0.0
  9
$PELEVATION
 40
0.0
  9
$THICKNESS
 40
0.0
  9
$LIMCHECK
 70
     0
  9
$CHAMFERA
 40
0.5
  9
$CHAMFERB
 40
0.5
  9
$CHAMFERC
 40
0.0
  9
$CHAMFERD
 40
0.0
  9
$SKPOLY
 70
     0
  9
$TDCREATE
 40
2453845.843558298
  9
$TDUCREATE
 40
2453846.010224965
  9
$TDUPDATE
 40
2455430.708986968
  9
$TDUUPDATE
 40
2455430.875653634
  9
$TDINDWG
 40
0.0645168981
  9
$TDUSRTIMER
 40
0.0645064120
  9
$USRTIMER
 70
     1
  9
$ANGBASE
 50
0.0
  9
$ANGDIR
 70
     0
  9
$PDMODE
 70
     0
  9
$PDSIZE
 40
0.0
  9
$PLINEWID
 40
0.0
  9
$SPLFRAME
 70
     0
  9
$SPLINETYPE
 70
     6
  9
$SPLINESEGS
 70
     8
  9
$HANDSEED
  5
9BE
  9
$SURFTAB1
 70
     6
  9
$SURFTAB2
 70
     6
  9
$SURFTYPE
 70
     6
  9
$SURFU
 70
     6
  9
$SURFV
 70
     6
  9
$UCSBASE
  2

  9
$UCSNAME
  2

  9
$UCSORG
 10
0.0
 20
0.0
 30
0.0
  9
$UCSXDIR
 10
1.0
 20
0.0
 30
0.0
  9
$UCSYDIR
 10
0.0
 20
1.0
 30
0.0
  9
$UCSORTHOREF
  2

  9
$UCSORTHOVIEW
 70
     0
  9
$UCSORGTOP
 10
0.0
 20
0.0
 30
0.0
  9
$UCSORGBOTTOM
 10
0.0
 20
0.0
 30
0.0
  9
$UCSORGLEFT
 10
0.0
 20
0.0
 30
0.0
  9
$UCSORGRIGHT
 10
0.0
 20
0.0
 30
0.0
  9
$UCSORGFRONT
 10
0.0
 20
0.0
 30
0.0
  9
$UCSORGBACK
 10
0.0
 20
0.0
 30
0.0
  9
$PUCSBASE
  2

  9
$PUCSNAME
  2

  9
$PUCSORG
 10
0.0
 20
0.0
 30
0.0
  9
$PUCSXDIR
 10
1.0
 20
0.0
 30
0.0
  9
$PUCSYDIR
 10
0.0
 20
1.0
 30
0.0
  9
$PUCSORTHOREF
  2

  9
$PUCSORTHOVIEW
 70
     0
  9
$PUCSORGTOP
 10
0.0
 20
0.0
 30
0.0
  9
$PUCSORGBOTTOM
 10
0.0
 20
0.0
 30
0.0
  9
$PUCSORGLEFT
 10
0.0
 20
0.0
 30
0.0
  9
$PUCSORGRIGHT
 10
0.0
 20
0.0
 30
0.0
  9
$PUCSORGFRONT
 10
0.0
 20
0.0
 30
0.0
  9
$PUCSORGBACK
 10
0.0
 20
0.0
 30
0.0
  9
$USERI1
 70
     0
  9
$USERI2
 70
     0
  9
$USERI3
 70
     0
  9
$USERI4
 70
     0
  9
$USERI5
 70
     0
  9
$USERR1
 40
0.0
  9
$USERR2
 40
0.0
  9
$USERR3
 40
0.0
  9
$USERR4
 40
0.0
  9
$USERR5
 40
0.0
  9
$WORLDVIEW
 70
     1
  9
$SHADEDGE
 70
     3
  9
$SHADEDIF
 70
    70
  9
$TILEMODE
 70
     0
  9
$MAXACTVP
 70
    64
  9
$PINSBASE
 10
0.0
 20
0.0
 30
0.0
  9
$PLIMCHECK
 70
     0
  9
$PEXTMIN
 10
0.157240445526571
 20
0.1586796761571065
 30
0.0
  9
$PEXTMAX
 10
10.28401707283322
 20
7.732543961594397
 30
0.0
  9
$PLIMMIN
 10
0.0388817723479625
 20
0.0404067190093263
  9
$PLIMMAX
 10
10.40228156653446
 20
8.04848832670132
  9
$UNITMODE
 70
     0
  9
$VISRETAIN
 70
     1
  9
$PLINEGEN
 70
     0
  9
$PSLTSCALE
 70
     0
  9
$TREEDEPTH
 70
  3020
  9
$CMLSTYLE
  2
Standard
  9
$CMLJUST
 70
     0
  9
$CMLSCALE
 40
1.0
  9
$PROXYGRAPHICS
 70
     1
  9
$MEASUREMENT
 70
     0
  9
$CELWEIGHT
370
    -1
  9
$ENDCAPS
280
     0
  9
$JOINSTYLE
280
     0
  9
$LWDISPLAY
290
     0
  9
$INSUNITS
 70
     0
  9
$HYPERLINKBASE
  1

  9
$STYLESHEET
  1

  9
$XEDIT
290
     1
  9
$CEPSNTYPE
380
     0
  9
$PSTYLEMODE
290
     1
  9
$FINGERPRINTGUID
  2
{CD5F7327-FF04-4F5D-9895-9ED0E85B6C19}
  9
$VERSIONGUID
  2
{26B85B0C-F660-46F9-953A-1CCA6C188021}
  9
$EXTNAMES
290
     1
  9
$PSVPSCALE
 40
0.0
  9
$OLESTARTUP
290
     0
  0
ENDSEC
  0
SECTION
  2
CLASSES
  0
CLASS
  1
ACDBDICTIONARYWDFLT
  2
AcDbDictionaryWithDefault
  3
AutoCAD 2000
 90
        0
280
     0
281
     0
  0
CLASS
  1
ACDBPLACEHOLDER
  2
AcDbPlaceHolder
  3
AutoCAD 2000
 90
        0
280
     0
281
     0
  0
CLASS
  1
LAYOUT
  2
AcDbLayout
  3
AutoCAD 2000
 90
        0
280
     0
281
     0
  0
CLASS
  1
DICTIONARYVAR
  2
AcDbDictionaryVar
  3
AutoCAD 2000
 90
        0
280
     0
281
     0
  0
ENDSEC
  0
SECTION
  2
TABLES
  0
TABLE
  2
VPORT
  5
6F4
330
0
100
AcDbSymbolTable
 70
     1
  0
VPORT
  5
70E
330
6F4
100
AcDbSymbolTableRecord
100
AcDbViewportTableRecord
  2
*ACTIVE
 70
     0
 10
0.0
 20
0.0
 11
1.0
 21
1.0
 12
9.666666666666667
 22
4.5
 13
0.0
 23
0.0
 14
0.5
 24
0.5
 15
0.5
 25
0.5
 16
0.0
 26
0.0
 36
1.0
 17
0.0
 27
0.0
 37
0.0
 40
9.0
 41
2.148148148148147
 42
50.0
 43
0.0
 44
0.0
 50
0.0
 51
0.0
 71
     0
 72
   100
 73
     1
 74
     3
 75
     0
 76
     0
 77
     0
 78
     0
281
     0
 65
     1
110
0.0
120
0.0
130
0.0
111
1.0
121
0.0
131
0.0
112
0.0
122
1.0
132
0.0
 79
     0
146
0.0
  0
ENDTAB
  0
TABLE
  2
LTYPE
  5
6F1
330
0
100
AcDbSymbolTable
 70
     4
  0
LTYPE
  5
6FF
330
6F1
100
AcDbSymbolTableRecord
100
AcDbLinetypeTableRecord
  2
ByBlock
 70
     0
  3

 72
    65
 73
     0
 40
0.0
  0
LTYPE
  5
700
330
6F1
100
AcDbSymbolTableRecord
100
AcDbLinetypeTableRecord
  2
ByLayer
 70
     0
  3

 72
    65
 73
     0
 40
0.0
  0
LTYPE
  5
701
330
6F1
100
AcDbSymbolTableRecord
100
AcDbLinetypeTableRecord
  2
CONTINUOUS
 70
     0
  3
Solid line
 72
    65
 73
     0
 40
0.0
  0
LTYPE
  5
70F
330
6F1
100
AcDbSymbolTableRecord
100
AcDbLinetypeTableRecord
  2
CENTER2
 70
     0
  3
Center (.5x) ___ _ ___ _ ___ _ ___ _ ___ _ ___
 72
    65
 73
     4
 40
1.125
 49
0.75
 74
     0
 49
-0.125
 74
     0
 49
0.125
 74
     0
 49
-0.125
 74
     0
  0
LTYPE
  5
710
330
6F1
100
AcDbSymbolTableRecord
100
AcDbLinetypeTableRecord
  2
THREADS
 70
     0
  3
Zig zag /\/\/\/\/\/\/\/\/\/\/\/\/\/\/\/\/\/\/\/
 72
    65
 73
     4
 40
0.8001000000000001
 49
0.0001
 74
     0
 49
-0.2
 74
     0
 49
-0.4
 74
     0
 49
-0.2
 74
     0
  0
LTYPE
  5
711
330
6F1
100
AcDbSymbolTableRecord
100
AcDbLinetypeTableRecord
  2
HIDDENX2
 70
     0
  3
Hidden (2x) ____ ____ ____ ____ ____ ____ ____
 72
    65
 73
     2
 40
0.75
 49
0.5
 74
     0
 49
-0.25
 74
     0
  0
ENDTAB
  0
TABLE
  2
LAYER
  5
6EE
330
0
100
AcDbSymbolTable
 70
     2
  0
LAYER
  5
6FC
330
6EE
100
AcDbSymbolTableRecord
100
AcDbLayerTableRecord
  2
0
 70
     0
 62
     7
  6
CONTINUOUS
370
    -3
390
6FB
  0
LAYER
  5
712
330
6EE
100
AcDbSymbolTableRecord
100
AcDbLayerTableRecord
  2
DEFPOINTS
 70
     0
 62
     7
  6
CONTINUOUS
290
     0
370
    -3
390
6FB
  0
ENDTAB
  0
TABLE
  2
STYLE
  5
6EF
330
0
100
AcDbSymbolTable
 70
     2
  0
STYLE
  5
6FD
330
6EF
100
AcDbSymbolTableRecord
100
AcDbTextStyleTableRecord
  2
STANDARD
 70
     0
 40
0.0
 41
1.0
 50
0.0
 71
     0
 42
0.2
  3
txt
  4

  0
STYLE
  5
713
330
6EF
100
AcDbSymbolTableRecord
100
AcDbTextStyleTableRecord
  2

 70
     1
 40
0.0
 41
1.0
 50
0.0
 71
     0
 42
0.2
  3
ltypeshp.shx
  4

  0
ENDTAB
  0
TABLE
  2
VIEW
  5
6F2
330
0
100
AcDbSymbolTable
 70
     0
  0
ENDTAB
  0
TABLE
  2
UCS
  5
6F3
330
0
100
AcDbSymbolTable
 70
     0
  0
ENDTAB
  0
TABLE
  2
APPID
  5
6F5
330
0
100
AcDbSymbolTable
 70
     2
  0
APPID
  5
6FE
330
6F5
100
AcDbSymbolTableRecord
100
AcDbRegAppTableRecord
  2
ACAD
 70
     0
  0
APPID
  5
714
330
6F5
100
AcDbSymbolTableRecord
100
AcDbRegAppTableRecord
  2
ACAD_EXEMPT_FROM_CAD_STANDARDS
 70
     0
  0
ENDTAB
  0
TABLE
  2
DIMSTYLE
  5
6F6
330
0
100
AcDbSymbolTable
 70
     1
100
AcDbDimStyleTable
 71
     0
  0
DIMSTYLE
105
715
102
{ACAD_REACTORS
330
96E
330
96F
330
970
330
971
330
972
330
973
330
974
330
975
330
976
330
977
330
97C
330
97D
330
97E
330
97F
330
980
330
981
330
982
330
98F
330
990
330
991
330
992
330
993
330
994
102
}
330
6F6
100
AcDbSymbolTableRecord
100
AcDbDimStyleTableRecord
  2
STANDARD
 70
     0
 41
0.125
140
0.1
279
     2
340
6FD
  0
ENDTAB
  0
TABLE
  2
BLOCK_RECORD
  5
6ED
330
0
100
AcDbSymbolTable
 70
    65
  0
BLOCK_RECORD
  5
70A
330
6ED
100
AcDbSymbolTableRecord
100
AcDbBlockTableRecord
  2
*Model_Space
340
70D
  0
BLOCK_RECORD
  5
706
330
6ED
100
AcDbSymbolTableRecord
100
AcDbBlockTableRecord
  2
*Paper_Space
340
709
  0
BLOCK_RECORD
  5
718
330
6ED
100
AcDbSymbolTableRecord
100
AcDbBlockTableRecord
  2
$MODEL_SPACE
340
0
  0
BLOCK_RECORD
  5
71B
330
6ED
100
AcDbSymbolTableRecord
100
AcDbBlockTableRecord
  2
$PAPER_SPACE
340
0
  0
BLOCK_RECORD
  5
71E
330
6ED
100
AcDbSymbolTableRecord
100
AcDbBlockTableRecord
  2
*D2
340
0
  0
BLOCK_RECORD
  5
726
330
6ED
100
AcDbSymbolTableRecord
100
AcDbBlockTableRecord
  2
*U3
340
0
102
{BLKREFS
331
727
102
}
  0
BLOCK_RECORD
  5
72C
330
6ED
100
AcDbSymbolTableRecord
100
AcDbBlockTableRecord
  2
*D4
340
0
  0
BLOCK_RECORD
  5
734
330
6ED
100
AcDbSymbolTableRecord
100
AcDbBlockTableRecord
  2
*U5
340
0
102
{BLKREFS
331
735
102
}
  0
BLOCK_RECORD
  5
73A
330
6ED
100
AcDbSymbolTableRecord
100
AcDbBlockTableRecord
  2
*D6
340
0
  0
BLOCK_RECORD
  5
742
330
6ED
100
AcDbSymbolTableRecord
100
AcDbBlockTableRecord
  2
*U7
340
0
102
{BLKREFS
331
743
102
}
  0
BLOCK_RECORD
  5
748
330
6ED
100
AcDbSymbolTableRecord
100
AcDbBlockTableRecord
  2
*D8
340
0
  0
BLOCK_RECORD
  5
750
330
6ED
100
AcDbSymbolTableRecord
100
AcDbBlockTableRecord
  2
*U9
340
0
102
{BLKREFS
331
751
102
}
  0
BLOCK_RECORD
  5
75E
330
6ED
100
AcDbSymbolTableRecord
100
AcDbBlockTableRecord
  2
*U10
340
0
102
{BLKREFS
331
75F
102
}
  0
BLOCK_RECORD
  5
764
330
6ED
100
AcDbSymbolTableRecord
100
AcDbBlockTableRecord
  2
*D11
340
0
  0
BLOCK_RECORD
  5
76C
330
6ED
100
AcDbSymbolTableRecord
100
AcDbBlockTableRecord
  2
*U12
340
0
102
{BLKREFS
331
76D
102
}
  0
BLOCK_RECORD
  5
772
330
6ED
100
AcDbSymbolTableRecord
100
AcDbBlockTableRecord
  2
*D13
340
0
  0
BLOCK_RECORD
  5
77A
330
6ED
100
AcDbSymbolTableRecord
100
AcDbBlockTableRecord
  2
*U14
340
0
102
{BLKREFS
331
77B
102
}
  0
BLOCK_RECORD
  5
780
330
6ED
100
AcDbSymbolTableRecord
100
AcDbBlockTableRecord
  2
*D15
340
0
  0
BLOCK_RECORD
  5
788
330
6ED
100
AcDbSymbolTableRecord
100
AcDbBlockTableRecord
  2
*U16
340
0
102
{BLKREFS
331
789
102
}
  0
BLOCK_RECORD
  5
796
330
6ED
100
AcDbSymbolTableRecord
100
AcDbBlockTableRecord
  2
*U17
340
0
102
{BLKREFS
331
797
102
}
  0
BLOCK_RECORD
  5
79C
330
6ED
100
AcDbSymbolTableRecord
100
AcDbBlockTableRecord
  2
*D18
340
0
  0
BLOCK_RECORD
  5
7A4
330
6ED
100
AcDbSymbolTableRecord
100
AcDbBlockTableRecord
  2
*U19
340
0
102
{BLKREFS
331
7A5
102
}
  0
BLOCK_RECORD
  5
7AA
330
6ED
100
AcDbSymbolTableRecord
100
AcDbBlockTableRecord
  2
*D20
340
0
  0
BLOCK_RECORD
  5
7AE
330
6ED
100
AcDbSymbolTableRecord
100
AcDbBlockTableRecord
  2
*U21
340
0
102
{BLKREFS
331
7AF
102
}
  0
BLOCK_RECORD
  5
7B6
330
6ED
100
AcDbSymbolTableRecord
100
AcDbBlockTableRecord
  2
*D22
340
0
  0
BLOCK_RECORD
  5
7BA
330
6ED
100
AcDbSymbolTableRecord
100
AcDbBlockTableRecord
  2
*U23
340
0
102
{BLKREFS
331
7BB
102
}
  0
BLOCK_RECORD
  5
7C2
330
6ED
100
AcDbSymbolTableRecord
100
AcDbBlockTableRecord
  2
*D24
340
0
  0
BLOCK_RECORD
  5
7CA
330
6ED
100
AcDbSymbolTableRecord
100
AcDbBlockTableRecord
  2
*U25
340
0
102
{BLKREFS
331
7CB
102
}
  0
BLOCK_RECORD
  5
7D0
330
6ED
100
AcDbSymbolTableRecord
100
AcDbBlockTableRecord
  2
*D26
340
0
  0
BLOCK_RECORD
  5
7D8
330
6ED
100
AcDbSymbolTableRecord
100
AcDbBlockTableRecord
  2
*U27
340
0
102
{BLKREFS
331
7D9
102
}
  0
BLOCK_RECORD
  5
7DE
330
6ED
100
AcDbSymbolTableRecord
100
AcDbBlockTableRecord
  2
*D28
340
0
  0
BLOCK_RECORD
  5
7E6
330
6ED
100
AcDbSymbolTableRecord
100
AcDbBlockTableRecord
  2
*U29
340
0
102
{BLKREFS
331
7E7
102
}
  0
BLOCK_RECORD
  5
7EC
330
6ED
100
AcDbSymbolTableRecord
100
AcDbBlockTableRecord
  2
*D30
340
0
  0
BLOCK_RECORD
  5
7F4
330
6ED
100
AcDbSymbolTableRecord
100
AcDbBlockTableRecord
  2
*U31
340
0
102
{BLKREFS
331
7F5
102
}
  0
BLOCK_RECORD
  5
7FA
330
6ED
100
AcDbSymbolTableRecord
100
AcDbBlockTableRecord
  2
*D32
340
0
  0
BLOCK_RECORD
  5
802
330
6ED
100
AcDbSymbolTableRecord
100
AcDbBlockTableRecord
  2
*U33
340
0
102
{BLKREFS
331
803
102
}
  0
BLOCK_RECORD
  5
808
330
6ED
100
AcDbSymbolTableRecord
100
AcDbBlockTableRecord
  2
*D34
340
0
  0
BLOCK_RECORD
  5
810
330
6ED
100
AcDbSymbolTableRecord
100
AcDbBlockTableRecord
  2
*U35
340
0
102
{BLKREFS
331
811
102
}
  0
BLOCK_RECORD
  5
816
330
6ED
100
AcDbSymbolTableRecord
100
AcDbBlockTableRecord
  2
*D36
340
0
  0
BLOCK_RECORD
  5
825
330
6ED
100
AcDbSymbolTableRecord
100
AcDbBlockTableRecord
  2
*D37
340
0
  0
BLOCK_RECORD
  5
82D
330
6ED
100
AcDbSymbolTableRecord
100
AcDbBlockTableRecord
  2
*U38
340
0
102
{BLKREFS
331
82E
102
}
  0
BLOCK_RECORD
  5
833
330
6ED
100
AcDbSymbolTableRecord
100
AcDbBlockTableRecord
  2
*D39
340
0
  0
BLOCK_RECORD
  5
83B
330
6ED
100
AcDbSymbolTableRecord
100
AcDbBlockTableRecord
  2
*U40
340
0
102
{BLKREFS
331
83C
102
}
  0
BLOCK_RECORD
  5
841
330
6ED
100
AcDbSymbolTableRecord
100
AcDbBlockTableRecord
  2
*D41
340
0
  0
BLOCK_RECORD
  5
849
330
6ED
100
AcDbSymbolTableRecord
100
AcDbBlockTableRecord
  2
*U42
340
0
102
{BLKREFS
331
84A
102
}
  0
BLOCK_RECORD
  5
84F
330
6ED
100
AcDbSymbolTableRecord
100
AcDbBlockTableRecord
  2
*D43
340
0
  0
BLOCK_RECORD
  5
857
330
6ED
100
AcDbSymbolTableRecord
100
AcDbBlockTableRecord
  2
*U44
340
0
102
{BLKREFS
331
858
102
}
  0
BLOCK_RECORD
  5
85D
330
6ED
100
AcDbSymbolTableRecord
100
AcDbBlockTableRecord
  2
*D45
340
0
  0
BLOCK_RECORD
  5
865
330
6ED
100
AcDbSymbolTableRecord
100
AcDbBlockTableRecord
  2
*U46
340
0
102
{BLKREFS
331
866
102
}
  0
BLOCK_RECORD
  5
86B
330
6ED
100
AcDbSymbolTableRecord
100
AcDbBlockTableRecord
  2
*D47
340
0
  0
BLOCK_RECORD
  5
873
330
6ED
100
AcDbSymbolTableRecord
100
AcDbBlockTableRecord
  2
*U48
340
0
102
{BLKREFS
331
874
102
}
  0
BLOCK_RECORD
  5
879
330
6ED
100
AcDbSymbolTableRecord
100
AcDbBlockTableRecord
  2
*U49
340
0
102
{BLKREFS
331
926
102
}
  0
BLOCK_RECORD
  5
87E
330
6ED
100
AcDbSymbolTableRecord
100
AcDbBlockTableRecord
  2
*U50
340
0
102
{BLKREFS
331
927
102
}
  0
BLOCK_RECORD
  5
888
330
6ED
100
AcDbSymbolTableRecord
100
AcDbBlockTableRecord
  2
*U51
340
0
102
{BLKREFS
331
92E
102
}
  0
BLOCK_RECORD
  5
88C
330
6ED
100
AcDbSymbolTableRecord
100
AcDbBlockTableRecord
  2
*U52
340
0
102
{BLKREFS
331
940
102
}
  0
BLOCK_RECORD
  5
890
330
6ED
100
AcDbSymbolTableRecord
100
AcDbBlockTableRecord
  2
*U53
340
0
102
{BLKREFS
331
941
102
}
  0
BLOCK_RECORD
  5
894
330
6ED
100
AcDbSymbolTableRecord
100
AcDbBlockTableRecord
  2
*U54
340
0
102
{BLKREFS
331
94C
102
}
  0
BLOCK_RECORD
  5
898
330
6ED
100
AcDbSymbolTableRecord
100
AcDbBlockTableRecord
  2
*U55
340
0
102
{BLKREFS
331
94D
102
}
  0
BLOCK_RECORD
  5
89C
330
6ED
100
AcDbSymbolTableRecord
100
AcDbBlockTableRecord
  2
*U56
340
0
102
{BLKREFS
331
94E
102
}
  0
BLOCK_RECORD
  5
8A0
330
6ED
100
AcDbSymbolTableRecord
100
AcDbBlockTableRecord
  2
*U57
340
0
102
{BLKREFS
331
94F
102
}
  0
BLOCK_RECORD
  5
8A4
330
6ED
100
AcDbSymbolTableRecord
100
AcDbBlockTableRecord
  2
*U58
340
0
102
{BLKREFS
331
96C
102
}
  0
BLOCK_RECORD
  5
8A8
330
6ED
100
AcDbSymbolTableRecord
100
AcDbBlockTableRecord
  2
*U59
340
0
102
{BLKREFS
331
96D
102
}
  0
BLOCK_RECORD
  5
8B0
330
6ED
100
AcDbSymbolTableRecord
100
AcDbBlockTableRecord
  2
*U60
340
0
102
{BLKREFS
331
978
102
}
  0
BLOCK_RECORD
  5
8B9
330
6ED
100
AcDbSymbolTableRecord
100
AcDbBlockTableRecord
  2
*U61
340
0
102
{BLKREFS
331
979
102
}
  0
BLOCK_RECORD
  5
8BD
330
6ED
100
AcDbSymbolTableRecord
100
AcDbBlockTableRecord
  2
*U62
340
0
102
{BLKREFS
331
97A
102
}
  0
BLOCK_RECORD
  5
8C1
330
6ED
100
AcDbSymbolTableRecord
100
AcDbBlockTableRecord
  2
*U63
340
0
102
{BLKREFS
331
97B
102
}
  0
BLOCK_RECORD
  5
9AE
330
6ED
100
AcDbSymbolTableRecord
100
AcDbBlockTableRecord
  2
*D64
340
0
  0
ENDTAB
  0
ENDSEC
  0
SECTION
  2
BLOCKS
  0
BLOCK
  5
70B
330
70A
100
AcDbEntity
  8
0
100
AcDbBlockBegin
  2
*Model_Space
 70
     0
 10
0.0
 20
0.0
 30
0.0
  3
*Model_Space
  1

  0
ENDBLK
  5
70C
330
70A
100
AcDbEntity
  8
0
100
AcDbBlockEnd
  0
BLOCK
  5
707
330
706
100
AcDbEntity
 67
     1
  8
0
100
AcDbBlockBegin
  2
*Paper_Space
 70
     0
 10
0.0
 20
0.0
 30
0.0
  3
*Paper_Space
  1

  0
ENDBLK
  5
708
330
706
100
AcDbEntity
 67
     1
  8
0
100
AcDbBlockEnd
  0
BLOCK
  5
719
330
718
100
AcDbEntity
  8
0
100
AcDbBlockBegin
  2
$MODEL_SPACE
 70
     0
 10
0.0
 20
0.0
 30
0.0
  3
$MODEL_SPACE
  1

  0
ENDBLK
  5
71A
330
718
100
AcDbEntity
  8
0
100
AcDbBlockEnd
  0
BLOCK
  5
71C
330
71B
100
AcDbEntity
  8
0
100
AcDbBlockBegin
  2
$PAPER_SPACE
 70
     0
 10
0.0
 20
0.0
 30
0.0
  3
$PAPER_SPACE
  1

  0
ENDBLK
  5
71D
330
71B
100
AcDbEntity
  8
0
100
AcDbBlockEnd
  0
BLOCK
  5
71F
330
71E
100
AcDbEntity
  8
0
100
AcDbBlockBegin
  2
*D2
 70
     1
 10
0.0
 20
0.0
 30
0.0
  3
*D2
  1

  0
LINE
  5
720
330
71E
100
AcDbEntity
  8
0
 62
     0
100
AcDbLine
 10
1.025862020113516
 20
3.977028452456901
 30
0.0
 11
1.025862020113516
 21
3.366758457079725
 31
0.0
  0
LINE
  5
721
330
71E
100
AcDbEntity
  8
0
 62
     0
100
AcDbLine
 10
8.900862020113516
 20
3.977028452456899
 30
0.0
 11
8.900862020113516
 21
3.366758457079725
 31
0.0
  0
LINE
  5
722
330
71E
100
AcDbEntity
  8
0
 62
     0
100
AcDbLine
 10
1.150862020113515
 20
3.546758457079727
 30
0.0
 11
4.673362020113516
 21
3.546758457079727
 31
0.0
  0
LINE
  5
723
330
71E
100
AcDbEntity
  8
0
 62
     0
100
AcDbLine
 10
8.775862020113516
 20
3.546758457079727
 30
0.0
 11
5.253362020113518
 21
3.546758457079727
 31
0.0
  0
SOLID
  5
724
330
71E
100
AcDbEntity
  8
0
 62
     0
100
AcDbTrace
 10
1.150862020113515
 20
3.56759179041306
 30
0.0
 11
1.150862020113515
 21
3.525925123746392
 31
0.0
 12
1.025862020113516
 22
3.546758457079727
 32
0.0
 13
1.025862020113516
 23
3.546758457079727
 33
0.0
  0
SOLID
  5
725
330
71E
100
AcDbEntity
  8
0
 62
     0
100
AcDbTrace
 10
8.775862020113516
 20
3.56759179041306
 30
0.0
 11
8.775862020113516
 21
3.525925123746392
 31
0.0
 12
8.900862020113516
 22
3.546758457079727
 32
0.0
 13
8.900862020113516
 23
3.546758457079727
 33
0.0
  0
INSERT
  5
727
330
71E
100
AcDbEntity
  8
0
100
AcDbBlockReference
  2
*U3
 10
0.0
 20
0.0
 30
0.0
  0
POINT
  5
728
330
71E
100
AcDbEntity
  8
DEFPOINTS
 62
     0
100
AcDbPoint
 10
1.025862020113516
 20
4.039528452456901
 30
0.0
  0
POINT
  5
729
330
71E
100
AcDbEntity
  8
DEFPOINTS
 62
     0
100
AcDbPoint
 10
8.900862020113516
 20
4.039528452456901
 30
0.0
  0
POINT
  5
72A
330
71E
100
AcDbEntity
  8
DEFPOINTS
 62
     0
100
AcDbPoint
 10
8.900862020113516
 20
3.546758457079727
 30
0.0
  0
ENDBLK
  5
72B
330
71E
100
AcDbEntity
  8
0
100
AcDbBlockEnd
  0
BLOCK
  5
8CD
330
726
100
AcDbEntity
  8
0
100
AcDbBlockBegin
  2
*U3
 70
     1
 10
0.0
 20
0.0
 30
0.0
  3
*U3
  1

  0
TEXT
  5
8CE
330
726
100
AcDbEntity
  8
0
 62
     0
100
AcDbText
 10
4.763362020113516
 20
3.496758457079727
 30
0.0
 40
0.1
  1
7.875
100
AcDbText
  0
ENDBLK
  5
8CF
330
726
100
AcDbEntity
  8
0
100
AcDbBlockEnd
  0
BLOCK
  5
72D
330
72C
100
AcDbEntity
  8
0
100
AcDbBlockBegin
  2
*D4
 70
     1
 10
0.0
 20
0.0
 30
0.0
  3
*D4
  1

  0
LINE
  5
72E
330
72C
100
AcDbEntity
  8
0
 62
     0
100
AcDbLine
 10
8.963362020113516
 20
4.539528452456901
 30
0.0
 11
10.02403511257117
 21
4.539528452456901
 31
0.0
  0
LINE
  5
72F
330
72C
100
AcDbEntity
  8
0
 62
     0
100
AcDbLine
 10
8.963362020113516
 20
4.039528452456901
 30
0.0
 11
10.02403511257117
 21
4.0395284524569
 31
0.0
  0
LINE
  5
730
330
72C
100
AcDbEntity
  8
0
 62
     0
100
AcDbLine
 10
9.844035112571171
 20
4.664528452456901
 30
0.0
 11
9.844035112571171
 21
4.789528452456901
 31
0.0
  0
LINE
  5
731
330
72C
100
AcDbEntity
  8
0
 62
     0
100
AcDbLine
 10
9.84403511257117
 20
3.914528452456899
 30
0.0
 11
9.84403511257117
 21
3.789528452456899
 31
0.0
  0
SOLID
  5
732
330
72C
100
AcDbEntity
  8
0
 62
     0
100
AcDbTrace
 10
9.823201779237836
 20
4.664528452456901
 30
0.0
 11
9.864868445904503
 21
4.664528452456901
 31
0.0
 12
9.844035112571171
 22
4.539528452456901
 32
0.0
 13
9.844035112571171
 23
4.539528452456901
 33
0.0
  0
SOLID
  5
733
330
72C
100
AcDbEntity
  8
0
 62
     0
100
AcDbTrace
 10
9.823201779237836
 20
3.914528452456899
 30
0.0
 11
9.864868445904502
 21
3.914528452456899
 31
0.0
 12
9.844035112571171
 22
4.039528452456901
 32
0.0
 13
9.844035112571171
 23
4.039528452456901
 33
0.0
  0
INSERT
  5
735
330
72C
100
AcDbEntity
  8
0
100
AcDbBlockReference
  2
*U5
 10
0.0
 20
0.0
 30
0.0
  0
POINT
  5
736
330
72C
100
AcDbEntity
  8
DEFPOINTS
 62
     0
100
AcDbPoint
 10
8.900862020113516
 20
4.539528452456901
 30
0.0
  0
POINT
  5
737
330
72C
100
AcDbEntity
  8
DEFPOINTS
 62
     0
100
AcDbPoint
 10
8.900862020113516
 20
4.039528452456901
 30
0.0
  0
POINT
  5
738
330
72C
100
AcDbEntity
  8
DEFPOINTS
 62
     0
100
AcDbPoint
 10
9.844035112571171
 20
4.039528452456901
 30
0.0
  0
ENDBLK
  5
739
330
72C
100
AcDbEntity
  8
0
100
AcDbBlockEnd
  0
BLOCK
  5
8D0
330
734
100
AcDbEntity
  8
0
100
AcDbBlockBegin
  2
*U5
 70
     1
 10
0.0
 20
0.0
 30
0.0
  3
*U5
  1

  0
TEXT
  5
8D1
330
734
100
AcDbEntity
  8
0
 62
     0
100
AcDbText
 10
9.669035112571167
 20
4.252885583383148
 30
0.0
 40
0.1
  1
0.500
100
AcDbText
  0
ENDBLK
  5
8D2
330
734
100
AcDbEntity
  8
0
100
AcDbBlockEnd
  0
BLOCK
  5
73B
330
73A
100
AcDbEntity
  8
0
100
AcDbBlockBegin
  2
*D6
 70
     1
 10
0.0
 20
0.0
 30
0.0
  3
*D6
  1

  0
LINE
  5
73C
330
73A
100
AcDbEntity
  8
0
 62
     0
100
AcDbLine
 10
8.713362087049606
 20
4.319345509733721
 30
0.0
 11
9.450726894932023
 21
4.319345509733721
 31
0.0
  0
LINE
  5
73D
330
73A
100
AcDbEntity
  8
0
 62
     0
100
AcDbLine
 10
8.963362020113516
 20
4.539528452456901
 30
0.0
 11
9.450726894932023
 21
4.539528452456901
 31
0.0
  0
LINE
  5
73E
330
73A
100
AcDbEntity
  8
0
 62
     0
100
AcDbLine
 10
9.270726894932023
 20
4.194345509733721
 30
0.0
 11
9.270726894932023
 21
4.069345509733721
 31
0.0
  0
LINE
  5
73F
330
73A
100
AcDbEntity
  8
0
 62
     0
100
AcDbLine
 10
9.270726894932023
 20
4.664528452456901
 30
0.0
 11
9.270726894932023
 21
4.789528452456901
 31
0.0
  0
SOLID
  5
740
330
73A
100
AcDbEntity
  8
0
 62
     0
100
AcDbTrace
 10
9.249893561598693
 20
4.194345509733721
 30
0.0
 11
9.291560228265359
 21
4.194345509733721
 31
0.0
 12
9.270726894932023
 22
4.319345509733721
 32
0.0
 13
9.270726894932023
 23
4.319345509733721
 33
0.0
  0
SOLID
  5
741
330
73A
100
AcDbEntity
  8
0
 62
     0
100
AcDbTrace
 10
9.249893561598693
 20
4.664528452456901
 30
0.0
 11
9.291560228265359
 21
4.664528452456901
 31
0.0
 12
9.270726894932023
 22
4.539528452456901
 32
0.0
 13
9.270726894932023
 23
4.539528452456901
 33
0.0
  0
INSERT
  5
743
330
73A
100
AcDbEntity
  8
0
100
AcDbBlockReference
  2
*U7
 10
0.0
 20
0.0
 30
0.0
  0
POINT
  5
744
330
73A
100
AcDbEntity
  8
DEFPOINTS
 62
     0
100
AcDbPoint
 10
8.650862087049606
 20
4.319345509733721
 30
0.0
  0
POINT
  5
745
330
73A
100
AcDbEntity
  8
DEFPOINTS
 62
     0
100
AcDbPoint
 10
8.900862020113516
 20
4.539528452456901
 30
0.0
  0
POINT
  5
746
330
73A
100
AcDbEntity
  8
DEFPOINTS
 62
     0
100
AcDbPoint
 10
9.270726894932023
 20
4.539528452456901
 30
0.0
  0
ENDBLK
  5
747
330
73A
100
AcDbEntity
  8
0
100
AcDbBlockEnd
  0
BLOCK
  5
8D3
330
742
100
AcDbEntity
  8
0
100
AcDbBlockBegin
  2
*U7
 70
     1
 10
0.0
 20
0.0
 30
0.0
  3
*U7
  1

  0
TEXT
  5
8D4
330
742
100
AcDbEntity
  8
0
 62
     0
100
AcDbText
 10
9.087393561598693
 20
4.37943698109531
 30
0.0
 40
0.1
  1
0.220
100
AcDbText
  0
ENDBLK
  5
8D5
330
742
100
AcDbEntity
  8
0
100
AcDbBlockEnd
  0
BLOCK
  5
749
330
748
100
AcDbEntity
  8
0
100
AcDbBlockBegin
  2
*D8
 70
     1
 10
0.0
 20
0.0
 30
0.0
  3
*D8
  1

  0
LINE
  5
74A
330
748
100
AcDbEntity
  8
0
 62
     0
100
AcDbLine
 10
6.713362070631744
 20
4.240005245934857
 30
0.0
 11
7.32129648899113
 21
4.240005245934857
 31
0.0
  0
LINE
  5
74B
330
748
100
AcDbEntity
  8
0
 62
     0
100
AcDbLine
 10
8.838362020113516
 20
4.539528452456901
 30
0.0
 11
6.96129648899113
 21
4.539528452456901
 31
0.0
  0
LINE
  5
74C
330
748
100
AcDbEntity
  8
0
 62
     0
100
AcDbLine
 10
7.141296488991129
 20
4.115005245934857
 30
0.0
 11
7.141296488991129
 21
3.990005245934856
 31
0.0
  0
LINE
  5
74D
330
748
100
AcDbEntity
  8
0
 62
     0
100
AcDbLine
 10
7.141296488991129
 20
4.664528452456901
 30
0.0
 11
7.141296488991129
 21
4.789528452456901
 31
0.0
  0
SOLID
  5
74E
330
748
100
AcDbEntity
  8
0
 62
     0
100
AcDbTrace
 10
7.120463155657797
 20
4.115005245934857
 30
0.0
 11
7.162129822324462
 21
4.115005245934857
 31
0.0
 12
7.141296488991129
 22
4.240005245934857
 32
0.0
 13
7.141296488991129
 23
4.240005245934857
 33
0.0
  0
SOLID
  5
74F
330
748
100
AcDbEntity
  8
0
 62
     0
100
AcDbTrace
 10
7.120463155657797
 20
4.664528452456901
 30
0.0
 11
7.162129822324462
 21
4.664528452456901
 31
0.0
 12
7.141296488991129
 22
4.539528452456901
 32
0.0
 13
7.141296488991129
 23
4.539528452456901
 33
0.0
  0
INSERT
  5
751
330
748
100
AcDbEntity
  8
0
100
AcDbBlockReference
  2
*U9
 10
0.0
 20
0.0
 30
0.0
  0
POINT
  5
752
330
748
100
AcDbEntity
  8
DEFPOINTS
 62
     0
100
AcDbPoint
 10
6.650862070631744
 20
4.240005245934857
 30
0.0
  0
POINT
  5
753
330
748
100
AcDbEntity
  8
DEFPOINTS
 62
     0
100
AcDbPoint
 10
8.900862020113516
 20
4.539528452456901
 30
0.0
  0
POINT
  5
754
330
748
100
AcDbEntity
  8
DEFPOINTS
 62
     0
100
AcDbPoint
 10
7.141296488991129
 20
4.539528452456901
 30
0.0
  0
ENDBLK
  5
755
330
748
100
AcDbEntity
  8
0
100
AcDbBlockEnd
  0
BLOCK
  5
8D6
330
750
100
AcDbEntity
  8
0
100
AcDbBlockBegin
  2
*U9
 70
     1
 10
0.0
 20
0.0
 30
0.0
  3
*U9
  1

  0
TEXT
  5
8D7
330
750
100
AcDbEntity
  8
0
 62
     0
100
AcDbText
 10
6.966296488991129
 20
4.339766849195879
 30
0.0
 40
0.1
  1
0.300
100
AcDbText
  0
ENDBLK
  5
8D8
330
750
100
AcDbEntity
  8
0
100
AcDbBlockEnd
  0
BLOCK
  5
8EB
330
75E
100
AcDbEntity
  8
0
100
AcDbBlockBegin
  2
*U10
 70
     1
 10
0.0
 20
0.0
 30
0.0
  3
*U10
  1

  0
TEXT
  5
8EC
330
75E
100
AcDbEntity
  8
0
 62
     0
100
AcDbText
 10
9.101043787409112
 20
5.645083044184677
 30
0.0
 40
0.1
  1
0.220
100
AcDbText
  0
ENDBLK
  5
8ED
330
75E
100
AcDbEntity
  8
0
100
AcDbBlockEnd
  0
BLOCK
  5
765
330
764
100
AcDbEntity
  8
0
100
AcDbBlockBegin
  2
*D11
 70
     1
 10
0.0
 20
0.0
 30
0.0
  3
*D11
  1

  0
LINE
  5
766
330
764
100
AcDbEntity
  8
0
 62
     0
100
AcDbLine
 10
6.713362070631744
 20
5.885651309024223
 30
0.0
 11
7.334946673949977
 21
5.885651309024223
 31
0.0
  0
LINE
  5
767
330
764
100
AcDbEntity
  8
0
 62
     0
100
AcDbLine
 10
8.838362020113516
 20
5.585174515546267
 30
0.0
 11
6.97494667394998
 21
5.585174515546267
 31
0.0
  0
LINE
  5
768
330
764
100
AcDbEntity
  8
0
 62
     0
100
AcDbLine
 10
7.15494667394998
 20
6.010651309024223
 30
0.0
 11
7.15494667394998
 21
6.135651309024223
 31
0.0
  0
LINE
  5
769
330
764
100
AcDbEntity
  8
0
 62
     0
100
AcDbLine
 10
7.15494667394998
 20
5.460174515546267
 30
0.0
 11
7.15494667394998
 21
5.335174515546266
 31
0.0
  0
SOLID
  5
76A
330
764
100
AcDbEntity
  8
0
 62
     0
100
AcDbTrace
 10
7.134113340616647
 20
6.010651309024223
 30
0.0
 11
7.175780007283312
 21
6.010651309024223
 31
0.0
 12
7.15494667394998
 22
5.885651309024223
 32
0.0
 13
7.15494667394998
 23
5.885651309024223
 33
0.0
  0
SOLID
  5
76B
330
764
100
AcDbEntity
  8
0
 62
     0
100
AcDbTrace
 10
7.134113340616647
 20
5.460174515546267
 30
0.0
 11
7.175780007283312
 21
5.460174515546267
 31
0.0
 12
7.15494667394998
 22
5.585174515546267
 32
0.0
 13
7.15494667394998
 23
5.585174515546267
 33
0.0
  0
INSERT
  5
76D
330
764
100
AcDbEntity
  8
0
100
AcDbBlockReference
  2
*U12
 10
0.0
 20
0.0
 30
0.0
  0
POINT
  5
76E
330
764
100
AcDbEntity
  8
DEFPOINTS
 62
     0
100
AcDbPoint
 10
6.650862070631744
 20
5.885651309024223
 30
0.0
  0
POINT
  5
76F
330
764
100
AcDbEntity
  8
DEFPOINTS
 62
     0
100
AcDbPoint
 10
8.900862020113516
 20
5.585174515546267
 30
0.0
  0
POINT
  5
770
330
764
100
AcDbEntity
  8
DEFPOINTS
 62
     0
100
AcDbPoint
 10
7.15494667394998
 20
5.585174515546267
 30
0.0
  0
ENDBLK
  5
771
330
764
100
AcDbEntity
  8
0
100
AcDbBlockEnd
  0
BLOCK
  5
8EE
330
76C
100
AcDbEntity
  8
0
100
AcDbBlockBegin
  2
*U12
 70
     1
 10
0.0
 20
0.0
 30
0.0
  3
*U12
  1

  0
TEXT
  5
8EF
330
76C
100
AcDbEntity
  8
0
 62
     0
100
AcDbText
 10
6.979946673949978
 20
5.685412912285245
 30
0.0
 40
0.1
  1
0.300
100
AcDbText
  0
ENDBLK
  5
8F0
330
76C
100
AcDbEntity
  8
0
100
AcDbBlockEnd
  0
BLOCK
  5
773
330
772
100
AcDbEntity
  8
0
100
AcDbBlockBegin
  2
*D13
 70
     1
 10
0.0
 20
0.0
 30
0.0
  3
*D13
  1

  0
LINE
  5
774
330
772
100
AcDbEntity
  8
0
 62
     0
100
AcDbLine
 10
6.650862070631744
 20
5.823151309024223
 30
0.0
 11
6.650862070631744
 21
4.821738683468999
 31
0.0
  0
LINE
  5
775
330
772
100
AcDbEntity
  8
0
 62
     0
100
AcDbLine
 10
8.900862020113516
 20
5.522674515546267
 30
0.0
 11
8.900862020113516
 21
4.821738683468999
 31
0.0
  0
LINE
  5
776
330
772
100
AcDbEntity
  8
0
 62
     0
100
AcDbLine
 10
6.775862070631744
 20
5.001738683469
 30
0.0
 11
7.487538779799018
 21
5.001738683469
 31
0.0
  0
LINE
  5
777
330
772
100
AcDbEntity
  8
0
 62
     0
100
AcDbLine
 10
8.775862020113516
 20
5.001738683469
 30
0.0
 11
8.050872113132347
 21
5.001738683469
 31
0.0
  0
SOLID
  5
778
330
772
100
AcDbEntity
  8
0
 62
     0
100
AcDbTrace
 10
6.775862070631744
 20
5.022572016802333
 30
0.0
 11
6.775862070631744
 21
4.980905350135667
 31
0.0
 12
6.650862070631744
 22
5.001738683469
 32
0.0
 13
6.650862070631744
 23
5.001738683469
 33
0.0
  0
SOLID
  5
779
330
772
100
AcDbEntity
  8
0
 62
     0
100
AcDbTrace
 10
8.775862020113516
 20
5.022572016802333
 30
0.0
 11
8.775862020113516
 21
4.980905350135667
 31
0.0
 12
8.900862020113516
 22
5.001738683469
 32
0.0
 13
8.900862020113516
 23
5.001738683469
 33
0.0
  0
INSERT
  5
77B
330
772
100
AcDbEntity
  8
0
100
AcDbBlockReference
  2
*U14
 10
0.0
 20
0.0
 30
0.0
  0
POINT
  5
77C
330
772
100
AcDbEntity
  8
DEFPOINTS
 62
     0
100
AcDbPoint
 10
6.650862070631744
 20
5.885651309024223
 30
0.0
  0
POINT
  5
77D
330
772
100
AcDbEntity
  8
DEFPOINTS
 62
     0
100
AcDbPoint
 10
8.900862020113516
 20
5.585174515546267
 30
0.0
  0
POINT
  5
77E
330
772
100
AcDbEntity
  8
DEFPOINTS
 62
     0
100
AcDbPoint
 10
8.900862020113516
 20
5.001738683469
 30
0.0
  0
ENDBLK
  5
77F
330
772
100
AcDbEntity
  8
0
100
AcDbBlockEnd
  0
BLOCK
  5
8F1
330
77A
100
AcDbEntity
  8
0
100
AcDbBlockBegin
  2
*U14
 70
     1
 10
0.0
 20
0.0
 30
0.0
  3
*U14
  1

  0
TEXT
  5
8F2
330
77A
100
AcDbEntity
  8
0
 62
     0
100
AcDbText
 10
7.577538779799017
 20
4.951738683469
 30
0.0
 40
0.1
  1
2.250
100
AcDbText
  0
ENDBLK
  5
8F3
330
77A
100
AcDbEntity
  8
0
100
AcDbBlockEnd
  0
BLOCK
  5
781
330
780
100
AcDbEntity
  8
0
100
AcDbBlockBegin
  2
*D15
 70
     1
 10
0.0
 20
0.0
 30
0.0
  3
*D15
  1

  0
LINE
  5
782
330
780
100
AcDbEntity
  8
0
 62
     0
100
AcDbLine
 10
8.650862087049606
 20
5.867491572823087
 30
0.0
 11
8.650862087049606
 21
6.504669840049446
 31
0.0
  0
LINE
  5
783
330
780
100
AcDbEntity
  8
0
 62
     0
100
AcDbLine
 10
5.100862220740584
 20
5.866517300827023
 30
0.0
 11
5.100862220740584
 21
6.504669840049446
 31
0.0
  0
LINE
  5
784
330
780
100
AcDbEntity
  8
0
 62
     0
100
AcDbLine
 10
8.525862087049606
 20
6.324669840049446
 30
0.0
 11
6.631251856122275
 21
6.324669840049446
 31
0.0
  0
LINE
  5
785
330
780
100
AcDbEntity
  8
0
 62
     0
100
AcDbLine
 10
5.225862220740584
 20
6.324669840049446
 30
0.0
 11
6.067918522788943
 21
6.324669840049446
 31
0.0
  0
SOLID
  5
786
330
780
100
AcDbEntity
  8
0
 62
     0
100
AcDbTrace
 10
8.525862087049606
 20
6.34550317338278
 30
0.0
 11
8.525862087049606
 21
6.303836506716113
 31
0.0
 12
8.650862087049606
 22
6.324669840049446
 32
0.0
 13
8.650862087049606
 23
6.324669840049446
 33
0.0
  0
SOLID
  5
787
330
780
100
AcDbEntity
  8
0
 62
     0
100
AcDbTrace
 10
5.225862220740584
 20
6.34550317338278
 30
0.0
 11
5.225862220740584
 21
6.303836506716113
 31
0.0
 12
5.100862220740584
 22
6.324669840049446
 32
0.0
 13
5.100862220740584
 23
6.324669840049446
 33
0.0
  0
INSERT
  5
789
330
780
100
AcDbEntity
  8
0
100
AcDbBlockReference
  2
*U16
 10
0.0
 20
0.0
 30
0.0
  0
POINT
  5
78A
330
780
100
AcDbEntity
  8
DEFPOINTS
 62
     0
100
AcDbPoint
 10
8.650862087049606
 20
5.804991572823087
 30
0.0
  0
POINT
  5
78B
330
780
100
AcDbEntity
  8
DEFPOINTS
 62
     0
100
AcDbPoint
 10
5.100862220740584
 20
5.804017300827023
 30
0.0
  0
POINT
  5
78C
330
780
100
AcDbEntity
  8
DEFPOINTS
 62
     0
100
AcDbPoint
 10
5.100862220740584
 20
6.324669840049446
 30
0.0
  0
ENDBLK
  5
78D
330
780
100
AcDbEntity
  8
0
100
AcDbBlockEnd
  0
BLOCK
  5
8F4
330
788
100
AcDbEntity
  8
0
100
AcDbBlockBegin
  2
*U16
 70
     1
 10
0.0
 20
0.0
 30
0.0
  3
*U16
  1

  0
TEXT
  5
8F5
330
788
100
AcDbEntity
  8
0
 62
     0
100
AcDbText
 10
6.157918522788941
 20
6.274669840049447
 30
0.0
 40
0.1
  1
3.550
100
AcDbText
  0
ENDBLK
  5
8F6
330
788
100
AcDbEntity
  8
0
100
AcDbBlockEnd
  0
BLOCK
  5
8F7
330
796
100
AcDbEntity
  8
0
100
AcDbBlockBegin
  2
*U17
 70
     1
 10
0.0
 20
0.0
 30
0.0
  3
*U17
  1

  0
TEXT
  5
8F8
330
796
100
AcDbEntity
  8
0
 62
     0
100
AcDbText
 10
9.240862020113516
 20
6.261031376674266
 30
0.0
 40
0.1
  1
0.250
100
AcDbText
  0
ENDBLK
  5
8F9
330
796
100
AcDbEntity
  8
0
100
AcDbBlockEnd
  0
BLOCK
  5
79D
330
79C
100
AcDbEntity
  8
0
100
AcDbBlockBegin
  2
*D18
 70
     1
 10
0.0
 20
0.0
 30
0.0
  3
*D18
  1

  0
LINE
  5
79E
330
79C
100
AcDbEntity
  8
0
 62
     0
100
AcDbLine
 10
5.100862220740584
 20
5.866517300827023
 30
0.0
 11
5.100862220740584
 21
6.504669840049446
 31
0.0
  0
LINE
  5
79F
330
79C
100
AcDbEntity
  8
0
 62
     0
100
AcDbLine
 10
1.550862354431561
 20
5.865543028830961
 30
0.0
 11
1.550862354431561
 21
6.504669840049446
 31
0.0
  0
LINE
  5
7A0
330
79C
100
AcDbEntity
  8
0
 62
     0
100
AcDbLine
 10
4.975862220740584
 20
6.324669840049446
 30
0.0
 11
3.150452117965571
 21
6.324669840049446
 31
0.0
  0
LINE
  5
7A1
330
79C
100
AcDbEntity
  8
0
 62
     0
100
AcDbLine
 10
1.675862354431561
 20
6.324669840049446
 30
0.0
 11
2.587118784632238
 21
6.324669840049446
 31
0.0
  0
SOLID
  5
7A2
330
79C
100
AcDbEntity
  8
0
 62
     0
100
AcDbTrace
 10
4.975862220740584
 20
6.34550317338278
 30
0.0
 11
4.975862220740584
 21
6.303836506716113
 31
0.0
 12
5.100862220740584
 22
6.324669840049446
 32
0.0
 13
5.100862220740584
 23
6.324669840049446
 33
0.0
  0
SOLID
  5
7A3
330
79C
100
AcDbEntity
  8
0
 62
     0
100
AcDbTrace
 10
1.675862354431561
 20
6.34550317338278
 30
0.0
 11
1.675862354431561
 21
6.303836506716113
 31
0.0
 12
1.550862354431561
 22
6.324669840049446
 32
0.0
 13
1.550862354431561
 23
6.324669840049446
 33
0.0
  0
INSERT
  5
7A5
330
79C
100
AcDbEntity
  8
0
100
AcDbBlockReference
  2
*U19
 10
0.0
 20
0.0
 30
0.0
  0
POINT
  5
7A6
330
79C
100
AcDbEntity
  8
DEFPOINTS
 62
     0
100
AcDbPoint
 10
5.100862220740584
 20
5.804017300827023
 30
0.0
  0
POINT
  5
7A7
330
79C
100
AcDbEntity
  8
DEFPOINTS
 62
     0
100
AcDbPoint
 10
1.550862354431561
 20
5.803043028830961
 30
0.0
  0
POINT
  5
7A8
330
79C
100
AcDbEntity
  8
DEFPOINTS
 62
     0
100
AcDbPoint
 10
1.550862354431561
 20
6.324669840049446
 30
0.0
  0
ENDBLK
  5
7A9
330
79C
100
AcDbEntity
  8
0
100
AcDbBlockEnd
  0
BLOCK
  5
8FA
330
7A4
100
AcDbEntity
  8
0
100
AcDbBlockBegin
  2
*U19
 70
     1
 10
0.0
 20
0.0
 30
0.0
  3
*U19
  1

  0
TEXT
  5
8FB
330
7A4
100
AcDbEntity
  8
0
 62
     0
100
AcDbText
 10
2.677118784632237
 20
6.274669840049447
 30
0.0
 40
0.1
  1
3.550
100
AcDbText
  0
ENDBLK
  5
8FC
330
7A4
100
AcDbEntity
  8
0
100
AcDbBlockEnd
  0
BLOCK
  5
7AB
330
7AA
100
AcDbEntity
  8
0
100
AcDbBlockBegin
  2
*D20
 70
     1
 10
0.0
 20
0.0
 30
0.0
  3
*D20
  1

  0
LINE
  5
7AC
330
7AA
100
AcDbEntity
  8
0
 62
     0
100
AcDbLine
 10
2.092872549537847
 20
5.301784934774238
 30
0.0
 11
1.967872549537844
 21
5.301784934774238
 31
0.0
  0
LINE
  5
7AD
330
7AA
100
AcDbEntity
  8
0
 62
     0
100
AcDbLine
 10
1.967872549537844
 20
5.301784934774238
 30
0.0
 11
1.712667539761534
 21
5.608548602174736
 31
0.0
  0
INSERT
  5
7AF
330
7AA
100
AcDbEntity
  8
0
100
AcDbBlockReference
  2
*U21
 10
0.0
 20
0.0
 30
0.0
  0
SOLID
  5
7B0
330
7AA
100
AcDbEntity
  8
0
 62
     0
100
AcDbTrace
 10
1.728683220480918
 20
5.621872481072131
 30
0.0
 11
1.696651859042149
 21
5.595224723277341
 31
0.0
 12
1.632724266377159
 22
5.704642686491053
 32
0.0
 13
1.632724266377159
 23
5.704642686491053
 33
0.0
  0
LINE
  5
7B1
330
7AA
100
AcDbEntity
  8
0
 62
     0
100
AcDbLine
 10
1.46086235443156
 20
5.803043028830959
 30
0.0
 11
1.64086235443156
 21
5.803043028830959
 31
0.0
  0
LINE
  5
7B2
330
7AA
100
AcDbEntity
  8
0
 62
     0
100
AcDbLine
 10
1.550862354431561
 20
5.713043028830959
 30
0.0
 11
1.55086235443156
 21
5.893043028830961
 31
0.0
  0
POINT
  5
7B3
330
7AA
100
AcDbEntity
  8
DEFPOINTS
 62
     0
100
AcDbPoint
 10
1.632724266377159
 20
5.704642686491053
 30
0.0
  0
POINT
  5
7B4
330
7AA
100
AcDbEntity
  8
DEFPOINTS
 62
     0
100
AcDbPoint
 10
1.469000442485963
 20
5.901443371170867
 30
0.0
  0
ENDBLK
  5
7B5
330
7AA
100
AcDbEntity
  8
0
100
AcDbBlockEnd
  0
BLOCK
  5
8FD
330
7AE
100
AcDbEntity
  8
0
100
AcDbBlockBegin
  2
*U21
 70
     1
 10
0.0
 20
0.0
 30
0.0
  3
*U21
  1

  0
TEXT
  5
8FE
330
7AE
100
AcDbEntity
  8
0
 62
     0
100
AcDbText
 10
2.182872549537846
 20
5.251784934774238
 30
0.0
 40
0.1
  1
\U+22050.256
100
AcDbText
  0
ENDBLK
  5
8FF
330
7AE
100
AcDbEntity
  8
0
100
AcDbBlockEnd
  0
BLOCK
  5
7B7
330
7B6
100
AcDbEntity
  8
0
100
AcDbBlockBegin
  2
*D22
 70
     1
 10
0.0
 20
0.0
 30
0.0
  3
*D22
  1

  0
LINE
  5
7B8
330
7B6
100
AcDbEntity
  8
0
 62
     0
100
AcDbLine
 10
1.901769837559181
 20
4.974461756718648
 30
0.0
 11
1.776769837559178
 21
4.974461756718648
 31
0.0
  0
LINE
  5
7B9
330
7B6
100
AcDbEntity
  8
0
 62
     0
100
AcDbLine
 10
1.776769837559178
 20
4.974461756718648
 30
0.0
 11
1.633063097670595
 21
5.501547941290632
 31
0.0
  0
INSERT
  5
7BB
330
7B6
100
AcDbEntity
  8
0
100
AcDbBlockReference
  2
*U23
 10
0.0
 20
0.0
 30
0.0
  0
SOLID
  5
7BC
330
7B6
100
AcDbEntity
  8
0
 62
     0
100
AcDbTrace
 10
1.653162770173284
 20
5.5070279908399
 30
0.0
 11
1.612963425167905
 21
5.496067891741362
 31
0.0
 12
1.600182800374982
 22
5.622145976306764
 32
0.0
 13
1.600182800374982
 23
5.622145976306764
 33
0.0
  0
LINE
  5
7BD
330
7B6
100
AcDbEntity
  8
0
 62
     0
100
AcDbLine
 10
1.46086235443156
 20
5.803043028830963
 30
0.0
 11
1.64086235443156
 21
5.803043028830961
 31
0.0
  0
LINE
  5
7BE
330
7B6
100
AcDbEntity
  8
0
 62
     0
100
AcDbLine
 10
1.55086235443156
 20
5.713043028830963
 30
0.0
 11
1.55086235443156
 21
5.893043028830961
 31
0.0
  0
POINT
  5
7BF
330
7B6
100
AcDbEntity
  8
DEFPOINTS
 62
     0
100
AcDbPoint
 10
1.600182800374982
 20
5.622145976306764
 30
0.0
  0
POINT
  5
7C0
330
7B6
100
AcDbEntity
  8
DEFPOINTS
 62
     0
100
AcDbPoint
 10
1.501541908488139
 20
5.98394008135516
 30
0.0
  0
ENDBLK
  5
7C1
330
7B6
100
AcDbEntity
  8
0
100
AcDbBlockEnd
  0
BLOCK
  5
900
330
7BA
100
AcDbEntity
  8
0
100
AcDbBlockBegin
  2
*U23
 70
     1
 10
0.0
 20
0.0
 30
0.0
  3
*U23
  1

  0
TEXT
  5
901
330
7BA
100
AcDbEntity
  8
0
 62
     0
100
AcDbText
 10
1.991769837559179
 20
4.924461756718648
 30
0.0
 40
0.1
  1
%%C0.375 X .375
100
AcDbText
  0
ENDBLK
  5
902
330
7BA
100
AcDbEntity
  8
0
100
AcDbBlockEnd
  0
BLOCK
  5
7C3
330
7C2
100
AcDbEntity
  8
0
100
AcDbBlockBegin
  2
*D24
 70
     1
 10
0.0
 20
0.0
 30
0.0
  3
*D24
  1

  0
LINE
  5
7C4
330
7C2
100
AcDbEntity
  8
0
 62
     0
100
AcDbLine
 10
8.775862020113516
 20
2.993361690703013
 30
0.0
 11
9.805631989823227
 21
2.993361690703013
 31
0.0
  0
LINE
  5
7C5
330
7C2
100
AcDbEntity
  8
0
 62
     0
100
AcDbLine
 10
8.963362020113516
 20
1.493361690703014
 30
0.0
 11
9.805631989823227
 21
1.493361690703014
 31
0.0
  0
LINE
  5
7C6
330
7C2
100
AcDbEntity
  8
0
 62
     0
100
AcDbLine
 10
9.625631989823226
 20
2.868361690703013
 30
0.0
 11
9.625631989823226
 21
2.356200363690089
 31
0.0
  0
LINE
  5
7C7
330
7C2
100
AcDbEntity
  8
0
 62
     0
100
AcDbLine
 10
9.625631989823226
 20
1.618361690703014
 30
0.0
 11
9.625631989823226
 21
2.07620036369009
 31
0.0
  0
SOLID
  5
7C8
330
7C2
100
AcDbEntity
  8
0
 62
     0
100
AcDbTrace
 10
9.60479865648989
 20
2.868361690703013
 30
0.0
 11
9.64646532315656
 21
2.868361690703013
 31
0.0
 12
9.625631989823226
 22
2.993361690703013
 32
0.0
 13
9.625631989823226
 23
2.993361690703013
 33
0.0
  0
SOLID
  5
7C9
330
7C2
100
AcDbEntity
  8
0
 62
     0
100
AcDbTrace
 10
9.60479865648989
 20
1.618361690703014
 30
0.0
 11
9.64646532315656
 21
1.618361690703014
 31
0.0
 12
9.625631989823226
 22
1.493361690703014
 32
0.0
 13
9.625631989823226
 23
1.493361690703014
 33
0.0
  0
INSERT
  5
7CB
330
7C2
100
AcDbEntity
  8
0
100
AcDbBlockReference
  2
*U25
 10
0.0
 20
0.0
 30
0.0
  0
POINT
  5
7CC
330
7C2
100
AcDbEntity
  8
DEFPOINTS
 62
     0
100
AcDbPoint
 10
8.713362020113516
 20
2.993361690703013
 30
0.0
  0
POINT
  5
7CD
330
7C2
100
AcDbEntity
  8
DEFPOINTS
 62
     0
100
AcDbPoint
 10
8.900862020113516
 20
1.493361690703014
 30
0.0
  0
POINT
  5
7CE
330
7C2
100
AcDbEntity
  8
DEFPOINTS
 62
     0
100
AcDbPoint
 10
9.625631989823226
 20
1.493361690703014
 30
0.0
  0
ENDBLK
  5
7CF
330
7C2
100
AcDbEntity
  8
0
100
AcDbBlockEnd
  0
BLOCK
  5
8D9
330
7CA
100
AcDbEntity
  8
0
100
AcDbBlockBegin
  2
*U25
 70
     1
 10
0.0
 20
0.0
 30
0.0
  3
*U25
  1

  0
TEXT
  5
8DA
330
7CA
100
AcDbEntity
  8
0
 62
     0
100
AcDbText
 10
9.45896532315656
 20
2.16620036369009
 30
0.0
 40
0.1
  1
1.500
100
AcDbText
  0
ENDBLK
  5
8DB
330
7CA
100
AcDbEntity
  8
0
100
AcDbBlockEnd
  0
BLOCK
  5
7D1
330
7D0
100
AcDbEntity
  8
0
100
AcDbBlockBegin
  2
*D26
 70
     1
 10
0.0
 20
0.0
 30
0.0
  3
*D26
  1

  0
LINE
  5
7D2
330
7D0
100
AcDbEntity
  8
0
 62
     0
100
AcDbLine
 10
1.150862020113514
 20
2.243361690703016
 30
0.0
 11
0.3468326880720161
 21
2.243361690703016
 31
0.0
  0
LINE
  5
7D3
330
7D0
100
AcDbEntity
  8
0
 62
     0
100
AcDbLine
 10
1.150862020113514
 20
1.493361690703014
 30
0.0
 11
0.3468326880720159
 21
1.493361690703014
 31
0.0
  0
LINE
  5
7D4
330
7D0
100
AcDbEntity
  8
0
 62
     0
100
AcDbLine
 10
0.5268326880720161
 20
2.118361690703015
 30
0.0
 11
0.5268326880720161
 21
1.974323332133783
 31
0.0
  0
LINE
  5
7D5
330
7D0
100
AcDbEntity
  8
0
 62
     0
100
AcDbLine
 10
0.526832688072016
 20
1.618361690703014
 30
0.0
 11
0.526832688072016
 21
1.694323332133784
 31
0.0
  0
SOLID
  5
7D6
330
7D0
100
AcDbEntity
  8
0
 62
     0
100
AcDbTrace
 10
0.5059993547386829
 20
2.118361690703015
 30
0.0
 11
0.5476660214053495
 21
2.118361690703015
 31
0.0
 12
0.5268326880720161
 22
2.243361690703016
 32
0.0
 13
0.5268326880720161
 23
2.243361690703016
 33
0.0
  0
SOLID
  5
7D7
330
7D0
100
AcDbEntity
  8
0
 62
     0
100
AcDbTrace
 10
0.5059993547386826
 20
1.618361690703014
 30
0.0
 11
0.5476660214053494
 21
1.618361690703014
 31
0.0
 12
0.526832688072016
 22
1.493361690703014
 32
0.0
 13
0.526832688072016
 23
1.493361690703014
 33
0.0
  0
INSERT
  5
7D9
330
7D0
100
AcDbEntity
  8
0
100
AcDbBlockReference
  2
*U27
 10
0.0
 20
0.0
 30
0.0
  0
POINT
  5
7DA
330
7D0
100
AcDbEntity
  8
DEFPOINTS
 62
     0
100
AcDbPoint
 10
1.213362020113514
 20
2.243361690703016
 30
0.0
  0
POINT
  5
7DB
330
7D0
100
AcDbEntity
  8
DEFPOINTS
 62
     0
100
AcDbPoint
 10
1.213362020113514
 20
1.493361690703014
 30
0.0
  0
POINT
  5
7DC
330
7D0
100
AcDbEntity
  8
DEFPOINTS
 62
     0
100
AcDbPoint
 10
0.526832688072016
 20
1.493361690703014
 30
0.0
  0
ENDBLK
  5
7DD
330
7D0
100
AcDbEntity
  8
0
100
AcDbBlockEnd
  0
BLOCK
  5
8E8
330
7D8
100
AcDbEntity
  8
0
100
AcDbBlockBegin
  2
*U27
 70
     1
 10
0.0
 20
0.0
 30
0.0
  3
*U27
  1

  0
TEXT
  5
8E9
330
7D8
100
AcDbEntity
  8
0
 62
     0
100
AcDbText
 10
0.3434993547386824
 20
1.784323332133783
 30
0.0
 40
0.1
  1
0.750
100
AcDbText
  0
ENDBLK
  5
8EA
330
7D8
100
AcDbEntity
  8
0
100
AcDbBlockEnd
  0
BLOCK
  5
7DF
330
7DE
100
AcDbEntity
  8
0
100
AcDbBlockBegin
  2
*D28
 70
     1
 10
0.0
 20
0.0
 30
0.0
  3
*D28
  1

  0
LINE
  5
7E0
330
7DE
100
AcDbEntity
  8
0
 62
     0
100
AcDbLine
 10
8.775862020113516
 20
2.993361690703011
 30
0.0
 11
9.470747004968371
 21
2.993361690703011
 31
0.0
  0
LINE
  5
7E1
330
7DE
100
AcDbEntity
  8
0
 62
     0
100
AcDbLine
 10
8.963362020113516
 20
2.80586169070301
 30
0.0
 11
9.470747004968371
 21
2.80586169070301
 31
0.0
  0
LINE
  5
7E2
330
7DE
100
AcDbEntity
  8
0
 62
     0
100
AcDbLine
 10
9.290747004968372
 20
3.118361690703011
 30
0.0
 11
9.290747004968372
 21
3.243361690703011
 31
0.0
  0
LINE
  5
7E3
330
7DE
100
AcDbEntity
  8
0
 62
     0
100
AcDbLine
 10
9.290747004968372
 20
2.68086169070301
 30
0.0
 11
9.290747004968372
 21
2.55586169070301
 31
0.0
  0
SOLID
  5
7E4
330
7DE
100
AcDbEntity
  8
0
 62
     0
100
AcDbTrace
 10
9.269913671635038
 20
3.118361690703011
 30
0.0
 11
9.311580338301702
 21
3.118361690703011
 31
0.0
 12
9.290747004968372
 22
2.993361690703011
 32
0.0
 13
9.290747004968372
 23
2.993361690703011
 33
0.0
  0
SOLID
  5
7E5
330
7DE
100
AcDbEntity
  8
0
 62
     0
100
AcDbTrace
 10
9.269913671635038
 20
2.68086169070301
 30
0.0
 11
9.311580338301702
 21
2.68086169070301
 31
0.0
 12
9.290747004968372
 22
2.80586169070301
 32
0.0
 13
9.290747004968372
 23
2.80586169070301
 33
0.0
  0
INSERT
  5
7E7
330
7DE
100
AcDbEntity
  8
0
100
AcDbBlockReference
  2
*U29
 10
0.0
 20
0.0
 30
0.0
  0
POINT
  5
7E8
330
7DE
100
AcDbEntity
  8
DEFPOINTS
 62
     0
100
AcDbPoint
 10
8.713362020113516
 20
2.993361690703011
 30
0.0
  0
POINT
  5
7E9
330
7DE
100
AcDbEntity
  8
DEFPOINTS
 62
     0
100
AcDbPoint
 10
8.900862020113516
 20
2.80586169070301
 30
0.0
  0
POINT
  5
7EA
330
7DE
100
AcDbEntity
  8
DEFPOINTS
 62
     0
100
AcDbPoint
 10
9.290747004968372
 20
2.80586169070301
 30
0.0
  0
ENDBLK
  5
7EB
330
7DE
100
AcDbEntity
  8
0
100
AcDbBlockEnd
  0
BLOCK
  5
8DC
330
7E6
100
AcDbEntity
  8
0
100
AcDbBlockBegin
  2
*U29
 70
     1
 10
0.0
 20
0.0
 30
0.0
  3
*U29
  1

  0
TEXT
  5
8DD
330
7E6
100
AcDbEntity
  8
0
 62
     0
100
AcDbText
 10
9.115747004968373
 20
2.849611690703012
 30
0.0
 40
0.1
  1
0.188
100
AcDbText
  0
ENDBLK
  5
8DE
330
7E6
100
AcDbEntity
  8
0
100
AcDbBlockEnd
  0
BLOCK
  5
7ED
330
7EC
100
AcDbEntity
  8
0
100
AcDbBlockBegin
  2
*D30
 70
     1
 10
0.0
 20
0.0
 30
0.0
  3
*D30
  1

  0
LINE
  5
7EE
330
7EC
100
AcDbEntity
  8
0
 62
     0
100
AcDbLine
 10
0.9633620201135164
 20
2.055861690703015
 30
0.0
 11
0.6139557851934258
 21
2.055861690703015
 31
0.0
  0
LINE
  5
7EF
330
7EC
100
AcDbEntity
  8
0
 62
     0
100
AcDbLine
 10
1.150862020113514
 20
2.243361690703016
 30
0.0
 11
0.6139557851934258
 21
2.243361690703016
 31
0.0
  0
LINE
  5
7F0
330
7EC
100
AcDbEntity
  8
0
 62
     0
100
AcDbLine
 10
0.7939557851934258
 20
1.930861690703015
 30
0.0
 11
0.7939557851934258
 21
1.805861690703015
 31
0.0
  0
LINE
  5
7F1
330
7EC
100
AcDbEntity
  8
0
 62
     0
100
AcDbLine
 10
0.7939557851934258
 20
2.368361690703016
 30
0.0
 11
0.7939557851934258
 21
2.493361690703016
 31
0.0
  0
SOLID
  5
7F2
330
7EC
100
AcDbEntity
  8
0
 62
     0
100
AcDbTrace
 10
0.7731224518600924
 20
1.930861690703015
 30
0.0
 11
0.8147891185267591
 21
1.930861690703015
 31
0.0
 12
0.7939557851934258
 22
2.055861690703015
 32
0.0
 13
0.7939557851934258
 23
2.055861690703015
 33
0.0
  0
SOLID
  5
7F3
330
7EC
100
AcDbEntity
  8
0
 62
     0
100
AcDbTrace
 10
0.7731224518600924
 20
2.368361690703016
 30
0.0
 11
0.8147891185267591
 21
2.368361690703016
 31
0.0
 12
0.7939557851934258
 22
2.243361690703016
 32
0.0
 13
0.7939557851934258
 23
2.243361690703016
 33
0.0
  0
INSERT
  5
7F5
330
7EC
100
AcDbEntity
  8
0
100
AcDbBlockReference
  2
*U31
 10
0.0
 20
0.0
 30
0.0
  0
POINT
  5
7F6
330
7EC
100
AcDbEntity
  8
DEFPOINTS
 62
     0
100
AcDbPoint
 10
1.025862020113516
 20
2.055861690703015
 30
0.0
  0
POINT
  5
7F7
330
7EC
100
AcDbEntity
  8
DEFPOINTS
 62
     0
100
AcDbPoint
 10
1.213362020113514
 20
2.243361690703016
 30
0.0
  0
POINT
  5
7F8
330
7EC
100
AcDbEntity
  8
DEFPOINTS
 62
     0
100
AcDbPoint
 10
0.7939557851934258
 20
2.243361690703016
 30
0.0
  0
ENDBLK
  5
7F9
330
7EC
100
AcDbEntity
  8
0
100
AcDbBlockEnd
  0
BLOCK
  5
8DF
330
7F4
100
AcDbEntity
  8
0
100
AcDbBlockBegin
  2
*U31
 70
     1
 10
0.0
 20
0.0
 30
0.0
  3
*U31
  1

  0
TEXT
  5
8E0
330
7F4
100
AcDbEntity
  8
0
 62
     0
100
AcDbText
 10
0.6189557851934256
 20
2.099611690703016
 30
0.0
 40
0.1
  1
0.188
100
AcDbText
  0
ENDBLK
  5
8E1
330
7F4
100
AcDbEntity
  8
0
100
AcDbBlockEnd
  0
BLOCK
  5
7FB
330
7FA
100
AcDbEntity
  8
0
100
AcDbBlockBegin
  2
*D32
 70
     1
 10
0.0
 20
0.0
 30
0.0
  3
*D32
  1

  0
LINE
  5
7FC
330
7FA
100
AcDbEntity
  8
0
 62
     0
100
AcDbLine
 10
4.900862020113518
 20
2.993361690703013
 30
0.0
 11
3.930953181289167
 21
2.993361690703013
 31
0.0
  0
LINE
  5
7FD
330
7FA
100
AcDbEntity
  8
0
 62
     0
100
AcDbLine
 10
4.525862020113518
 20
2.618361690703014
 30
0.0
 11
3.930953181289167
 21
2.618361690703014
 31
0.0
  0
LINE
  5
7FE
330
7FA
100
AcDbEntity
  8
0
 62
     0
100
AcDbLine
 10
4.110953181289167
 20
3.118361690703013
 30
0.0
 11
4.110953181289167
 21
3.243361690703013
 31
0.0
  0
LINE
  5
7FF
330
7FA
100
AcDbEntity
  8
0
 62
     0
100
AcDbLine
 10
4.110953181289167
 20
2.493361690703014
 30
0.0
 11
4.110953181289167
 21
2.368361690703014
 31
0.0
  0
SOLID
  5
800
330
7FA
100
AcDbEntity
  8
0
 62
     0
100
AcDbTrace
 10
4.090119847955834
 20
3.118361690703013
 30
0.0
 11
4.131786514622501
 21
3.118361690703013
 31
0.0
 12
4.110953181289167
 22
2.993361690703013
 32
0.0
 13
4.110953181289167
 23
2.993361690703013
 33
0.0
  0
SOLID
  5
801
330
7FA
100
AcDbEntity
  8
0
 62
     0
100
AcDbTrace
 10
4.090119847955834
 20
2.493361690703014
 30
0.0
 11
4.131786514622501
 21
2.493361690703014
 31
0.0
 12
4.110953181289167
 22
2.618361690703014
 32
0.0
 13
4.110953181289167
 23
2.618361690703014
 33
0.0
  0
INSERT
  5
803
330
7FA
100
AcDbEntity
  8
0
100
AcDbBlockReference
  2
*U33
 10
0.0
 20
0.0
 30
0.0
  0
POINT
  5
804
330
7FA
100
AcDbEntity
  8
DEFPOINTS
 62
     0
100
AcDbPoint
 10
4.963362020113518
 20
2.993361690703013
 30
0.0
  0
POINT
  5
805
330
7FA
100
AcDbEntity
  8
DEFPOINTS
 62
     0
100
AcDbPoint
 10
4.588362020113518
 20
2.618361690703014
 30
0.0
  0
POINT
  5
806
330
7FA
100
AcDbEntity
  8
DEFPOINTS
 62
     0
100
AcDbPoint
 10
4.110953181289167
 20
2.618361690703014
 30
0.0
  0
ENDBLK
  5
807
330
7FA
100
AcDbEntity
  8
0
100
AcDbBlockEnd
  0
BLOCK
  5
8E2
330
802
100
AcDbEntity
  8
0
100
AcDbBlockBegin
  2
*U33
 70
     1
 10
0.0
 20
0.0
 30
0.0
  3
*U33
  1

  0
TEXT
  5
8E3
330
802
100
AcDbEntity
  8
0
 62
     0
100
AcDbText
 10
3.919286514622501
 20
2.755861690703016
 30
0.0
 40
0.1
  1
0.375
100
AcDbText
  0
ENDBLK
  5
8E4
330
802
100
AcDbEntity
  8
0
100
AcDbBlockEnd
  0
BLOCK
  5
809
330
808
100
AcDbEntity
  8
0
100
AcDbBlockBegin
  2
*D34
 70
     1
 10
0.0
 20
0.0
 30
0.0
  3
*D34
  1

  0
LINE
  5
80A
330
808
100
AcDbEntity
  8
0
 62
     0
100
AcDbLine
 10
8.900862020113516
 20
2.868361690703011
 30
0.0
 11
8.900862020113516
 21
3.337254488714231
 31
0.0
  0
LINE
  5
80B
330
808
100
AcDbEntity
  8
0
 62
     0
100
AcDbLine
 10
4.588362020113518
 20
2.680861690703014
 30
0.0
 11
4.588362020113518
 21
3.337254488714231
 31
0.0
  0
LINE
  5
80C
330
808
100
AcDbEntity
  8
0
 62
     0
100
AcDbLine
 10
8.775862020113516
 20
3.157254488714231
 30
0.0
 11
6.6638690776655
 21
3.157254488714231
 31
0.0
  0
LINE
  5
80D
330
808
100
AcDbEntity
  8
0
 62
     0
100
AcDbLine
 10
4.713362020113518
 20
3.157254488714231
 30
0.0
 11
6.117202410998834
 21
3.157254488714231
 31
0.0
  0
SOLID
  5
80E
330
808
100
AcDbEntity
  8
0
 62
     0
100
AcDbTrace
 10
8.775862020113516
 20
3.178087822047566
 30
0.0
 11
8.775862020113516
 21
3.1364211553809
 31
0.0
 12
8.900862020113516
 22
3.157254488714231
 32
0.0
 13
8.900862020113516
 23
3.157254488714231
 33
0.0
  0
SOLID
  5
80F
330
808
100
AcDbEntity
  8
0
 62
     0
100
AcDbTrace
 10
4.713362020113518
 20
3.178087822047566
 30
0.0
 11
4.713362020113518
 21
3.1364211553809
 31
0.0
 12
4.588362020113518
 22
3.157254488714231
 32
0.0
 13
4.588362020113518
 23
3.157254488714231
 33
0.0
  0
INSERT
  5
811
330
808
100
AcDbEntity
  8
0
100
AcDbBlockReference
  2
*U35
 10
0.0
 20
0.0
 30
0.0
  0
POINT
  5
812
330
808
100
AcDbEntity
  8
DEFPOINTS
 62
     0
100
AcDbPoint
 10
8.900862020113516
 20
2.80586169070301
 30
0.0
  0
POINT
  5
813
330
808
100
AcDbEntity
  8
DEFPOINTS
 62
     0
100
AcDbPoint
 10
4.588362020113518
 20
2.618361690703014
 30
0.0
  0
POINT
  5
814
330
808
100
AcDbEntity
  8
DEFPOINTS
 62
     0
100
AcDbPoint
 10
4.588362020113518
 20
3.157254488714231
 30
0.0
  0
ENDBLK
  5
815
330
808
100
AcDbEntity
  8
0
100
AcDbBlockEnd
  0
BLOCK
  5
8E5
330
810
100
AcDbEntity
  8
0
100
AcDbBlockBegin
  2
*U35
 70
     1
 10
0.0
 20
0.0
 30
0.0
  3
*U35
  1

  0
TEXT
  5
8E6
330
810
100
AcDbEntity
  8
0
 62
     0
100
AcDbText
 10
6.207202410998834
 20
3.107254488714231
 30
0.0
 40
0.1
  1
4.313
100
AcDbText
  0
ENDBLK
  5
8E7
330
810
100
AcDbEntity
  8
0
100
AcDbBlockEnd
  0
BLOCK
  5
817
330
816
100
AcDbEntity
  8
0
100
AcDbBlockBegin
  2
*D36
 70
     1
 10
0.0
 20
0.0
 30
0.0
  3
*D36
  1

  0
LINE
  5
818
330
816
100
AcDbEntity
  8
0
 62
     0
100
AcDbLine
 10
1.257556193937674
 20
2.287555864527174
 30
0.0
 11
1.595669498448492
 21
2.625669169037994
 31
0.0
  0
LINE
  5
819
330
816
100
AcDbEntity
  8
0
 62
     0
100
AcDbLine
 10
1.025862020113516
 20
2.118361690703015
 30
0.0
 11
1.025862020113516
 21
2.861691154505956
 31
0.0
  0
ARC
  5
81A
330
816
100
AcDbEntity
  8
0
 62
     0
100
AcDbCircle
 10
1.025862020113516
 20
2.055861690703014
 30
0.0
 40
0.6258294638029395
100
AcDbArc
 50
22.07384645649346
 51
33.53692322824679
  0
ARC
  5
81B
330
816
100
AcDbEntity
  8
0
 62
     0
100
AcDbCircle
 10
1.025862020113516
 20
2.055861690703014
 30
0.0
 40
0.6258294638029395
100
AcDbArc
 50
101.4630767717531
 51
112.9261535435066
  0
SOLID
  5
81C
330
816
100
AcDbEntity
  8
0
 62
     0
100
AcDbTrace
 10
1.53138069800411
 20
2.38842979771205
 30
0.0
 11
1.563638562009784
 21
2.414802915102729
 31
0.0
 12
1.468390277834914
 22
2.498389948424414
 32
0.0
 13
1.468390277834914
 23
2.498389948424414
 33
0.0
  0
SOLID
  5
81D
330
816
100
AcDbEntity
  8
0
 62
     0
100
AcDbTrace
 10
0.8994063543960512
 20
2.689936904061358
 30
0.0
 11
0.9035674986330803
 21
2.648478539528376
 31
0.0
 12
1.025862020113516
 22
2.681691154505954
 32
0.0
 13
1.025862020113516
 23
2.681691154505954
 33
0.0
  0
TEXT
  5
81E
330
816
100
AcDbEntity
  8
0
 62
     0
100
AcDbText
 10
1.08536
 20
2.44835
 30
0.0
 40
0.1
  1
45?
100
AcDbText
  0
POINT
  5
81F
330
816
100
AcDbEntity
  8
DEFPOINTS
 62
     0
100
AcDbPoint
 10
1.187838604332014
 20
2.660366532642914
 30
0.0
  0
POINT
  5
820
330
816
100
AcDbEntity
  8
DEFPOINTS
 62
     0
100
AcDbPoint
 10
1.213362020113514
 20
2.243361690703016
 30
0.0
  0
POINT
  5
821
330
816
100
AcDbEntity
  8
DEFPOINTS
 62
     0
100
AcDbPoint
 10
1.025862020113516
 20
1.493361690703014
 30
0.0
  0
POINT
  5
822
330
816
100
AcDbEntity
  8
DEFPOINTS
 62
     0
100
AcDbPoint
 10
1.025862020113516
 20
2.055861690703015
 30
0.0
  0
POINT
  5
823
330
816
100
AcDbEntity
  8
DEFPOINTS
 62
     0
100
AcDbPoint
 10
1.025862020113516
 20
2.055861690703014
 30
0.0
  0
ENDBLK
  5
824
330
816
100
AcDbEntity
  8
0
100
AcDbBlockEnd
  0
BLOCK
  5
826
330
825
100
AcDbEntity
  8
0
100
AcDbBlockBegin
  2
*D37
 70
     1
 10
0.0
 20
0.0
 30
0.0
  3
*D37
  1

  0
LINE
  5
827
330
825
100
AcDbEntity
  8
0
 62
     0
100
AcDbLine
 10
9.501082637333295
 20
5.960174515546267
 30
0.0
 11
9.116903528954312
 21
5.960174515546267
 31
0.0
  0
LINE
  5
828
330
825
100
AcDbEntity
  8
0
 62
     0
100
AcDbLine
 10
9.501082637333295
 20
5.585174515546267
 30
0.0
 11
9.116903528954312
 21
5.585174515546267
 31
0.0
  0
LINE
  5
829
330
825
100
AcDbEntity
  8
0
 62
     0
100
AcDbLine
 10
9.296903528954313
 20
6.085174515546267
 30
0.0
 11
9.296903528954313
 21
6.210174515546267
 31
0.0
  0
LINE
  5
82A
330
825
100
AcDbEntity
  8
0
 62
     0
100
AcDbLine
 10
9.296903528954313
 20
5.460174515546267
 30
0.0
 11
9.296903528954313
 21
5.335174515546266
 31
0.0
  0
SOLID
  5
82B
330
825
100
AcDbEntity
  8
0
 62
     0
100
AcDbTrace
 10
9.276070195620976
 20
6.085174515546267
 30
0.0
 11
9.317736862287643
 21
6.085174515546267
 31
0.0
 12
9.296903528954313
 22
5.960174515546267
 32
0.0
 13
9.296903528954313
 23
5.960174515546267
 33
0.0
  0
SOLID
  5
82C
330
825
100
AcDbEntity
  8
0
 62
     0
100
AcDbTrace
 10
9.276070195620976
 20
5.460174515546267
 30
0.0
 11
9.317736862287643
 21
5.460174515546267
 31
0.0
 12
9.296903528954313
 22
5.585174515546267
 32
0.0
 13
9.296903528954313
 23
5.585174515546267
 33
0.0
  0
INSERT
  5
82E
330
825
100
AcDbEntity
  8
0
100
AcDbBlockReference
  2
*U38
 10
0.0
 20
0.0
 30
0.0
  0
POINT
  5
82F
330
825
100
AcDbEntity
  8
DEFPOINTS
 62
     0
100
AcDbPoint
 10
9.563582637333295
 20
5.960174515546267
 30
0.0
  0
POINT
  5
830
330
825
100
AcDbEntity
  8
DEFPOINTS
 62
     0
100
AcDbPoint
 10
9.563582637333295
 20
5.585174515546267
 30
0.0
  0
POINT
  5
831
330
825
100
AcDbEntity
  8
DEFPOINTS
 62
     0
100
AcDbPoint
 10
9.296903528954313
 20
5.585174515546267
 30
0.0
  0
ENDBLK
  5
832
330
825
100
AcDbEntity
  8
0
100
AcDbBlockEnd
  0
BLOCK
  5
903
330
82D
100
AcDbEntity
  8
0
100
AcDbBlockBegin
  2
*U38
 70
     1
 10
0.0
 20
0.0
 30
0.0
  3
*U38
  1

  0
TEXT
  5
904
330
82D
100
AcDbEntity
  8
0
 62
     0
100
AcDbText
 10
9.105236862287643
 20
5.722674515546266
 30
0.0
 40
0.1
  1
0.375
100
AcDbText
  0
ENDBLK
  5
905
330
82D
100
AcDbEntity
  8
0
100
AcDbBlockEnd
  0
BLOCK
  5
834
330
833
100
AcDbEntity
  8
0
100
AcDbBlockBegin
  2
*D39
 70
     1
 10
0.0
 20
0.0
 30
0.0
  3
*D39
  1

  0
LINE
  5
835
330
833
100
AcDbEntity
  8
0
 62
     0
100
AcDbLine
 10
9.563582637333295
 20
5.522674515546267
 30
0.0
 11
9.563582637333295
 21
5.047119124156457
 31
0.0
  0
LINE
  5
836
330
833
100
AcDbEntity
  8
0
 62
     0
100
AcDbLine
 10
9.938582291770373
 20
5.522674515546267
 30
0.0
 11
9.938582291770373
 21
5.047119124156457
 31
0.0
  0
LINE
  5
837
330
833
100
AcDbEntity
  8
0
 62
     0
100
AcDbLine
 10
9.438582637333295
 20
5.227119124156455
 30
0.0
 11
9.313582637333295
 21
5.227119124156455
 31
0.0
  0
LINE
  5
838
330
833
100
AcDbEntity
  8
0
 62
     0
100
AcDbLine
 10
10.06358229177035
 20
5.227119124156455
 30
0.0
 11
10.18858229177036
 21
5.227119124156455
 31
0.0
  0
SOLID
  5
839
330
833
100
AcDbEntity
  8
0
 62
     0
100
AcDbTrace
 10
9.438582637333295
 20
5.247952457489788
 30
0.0
 11
9.438582637333295
 21
5.206285790823122
 31
0.0
 12
9.563582637333295
 22
5.227119124156455
 32
0.0
 13
9.563582637333295
 23
5.227119124156455
 33
0.0
  0
SOLID
  5
83A
330
833
100
AcDbEntity
  8
0
 62
     0
100
AcDbTrace
 10
10.06358229177035
 20
5.247952457489788
 30
0.0
 11
10.06358229177035
 21
5.206285790823122
 31
0.0
 12
9.938582291770373
 22
5.227119124156455
 32
0.0
 13
9.938582291770373
 23
5.227119124156455
 33
0.0
  0
INSERT
  5
83C
330
833
100
AcDbEntity
  8
0
100
AcDbBlockReference
  2
*U40
 10
0.0
 20
0.0
 30
0.0
  0
POINT
  5
83D
330
833
100
AcDbEntity
  8
DEFPOINTS
 62
     0
100
AcDbPoint
 10
9.563582637333295
 20
5.585174515546267
 30
0.0
  0
POINT
  5
83E
330
833
100
AcDbEntity
  8
DEFPOINTS
 62
     0
100
AcDbPoint
 10
9.938582291770373
 20
5.585174515546267
 30
0.0
  0
POINT
  5
83F
330
833
100
AcDbEntity
  8
DEFPOINTS
 62
     0
100
AcDbPoint
 10
9.938582291770373
 20
5.227119124156455
 30
0.0
  0
ENDBLK
  5
840
330
833
100
AcDbEntity
  8
0
100
AcDbBlockEnd
  0
BLOCK
  5
90F
330
83B
100
AcDbEntity
  8
0
100
AcDbBlockBegin
  2
*U40
 70
     1
 10
0.0
 20
0.0
 30
0.0
  3
*U40
  1

  0
TEXT
  5
910
330
83B
100
AcDbEntity
  8
0
 62
     0
100
AcDbText
 10
9.601082464551836
 20
5.177119124156456
 30
0.0
 40
0.1
  1
.375
100
AcDbText
  0
ENDBLK
  5
911
330
83B
100
AcDbEntity
  8
0
100
AcDbBlockEnd
  0
BLOCK
  5
842
330
841
100
AcDbEntity
  8
0
100
AcDbBlockBegin
  2
*D41
 70
     1
 10
0.0
 20
0.0
 30
0.0
  3
*D41
  1

  0
LINE
  5
843
330
841
100
AcDbEntity
  8
0
 62
     0
100
AcDbLine
 10
8.900862020113516
 20
5.522674515546267
 30
0.0
 11
8.900862020113516
 21
5.154786242690431
 31
0.0
  0
LINE
  5
844
330
841
100
AcDbEntity
  8
0
 62
     0
100
AcDbLine
 10
8.275862020113516
 20
5.522674515546267
 30
0.0
 11
8.275862020113516
 21
5.154786242690431
 31
0.0
  0
LINE
  5
845
330
841
100
AcDbEntity
  8
0
 62
     0
100
AcDbLine
 10
9.025862020113516
 20
5.334786242690431
 30
0.0
 11
9.150862020113516
 21
5.334786242690431
 31
0.0
  0
LINE
  5
846
330
841
100
AcDbEntity
  8
0
 62
     0
100
AcDbLine
 10
8.150862020113516
 20
5.334786242690431
 30
0.0
 11
8.025862020113516
 21
5.334786242690431
 31
0.0
  0
SOLID
  5
847
330
841
100
AcDbEntity
  8
0
 62
     0
100
AcDbTrace
 10
9.025862020113516
 20
5.355619576023763
 30
0.0
 11
9.025862020113516
 21
5.313952909357098
 31
0.0
 12
8.900862020113516
 22
5.334786242690431
 32
0.0
 13
8.900862020113516
 23
5.334786242690431
 33
0.0
  0
SOLID
  5
848
330
841
100
AcDbEntity
  8
0
 62
     0
100
AcDbTrace
 10
8.150862020113516
 20
5.355619576023763
 30
0.0
 11
8.150862020113516
 21
5.313952909357098
 31
0.0
 12
8.275862020113516
 22
5.334786242690431
 32
0.0
 13
8.275862020113516
 23
5.334786242690431
 33
0.0
  0
INSERT
  5
84A
330
841
100
AcDbEntity
  8
0
100
AcDbBlockReference
  2
*U42
 10
0.0
 20
0.0
 30
0.0
  0
POINT
  5
84B
330
841
100
AcDbEntity
  8
DEFPOINTS
 62
     0
100
AcDbPoint
 10
8.900862020113516
 20
5.585174515546267
 30
0.0
  0
POINT
  5
84C
330
841
100
AcDbEntity
  8
DEFPOINTS
 62
     0
100
AcDbPoint
 10
8.275862020113516
 20
5.585174515546267
 30
0.0
  0
POINT
  5
84D
330
841
100
AcDbEntity
  8
DEFPOINTS
 62
     0
100
AcDbPoint
 10
8.275862020113516
 20
5.334786242690431
 30
0.0
  0
ENDBLK
  5
84E
330
841
100
AcDbEntity
  8
0
100
AcDbBlockEnd
  0
BLOCK
  5
912
330
849
100
AcDbEntity
  8
0
100
AcDbBlockBegin
  2
*U42
 70
     1
 10
0.0
 20
0.0
 30
0.0
  3
*U42
  1

  0
TEXT
  5
913
330
849
100
AcDbEntity
  8
0
 62
     0
100
AcDbText
 10
8.367717973502411
 20
5.284786242690431
 30
0.0
 40
0.1
  1
.625
100
AcDbText
  0
ENDBLK
  5
914
330
849
100
AcDbEntity
  8
0
100
AcDbBlockEnd
  0
BLOCK
  5
850
330
84F
100
AcDbEntity
  8
0
100
AcDbBlockBegin
  2
*D43
 70
     1
 10
0.0
 20
0.0
 30
0.0
  3
*D43
  1

  0
LINE
  5
851
330
84F
100
AcDbEntity
  8
0
 62
     0
100
AcDbLine
 10
8.275862020113516
 20
5.522674515546267
 30
0.0
 11
8.275862020113516
 21
5.154786242690431
 31
0.0
  0
LINE
  5
852
330
84F
100
AcDbEntity
  8
0
 62
     0
100
AcDbLine
 10
7.525862045570124
 20
5.522674515546267
 30
0.0
 11
7.525862045570124
 21
5.154786242690431
 31
0.0
  0
LINE
  5
853
330
84F
100
AcDbEntity
  8
0
 62
     0
100
AcDbLine
 10
8.400862020113516
 20
5.334786242690431
 30
0.0
 11
8.525862020113516
 21
5.334786242690431
 31
0.0
  0
LINE
  5
854
330
84F
100
AcDbEntity
  8
0
 62
     0
100
AcDbLine
 10
7.400862045570124
 20
5.334786242690431
 30
0.0
 11
7.275862045570124
 21
5.334786242690431
 31
0.0
  0
SOLID
  5
855
330
84F
100
AcDbEntity
  8
0
 62
     0
100
AcDbTrace
 10
8.400862020113516
 20
5.355619576023763
 30
0.0
 11
8.400862020113516
 21
5.313952909357098
 31
0.0
 12
8.275862020113516
 22
5.334786242690431
 32
0.0
 13
8.275862020113516
 23
5.334786242690431
 33
0.0
  0
SOLID
  5
856
330
84F
100
AcDbEntity
  8
0
 62
     0
100
AcDbTrace
 10
7.400862045570124
 20
5.355619576023763
 30
0.0
 11
7.400862045570124
 21
5.313952909357098
 31
0.0
 12
7.525862045570124
 22
5.334786242690431
 32
0.0
 13
7.525862045570124
 23
5.334786242690431
 33
0.0
  0
INSERT
  5
858
330
84F
100
AcDbEntity
  8
0
100
AcDbBlockReference
  2
*U44
 10
0.0
 20
0.0
 30
0.0
  0
POINT
  5
859
330
84F
100
AcDbEntity
  8
DEFPOINTS
 62
     0
100
AcDbPoint
 10
8.275862020113516
 20
5.585174515546267
 30
0.0
  0
POINT
  5
85A
330
84F
100
AcDbEntity
  8
DEFPOINTS
 62
     0
100
AcDbPoint
 10
7.525862045570124
 20
5.585174515546267
 30
0.0
  0
POINT
  5
85B
330
84F
100
AcDbEntity
  8
DEFPOINTS
 62
     0
100
AcDbPoint
 10
7.525862045570124
 20
5.334786242690431
 30
0.0
  0
ENDBLK
  5
85C
330
84F
100
AcDbEntity
  8
0
100
AcDbBlockEnd
  0
BLOCK
  5
906
330
857
100
AcDbEntity
  8
0
100
AcDbBlockBegin
  2
*U44
 70
     1
 10
0.0
 20
0.0
 30
0.0
  3
*U44
  1

  0
TEXT
  5
907
330
857
100
AcDbEntity
  8
0
 62
     0
100
AcDbText
 10
7.671248027858528
 20
5.284786242690431
 30
0.0
 40
0.1
  1
0.750
100
AcDbText
  0
ENDBLK
  5
908
330
857
100
AcDbEntity
  8
0
100
AcDbBlockEnd
  0
BLOCK
  5
85E
330
85D
100
AcDbEntity
  8
0
100
AcDbBlockBegin
  2
*D45
 70
     1
 10
0.0
 20
0.0
 30
0.0
  3
*D45
  1

  0
LINE
  5
85F
330
85D
100
AcDbEntity
  8
0
 62
     0
100
AcDbLine
 10
8.650862087049606
 20
5.867491572823087
 30
0.0
 11
8.650862087049606
 21
6.70740650238286
 31
0.0
  0
LINE
  5
860
330
85D
100
AcDbEntity
  8
0
 62
     0
100
AcDbLine
 10
8.900862020113516
 20
6.147674515546267
 30
0.0
 11
8.900862020113516
 21
6.70740650238286
 31
0.0
  0
LINE
  5
861
330
85D
100
AcDbEntity
  8
0
 62
     0
100
AcDbLine
 10
9.025862020113516
 20
6.527406502382859
 30
0.0
 11
9.150862020113516
 21
6.527406502382859
 31
0.0
  0
LINE
  5
862
330
85D
100
AcDbEntity
  8
0
 62
     0
100
AcDbLine
 10
8.525862087049606
 20
6.527406502382859
 30
0.0
 11
8.400862087049606
 21
6.527406502382859
 31
0.0
  0
SOLID
  5
863
330
85D
100
AcDbEntity
  8
0
 62
     0
100
AcDbTrace
 10
9.025862020113516
 20
6.548239835716192
 30
0.0
 11
9.025862020113516
 21
6.506573169049527
 31
0.0
 12
8.900862020113516
 22
6.527406502382859
 32
0.0
 13
8.900862020113516
 23
6.527406502382859
 33
0.0
  0
SOLID
  5
864
330
85D
100
AcDbEntity
  8
0
 62
     0
100
AcDbTrace
 10
8.525862087049606
 20
6.548239835716192
 30
0.0
 11
8.525862087049606
 21
6.506573169049527
 31
0.0
 12
8.650862087049606
 22
6.527406502382859
 32
0.0
 13
8.650862087049606
 23
6.527406502382859
 33
0.0
  0
INSERT
  5
866
330
85D
100
AcDbEntity
  8
0
100
AcDbBlockReference
  2
*U46
 10
0.0
 20
0.0
 30
0.0
  0
POINT
  5
867
330
85D
100
AcDbEntity
  8
DEFPOINTS
 62
     0
100
AcDbPoint
 10
8.650862087049606
 20
5.804991572823087
 30
0.0
  0
POINT
  5
868
330
85D
100
AcDbEntity
  8
DEFPOINTS
 62
     0
100
AcDbPoint
 10
8.900862020113516
 20
6.085174515546267
 30
0.0
  0
POINT
  5
869
330
85D
100
AcDbEntity
  8
DEFPOINTS
 62
     0
100
AcDbPoint
 10
8.900862020113516
 20
6.527406502382859
 30
0.0
  0
ENDBLK
  5
86A
330
85D
100
AcDbEntity
  8
0
100
AcDbBlockEnd
  0
BLOCK
  5
909
330
865
100
AcDbEntity
  8
0
100
AcDbBlockBegin
  2
*U46
 70
     1
 10
0.0
 20
0.0
 30
0.0
  3
*U46
  1

  0
TEXT
  5
90A
330
865
100
AcDbEntity
  8
0
 62
     0
100
AcDbText
 10
7.944195420382937
 20
6.477406502382859
 30
0.0
 40
0.1
  1
0.250
100
AcDbText
  0
ENDBLK
  5
90B
330
865
100
AcDbEntity
  8
0
100
AcDbBlockEnd
  0
BLOCK
  5
86C
330
86B
100
AcDbEntity
  8
0
100
AcDbBlockBegin
  2
*D47
 70
     1
 10
0.0
 20
0.0
 30
0.0
  3
*D47
  1

  0
LINE
  5
86D
330
86B
100
AcDbEntity
  8
0
 62
     0
100
AcDbLine
 10
5.163362220740584
 20
5.585174515546268
 30
0.0
 11
5.953990119795188
 21
5.585174515546268
 31
0.0
  0
LINE
  5
86E
330
86B
100
AcDbEntity
  8
0
 62
     0
100
AcDbLine
 10
5.163362220740584
 20
5.804017300827023
 30
0.0
 11
5.953990119795188
 21
5.804017300827023
 31
0.0
  0
LINE
  5
86F
330
86B
100
AcDbEntity
  8
0
 62
     0
100
AcDbLine
 10
5.773990119795186
 20
5.460174515546268
 30
0.0
 11
5.773990119795186
 21
5.335174515546269
 31
0.0
  0
LINE
  5
870
330
86B
100
AcDbEntity
  8
0
 62
     0
100
AcDbLine
 10
5.773990119795186
 20
5.929017300827023
 30
0.0
 11
5.773990119795187
 21
6.054017300827023
 31
0.0
  0
SOLID
  5
871
330
86B
100
AcDbEntity
  8
0
 62
     0
100
AcDbTrace
 10
5.753156786461852
 20
5.460174515546268
 30
0.0
 11
5.794823453128518
 21
5.460174515546268
 31
0.0
 12
5.773990119795186
 22
5.585174515546268
 32
0.0
 13
5.773990119795186
 23
5.585174515546268
 33
0.0
  0
SOLID
  5
872
330
86B
100
AcDbEntity
  8
0
 62
     0
100
AcDbTrace
 10
5.753156786461852
 20
5.929017300827023
 30
0.0
 11
5.794823453128518
 21
5.929017300827023
 31
0.0
 12
5.773990119795186
 22
5.804017300827023
 32
0.0
 13
5.773990119795186
 23
5.804017300827023
 33
0.0
  0
INSERT
  5
874
330
86B
100
AcDbEntity
  8
0
100
AcDbBlockReference
  2
*U48
 10
0.0
 20
0.0
 30
0.0
  0
POINT
  5
875
330
86B
100
AcDbEntity
  8
DEFPOINTS
 62
     0
100
AcDbPoint
 10
5.100862220740584
 20
5.585174515546268
 30
0.0
  0
POINT
  5
876
330
86B
100
AcDbEntity
  8
DEFPOINTS
 62
     0
100
AcDbPoint
 10
5.100862220740584
 20
5.804017300827023
 30
0.0
  0
POINT
  5
877
330
86B
100
AcDbEntity
  8
DEFPOINTS
 62
     0
100
AcDbPoint
 10
5.773990119795186
 20
5.804017300827023
 30
0.0
  0
ENDBLK
  5
878
330
86B
100
AcDbEntity
  8
0
100
AcDbBlockEnd
  0
BLOCK
  5
90C
330
873
100
AcDbEntity
  8
0
100
AcDbBlockBegin
  2
*U48
 70
     1
 10
0.0
 20
0.0
 30
0.0
  3
*U48
  1

  0
TEXT
  5
90D
330
873
100
AcDbEntity
  8
0
 62
     0
100
AcDbText
 10
5.590656786461853
 20
5.644595908186647
 30
0.0
 40
0.1
  1
0.220
100
AcDbText
  0
ENDBLK
  5
90E
330
873
100
AcDbEntity
  8
0
100
AcDbBlockEnd
  0
BLOCK
  5
87A
330
879
100
AcDbEntity
  8
0
100
AcDbBlockBegin
  2
*U49
 70
     1
 10
0.0
 20
0.0
 30
0.0
  3
*U49
  1

  0
TEXT
  5
87B
330
879
100
AcDbEntity
  8
0
100
AcDbText
 10
0.3391608845838055
 20
0.2930749480204293
 30
0.0
 40
0.2166
  1
©
100
AcDbText
  0
TEXT
  5
87C
330
879
100
AcDbEntity
  8
0
100
AcDbText
 10
0.5625573375169573
 20
0.2930749480204293
 30
0.0
 40
0.14161308
  1
 Daniel E. Kemp 2010
100
AcDbText
  0
ENDBLK
  5
87D
330
879
100
AcDbEntity
  8
0
100
AcDbBlockEnd
  0
BLOCK
  5
87F
330
87E
100
AcDbEntity
  8
0
100
AcDbBlockBegin
  2
*U50
 70
     1
 10
0.0
 20
0.0
 30
0.0
  3
*U50
  1

  0
TEXT
  5
880
330
87E
100
AcDbEntity
  8
0
100
AcDbText
 10
5.744435461786403
 20
0.733570426816339
 30
0.0
 40
0.125
  1
.XX   = +/- .015
100
AcDbText
  0
TEXT
  5
881
330
87E
100
AcDbEntity
  8
0
100
AcDbText
 10
5.744435461786403
 20
0.5252370934830059
 30
0.0
 40
0.125
  1
.XXX  = +/- .005
100
AcDbText
  0
TEXT
  5
882
330
87E
100
AcDbEntity
  8
0
100
AcDbText
 10
5.744435461786403
 20
0.3169037601496724
 30
0.0
 40
0.125
  1
.XXXX = +/- .001
100
AcDbText
  0
ENDBLK
  5
883
330
87E
100
AcDbEntity
  8
0
100
AcDbBlockEnd
  0
BLOCK
  5
889
330
888
100
AcDbEntity
  8
0
100
AcDbBlockBegin
  2
*U51
 70
     1
 10
0.0
 20
0.0
 30
0.0
  3
*U51
  1

  0
TEXT
  5
88A
330
888
100
AcDbEntity
  8
0
100
AcDbText
 10
5.309936744374414
 20
2.484872455187328
 30
0.0
 40
0.3
  1
HOSSMACHINE
100
AcDbText
  0
ENDBLK
  5
88B
330
888
100
AcDbEntity
  8
0
100
AcDbBlockEnd
  0
BLOCK
  5
88D
330
88C
100
AcDbEntity
  8
0
100
AcDbBlockBegin
  2
*U52
 70
     1
 10
0.0
 20
0.0
 30
0.0
  3
*U52
  1

  0
TEXT
  5
88E
330
88C
100
AcDbEntity
  8
0
100
AcDbText
 10
2.882966938486724
 20
1.723261802168373
 30
0.0
 40
0.1
  1
LOW
100
AcDbText
  0
ENDBLK
  5
88F
330
88C
100
AcDbEntity
  8
0
100
AcDbBlockEnd
  0
BLOCK
  5
891
330
890
100
AcDbEntity
  8
0
100
AcDbBlockBegin
  2
*U53
 70
     1
 10
0.0
 20
0.0
 30
0.0
  3
*U53
  1

  0
TEXT
  5
892
330
890
100
AcDbEntity
  8
0
100
AcDbText
 10
2.677511222297006
 20
1.932566703766198
 30
0.0
 40
0.1
  1
HIGH
100
AcDbText
  0
ENDBLK
  5
893
330
890
100
AcDbEntity
  8
0
100
AcDbBlockEnd
  0
BLOCK
  5
895
330
894
100
AcDbEntity
  8
0
100
AcDbBlockBegin
  2
*U54
 70
     1
 10
0.0
 20
0.0
 30
0.0
  3
*U54
  1

  0
TEXT
  5
896
330
894
100
AcDbEntity
  8
0
100
AcDbText
 10
6.187750071262691
 20
1.966619852387608
 30
0.0
 40
0.3
  1
G0704
100
AcDbText
  0
ENDBLK
  5
897
330
894
100
AcDbEntity
  8
0
100
AcDbBlockEnd
  0
BLOCK
  5
899
330
898
100
AcDbEntity
  8
0
100
AcDbBlockBegin
  2
*U55
 70
     1
 10
0.0
 20
0.0
 30
0.0
  3
*U55
  1

  0
TEXT
  5
89A
330
898
100
AcDbEntity
  8
0
100
AcDbText
 10
1.867898921450879
 20
1.930319936114595
 30
0.0
 40
0.1
  1
6250
100
AcDbText
  0
ENDBLK
  5
89B
330
898
100
AcDbEntity
  8
0
100
AcDbBlockEnd
  0
BLOCK
  5
89D
330
89C
100
AcDbEntity
  8
0
100
AcDbBlockBegin
  2
*U56
 70
     1
 10
0.0
 20
0.0
 30
0.0
  3
*U56
  1

  0
TEXT
  5
89E
330
89C
100
AcDbEntity
  8
0
100
AcDbText
 10
1.900943821065103
 20
1.725771710139369
 30
0.0
 40
0.1
  1
2000
100
AcDbText
  0
ENDBLK
  5
89F
330
89C
100
AcDbEntity
  8
0
100
AcDbBlockEnd
  0
BLOCK
  5
8A1
330
8A0
100
AcDbEntity
  8
0
100
AcDbBlockBegin
  2
*U57
 70
     1
 10
0.0
 20
0.0
 30
0.0
  3
*U57
  1

  0
TEXT
  5
8A2
330
8A0
100
AcDbEntity
  8
0
100
AcDbText
 10
4.950566272495874
 20
1.64120495806137
 30
0.0
 40
0.085
  1
WARNING : UNPLUG MACHINE BEFORE CHANGING BELT
100
AcDbText
  0
ENDBLK
  5
8A3
330
8A0
100
AcDbEntity
  8
0
100
AcDbBlockEnd
  0
BLOCK
  5
8A5
330
8A4
100
AcDbEntity
  8
0
100
AcDbBlockBegin
  2
*U58
 70
     1
 10
0.0
 20
0.0
 30
0.0
  3
*U58
  1

  0
TEXT
  5
8A6
330
8A4
100
AcDbEntity
  8
0
100
AcDbText
 10
0.37925681172133
 20
5.771194153674271
 30
0.0
 40
0.15
  1
LEFT
100
AcDbText
  0
ENDBLK
  5
8A7
330
8A4
100
AcDbEntity
  8
0
100
AcDbBlockEnd
  0
BLOCK
  5
8A9
330
8A8
100
AcDbEntity
  8
0
100
AcDbBlockBegin
  2
*U59
 70
     1
 10
0.0
 20
0.0
 30
0.0
  3
*U59
  1

  0
TEXT
  5
8AA
330
8A8
100
AcDbEntity
  8
0
100
AcDbText
 10
0.3136459413697459
 20
4.24354531130479
 30
0.0
 40
0.15
  1
RIGHT
100
AcDbText
  0
ENDBLK
  5
8AB
330
8A8
100
AcDbEntity
  8
0
100
AcDbBlockEnd
  0
BLOCK
  5
8B1
330
8B0
100
AcDbEntity
  8
0
100
AcDbBlockBegin
  2
*U60
 70
     1
 10
0.0
 20
0.0
 30
0.0
  3
*U60
  1

  0
SOLID
  5
8B2
330
8B0
100
AcDbEntity
  8
0
100
AcDbTrace
 10
6.598370404163593
 20
4.355346707383783
 30
0.0
 11
6.650862070631744
 21
4.240005245934857
 31
0.0
 12
6.563799749989247
 22
4.332087709532007
 32
0.0
 13
6.563799749989247
 23
4.332087709532007
 33
0.0
  0
LWPOLYLINE
  5
8B3
330
8B0
100
AcDbEntity
  8
0
100
AcDbPolyline
 90
        3
 70
     0
 43
0.0
 10
6.581085077076417
 20
4.343717208457896
 10
6.103881655938386
 20
5.05300118312058
 10
5.817227567544597
 20
5.05300118312058
  0
ENDBLK
  5
8B8
330
8B0
100
AcDbEntity
  8
0
100
AcDbBlockEnd
  0
BLOCK
  5
8BA
330
8B9
100
AcDbEntity
  8
0
100
AcDbBlockBegin
  2
*U61
 70
     1
 10
0.0
 20
0.0
 30
0.0
  3
*U61
  1

  0
TEXT
  5
8BB
330
8B9
100
AcDbEntity
  8
0
100
AcDbText
 10
4.727227567544597
 20
5.003001183120582
 30
0.0
 40
0.1
  1
1/4-20 X 1.0
100
AcDbText
  0
ENDBLK
  5
8BC
330
8B9
100
AcDbEntity
  8
0
100
AcDbBlockEnd
  0
BLOCK
  5
8BE
330
8BD
100
AcDbEntity
  8
0
100
AcDbBlockBegin
  2
*U62
 70
     1
 10
0.0
 20
0.0
 30
0.0
  3
*U62
  1

  0
TEXT
  5
8BF
330
8BD
100
AcDbEntity
  8
0
100
AcDbText
 10
7.779252919445871
 20
1.079676976022597
 30
0.0
 40
0.1
  1
USE A 75T XL TIMING BELT
100
AcDbText
  0
ENDBLK
  5
8C0
330
8BD
100
AcDbEntity
  8
0
100
AcDbBlockEnd
  0
BLOCK
  5
8C2
330
8C1
100
AcDbEntity
  8
0
100
AcDbBlockBegin
  2
*U63
 70
     1
 10
0.0
 20
0.0
 30
0.0
  3
*U63
  1

  0
TEXT
  5
8C3
330
8C1
100
AcDbEntity
  8
0
100
AcDbText
 10
7.942780118573161
 20
0.7125635146298436
 30
0.0
 40
0.1
  1
G0704 BELT DRIVE BASE
100
AcDbText
  0
TEXT
  5
8C4
330
8C1
100
AcDbEntity
  8
0
100
AcDbText
 10
7.942780118573161
 20
0.5125635146298439
 30
0.0
 40
0.1
  1
DANIEL E. KEMP
100
AcDbText
  0
TEXT
  5
8C5
330
8C1
100
AcDbEntity
  8
0
100
AcDbText
 10
7.942575480101127
 20
0.2709635146298436
 30
0.0
 40
0.1
  1
©
100
AcDbText
  0
TEXT
  5
8C6
330
8C1
100
AcDbEntity
  8
0
100
AcDbText
 10
8.045713270005629
 20
0.2709635146298436
 30
0.0
 40
0.1416
  1
 
100
AcDbText
  0
TEXT
  5
8C7
330
8C1
100
AcDbEntity
  8
0
100
AcDbText
 10
8.173827555719915
 20
0.2709635146298436
 30
0.0
 40
0.09998376
  1
04-24-2010
100
AcDbText
  0
ENDBLK
  5
8C8
330
8C1
100
AcDbEntity
  8
0
100
AcDbBlockEnd
  0
BLOCK
  5
9B8
330
9AE
100
AcDbEntity
  8
0
100
AcDbBlockBegin
  2
*D64
 70
     1
 10
0.0
 20
0.0
 30
0.0
  3
*D64
  1

  0
LINE
  5
9AF
330
9AE
100
AcDbEntity
  8
0
 62
     0
370
    -2
100
AcDbLine
 10
1.468661611192525
 20
6.104538116371293
 30
0.0
 11
1.435781313896911
 21
6.225136151387425
 31
0.0
  0
LINE
  5
9B0
330
9AE
100
AcDbEntity
  8
0
 62
     0
370
    -2
100
AcDbLine
 10
1.633063097670596
 20
5.501547941290634
 30
0.0
 11
1.66594339496621
 21
5.380949906274502
 31
0.0
  0
MTEXT
  5
9B1
330
9AE
100
AcDbEntity
  8
0
 62
     0
100
AcDbMText
 10
2.550103170892512
 20
4.974461756718648
 30
0.0
 40
0.1
 41
0.0
 71
     5
 72
     1
  1
\A1;%%C0.390 X .375
 73
     1
 44
1.0
  0
SOLID
  5
9B2
330
9AE
100
AcDbEntity
  8
0
 62
     0
100
AcDbTrace
 10
1.488761283695214
 20
6.110018165920562
 30
0.0
 11
1.448561938689837
 21
6.099058066822024
 31
0.0
 12
1.501541908488139
 22
5.983940081355162
 32
0.0
 13
1.501541908488139
 23
5.983940081355162
 33
0.0
  0
SOLID
  5
9B3
330
9AE
100
AcDbEntity
  8
0
 62
     0
100
AcDbTrace
 10
1.653162770173285
 20
5.507027990839903
 30
0.0
 11
1.612963425167907
 21
5.496067891741365
 31
0.0
 12
1.600182800374982
 22
5.622145976306765
 32
0.0
 13
1.600182800374982
 23
5.622145976306765
 33
0.0
  0
LINE
  5
9B4
330
9AE
100
AcDbEntity
  8
0
 62
     0
370
    -2
100
AcDbLine
 10
1.460862354431561
 20
5.803043028830964
 30
0.0
 11
1.64086235443156
 21
5.803043028830964
 31
0.0
  0
LINE
  5
9B5
330
9AE
100
AcDbEntity
  8
0
 62
     0
370
    -2
100
AcDbLine
 10
1.550862354431561
 20
5.713043028830964
 30
0.0
 11
1.550862354431561
 21
5.893043028830964
 31
0.0
  0
POINT
  5
9B6
330
9AE
100
AcDbEntity
  8
DEFPOINTS
 62
     0
100
AcDbPoint
 10
1.600182800374982
 20
5.622145976306765
 30
0.0
  0
POINT
  5
9B7
330
9AE
100
AcDbEntity
  8
DEFPOINTS
 62
     0
100
AcDbPoint
 10
1.501541908488139
 20
5.983940081355162
 30
0.0
  0
ENDBLK
  5
9B9
330
9AE
100
AcDbEntity
  8
0
100
AcDbBlockEnd
  0
ENDSEC
  0
SECTION
  2
ENTITIES
  0
VIEWPORT
  5
917
330
706
100
AcDbEntity
 67
     1
  8
0
100
AcDbViewport
 10
5.918473904209548
 20
4.142999580624366
 30
0.0
 40
20.00617738108668
 41
8.295664931295426
 68
     1
 69
     1
 12
5.918473904209548
 22
4.142999580624366
 13
0.0
 23
0.0
 14
0.5
 24
0.5
 15
0.5
 25
0.5
 16
0.0
 26
0.0
 36
1.0
 17
0.0
 27
0.0
 37
0.0
 42
50.0
 43
0.0
 44
0.0
 45
8.295664931295426
 50
0.0
 51
0.0
 72
   100
 90
    32800
  1

281
     0
 71
     0
 74
     0
110
0.0
120
0.0
130
0.0
111
0.0
121
0.0
131
0.0
112
0.0
122
0.0
132
0.0
 79
     0
146
0.0
  0
VIEWPORT
  5
919
330
706
100
AcDbEntity
 67
     1
  8
0
100
AcDbViewport
 10
5.220628759179896
 20
3.945611818875752
 30
0.0
 40
10.12677662730665
 41
7.573864285437291
 68
     2
 69
     2
 12
6.501601305195083
 22
4.467291948454601
 13
0.0
 23
0.0
 14
0.5
 24
0.5
 15
0.5
 25
0.5
 16
0.0
 26
0.0
 36
1.0
 17
0.0
 27
0.0
 37
0.0
 42
50.0
 43
0.0
 44
0.0
 45
11.10642371389223
 50
0.0
 51
0.0
 72
   100
 90
    32864
  1

281
     0
 71
     0
 74
     0
110
0.0
120
0.0
130
0.0
111
0.0
121
0.0
131
0.0
112
0.0
122
0.0
132
0.0
 79
     0
146
0.0
  0
LWPOLYLINE
  5
91A
330
706
100
AcDbEntity
 67
     1
  8
0
100
AcDbPolyline
 90
        4
 70
     1
 43
0.0
 10
7.628825660261667
 20
0.9762250941490862
 10
10.28401707283322
 20
0.9762250941490862
 10
10.28401707283322
 20
0.1586796761571065
 10
7.628825660261667
 20
0.1586796761571065
  0
LWPOLYLINE
  5
920
330
706
100
AcDbEntity
 67
     1
  8
0
100
AcDbPolyline
 90
        4
 70
     1
 43
0.0
 10
8.014754645876195
 20
0.9762250941490862
 10
8.014754645876195
 20
0.9762250941490862
 10
8.014754645876195
 20
0.9762250941490862
 10
8.014754645876195
 20
0.9762250941490862
  0
INSERT
  5
927
330
706
100
AcDbEntity
 67
     1
  8
0
100
AcDbBlockReference
  2
*U50
 10
0.0
 20
0.0
 30
0.0
  0
LINE
  5
928
330
706
100
AcDbEntity
 67
     1
  8
0
100
AcDbLine
 10
7.628825660261667
 20
0.9762250941490862
 30
0.0
 11
5.614068450537778
 21
0.9762250941490862
 31
0.0
  0
LINE
  5
929
330
706
100
AcDbEntity
 67
     1
  8
0
100
AcDbLine
 10
5.614068450537778
 20
0.9762250941490862
 30
0.0
 11
5.614068450537778
 21
0.1586796761571065
 31
0.0
  0
LINE
  5
92A
330
706
100
AcDbEntity
 67
     1
  8
0
100
AcDbLine
 10
8.900862020113516
 20
1.493361690703014
 30
0.0
 11
1.025862020113516
 21
1.493361690703014
 31
0.0
  0
LINE
  5
92B
330
706
100
AcDbEntity
 67
     1
  8
0
100
AcDbLine
 10
8.713362020113516
 20
2.993361690703013
 30
0.0
 11
4.963362020113518
 21
2.993361690703013
 31
0.0
  0
LINE
  5
92C
330
706
100
AcDbEntity
 67
     1
  8
0
100
AcDbLine
 10
4.588362020113518
 20
2.243361690703014
 30
0.0
 11
1.213362020113514
 21
2.243361690703014
 31
0.0
  0
LINE
  5
92D
330
706
100
AcDbEntity
 67
     1
  8
0
100
AcDbLine
 10
4.963362020113518
 20
2.993361690703013
 30
0.0
 11
8.713362020113516
 21
2.993361690703013
 31
0.0
  0
INSERT
  5
92E
330
706
100
AcDbEntity
 67
     1
  8
0
100
AcDbBlockReference
  2
*U51
 10
0.0
 20
0.0
 30
0.0
  0
LINE
  5
92F
330
706
100
AcDbEntity
 67
     1
  8
0
100
AcDbLine
 10
1.213362020113514
 20
2.243361690703016
 30
0.0
 11
1.213362020113514
 21
2.243361690703014
 31
0.0
  0
LINE
  5
930
330
706
100
AcDbEntity
 67
     1
  8
0
100
AcDbLine
 10
4.588362020113518
 20
2.243361690703014
 30
0.0
 11
4.588362020113518
 21
2.618361690703014
 31
0.0
  0
LINE
  5
931
330
706
100
AcDbEntity
 67
     1
  8
0
100
AcDbLine
 10
4.963362020113518
 20
2.993361690703013
 30
0.0
 11
4.963362020113518
 21
2.993361690703013
 31
0.0
  0
LINE
  5
932
330
706
100
AcDbEntity
 67
     1
  8
0
100
AcDbLine
 10
8.713362020113516
 20
2.993361690703011
 30
0.0
 11
8.713362020113516
 21
2.993361690703013
 31
0.0
  0
LINE
  5
933
330
706
100
AcDbEntity
 67
     1
  8
0
100
AcDbLine
 10
8.713362020113516
 20
2.993361690703011
 30
0.0
 11
8.900862020113516
 21
2.80586169070301
 31
0.0
  0
LINE
  5
934
330
706
100
AcDbEntity
 67
     1
  8
0
100
AcDbLine
 10
4.963362020113518
 20
2.993361690703013
 30
0.0
 11
4.588362020113518
 21
2.618361690703014
 31
0.0
  0
LINE
  5
935
330
706
100
AcDbEntity
 67
     1
  8
0
100
AcDbLine
 10
1.213362020113514
 20
2.243361690703016
 30
0.0
 11
1.025862020113516
 21
2.055861690703014
 31
0.0
  0
LINE
  5
936
330
706
100
AcDbEntity
 67
     1
  8
0
100
AcDbLine
 10
2.516915916813891
 20
1.679758582944514
 30
0.0
 11
1.516915916813893
 21
1.679758582944514
 31
0.0
  0
LINE
  5
937
330
706
100
AcDbEntity
 67
     1
  8
0
100
AcDbLine
 10
1.516915916813893
 20
1.879758582944514
 30
0.0
 11
2.516915916813891
 21
1.879758582944514
 31
0.0
  0
LINE
  5
938
330
706
100
AcDbEntity
 67
     1
  8
0
100
AcDbLine
 10
1.516915916813893
 20
1.879758582944514
 30
0.0
 11
1.516915916813893
 21
1.679758582944514
 31
0.0
  0
LINE
  5
939
330
706
100
AcDbEntity
 67
     1
  8
0
100
AcDbLine
 10
3.577814594637911
 20
1.779758582944513
 30
0.0
 11
3.257814594637912
 21
1.779758582944513
 31
0.0
  0
LINE
  5
93A
330
706
100
AcDbEntity
 67
     1
  8
0
100
AcDbLine
 10
3.37781459463791
 20
1.979758582944514
 30
0.0
 11
3.077814594637911
 21
1.979758582944514
 31
0.0
  0
LINE
  5
93B
330
706
100
AcDbEntity
 67
     1
  8
0
100
AcDbLine
 10
2.336915916813892
 20
1.979758582944514
 30
0.0
 11
2.636915916813892
 21
1.979758582944514
 31
0.0
  0
LINE
  5
93C
330
706
100
AcDbEntity
 67
     1
  8
0
100
AcDbLine
 10
2.336915916813892
 20
2.079758582944513
 30
0.0
 11
1.696915916813891
 21
2.079758582944513
 31
0.0
  0
LINE
  5
93D
330
706
100
AcDbEntity
 67
     1
  8
0
100
AcDbLine
 10
2.016915916813891
 20
1.879758582944514
 30
0.0
 11
2.336915916813892
 21
1.879758582944514
 31
0.0
  0
LINE
  5
93E
330
706
100
AcDbEntity
 67
     1
  8
0
100
AcDbLine
 10
1.696915916813891
 20
2.079758582944513
 30
0.0
 11
1.696915916813891
 21
1.879758582944514
 31
0.0
  0
LINE
  5
93F
330
706
100
AcDbEntity
 67
     1
  8
0
100
AcDbLine
 10
2.336915916813892
 20
1.879758582944514
 30
0.0
 11
2.336915916813892
 21
2.079758582944513
 31
0.0
  0
INSERT
  5
940
330
706
100
AcDbEntity
 67
     1
  8
0
100
AcDbBlockReference
  2
*U52
 10
0.0
 20
0.0
 30
0.0
  0
INSERT
  5
941
330
706
100
AcDbEntity
 67
     1
  8
0
100
AcDbBlockReference
  2
*U53
 10
0.0
 20
0.0
 30
0.0
  0
LINE
  5
942
330
706
100
AcDbEntity
 67
     1
  8
0
100
AcDbLine
 10
2.516915916813891
 20
1.879758582944514
 30
0.0
 11
2.516915916813891
 21
1.679758582944514
 31
0.0
  0
LINE
  5
943
330
706
100
AcDbEntity
 67
     1
  8
0
100
AcDbLine
 10
2.516915916813891
 20
1.779758582944513
 30
0.0
 11
2.836915916813892
 21
1.779758582944513
 31
0.0
  0
LINE
  5
944
330
706
100
AcDbEntity
 67
     1
  8
0
100
AcDbLine
 10
3.977814594637911
 20
1.679758582944514
 30
0.0
 11
3.577814594637911
 21
1.679758582944514
 31
0.0
  0
LINE
  5
945
330
706
100
AcDbEntity
 67
     1
  8
0
100
AcDbLine
 10
4.177814594637911
 20
1.879758582944514
 30
0.0
 11
3.37781459463791
 21
1.879758582944514
 31
0.0
  0
LINE
  5
946
330
706
100
AcDbEntity
 67
     1
  8
0
100
AcDbLine
 10
3.37781459463791
 20
2.079758582944513
 30
0.0
 11
4.177814594637911
 21
2.079758582944513
 31
0.0
  0
LINE
  5
947
330
706
100
AcDbEntity
 67
     1
  8
0
100
AcDbLine
 10
3.577814594637911
 20
1.679758582944514
 30
0.0
 11
3.577814594637911
 21
1.879758582944514
 31
0.0
  0
LINE
  5
948
330
706
100
AcDbEntity
 67
     1
  8
0
100
AcDbLine
 10
3.37781459463791
 20
1.879758582944514
 30
0.0
 11
3.37781459463791
 21
2.079758582944513
 31
0.0
  0
LINE
  5
949
330
706
100
AcDbEntity
 67
     1
  8
0
100
AcDbLine
 10
3.977814594637911
 20
1.879758582944514
 30
0.0
 11
3.977814594637911
 21
1.679758582944514
 31
0.0
  0
LINE
  5
94A
330
706
100
AcDbEntity
 67
     1
  8
0
100
AcDbLine
 10
3.777814594637911
 20
1.879758582944514
 30
0.0
 11
3.977814594637911
 21
1.879758582944514
 31
0.0
  0
LINE
  5
94B
330
706
100
AcDbEntity
 67
     1
  8
0
100
AcDbLine
 10
4.177814594637911
 20
2.079758582944513
 30
0.0
 11
4.177814594637911
 21
1.879758582944514
 31
0.0
  0
INSERT
  5
94C
330
706
100
AcDbEntity
 67
     1
  8
0
100
AcDbBlockReference
  2
*U54
 10
0.0
 20
0.0
 30
0.0
  0
INSERT
  5
94D
330
706
100
AcDbEntity
 67
     1
  8
0
100
AcDbBlockReference
  2
*U55
 10
0.0
 20
0.0
 30
0.0
  0
INSERT
  5
94E
330
706
100
AcDbEntity
 67
     1
  8
0
100
AcDbBlockReference
  2
*U56
 10
0.0
 20
0.0
 30
0.0
  0
INSERT
  5
94F
330
706
100
AcDbEntity
 67
     1
  8
0
100
AcDbBlockReference
  2
*U57
 10
0.0
 20
0.0
 30
0.0
  0
LINE
  5
950
330
706
100
AcDbEntity
 67
     1
  8
0
100
AcDbLine
 10
8.900862020113516
 20
1.493361690703014
 30
0.0
 11
8.900862020113516
 21
2.80586169070301
 31
0.0
  0
LINE
  5
951
330
706
100
AcDbEntity
 67
     1
  8
0
100
AcDbLine
 10
1.025862020113516
 20
1.493361690703014
 30
0.0
 11
1.025862020113516
 21
2.055861690703015
 31
0.0
  0
LINE
  5
952
330
706
100
AcDbEntity
 67
     1
  8
0
100
AcDbLine
 10
8.900862020113516
 20
4.039528452456901
 30
0.0
 11
1.025862020113516
 21
4.039528452456901
 31
0.0
  0
LINE
  5
953
330
706
100
AcDbEntity
 67
     1
  8
0
100
AcDbLine
 10
1.025862020113516
 20
4.039528452456901
 30
0.0
 11
1.025862020113516
 21
4.539528452456901
 31
0.0
  0
LINE
  5
954
330
706
100
AcDbEntity
 67
     1
  8
0
100
AcDbLine
 10
1.025862020113516
 20
4.539528452456901
 30
0.0
 11
8.900862020113516
 21
4.539528452456901
 31
0.0
  0
LINE
  5
955
330
706
100
AcDbEntity
 67
     1
  8
0
100
AcDbLine
 10
8.900862020113516
 20
4.539528452456901
 30
0.0
 11
8.900862020113516
 21
4.039528452456901
 31
0.0
  0
LINE
  5
956
330
706
100
AcDbEntity
 67
     1
  8
0
100
AcDbLine
 10
8.900862020113516
 20
4.539528452456901
 30
0.0
 11
8.900862020113516
 21
4.319528452456901
 31
0.0
  0
CIRCLE
  5
957
330
706
100
AcDbEntity
 67
     1
  8
0
100
AcDbCircle
 10
8.650862087049606
 20
4.319345509733721
 30
0.0
 40
0.128
  0
CIRCLE
  5
958
330
706
100
AcDbEntity
 67
     1
  8
0
100
AcDbCircle
 10
5.100862220740584
 20
4.318371237737657
 30
0.0
 40
0.128
  0
CIRCLE
  5
959
330
706
100
AcDbEntity
 67
     1
  8
0
100
AcDbCircle
 10
1.55086235443156
 20
4.317396965741593
 30
0.0
 40
0.128
  0
CIRCLE
  5
95A
330
706
100
AcDbEntity
 67
     1
  8
0
100
AcDbCircle
 10
1.55086235443156
 20
4.317396965741593
 30
0.0
 40
0.1875
  0
CIRCLE
  5
95B
330
706
100
AcDbEntity
 67
     1
  8
0
100
AcDbCircle
 10
5.100862220740584
 20
4.318371237737657
 30
0.0
 40
0.1875
  0
CIRCLE
  5
95C
330
706
100
AcDbEntity
 67
     1
  8
0
100
AcDbCircle
 10
8.650862087049606
 20
4.319345509733721
 30
0.0
 40
0.1875
  0
LINE
  5
95D
330
706
100
AcDbEntity
 67
     1
  8
0
100
AcDbLine
 10
8.900862020113516
 20
4.039528452456901
 30
0.0
 11
8.900862020113516
 21
4.239528452456901
 31
0.0
  0
CIRCLE
  5
95E
330
706
100
AcDbEntity
 67
     1
  8
0
100
AcDbCircle
 10
6.650862070631744
 20
4.240005245934857
 30
0.0
 40
0.125
  0
LINE
  5
95F
330
706
100
AcDbEntity
 67
     1
  8
0
100
AcDbLine
 10
8.900862020113516
 20
5.585174515546267
 30
0.0
 11
1.025862020113518
 21
5.585174515546268
 31
0.0
  0
LINE
  5
960
330
706
100
AcDbEntity
 67
     1
  8
0
100
AcDbLine
 10
1.025862020113518
 20
5.585174515546268
 30
0.0
 11
1.025862020113518
 21
6.085174515546268
 31
0.0
  0
LINE
  5
961
330
706
100
AcDbEntity
 67
     1
  8
0
100
AcDbLine
 10
1.025862020113518
 20
6.085174515546268
 30
0.0
 11
8.900862020113516
 21
6.085174515546267
 31
0.0
  0
LINE
  5
962
330
706
100
AcDbEntity
 67
     1
  8
0
100
AcDbLine
 10
8.900862020113516
 20
6.085174515546267
 30
0.0
 11
8.900862020113516
 21
5.585174515546267
 31
0.0
  0
LINE
  5
963
330
706
100
AcDbEntity
 67
     1
  8
0
100
AcDbLine
 10
8.900862020113516
 20
6.085174515546267
 30
0.0
 11
8.900862020113516
 21
5.865174515546266
 31
0.0
  0
CIRCLE
  5
964
330
706
100
AcDbEntity
 67
     1
  8
0
100
AcDbCircle
 10
8.650862087049606
 20
5.804991572823087
 30
0.0
 40
0.128
  0
CIRCLE
  5
965
330
706
100
AcDbEntity
 67
     1
  8
0
100
AcDbCircle
 10
5.100862220740584
 20
5.804017300827023
 30
0.0
 40
0.128
  0
CIRCLE
  5
966
330
706
100
AcDbEntity
 67
     1
  8
0
100
AcDbCircle
 10
1.550862354431561
 20
5.803043028830961
 30
0.0
 40
0.128
  0
CIRCLE
  5
967
330
706
100
AcDbEntity
 67
     1
  8
0
100
AcDbCircle
 10
1.550862354431561
 20
5.803043028830961
 30
0.0
 40
0.1875
  0
CIRCLE
  5
968
330
706
100
AcDbEntity
 67
     1
  8
0
100
AcDbCircle
 10
5.100862220740584
 20
5.804017300827023
 30
0.0
 40
0.1875
  0
CIRCLE
  5
969
330
706
100
AcDbEntity
 67
     1
  8
0
100
AcDbCircle
 10
8.650862087049606
 20
5.804991572823087
 30
0.0
 40
0.1875
  0
LINE
  5
96A
330
706
100
AcDbEntity
 67
     1
  8
0
100
AcDbLine
 10
8.900862020113516
 20
5.585174515546267
 30
0.0
 11
8.900862020113516
 21
5.785174515546266
 31
0.0
  0
CIRCLE
  5
96B
330
706
100
AcDbEntity
 67
     1
  8
0
100
AcDbCircle
 10
6.650862070631744
 20
5.885651309024223
 30
0.0
 40
0.125
  0
INSERT
  5
96C
330
706
100
AcDbEntity
 67
     1
  8
0
100
AcDbBlockReference
  2
*U58
 10
0.0
 20
0.0
 30
0.0
  0
INSERT
  5
96D
330
706
100
AcDbEntity
 67
     1
  8
0
100
AcDbBlockReference
  2
*U59
 10
0.0
 20
0.0
 30
0.0
  0
DIMENSION
  5
96E
330
706
100
AcDbEntity
 67
     1
  8
0
100
AcDbDimension
  2
*D2
 10
8.900862020113516
 20
3.546758457079727
 30
0.0
 11
4.963362020113518
 21
3.546758457079727
 31
0.0
 71
     5
 42
-1.0
  3
STANDARD
100
AcDbAlignedDimension
 13
1.025862020113516
 23
4.039528452456901
 33
0.0
 14
8.900862020113516
 24
4.039528452456901
 34
0.0
100
AcDbRotatedDimension
  0
DIMENSION
  5
96F
330
706
100
AcDbEntity
 67
     1
  8
0
100
AcDbDimension
  2
*D4
 10
9.844035112571171
 20
4.039528452456901
 30
0.0
 11
9.84403511257117
 21
4.302885583383146
 31
0.0
 70
   128
 71
     5
 42
-1.0
  3
STANDARD
100
AcDbAlignedDimension
 13
8.900862020113516
 23
4.539528452456901
 33
0.0
 14
8.900862020113516
 24
4.039528452456901
 34
0.0
 50
90.0
100
AcDbRotatedDimension
  0
DIMENSION
  5
970
330
706
100
AcDbEntity
 67
     1
  8
0
100
AcDbDimension
  2
*D6
 10
9.270726894932023
 20
4.539528452456901
 30
0.0
 11
9.270726894932023
 21
4.429436981095311
 31
0.0
 70
   128
 71
     5
 42
-1.0
  3
STANDARD
100
AcDbAlignedDimension
 13
8.650862087049606
 23
4.319345509733721
 33
0.0
 14
8.900862020113516
 24
4.539528452456901
 34
0.0
 50
90.0
100
AcDbRotatedDimension
  0
DIMENSION
  5
971
330
706
100
AcDbEntity
 67
     1
  8
0
100
AcDbDimension
  2
*D8
 10
7.141296488991129
 20
4.539528452456901
 30
0.0
 11
7.141296488991129
 21
4.389766849195879
 31
0.0
 70
   128
 71
     5
 42
-1.0
  3
STANDARD
100
AcDbAlignedDimension
 13
6.650862070631744
 23
4.240005245934857
 33
0.0
 14
8.900862020113516
 24
4.539528452456901
 34
0.0
 50
90.0
100
AcDbRotatedDimension
  0
DIMENSION
  5
972
330
706
100
AcDbEntity
 67
     1
  8
0
100
AcDbDimension
  2
*D11
 10
7.15494667394998
 20
5.585174515546267
 30
0.0
 11
7.154946673949978
 21
5.735412912285246
 31
0.0
 70
   128
 71
     5
 42
-1.0
  3
STANDARD
100
AcDbAlignedDimension
 13
6.650862070631744
 23
5.885651309024223
 33
0.0
 14
8.900862020113516
 24
5.585174515546267
 34
0.0
 50
90.0
100
AcDbRotatedDimension
  0
DIMENSION
  5
973
330
706
100
AcDbEntity
 67
     1
  8
0
100
AcDbDimension
  2
*D13
 10
8.900862020113516
 20
5.001738683469
 30
0.0
 11
7.769205446465681
 21
5.001738683469
 31
0.0
 70
   128
 71
     5
 42
-1.0
  3
STANDARD
100
AcDbAlignedDimension
 13
6.650862070631744
 23
5.885651309024223
 33
0.0
 14
8.900862020113516
 24
5.585174515546267
 34
0.0
100
AcDbRotatedDimension
  0
DIMENSION
  5
974
330
706
100
AcDbEntity
 67
     1
  8
0
100
AcDbDimension
  2
*D15
 10
5.100862220740584
 20
6.324669840049446
 30
0.0
 11
6.349585189455607
 21
6.324669840049446
 31
0.0
 70
   128
 71
     5
 42
-1.0
  3
STANDARD
100
AcDbAlignedDimension
 13
8.650862087049606
 23
5.804991572823087
 33
0.0
 14
5.100862220740584
 24
5.804017300827023
 34
0.0
100
AcDbRotatedDimension
  0
DIMENSION
  5
975
330
706
100
AcDbEntity
 67
     1
  8
0
100
AcDbDimension
  2
*D18
 10
1.550862354431561
 20
6.324669840049446
 30
0.0
 11
2.868785451298903
 21
6.324669840049446
 31
0.0
 70
   128
 71
     5
 42
-1.0
  3
STANDARD
100
AcDbAlignedDimension
 13
5.100862220740584
 23
5.804017300827023
 33
0.0
 14
1.550862354431561
 24
5.803043028830961
 34
0.0
100
AcDbRotatedDimension
  0
DIMENSION
  5
976
330
706
100
AcDbEntity
 67
     1
  8
0
100
AcDbDimension
  2
*D20
 10
1.469000442485963
 20
5.901443371170867
 30
0.0
 11
2.424539216204514
 21
5.301784934774238
 31
0.0
 70
   131
 71
     5
 42
-1.0
  3
STANDARD
100
AcDbDiametricDimension
 15
1.632724266377159
 25
5.704642686491053
 35
0.0
 40
0.0
  0
DIMENSION
  5
977
330
706
100
AcDbEntity
 67
     1
  8
0
100
AcDbDimension
  2
*D64
 10
1.501541908488139
 20
5.983940081355162
 30
0.0
 11
2.550103170892512
 21
4.974461756718648
 31
0.0
 70
   163
  1
%%C0.390 X .375
 71
     5
 42
0.3750000000000027
  3
STANDARD
100
AcDbDiametricDimension
 15
1.600182800374982
 25
5.622145976306765
 35
0.0
 40
0.0
  0
INSERT
  5
978
330
706
100
AcDbEntity
 67
     1
  8
0
100
AcDbBlockReference
  2
*U60
 10
0.0
 20
0.0
 30
0.0
1001
ACAD
1000
DSTYLE
1002
{
1070
   147
1040
0.09
1070
    77
1070
     0
1002
}
  0
INSERT
  5
979
330
706
100
AcDbEntity
 67
     1
  8
0
100
AcDbBlockReference
  2
*U61
 10
0.0
 20
0.0
 30
0.0
  0
INSERT
  5
97A
330
706
100
AcDbEntity
 67
     1
  8
0
100
AcDbBlockReference
  2
*U62
 10
-2.066239572012
 20
0.0338318018590798
 30
0.0
  0
DIMENSION
  5
97C
330
706
100
AcDbEntity
 67
     1
  8
0
100
AcDbDimension
  2
*D24
 10
9.625631989823226
 20
1.493361690703014
 30
0.0
 11
9.625631989823226
 21
2.21620036369009
 31
0.0
 70
   128
 71
     5
 42
-1.0
  3
STANDARD
100
AcDbAlignedDimension
 13
8.713362020113516
 23
2.993361690703013
 33
0.0
 14
8.900862020113516
 24
1.493361690703014
 34
0.0
 50
90.0
100
AcDbRotatedDimension
  0
DIMENSION
  5
97D
330
706
100
AcDbEntity
 67
     1
  8
0
100
AcDbDimension
  2
*D26
 10
0.526832688072016
 20
1.493361690703014
 30
0.0
 11
0.5268326880720159
 21
1.834323332133784
 31
0.0
 70
   128
 71
     5
 42
-1.0
  3
STANDARD
100
AcDbAlignedDimension
 13
1.213362020113514
 23
2.243361690703016
 33
0.0
 14
1.213362020113514
 24
1.493361690703014
 34
0.0
 50
90.0
100
AcDbRotatedDimension
  0
DIMENSION
  5
97E
330
706
100
AcDbEntity
 67
     1
  8
0
100
AcDbDimension
  2
*D28
 10
9.290747004968372
 20
2.80586169070301
 30
0.0
 11
9.290747004968372
 21
2.899611690703013
 31
0.0
 70
   128
 71
     5
 42
-1.0
  3
STANDARD
100
AcDbAlignedDimension
 13
8.713362020113516
 23
2.993361690703011
 33
0.0
 14
8.900862020113516
 24
2.80586169070301
 34
0.0
 50
90.0
100
AcDbRotatedDimension
  0
DIMENSION
  5
97F
330
706
100
AcDbEntity
 67
     1
  8
0
100
AcDbDimension
  2
*D30
 10
0.7939557851934258
 20
2.243361690703016
 30
0.0
 11
0.7939557851934254
 21
2.149611690703015
 31
0.0
 70
   128
 71
     5
 42
-1.0
  3
STANDARD
100
AcDbAlignedDimension
 13
1.025862020113516
 23
2.055861690703015
 33
0.0
 14
1.213362020113514
 24
2.243361690703016
 34
0.0
 50
90.0
100
AcDbRotatedDimension
  0
DIMENSION
  5
980
330
706
100
AcDbEntity
 67
     1
  8
0
100
AcDbDimension
  2
*D32
 10
4.110953181289167
 20
2.618361690703014
 30
0.0
 11
4.110953181289167
 21
2.805861690703015
 31
0.0
 70
   128
 71
     5
 42
-1.0
  3
STANDARD
100
AcDbAlignedDimension
 13
4.963362020113518
 23
2.993361690703013
 33
0.0
 14
4.588362020113518
 24
2.618361690703014
 34
0.0
 50
90.0
100
AcDbRotatedDimension
  0
DIMENSION
  5
981
330
706
100
AcDbEntity
 67
     1
  8
0
100
AcDbDimension
  2
*D34
 10
4.588362020113518
 20
3.157254488714231
 30
0.0
 11
6.390535744332169
 21
3.157254488714231
 31
0.0
 70
   128
 71
     5
 42
-1.0
  3
STANDARD
100
AcDbAlignedDimension
 13
8.900862020113516
 23
2.80586169070301
 33
0.0
 14
4.588362020113518
 24
2.618361690703014
 34
0.0
100
AcDbRotatedDimension
  0
DIMENSION
  5
982
330
706
100
AcDbEntity
 67
     1
  8
0
100
AcDbDimension
  2
*D36
 10
1.025862020113516
 20
2.055861690703014
 30
0.0
 11
1.285362811376302
 21
2.625354321996752
 31
0.0
 70
   130
 71
     5
 42
-1.0
  3
STANDARD
100
AcDb2LineAngularDimension
 13
1.025862020113516
 23
1.493361690703014
 33
0.0
 14
1.025862020113516
 24
2.055861690703015
 34
0.0
 15
1.213362020113514
 25
2.243361690703016
 35
0.0
 16
1.187838604332014
 26
2.660366532642914
 36
0.0
1001
ACAD
1000
DSTYLE
1002
{
1070
   271
1070
     0
1002
}
  0
LINE
  5
983
330
706
100
AcDbEntity
 67
     1
  8
0
100
AcDbLine
 10
8.900862020113516
 20
5.585174515546267
 30
0.0
 11
8.275862020113516
 21
5.585174515546267
 31
0.0
  0
LINE
  5
984
330
706
100
AcDbEntity
 67
     1
  8
0
  6
HIDDENX2
100
AcDbLine
 10
8.275862020113516
 20
5.585174515546267
 30
0.0
 11
8.275862020113516
 21
5.772625656781617
 31
0.0
  0
LINE
  5
985
330
706
100
AcDbEntity
 67
     1
  8
0
  6
HIDDENX2
100
AcDbLine
 10
8.088313167714678
 20
5.960125650417467
 30
0.0
 11
7.713313193171286
 21
5.960027945623105
 31
0.0
  0
LINE
  5
986
330
706
100
AcDbEntity
 67
     1
  8
0
  6
HIDDENX2
100
AcDbLine
 10
7.525862045570124
 20
5.772527951987258
 30
0.0
 11
7.525862045570124
 21
5.585174515546267
 31
0.0
  0
ARC
  5
987
330
706
100
AcDbEntity
 67
     1
  8
0
  6
HIDDENX2
100
AcDbCircle
 10
7.713362045570124
 20
5.772527951987258
 30
0.0
 40
0.1875
100
AcDbArc
 50
90.01492819362242
 51
180.0
  0
ARC
  5
988
330
706
100
AcDbEntity
 67
     1
  8
0
  6
HIDDENX2
100
AcDbCircle
 10
8.088362020113516
 20
5.772625656781617
 30
0.0
 40
0.1875
100
AcDbArc
 50
0.0
 51
90.01492819362239
  0
LINE
  5
989
330
706
100
AcDbEntity
 67
     1
  8
0
100
AcDbLine
 10
9.563582637333295
 20
5.585174515546267
 30
0.0
 11
9.563582637333295
 21
7.085174515546267
 31
0.0
  0
LINE
  5
98A
330
706
100
AcDbEntity
 67
     1
  8
0
100
AcDbLine
 10
9.563582637333295
 20
7.085174515546267
 30
0.0
 11
10.06358263733327
 21
7.085174515546267
 31
0.0
  0
LINE
  5
98B
330
706
100
AcDbEntity
 67
     1
  8
0
100
AcDbLine
 10
10.06358263733327
 20
7.085174515546267
 30
0.0
 11
10.06358263733327
 21
5.585174515546267
 31
0.0
  0
LINE
  5
98C
330
706
100
AcDbEntity
 67
     1
  8
0
100
AcDbLine
 10
10.06358263733327
 20
5.585174515546267
 30
0.0
 11
9.563582637333295
 21
5.585174515546267
 31
0.0
  0
LINE
  5
98D
330
706
100
AcDbEntity
 67
     1
  8
0
  6
HIDDENX2
100
AcDbLine
 10
9.563582637333295
 20
5.960174515546267
 30
0.0
 11
9.938582291770373
 21
5.960683605003513
 31
0.0
  0
LINE
  5
98E
330
706
100
AcDbEntity
 67
     1
  8
0
  6
HIDDENX2
100
AcDbLine
 10
9.938582291770373
 20
5.960683605003513
 30
0.0
 11
9.938582291770373
 21
5.585174515546267
 31
0.0
  0
DIMENSION
  5
98F
330
706
100
AcDbEntity
 67
     1
  8
0
100
AcDbDimension
  2
*D37
 10
9.296903528954313
 20
5.585174515546267
 30
0.0
 11
9.29690352895431
 21
5.772674515546267
 31
0.0
 70
   128
 71
     5
 42
-1.0
  3
STANDARD
100
AcDbAlignedDimension
 13
9.563582637333295
 23
5.960174515546267
 33
0.0
 14
9.563582637333295
 24
5.585174515546267
 34
0.0
 50
90.0
100
AcDbRotatedDimension
  0
DIMENSION
  5
990
330
706
100
AcDbEntity
 67
     1
  8
0
100
AcDbDimension
  2
*D39
 10
9.938582291770373
 20
5.227119124156455
 30
0.0
 11
9.751082464551835
 21
5.227119124156455
 31
0.0
 70
   128
  1
.375
 71
     5
 42
-1.0
  3
STANDARD
100
AcDbAlignedDimension
 13
9.563582637333295
 23
5.585174515546267
 33
0.0
 14
9.938582291770373
 24
5.585174515546267
 34
0.0
100
AcDbRotatedDimension
  0
DIMENSION
  5
991
330
706
100
AcDbEntity
 67
     1
  8
0
100
AcDbDimension
  2
*D41
 10
8.275862020113516
 20
5.334786242690431
 30
0.0
 11
8.517717973502412
 21
5.334786242690431
 31
0.0
 70
   128
  1
.625
 71
     5
 42
-1.0
  3
STANDARD
100
AcDbAlignedDimension
 13
8.900862020113516
 23
5.585174515546267
 33
0.0
 14
8.275862020113516
 24
5.585174515546267
 34
0.0
100
AcDbRotatedDimension
  0
DIMENSION
  5
992
330
706
100
AcDbEntity
 67
     1
  8
0
100
AcDbDimension
  2
*D43
 10
7.525862045570124
 20
5.334786242690431
 30
0.0
 11
7.85458136119186
 21
5.334786242690431
 31
0.0
 70
   128
 71
     5
 42
-1.0
  3
STANDARD
100
AcDbAlignedDimension
 13
8.275862020113516
 23
5.585174515546267
 33
0.0
 14
7.525862045570124
 24
5.585174515546267
 34
0.0
100
AcDbRotatedDimension
  0
DIMENSION
  5
993
330
706
100
AcDbEntity
 67
     1
  8
0
100
AcDbDimension
  2
*D45
 10
8.900862020113516
 20
6.527406502382859
 30
0.0
 11
8.127528753716271
 21
6.527406502382859
 31
0.0
 70
   128
 71
     5
 42
-1.0
  3
STANDARD
100
AcDbAlignedDimension
 13
8.650862087049606
 23
5.804991572823087
 33
0.0
 14
8.900862020113516
 24
6.085174515546267
 34
0.0
100
AcDbRotatedDimension
  0
DIMENSION
  5
994
330
706
100
AcDbEntity
 67
     1
  8
0
100
AcDbDimension
  2
*D47
 10
5.773990119795186
 20
5.804017300827023
 30
0.0
 11
5.773990119795183
 21
5.694595908186648
 31
0.0
 70
   128
  1
0.220
 71
     5
 42
-1.0
  3
STANDARD
100
AcDbAlignedDimension
 13
5.100862220740584
 23
5.585174515546268
 33
0.0
 14
5.100862220740584
 24
5.804017300827023
 34
0.0
 50
90.0
100
AcDbRotatedDimension
  0
LINE
  5
995
330
706
100
AcDbEntity
 67
     1
  8
0
100
AcDbLine
 10
9.751082464551835
 20
5.227119124156455
 30
0.0
 11
9.751082464551835
 21
5.227119124156455
 31
0.0
  0
LINE
  5
996
330
706
100
AcDbEntity
 67
     1
  8
0
100
AcDbLine
 10
1.213362020113514
 20
4.039528452456901
 30
0.0
 11
1.213362020113514
 21
4.539528452456901
 31
0.0
  0
LINE
  5
997
330
706
100
AcDbEntity
 67
     1
  8
0
100
AcDbLine
 10
1.213362020113514
 20
5.585174515546268
 30
0.0
 11
1.213362020113514
 21
6.085174515546268
 31
0.0
  0
LINE
  5
998
330
706
100
AcDbEntity
 67
     1
  8
0
100
AcDbLine
 10
4.588362020113518
 20
4.039528452456901
 30
0.0
 11
4.588362020113518
 21
4.539528452456901
 31
0.0
  0
LINE
  5
999
330
706
100
AcDbEntity
 67
     1
  8
0
100
AcDbLine
 10
4.588362020113518
 20
5.585174515546268
 30
0.0
 11
4.588362020113518
 21
6.085174515546268
 31
0.0
  0
MTEXT
  5
9A1
330
706
100
AcDbEntity
 67
     1
  8
0
100
AcDbMText
 10
0.504311060428485
 20
0.8640581561939484
 30
0.0
 40
0.1625
 41
4.538999999999998
 71
     1
 72
     5
  1
{\fArial|b0|i0|c0|p32;© Daniel E. Kemp 2010}
 73
     1
 44
1.0
  0
MTEXT
  5
9A3
330
706
100
AcDbEntity
 67
     1
  8
0
100
AcDbMText
 10
7.730444029139169
 20
0.8578138352001616
 30
0.0
 40
0.125
 41
2.655199999999998
 71
     1
 72
     5
  1
G0704 Belt Drive Base\PDaniel E. Kemp\P{\fArial|b0|i0|c0|p32;\H1.3x;© }04-24-2010
 73
     1
 44
1.0
  0
MTEXT
  5
9A4
330
706
100
AcDbEntity
 67
     1
  8
0
100
AcDbMText
 10
8.125686482931158
 20
1.236207862504968
 30
0.0
 40
0.1
 41
1.727511767317336
 71
     1
 72
     5
  1
or 3L150 V-Belt
 73
     1
 44
1.0
  0
LINE
  5
9BC
330
706
100
AcDbEntity
 67
     1
  8
0
100
AcDbLine
 10
1.66594339496621
 20
5.380949906274502
 30
0.0
 11
1.772882362101314
 21
4.988720201439427
 31
0.0
  0
LINE
  5
9BD
330
706
100
AcDbEntity
 67
     1
  8
0
100
AcDbLine
 10
1.772882362101314
 20
4.988720201439427
 30
0.0
 11
1.862908567408034
 21
4.988720201439427
 31
0.0
  0
ENDSEC
  0
SECTION
  2
OBJECTS
  0
DICTIONARY
  5
6F8
330
0
100
AcDbDictionary
281
     1
  3
ACAD_GROUP
350
6F9
  3
ACAD_LAYOUT
350
705
  3
ACAD_MLINESTYLE
350
702
  3
ACAD_PLOTSETTINGS
350
704
  3
ACAD_PLOTSTYLENAME
350
6FA
  3
AcadDim
350
9BA
  3
AcDbVariableDictionary
350
99B
  0
DICTIONARY
  5
6F9
102
{ACAD_REACTORS
330
6F8
102
}
330
6F8
100
AcDbDictionary
281
     1
  0
DICTIONARY
  5
705
102
{ACAD_REACTORS
330
6F8
102
}
330
6F8
100
AcDbDictionary
281
     1
  3
Layout1
350
709
  3
Model
350
70D
  0
DICTIONARY
  5
702
102
{ACAD_REACTORS
330
6F8
102
}
330
6F8
100
AcDbDictionary
281
     1
  3
Standard
350
703
  0
DICTIONARY
  5
704
102
{ACAD_REACTORS
330
6F8
102
}
330
6F8
100
AcDbDictionary
281
     1
  0
ACDBDICTIONARYWDFLT
  5
6FA
102
{ACAD_REACTORS
330
6F8
102
}
330
6F8
100
AcDbDictionary
281
     1
  3
Normal
350
6FB
100
AcDbDictionaryWithDefault
340
6FB
  0
XRECORD
  5
9BA
102
{ACAD_REACTORS
330
6F8
102
}
330
6F8
100
AcDbXrecord
280
     1
 90
   990106
  3

 60
     0
 61
     0
 62
     1
 63
     3
 64
     0
 65
     0
 66
     0
 67
     3
 68
     1
 69
     0
 70
     0
 71
     0
 72
     0
 40
0.0
170
     0
  0
DICTIONARY
  5
99B
102
{ACAD_REACTORS
330
6F8
102
}
330
6F8
100
AcDbDictionary
281
     1
  3
DIMASSOC
350
99C
  0
LAYOUT
  5
709
102
{ACAD_REACTORS
330
705
102
}
330
705
100
AcDbPlotSettings
  1

  2
Microsoft XPS Document Writer
  4
Letter
  6

 40
3.174999952316283
 41
3.174999952316283
 42
3.175003051757812
 43
3.17498779296875
 44
215.8999938964842
 45
279.3999938964843
 46
0.0
 47
0.0
 48
0.0
 49
0.0
140
0.0
141
0.0
142
1.0
143
0.942127274597801
 70
   688
 72
     0
 73
     1
 74
     1
  7

 75
     0
147
1.061427714665095
148
-3.978839613909183
149
-4.017584714760776
100
AcDbLayout
  1
Layout1
 70
     0
 71
     1
 10
0.0388817723479625
 20
0.0404067190093263
 11
10.40228156653446
 21
8.04848832670132
 12
0.0
 22
0.0
 32
0.0
 14
0.157240445526571
 24
0.1586796761571065
 34
0.0
 15
10.28401707283322
 25
7.732543961594397
 35
0.0
146
0.0
 13
0.0
 23
0.0
 33
0.0
 16
1.0
 26
0.0
 36
0.0
 17
0.0
 27
1.0
 37
0.0
 76
     0
330
706
331
917
  0
LAYOUT
  5
70D
102
{ACAD_REACTORS
330
705
102
}
330
705
100
AcDbPlotSettings
  1

  2
Microsoft XPS Document Writer
  4

  6

 40
0.0
 41
0.0
 42
0.0
 43
0.0
 44
0.0
 45
0.0
 46
0.0
 47
0.0
 48
0.0
 49
0.0
140
0.0
141
0.0
142
1.0
143
1.0
 70
  1712
 72
     0
 73
     0
 74
     0
  7

 75
     0
147
1.0
148
0.0
149
0.0
100
AcDbLayout
  1
Model
 70
     1
 71
     0
 10
0.0
 20
0.0
 11
12.0
 21
9.0
 12
0.0
 22
0.0
 32
0.0
 14
0.0
 24
0.0
 34
0.0
 15
0.0
 25
0.0
 35
0.0
146
0.0
 13
0.0
 23
0.0
 33
0.0
 16
1.0
 26
0.0
 36
0.0
 17
0.0
 27
1.0
 37
0.0
 76
     0
330
70A
  0
MLINESTYLE
  5
703
102
{ACAD_REACTORS
330
702
102
}
330
702
100
AcDbMlineStyle
  2
STANDARD
 70
     0
  3

 62
   256
 51
90.0
 52
90.0
 71
     2
 49
0.5
 62
   256
  6
BYLAYER
 49
-0.5
 62
   256
  6
BYLAYER
  0
ACDBPLACEHOLDER
  5
6FB
102
{ACAD_REACTORS
330
6FA
102
}
330
6FA
  0
DICTIONARYVAR
  5
99C
102
{ACAD_REACTORS
330
99B
102
}
330
99B
100
DictionaryVariables
280
     0
  1
1
  0
ENDSEC
  0
EOF
