  0
SECTION
  2
HEADER
  9
$ACADVER
  1
AC1015
  9
$ACADMAINTVER
 70
    13
  9
$DWGCODEPAGE
  3
ANSI_1252
  9
$INSBASE
 10
0.0
 20
0.0
 30
0.0
  9
$EXTMIN
 10
1.000000000000000E+20
 20
1.000000000000000E+20
 30
1.000000000000000E+20
  9
$EXTMAX
 10
-1.000000000000000E+20
 20
-1.000000000000000E+20
 30
-1.000000000000000E+20
  9
$LIMMIN
 10
0.0
 20
0.0
  9
$LIMMAX
 10
12.0
 20
9.0
  9
$ORTHOMODE
 70
     0
  9
$REGENMODE
 70
     1
  9
$FILLMODE
 70
     1
  9
$QTEXTMODE
 70
     0
  9
$MIRRTEXT
 70
     1
  9
$LTSCALE
 40
0.3
  9
$ATTMODE
 70
     1
  9
$TEXTSIZE
 40
0.2
  9
$TRACEWID
 40
0.05
  9
$TEXTSTYLE
  7
Standard
  9
$CLAYER
  8
0
  9
$CELTYPE
  6
ByLayer
  9
$CECOLOR
 62
   256
  9
$CELTSCALE
 40
0.3
  9
$DISPSILH
 70
     0
  9
$DIMSCALE
 40
1.0
  9
$DIMASZ
 40
0.125
  9
$DIMEXO
 40
0.0625
  9
$DIMDLI
 40
0.38
  9
$DIMRND
 40
0.0
  9
$DIMDLE
 40
0.0
  9
$DIMEXE
 40
0.18
  9
$DIMTP
 40
0.0
  9
$DIMTM
 40
0.0
  9
$DIMTXT
 40
0.125
  9
$DIMCEN
 40
0.09
  9
$DIMTSZ
 40
0.0
  9
$DIMTOL
 70
     0
  9
$DIMLIM
 70
     0
  9
$DIMTIH
 70
     1
  9
$DIMTOH
 70
     1
  9
$DIMSE1
 70
     0
  9
$DIMSE2
 70
     0
  9
$DIMTAD
 70
     0
  9
$DIMZIN
 70
     0
  9
$DIMBLK
  1

  9
$DIMASO
 70
     1
  9
$DIMSHO
 70
     1
  9
$DIMPOST
  1

  9
$DIMAPOST
  1

  9
$DIMALT
 70
     0
  9
$DIMALTD
 70
     2
  9
$DIMALTF
 40
25.4
  9
$DIMLFAC
 40
1.0
  9
$DIMTOFL
 70
     0
  9
$DIMTVP
 40
0.0
  9
$DIMTIX
 70
     0
  9
$DIMSOXD
 70
     0
  9
$DIMSAH
 70
     0
  9
$DIMBLK1
  1

  9
$DIMBLK2
  1

  9
$DIMSTYLE
  2
Standard
  9
$DIMCLRD
 70
     0
  9
$DIMCLRE
 70
     0
  9
$DIMCLRT
 70
     0
  9
$DIMTFAC
 40
1.0
  9
$DIMGAP
 40
0.09
  9
$DIMJUST
 70
     0
  9
$DIMSD1
 70
     0
  9
$DIMSD2
 70
     0
  9
$DIMTOLJ
 70
     1
  9
$DIMTZIN
 70
     0
  9
$DIMALTZ
 70
     0
  9
$DIMALTTZ
 70
     0
  9
$DIMUPT
 70
     0
  9
$DIMDEC
 70
     3
  9
$DIMTDEC
 70
     3
  9
$DIMALTU
 70
     2
  9
$DIMALTTD
 70
     2
  9
$DIMTXSTY
  7
Standard
  9
$DIMAUNIT
 70
     0
  9
$DIMADEC
 70
     0
  9
$DIMALTRND
 40
0.0
  9
$DIMAZIN
 70
     0
  9
$DIMDSEP
 70
    46
  9
$DIMATFIT
 70
     3
  9
$DIMFRAC
 70
     0
  9
$DIMLDRBLK
  1

  9
$DIMLUNIT
 70
     2
  9
$DIMLWD
 70
    -2
  9
$DIMLWE
 70
    -2
  9
$DIMTMOVE
 70
     0
  9
$LUNITS
 70
     2
  9
$LUPREC
 70
     4
  9
$SKETCHINC
 40
0.1
  9
$FILLETRAD
 40
0.5
  9
$AUNITS
 70
     0
  9
$AUPREC
 70
     0
  9
$MENU
  1
.
  9
$ELEVATION
 40
0.0
  9
$PELEVATION
 40
0.0
  9
$THICKNESS
 40
0.0
  9
$LIMCHECK
 70
     0
  9
$CHAMFERA
 40
0.5
  9
$CHAMFERB
 40
0.5
  9
$CHAMFERC
 40
1.0
  9
$CHAMFERD
 40
0.0
  9
$SKPOLY
 70
     0
  9
$TDCREATE
 40
2454412.621520173
  9
$TDUCREATE
 40
2454412.788186840
  9
$TDUPDATE
 40
2455398.184054872
  9
$TDUUPDATE
 40
2455398.350721539
  9
$TDINDWG
 40
0.0282501505
  9
$TDUSRTIMER
 40
0.0282501505
  9
$USRTIMER
 70
     1
  9
$ANGBASE
 50
0.0
  9
$ANGDIR
 70
     0
  9
$PDMODE
 70
     0
  9
$PDSIZE
 40
0.0
  9
$PLINEWID
 40
0.0
  9
$SPLFRAME
 70
     0
  9
$SPLINETYPE
 70
     6
  9
$SPLINESEGS
 70
     8
  9
$HANDSEED
  5
495
  9
$SURFTAB1
 70
     6
  9
$SURFTAB2
 70
     6
  9
$SURFTYPE
 70
     6
  9
$SURFU
 70
     6
  9
$SURFV
 70
     6
  9
$UCSBASE
  2

  9
$UCSNAME
  2

  9
$UCSORG
 10
0.0
 20
0.0
 30
0.0
  9
$UCSXDIR
 10
1.0
 20
0.0
 30
0.0
  9
$UCSYDIR
 10
0.0
 20
1.0
 30
0.0
  9
$UCSORTHOREF
  2

  9
$UCSORTHOVIEW
 70
     0
  9
$UCSORGTOP
 10
0.0
 20
0.0
 30
0.0
  9
$UCSORGBOTTOM
 10
0.0
 20
0.0
 30
0.0
  9
$UCSORGLEFT
 10
0.0
 20
0.0
 30
0.0
  9
$UCSORGRIGHT
 10
0.0
 20
0.0
 30
0.0
  9
$UCSORGFRONT
 10
0.0
 20
0.0
 30
0.0
  9
$UCSORGBACK
 10
0.0
 20
0.0
 30
0.0
  9
$PUCSBASE
  2

  9
$PUCSNAME
  2

  9
$PUCSORG
 10
0.0
 20
0.0
 30
0.0
  9
$PUCSXDIR
 10
1.0
 20
0.0
 30
0.0
  9
$PUCSYDIR
 10
0.0
 20
1.0
 30
0.0
  9
$PUCSORTHOREF
  2

  9
$PUCSORTHOVIEW
 70
     0
  9
$PUCSORGTOP
 10
0.0
 20
0.0
 30
0.0
  9
$PUCSORGBOTTOM
 10
0.0
 20
0.0
 30
0.0
  9
$PUCSORGLEFT
 10
0.0
 20
0.0
 30
0.0
  9
$PUCSORGRIGHT
 10
0.0
 20
0.0
 30
0.0
  9
$PUCSORGFRONT
 10
0.0
 20
0.0
 30
0.0
  9
$PUCSORGBACK
 10
0.0
 20
0.0
 30
0.0
  9
$USERI1
 70
     0
  9
$USERI2
 70
     0
  9
$USERI3
 70
     0
  9
$USERI4
 70
     0
  9
$USERI5
 70
     0
  9
$USERR1
 40
0.0
  9
$USERR2
 40
0.0
  9
$USERR3
 40
0.0
  9
$USERR4
 40
0.0
  9
$USERR5
 40
0.0
  9
$WORLDVIEW
 70
     1
  9
$SHADEDGE
 70
     3
  9
$SHADEDIF
 70
    70
  9
$TILEMODE
 70
     0
  9
$MAXACTVP
 70
    64
  9
$PINSBASE
 10
0.0
 20
0.0
 30
0.0
  9
$PLIMCHECK
 70
     0
  9
$PEXTMIN
 10
-1.439262267973589
 20
-1.41285528304607
 30
0.0
  9
$PEXTMAX
 10
8.966538218833356
 20
6.396855050259421
 30
0.0
  9
$PLIMMIN
 10
-1.75200024029589
 20
-1.757999996245376
  9
$PLIMMAX
 10
9.247999519408217
 20
6.741999763458731
  9
$UNITMODE
 70
     0
  9
$VISRETAIN
 70
     1
  9
$PLINEGEN
 70
     0
  9
$PSLTSCALE
 70
     1
  9
$TREEDEPTH
 70
  3020
  9
$CMLSTYLE
  2
Standard
  9
$CMLJUST
 70
     0
  9
$CMLSCALE
 40
1.0
  9
$PROXYGRAPHICS
 70
     1
  9
$MEASUREMENT
 70
     0
  9
$CELWEIGHT
370
    -1
  9
$ENDCAPS
280
     0
  9
$JOINSTYLE
280
     0
  9
$LWDISPLAY
290
     0
  9
$INSUNITS
 70
     1
  9
$HYPERLINKBASE
  1

  9
$STYLESHEET
  1

  9
$XEDIT
290
     1
  9
$CEPSNTYPE
380
     0
  9
$PSTYLEMODE
290
     1
  9
$FINGERPRINTGUID
  2
{FDEAD576-A652-11D2-9A35-0060089B3A3F}
  9
$VERSIONGUID
  2
{C849B57B-BBD1-4C72-8FC6-BCFF0441575D}
  9
$EXTNAMES
290
     1
  9
$PSVPSCALE
 40
0.0
  9
$OLESTARTUP
290
     0
  0
ENDSEC
  0
SECTION
  2
CLASSES
  0
CLASS
  1
ACDBDICTIONARYWDFLT
  2
AcDbDictionaryWithDefault
  3
AutoCAD 2000
 90
        0
280
     0
281
     0
  0
CLASS
  1
ACDBPLACEHOLDER
  2
AcDbPlaceHolder
  3
AutoCAD 2000
 90
        0
280
     0
281
     0
  0
CLASS
  1
LAYOUT
  2
AcDbLayout
  3
AutoCAD 2000
 90
        0
280
     0
281
     0
  0
CLASS
  1
DICTIONARYVAR
  2
AcDbDictionaryVar
  3
AutoCAD 2000
 90
        0
280
     0
281
     0
  0
CLASS
  1
DIMASSOC
  2
AcDbDimAssoc
  3
"AcDbDimAssoc|Product Desc:     AcDim ARX App For Dimension|Company:          Autodesk, Inc.|WEB Address:      www.autodesk.com"
 90
        0
280
     0
281
     0
  0
ENDSEC
  0
SECTION
  2
TABLES
  0
TABLE
  2
VPORT
  5
8
330
0
100
AcDbSymbolTable
 70
     1
  0
VPORT
  5
74
330
8
100
AcDbSymbolTableRecord
100
AcDbViewportTableRecord
  2
*Active
 70
     0
 10
0.0
 20
0.0
 11
1.0
 21
1.0
 12
20.48748698095427
 22
9.784138269231398
 13
0.0
 23
0.0
 14
0.5
 24
0.5
 15
0.5
 25
0.5
 16
0.0
 26
0.0
 36
1.0
 17
0.0
 27
0.0
 37
0.0
 40
19.56827653846279
 41
2.093949044585987
 42
50.0
 43
0.0
 44
0.0
 50
0.0
 51
0.0
 71
     0
 72
   100
 73
     1
 74
     3
 75
     0
 76
     0
 77
     0
 78
     0
281
     0
 65
     1
110
0.0
120
0.0
130
0.0
111
1.0
121
0.0
131
0.0
112
0.0
122
1.0
132
0.0
 79
     0
146
0.0
  0
ENDTAB
  0
TABLE
  2
LTYPE
  5
5
330
0
100
AcDbSymbolTable
 70
     3
  0
LTYPE
  5
14
330
5
100
AcDbSymbolTableRecord
100
AcDbLinetypeTableRecord
  2
ByBlock
 70
     0
  3

 72
    65
 73
     0
 40
0.0
  0
LTYPE
  5
15
330
5
100
AcDbSymbolTableRecord
100
AcDbLinetypeTableRecord
  2
ByLayer
 70
     0
  3

 72
    65
 73
     0
 40
0.0
  0
LTYPE
  5
16
330
5
100
AcDbSymbolTableRecord
100
AcDbLinetypeTableRecord
  2
Continuous
 70
     0
  3
Solid line
 72
    65
 73
     0
 40
0.0
  0
LTYPE
  5
92
330
5
100
AcDbSymbolTableRecord
100
AcDbLinetypeTableRecord
  2
HIDDENX2
 70
     0
  3
Hidden (2x) ____ ____ ____ ____ ____ ____ ____
 72
    65
 73
     2
 40
0.75
 49
0.5
 74
     0
 49
-0.25
 74
     0
  0
LTYPE
  5
93
330
5
100
AcDbSymbolTableRecord
100
AcDbLinetypeTableRecord
  2
threads
 70
     0
  3
Zig zag /\/\/\/\/\/\/\/\/\/\/\/\/\/\/\/\/\/\/\/
 72
    65
 73
     4
 40
0.8001000000000001
 49
0.0001
 74
     0
 49
-0.2
 74
     4
 75
   131
340
91
 46
0.2
 50
0.0
 44
-0.2
 45
0.0
 49
-0.4
 74
     4
 75
   131
340
91
 46
0.2
 50
180.0
 44
0.2
 45
0.0
 49
-0.2
 74
     0
  0
ENDTAB
  0
TABLE
  2
LAYER
  5
2
330
0
100
AcDbSymbolTable
 70
     2
  0
LAYER
  5
10
330
2
100
AcDbSymbolTableRecord
100
AcDbLayerTableRecord
  2
0
 70
     0
 62
     7
  6
Continuous
370
    -3
390
F
  0
LAYER
  5
158
330
2
100
AcDbSymbolTableRecord
100
AcDbLayerTableRecord
  2
DEFPOINTS
 70
     0
 62
     7
  6
Continuous
290
     0
370
    -3
390
F
  0
ENDTAB
  0
TABLE
  2
STYLE
  5
3
330
0
100
AcDbSymbolTable
 70
     2
  0
STYLE
  5
11
330
3
100
AcDbSymbolTableRecord
100
AcDbTextStyleTableRecord
  2
Standard
 70
     0
 40
0.0
 41
1.0
 50
0.0
 71
     0
 42
0.2
  3
txt
  4

  0
STYLE
  5
91
330
3
100
AcDbSymbolTableRecord
100
AcDbTextStyleTableRecord
  2

 70
     1
 40
0.0
 41
1.0
 50
0.0
 71
     0
 42
0.2
  3
ltypeshp.shx
  4

  0
ENDTAB
  0
TABLE
  2
VIEW
  5
6
330
0
100
AcDbSymbolTable
 70
     0
  0
ENDTAB
  0
TABLE
  2
UCS
  5
7
330
0
100
AcDbSymbolTable
 70
     0
  0
ENDTAB
  0
TABLE
  2
APPID
  5
9
330
0
100
AcDbSymbolTable
 70
     1
  0
APPID
  5
12
330
9
100
AcDbSymbolTableRecord
100
AcDbRegAppTableRecord
  2
ACAD
 70
     0
  0
ENDTAB
  0
TABLE
  2
DIMSTYLE
  5
A
330
0
100
AcDbSymbolTable
 70
     1
100
AcDbDimStyleTable
 71
     1
340
27
  0
DIMSTYLE
105
27
102
{ACAD_REACTORS
330
18E
330
190
330
19C
330
19D
330
19E
330
1A8
330
1AB
330
1AD
330
1AE
330
291
330
2AB
330
2D2
330
306
330
33C
330
36E
330
3E0
330
434
330
44A
102
}
330
A
100
AcDbSymbolTableRecord
100
AcDbDimStyleTableRecord
  2
Standard
 70
     0
 41
0.125
140
0.125
271
     3
272
     3
340
11
  0
ENDTAB
  0
TABLE
  2
BLOCK_RECORD
  5
1
330
0
100
AcDbSymbolTable
 70
    43
  0
BLOCK_RECORD
  5
1F
330
1
100
AcDbSymbolTableRecord
100
AcDbBlockTableRecord
  2
*Model_Space
340
22
  0
BLOCK_RECORD
  5
58
330
1
100
AcDbSymbolTableRecord
100
AcDbBlockTableRecord
  2
*Paper_Space
340
59
  0
BLOCK_RECORD
  5
5D
330
1
100
AcDbSymbolTableRecord
100
AcDbBlockTableRecord
  2
*Paper_Space0
340
5E
  0
BLOCK_RECORD
  5
BF
330
1
100
AcDbSymbolTableRecord
100
AcDbBlockTableRecord
  2
*U2
340
0
102
{BLKREFS
331
B9
102
}
  0
BLOCK_RECORD
  5
D0
330
1
100
AcDbSymbolTableRecord
100
AcDbBlockTableRecord
  2
*U4
340
0
102
{BLKREFS
331
CA
102
}
  0
BLOCK_RECORD
  5
E1
330
1
100
AcDbSymbolTableRecord
100
AcDbBlockTableRecord
  2
*U6
340
0
102
{BLKREFS
331
DB
102
}
  0
BLOCK_RECORD
  5
F2
330
1
100
AcDbSymbolTableRecord
100
AcDbBlockTableRecord
  2
*U8
340
0
102
{BLKREFS
331
EC
102
}
  0
BLOCK_RECORD
  5
103
330
1
100
AcDbSymbolTableRecord
100
AcDbBlockTableRecord
  2
*U10
340
0
102
{BLKREFS
331
FD
102
}
  0
BLOCK_RECORD
  5
112
330
1
100
AcDbSymbolTableRecord
100
AcDbBlockTableRecord
  2
*U12
340
0
102
{BLKREFS
331
10A
102
}
  0
BLOCK_RECORD
  5
121
330
1
100
AcDbSymbolTableRecord
100
AcDbBlockTableRecord
  2
*U14
340
0
102
{BLKREFS
331
119
102
}
  0
BLOCK_RECORD
  5
132
330
1
100
AcDbSymbolTableRecord
100
AcDbBlockTableRecord
  2
*U16
340
0
102
{BLKREFS
331
12C
102
}
  0
BLOCK_RECORD
  5
143
330
1
100
AcDbSymbolTableRecord
100
AcDbBlockTableRecord
  2
*U18
340
0
102
{BLKREFS
331
13D
102
}
  0
BLOCK_RECORD
  5
147
330
1
100
AcDbSymbolTableRecord
100
AcDbBlockTableRecord
  2
*U19
340
0
102
{BLKREFS
331
1A3
102
}
  0
BLOCK_RECORD
  5
14B
330
1
100
AcDbSymbolTableRecord
100
AcDbBlockTableRecord
  2
*U20
340
0
102
{BLKREFS
331
19F
102
}
  0
BLOCK_RECORD
  5
1BF
330
1
100
AcDbSymbolTableRecord
100
AcDbBlockTableRecord
  2
*D23
340
0
  0
BLOCK_RECORD
  5
1CC
330
1
100
AcDbSymbolTableRecord
100
AcDbBlockTableRecord
  2
*D24
340
0
  0
BLOCK_RECORD
  5
1D9
330
1
100
AcDbSymbolTableRecord
100
AcDbBlockTableRecord
  2
*D25
340
0
  0
BLOCK_RECORD
  5
1E4
330
1
100
AcDbSymbolTableRecord
100
AcDbBlockTableRecord
  2
*D26
340
0
  0
BLOCK_RECORD
  5
1EF
330
1
100
AcDbSymbolTableRecord
100
AcDbBlockTableRecord
  2
*D27
340
0
  0
BLOCK_RECORD
  5
1FC
330
1
100
AcDbSymbolTableRecord
100
AcDbBlockTableRecord
  2
*D28
340
0
  0
BLOCK_RECORD
  5
209
330
1
100
AcDbSymbolTableRecord
100
AcDbBlockTableRecord
  2
*D29
340
0
  0
BLOCK_RECORD
  5
216
330
1
100
AcDbSymbolTableRecord
100
AcDbBlockTableRecord
  2
*D30
340
0
  0
BLOCK_RECORD
  5
223
330
1
100
AcDbSymbolTableRecord
100
AcDbBlockTableRecord
  2
*D31
340
0
  0
BLOCK_RECORD
  5
292
330
1
100
AcDbSymbolTableRecord
100
AcDbBlockTableRecord
  2
*D32
340
0
  0
BLOCK_RECORD
  5
2AC
330
1
100
AcDbSymbolTableRecord
100
AcDbBlockTableRecord
  2
*D33
340
0
  0
BLOCK_RECORD
  5
2D3
330
1
100
AcDbSymbolTableRecord
100
AcDbBlockTableRecord
  2
*D34
340
0
  0
BLOCK_RECORD
  5
307
330
1
100
AcDbSymbolTableRecord
100
AcDbBlockTableRecord
  2
*D36
340
0
  0
BLOCK_RECORD
  5
33D
330
1
100
AcDbSymbolTableRecord
100
AcDbBlockTableRecord
  2
*D38
340
0
  0
BLOCK_RECORD
  5
36F
330
1
100
AcDbSymbolTableRecord
100
AcDbBlockTableRecord
  2
*D39
340
0
  0
BLOCK_RECORD
  5
3E1
330
1
100
AcDbSymbolTableRecord
100
AcDbBlockTableRecord
  2
*D40
340
0
  0
BLOCK_RECORD
  5
435
330
1
100
AcDbSymbolTableRecord
100
AcDbBlockTableRecord
  2
*D41
340
0
  0
BLOCK_RECORD
  5
44B
330
1
100
AcDbSymbolTableRecord
100
AcDbBlockTableRecord
  2
*D42
340
0
  0
ENDTAB
  0
ENDSEC
  0
SECTION
  2
BLOCKS
  0
BLOCK
  5
20
330
1F
100
AcDbEntity
  8
0
100
AcDbBlockBegin
  2
*Model_Space
 70
     0
 10
0.0
 20
0.0
 30
0.0
  3
*Model_Space
  1

  0
ENDBLK
  5
21
330
1F
100
AcDbEntity
  8
0
100
AcDbBlockEnd
  0
BLOCK
  5
5A
330
58
100
AcDbEntity
 67
     1
  8
0
100
AcDbBlockBegin
  2
*Paper_Space
 70
     0
 10
0.0
 20
0.0
 30
0.0
  3
*Paper_Space
  1

  0
ENDBLK
  5
5B
330
58
100
AcDbEntity
 67
     1
  8
0
100
AcDbBlockEnd
  0
BLOCK
  5
5F
330
5D
100
AcDbEntity
  8
0
100
AcDbBlockBegin
  2
*Paper_Space0
 70
     0
 10
0.0
 20
0.0
 30
0.0
  3
*Paper_Space0
  1

  0
ENDBLK
  5
60
330
5D
100
AcDbEntity
  8
0
100
AcDbBlockEnd
  0
BLOCK
  5
C1
330
BF
100
AcDbEntity
  8
0
100
AcDbBlockBegin
  2
*U2
 70
     1
 10
0.0
 20
0.0
 30
0.0
  3
*U2
  1

  0
TEXT
  5
C0
330
BF
100
AcDbEntity
  8
0
 62
     0
100
AcDbText
 10
6.966296488991129
 20
4.33976684919588
 30
0.0
 40
0.1
  1
0.300
100
AcDbText
  0
ENDBLK
  5
C2
330
BF
100
AcDbEntity
  8
0
100
AcDbBlockEnd
  0
BLOCK
  5
D2
330
D0
100
AcDbEntity
  8
0
100
AcDbBlockBegin
  2
*U4
 70
     1
 10
0.0
 20
0.0
 30
0.0
  3
*U4
  1

  0
TEXT
  5
D1
330
D0
100
AcDbEntity
  8
0
 62
     0
100
AcDbText
 10
6.979946673949979
 20
5.685412912285246
 30
0.0
 40
0.1
  1
0.300
100
AcDbText
  0
ENDBLK
  5
D3
330
D0
100
AcDbEntity
  8
0
100
AcDbBlockEnd
  0
BLOCK
  5
E3
330
E1
100
AcDbEntity
  8
0
100
AcDbBlockBegin
  2
*U6
 70
     1
 10
0.0
 20
0.0
 30
0.0
  3
*U6
  1

  0
TEXT
  5
E2
330
E1
100
AcDbEntity
  8
0
 62
     0
100
AcDbText
 10
7.577538779799017
 20
4.951738683469
 30
0.0
 40
0.1
  1
2.250
100
AcDbText
  0
ENDBLK
  5
E4
330
E1
100
AcDbEntity
  8
0
100
AcDbBlockEnd
  0
BLOCK
  5
F4
330
F2
100
AcDbEntity
  8
0
100
AcDbBlockBegin
  2
*U8
 70
     1
 10
0.0
 20
0.0
 30
0.0
  3
*U8
  1

  0
TEXT
  5
F3
330
F2
100
AcDbEntity
  8
0
 62
     0
100
AcDbText
 10
6.157918522788943
 20
6.274669840049448
 30
0.0
 40
0.1
  1
3.550
100
AcDbText
  0
ENDBLK
  5
F5
330
F2
100
AcDbEntity
  8
0
100
AcDbBlockEnd
  0
BLOCK
  5
105
330
103
100
AcDbEntity
  8
0
100
AcDbBlockBegin
  2
*U10
 70
     1
 10
0.0
 20
0.0
 30
0.0
  3
*U10
  1

  0
TEXT
  5
104
330
103
100
AcDbEntity
  8
0
 62
     0
100
AcDbText
 10
2.677118784632237
 20
6.274669840049448
 30
0.0
 40
0.1
  1
3.550
100
AcDbText
  0
ENDBLK
  5
106
330
103
100
AcDbEntity
  8
0
100
AcDbBlockEnd
  0
BLOCK
  5
114
330
112
100
AcDbEntity
  8
0
100
AcDbBlockBegin
  2
*U12
 70
     1
 10
0.0
 20
0.0
 30
0.0
  3
*U12
  1

  0
TEXT
  5
113
330
112
100
AcDbEntity
  8
0
 62
     0
100
AcDbText
 10
2.182872549537846
 20
5.251784934774239
 30
0.0
 40
0.1
  1
\U+22050.256
100
AcDbText
  0
ENDBLK
  5
115
330
112
100
AcDbEntity
  8
0
100
AcDbBlockEnd
  0
BLOCK
  5
123
330
121
100
AcDbEntity
  8
0
100
AcDbBlockBegin
  2
*U14
 70
     1
 10
0.0
 20
0.0
 30
0.0
  3
*U14
  1

  0
TEXT
  5
122
330
121
100
AcDbEntity
  8
0
 62
     0
100
AcDbText
 10
1.99176983755918
 20
4.924461756718648
 30
0.0
 40
0.1
  1
%%C0.375 X .375
100
AcDbText
  0
ENDBLK
  5
124
330
121
100
AcDbEntity
  8
0
100
AcDbBlockEnd
  0
BLOCK
  5
134
330
132
100
AcDbEntity
  8
0
100
AcDbBlockBegin
  2
*U16
 70
     1
 10
0.0
 20
0.0
 30
0.0
  3
*U16
  1

  0
TEXT
  5
133
330
132
100
AcDbEntity
  8
0
 62
     0
100
AcDbText
 10
7.671248027858528
 20
5.284786242690431
 30
0.0
 40
0.1
  1
0.750
100
AcDbText
  0
ENDBLK
  5
135
330
132
100
AcDbEntity
  8
0
100
AcDbBlockEnd
  0
BLOCK
  5
145
330
143
100
AcDbEntity
  8
0
100
AcDbBlockBegin
  2
*U18
 70
     1
 10
0.0
 20
0.0
 30
0.0
  3
*U18
  1

  0
TEXT
  5
144
330
143
100
AcDbEntity
  8
0
 62
     0
100
AcDbText
 10
5.590656786461853
 20
5.644595908186647
 30
0.0
 40
0.1
  1
0.220
100
AcDbText
  0
ENDBLK
  5
146
330
143
100
AcDbEntity
  8
0
100
AcDbBlockEnd
  0
BLOCK
  5
149
330
147
100
AcDbEntity
  8
0
100
AcDbBlockBegin
  2
*U19
 70
     1
 10
0.0
 20
0.0
 30
0.0
  3
*U19
  1

  0
TEXT
  5
148
330
147
100
AcDbEntity
  8
0
100
AcDbText
 10
0.37925681172133
 20
5.771194153674273
 30
0.0
 40
0.15
  1
LEFT
100
AcDbText
  0
ENDBLK
  5
14A
330
147
100
AcDbEntity
  8
0
100
AcDbBlockEnd
  0
BLOCK
  5
14D
330
14B
100
AcDbEntity
  8
0
100
AcDbBlockBegin
  2
*U20
 70
     1
 10
0.0
 20
0.0
 30
0.0
  3
*U20
  1

  0
TEXT
  5
14C
330
14B
100
AcDbEntity
  8
0
100
AcDbText
 10
0.3136459413697459
 20
4.24354531130479
 30
0.0
 40
0.15
  1
RIGHT
100
AcDbText
  0
ENDBLK
  5
14E
330
14B
100
AcDbEntity
  8
0
100
AcDbBlockEnd
  0
BLOCK
  5
1CA
330
1BF
100
AcDbEntity
  8
0
 48
0.3
100
AcDbBlockBegin
  2
*D23
 70
     1
 10
0.0
 20
0.0
 30
0.0
  3
*D23
  1

  0
LINE
  5
230
330
1BF
100
AcDbEntity
  8
0
 62
     0
 48
0.3
370
    -2
100
AcDbLine
 10
3.873632697954928
 20
4.951299109511299
 30
0.0
 11
4.66426059700953
 21
4.951299109511299
 31
0.0
  0
LINE
  5
231
330
1BF
100
AcDbEntity
  8
0
 62
     0
 48
0.3
370
    -2
100
AcDbLine
 10
3.873632697954928
 20
5.170141894792055
 30
0.0
 11
4.66426059700953
 21
5.170141894792055
 31
0.0
  0
LINE
  5
232
330
1BF
100
AcDbEntity
  8
0
 62
     0
 48
0.3
370
    -2
100
AcDbLine
 10
4.48426059700953
 20
4.826299109511299
 30
0.0
 11
4.48426059700953
 21
4.701299109511299
 31
0.0
  0
LINE
  5
233
330
1BF
100
AcDbEntity
  8
0
 62
     0
 48
0.3
370
    -2
100
AcDbLine
 10
4.48426059700953
 20
5.295141894792055
 30
0.0
 11
4.48426059700953
 21
5.420141894792055
 31
0.0
  0
SOLID
  5
234
330
1BF
100
AcDbEntity
  8
0
 62
     0
 48
0.3
100
AcDbTrace
 10
4.463427263676197
 20
4.826299109511299
 30
0.0
 11
4.505093930342863
 21
4.826299109511299
 31
0.0
 12
4.48426059700953
 22
4.951299109511299
 32
0.0
 13
4.48426059700953
 23
4.951299109511299
 33
0.0
  0
SOLID
  5
235
330
1BF
100
AcDbEntity
  8
0
 62
     0
 48
0.3
100
AcDbTrace
 10
4.463427263676197
 20
5.295141894792055
 30
0.0
 11
4.505093930342863
 21
5.295141894792055
 31
0.0
 12
4.48426059700953
 22
5.170141894792055
 32
0.0
 13
4.48426059700953
 23
5.170141894792055
 33
0.0
  0
MTEXT
  5
236
330
1BF
100
AcDbEntity
  8
0
 62
     0
 48
0.3
100
AcDbMText
 10
4.484260597009529
 20
5.060720502151678
 30
0.0
 40
0.125
 41
0.0
 71
     5
 72
     1
  1
\A1;0.220
 73
     1
 44
1.0
  0
POINT
  5
237
330
1BF
100
AcDbEntity
  8
DEFPOINTS
 62
     0
 48
0.3
100
AcDbPoint
 10
3.811132697954928
 20
4.951299109511299
 30
0.0
  0
POINT
  5
238
330
1BF
100
AcDbEntity
  8
DEFPOINTS
 62
     0
 48
0.3
100
AcDbPoint
 10
3.811132697954928
 20
5.170141894792055
 30
0.0
  0
POINT
  5
239
330
1BF
100
AcDbEntity
  8
DEFPOINTS
 62
     0
 48
0.3
100
AcDbPoint
 10
4.48426059700953
 20
5.170141894792055
 30
0.0
  0
ENDBLK
  5
1CB
330
1BF
100
AcDbEntity
  8
0
 48
0.3
100
AcDbBlockEnd
  0
BLOCK
  5
1D7
330
1CC
100
AcDbEntity
  8
0
 48
0.3
100
AcDbBlockBegin
  2
*D24
 70
     1
 10
0.0
 20
0.0
 30
0.0
  3
*D24
  1

  0
LINE
  5
23A
330
1CC
100
AcDbEntity
  8
0
 62
     0
 48
0.3
370
    -2
100
AcDbLine
 10
7.36113256426395
 20
5.233616166788118
 30
0.0
 11
7.36113256426395
 21
5.870794434014478
 31
0.0
  0
LINE
  5
23B
330
1CC
100
AcDbEntity
  8
0
 62
     0
 48
0.3
370
    -2
100
AcDbLine
 10
3.811132697954928
 20
5.232641894792055
 30
0.0
 11
3.811132697954928
 21
5.870794434014478
 31
0.0
  0
LINE
  5
23C
330
1CC
100
AcDbEntity
  8
0
 62
     0
 48
0.3
370
    -2
100
AcDbLine
 10
7.23613256426395
 20
5.690794434014478
 30
0.0
 11
5.389439000003285
 21
5.690794434014478
 31
0.0
  0
LINE
  5
23D
330
1CC
100
AcDbEntity
  8
0
 62
     0
 48
0.3
370
    -2
100
AcDbLine
 10
3.936132697954928
 20
5.690794434014478
 30
0.0
 11
4.730272333336619
 21
5.690794434014478
 31
0.0
  0
SOLID
  5
23E
330
1CC
100
AcDbEntity
  8
0
 62
     0
 48
0.3
100
AcDbTrace
 10
7.23613256426395
 20
5.711627767347811
 30
0.0
 11
7.23613256426395
 21
5.669961100681145
 31
0.0
 12
7.36113256426395
 22
5.690794434014478
 32
0.0
 13
7.36113256426395
 23
5.690794434014478
 33
0.0
  0
SOLID
  5
23F
330
1CC
100
AcDbEntity
  8
0
 62
     0
 48
0.3
100
AcDbTrace
 10
3.936132697954928
 20
5.711627767347811
 30
0.0
 11
3.936132697954928
 21
5.669961100681145
 31
0.0
 12
3.811132697954928
 22
5.690794434014478
 32
0.0
 13
3.811132697954928
 23
5.690794434014478
 33
0.0
  0
MTEXT
  5
240
330
1CC
100
AcDbEntity
  8
0
 62
     0
 48
0.3
100
AcDbMText
 10
5.059855666669952
 20
5.690794434014478
 30
0.0
 40
0.125
 41
0.0
 71
     5
 72
     1
  1
\A1;3.550
 73
     1
 44
1.0
  0
POINT
  5
241
330
1CC
100
AcDbEntity
  8
DEFPOINTS
 62
     0
 48
0.3
100
AcDbPoint
 10
7.36113256426395
 20
5.171116166788118
 30
0.0
  0
POINT
  5
242
330
1CC
100
AcDbEntity
  8
DEFPOINTS
 62
     0
 48
0.3
100
AcDbPoint
 10
3.811132697954928
 20
5.170141894792055
 30
0.0
  0
POINT
  5
243
330
1CC
100
AcDbEntity
  8
DEFPOINTS
 62
     0
 48
0.3
100
AcDbPoint
 10
3.811132697954928
 20
5.690794434014478
 30
0.0
  0
ENDBLK
  5
1D8
330
1CC
100
AcDbEntity
  8
0
 48
0.3
100
AcDbBlockEnd
  0
BLOCK
  5
1E2
330
1D9
100
AcDbEntity
  8
0
 48
0.3
100
AcDbBlockBegin
  2
*D25
 70
     1
 10
0.0
 20
0.0
 30
0.0
  3
*D25
  1

  0
LINE
  5
3BE
330
1D9
100
AcDbEntity
  8
0
 62
     0
 48
0.3
370
    -2
100
AcDbLine
 10
-0.1217562261662615
 20
4.340586350683679
 30
0.0
 11
0.0032437738337385
 21
4.340586350683679
 31
0.0
  0
LINE
  5
3BF
330
1D9
100
AcDbEntity
  8
0
 62
     0
 48
0.3
370
    -2
100
AcDbLine
 10
0.0032437738337385
 20
4.340586350683679
 30
0.0
 11
0.16826400327917
 21
4.870785936498409
 31
0.0
  0
MTEXT
  5
3C0
330
1D9
100
AcDbEntity
  8
0
 62
     0
 48
0.3
100
AcDbMText
 10
-0.7700895594995943
 20
4.340586350683678
 30
0.0
 40
0.1
 41
0.0
 71
     5
 72
     1
  1
\A1;%%C0.375 X .375
 73
     1
 44
1.0
  0
SOLID
  5
3C1
330
1D9
100
AcDbEntity
  8
0
 62
     0
 48
0.3
100
AcDbTrace
 10
0.1483718908593312
 20
4.876977191722858
 30
0.0
 11
0.1881561156990088
 21
4.86459468127396
 31
0.0
 12
0.205411534625864
 22
4.990138611017442
 32
0.0
 13
0.205411534625864
 23
4.990138611017442
 33
0.0
  0
LINE
  5
3C2
330
1D9
100
AcDbEntity
  8
0
 62
     0
 48
0.3
370
    -2
100
AcDbLine
 10
0.171132831645906
 20
5.169167622795995
 30
0.0
 11
0.3511328316459061
 21
5.169167622795995
 31
0.0
  0
LINE
  5
3C3
330
1D9
100
AcDbEntity
  8
0
 62
     0
 48
0.3
370
    -2
100
AcDbLine
 10
0.2611328316459061
 20
5.079167622795996
 30
0.0
 11
0.2611328316459061
 21
5.259167622795996
 31
0.0
  0
POINT
  5
3C4
330
1D9
100
AcDbEntity
  8
DEFPOINTS
 62
     0
 48
0.3
100
AcDbPoint
 10
0.205411534625864
 20
4.990138611017442
 30
0.0
  0
POINT
  5
3C5
330
1D9
100
AcDbEntity
  8
DEFPOINTS
 62
     0
 48
0.3
100
AcDbPoint
 10
0.3168541286659476
 20
5.348196634574548
 30
0.0
  0
ENDBLK
  5
1E3
330
1D9
100
AcDbEntity
  8
0
 48
0.3
100
AcDbBlockEnd
  0
BLOCK
  5
1ED
330
1E4
100
AcDbEntity
  8
0
 48
0.3
100
AcDbBlockBegin
  2
*D26
 70
     1
 10
0.0
 20
0.0
 30
0.0
  3
*D26
  1

  0
LINE
  5
39E
330
1E4
100
AcDbEntity
  8
0
 62
     0
 48
0.3
370
    -2
100
AcDbLine
 10
-0.2603670222607581
 20
4.667909528739269
 30
0.0
 11
-0.1353670222607586
 21
4.667909528739269
 31
0.0
  0
LINE
  5
39F
330
1E4
100
AcDbEntity
  8
0
 62
     0
 48
0.3
370
    -2
100
AcDbLine
 10
-0.1353670222607586
 20
4.667909528739269
 30
0.0
 11
0.1041751745498156
 21
4.970740573533786
 31
0.0
  0
MTEXT
  5
3A0
330
1E4
100
AcDbEntity
  8
0
 62
     0
 48
0.3
100
AcDbMText
 10
-0.6524503555940906
 20
4.667909528739269
 30
0.0
 40
0.125
 41
0.0
 71
     5
 72
     1
  1
\A1;\U+22050.256
 73
     1
 44
1.0
  0
SOLID
  5
3A1
330
1E4
100
AcDbEntity
  8
0
 62
     0
 48
0.3
100
AcDbTrace
 10
0.0878356612706486
 20
4.983665281792688
 30
0.0
 11
0.1205146878289831
 21
4.957815865274886
 31
0.0
 12
0.1817234241032204
 22
5.06877765320879
 32
0.0
 13
0.1817234241032204
 23
5.06877765320879
 33
0.0
  0
LINE
  5
3A2
330
1E4
100
AcDbEntity
  8
0
 62
     0
 48
0.3
370
    -2
100
AcDbLine
 10
0.171132831645906
 20
5.169167622795992
 30
0.0
 11
0.3511328316459057
 21
5.169167622795992
 31
0.0
  0
LINE
  5
3A3
330
1E4
100
AcDbEntity
  8
0
 62
     0
 48
0.3
370
    -2
100
AcDbLine
 10
0.2611328316459058
 20
5.079167622795992
 30
0.0
 11
0.2611328316459054
 21
5.259167622795991
 31
0.0
  0
POINT
  5
3A4
330
1E4
100
AcDbEntity
  8
DEFPOINTS
 62
     0
 48
0.3
100
AcDbPoint
 10
0.1817234241032204
 20
5.06877765320879
 30
0.0
  0
POINT
  5
3A5
330
1E4
100
AcDbEntity
  8
DEFPOINTS
 62
     0
 48
0.3
100
AcDbPoint
 10
0.3405422391885913
 20
5.269557592383193
 30
0.0
  0
ENDBLK
  5
1EE
330
1E4
100
AcDbEntity
  8
0
 48
0.3
100
AcDbBlockEnd
  0
BLOCK
  5
1FA
330
1EF
100
AcDbEntity
  8
0
 48
0.3
100
AcDbBlockBegin
  2
*D27
 70
     1
 10
0.0
 20
0.0
 30
0.0
  3
*D27
  1

  0
LINE
  5
254
330
1EF
100
AcDbEntity
  8
0
 62
     0
 48
0.3
370
    -2
100
AcDbLine
 10
3.811132697954928
 20
5.232641894792055
 30
0.0
 11
3.811132697954928
 21
5.870794434014478
 31
0.0
  0
LINE
  5
255
330
1EF
100
AcDbEntity
  8
0
 62
     0
 48
0.3
370
    -2
100
AcDbLine
 10
0.2611328316459061
 20
5.231667622795992
 30
0.0
 11
0.2611328316459061
 21
5.870794434014478
 31
0.0
  0
LINE
  5
256
330
1EF
100
AcDbEntity
  8
0
 62
     0
 48
0.3
370
    -2
100
AcDbLine
 10
3.686132697954928
 20
5.690794434014478
 30
0.0
 11
1.908639261846581
 21
5.690794434014478
 31
0.0
  0
LINE
  5
257
330
1EF
100
AcDbEntity
  8
0
 62
     0
 48
0.3
370
    -2
100
AcDbLine
 10
0.3861328316459061
 20
5.690794434014478
 30
0.0
 11
1.249472595179914
 21
5.690794434014478
 31
0.0
  0
SOLID
  5
258
330
1EF
100
AcDbEntity
  8
0
 62
     0
 48
0.3
100
AcDbTrace
 10
3.686132697954928
 20
5.711627767347811
 30
0.0
 11
3.686132697954928
 21
5.669961100681145
 31
0.0
 12
3.811132697954928
 22
5.690794434014478
 32
0.0
 13
3.811132697954928
 23
5.690794434014478
 33
0.0
  0
SOLID
  5
259
330
1EF
100
AcDbEntity
  8
0
 62
     0
 48
0.3
100
AcDbTrace
 10
0.3861328316459061
 20
5.711627767347811
 30
0.0
 11
0.3861328316459061
 21
5.669961100681145
 31
0.0
 12
0.2611328316459061
 22
5.690794434014478
 32
0.0
 13
0.2611328316459061
 23
5.690794434014478
 33
0.0
  0
MTEXT
  5
25A
330
1EF
100
AcDbEntity
  8
0
 62
     0
 48
0.3
100
AcDbMText
 10
1.579055928513247
 20
5.690794434014478
 30
0.0
 40
0.125
 41
0.0
 71
     5
 72
     1
  1
\A1;3.550
 73
     1
 44
1.0
  0
POINT
  5
25B
330
1EF
100
AcDbEntity
  8
DEFPOINTS
 62
     0
 48
0.3
100
AcDbPoint
 10
3.811132697954928
 20
5.170141894792055
 30
0.0
  0
POINT
  5
25C
330
1EF
100
AcDbEntity
  8
DEFPOINTS
 62
     0
 48
0.3
100
AcDbPoint
 10
0.2611328316459061
 20
5.169167622795992
 30
0.0
  0
POINT
  5
25D
330
1EF
100
AcDbEntity
  8
DEFPOINTS
 62
     0
 48
0.3
100
AcDbPoint
 10
0.2611328316459061
 20
5.690794434014478
 30
0.0
  0
ENDBLK
  5
1FB
330
1EF
100
AcDbEntity
  8
0
 48
0.3
100
AcDbBlockEnd
  0
BLOCK
  5
207
330
1FC
100
AcDbEntity
  8
0
 48
0.3
100
AcDbBlockBegin
  2
*D28
 70
     1
 10
0.0
 20
0.0
 30
0.0
  3
*D28
  1

  0
LINE
  5
287
330
1FC
100
AcDbEntity
  8
0
 62
     0
 48
0.3
370
    -2
100
AcDbLine
 10
5.423632547846088
 20
1.151775902989255
 30
0.0
 11
6.031566966205472
 21
1.151775902989254
 31
0.0
  0
LINE
  5
288
330
1FC
100
AcDbEntity
  8
0
 62
     0
 48
0.3
370
    -2
100
AcDbLine
 10
7.548632497327859
 20
1.451299109511298
 30
0.0
 11
5.671566966205473
 21
1.451299109511299
 31
0.0
  0
LINE
  5
289
330
1FC
100
AcDbEntity
  8
0
 62
     0
 48
0.3
370
    -2
100
AcDbLine
 10
5.851566966205473
 20
1.026775902989254
 30
0.0
 11
5.851566966205473
 21
0.9017759029892548
 31
0.0
  0
LINE
  5
28A
330
1FC
100
AcDbEntity
  8
0
 62
     0
 48
0.3
370
    -2
100
AcDbLine
 10
5.851566966205473
 20
1.576299109511299
 30
0.0
 11
5.851566966205473
 21
1.701299109511299
 31
0.0
  0
SOLID
  5
28B
330
1FC
100
AcDbEntity
  8
0
 62
     0
 48
0.3
100
AcDbTrace
 10
5.830733632872139
 20
1.026775902989254
 30
0.0
 11
5.872400299538806
 21
1.026775902989254
 31
0.0
 12
5.851566966205473
 22
1.151775902989254
 32
0.0
 13
5.851566966205473
 23
1.151775902989254
 33
0.0
  0
SOLID
  5
28C
330
1FC
100
AcDbEntity
  8
0
 62
     0
 48
0.3
100
AcDbTrace
 10
5.830733632872139
 20
1.576299109511299
 30
0.0
 11
5.872400299538806
 21
1.576299109511299
 31
0.0
 12
5.851566966205473
 22
1.451299109511299
 32
0.0
 13
5.851566966205473
 23
1.451299109511299
 33
0.0
  0
MTEXT
  5
28D
330
1FC
100
AcDbEntity
  8
0
 62
     0
 48
0.3
100
AcDbMText
 10
5.851566966205473
 20
1.301537506250277
 30
0.0
 40
0.125
 41
0.0
 71
     5
 72
     1
  1
\A1;0.300
 73
     1
 44
1.0
  0
POINT
  5
28E
330
1FC
100
AcDbEntity
  8
DEFPOINTS
 62
     0
 48
0.3
100
AcDbPoint
 10
5.361132547846088
 20
1.151775902989255
 30
0.0
  0
POINT
  5
28F
330
1FC
100
AcDbEntity
  8
DEFPOINTS
 62
     0
 48
0.3
100
AcDbPoint
 10
7.611132497327859
 20
1.451299109511298
 30
0.0
  0
POINT
  5
290
330
1FC
100
AcDbEntity
  8
DEFPOINTS
 62
     0
 48
0.3
100
AcDbPoint
 10
5.851566966205473
 20
1.451299109511299
 30
0.0
  0
ENDBLK
  5
208
330
1FC
100
AcDbEntity
  8
0
 48
0.3
100
AcDbBlockEnd
  0
BLOCK
  5
214
330
209
100
AcDbEntity
  8
0
 48
0.3
100
AcDbBlockBegin
  2
*D29
 70
     1
 10
0.0
 20
0.0
 30
0.0
  3
*D29
  1

  0
LINE
  5
268
330
209
100
AcDbEntity
  8
0
 62
     0
 48
0.3
370
    -2
100
AcDbLine
 10
6.98613249732786
 20
4.888799109511298
 30
0.0
 11
6.98613249732786
 21
4.520910836655462
 31
0.0
  0
LINE
  5
269
330
209
100
AcDbEntity
  8
0
 62
     0
 48
0.3
370
    -2
100
AcDbLine
 10
6.236132522784468
 20
4.888799109511298
 30
0.0
 11
6.236132522784468
 21
4.520910836655462
 31
0.0
  0
LINE
  5
26A
330
209
100
AcDbEntity
  8
0
 62
     0
 48
0.3
370
    -2
100
AcDbLine
 10
7.11113249732786
 20
4.700910836655462
 30
0.0
 11
7.23613249732786
 21
4.700910836655462
 31
0.0
  0
LINE
  5
26B
330
209
100
AcDbEntity
  8
0
 62
     0
 48
0.3
370
    -2
100
AcDbLine
 10
6.111132522784468
 20
4.700910836655462
 30
0.0
 11
5.986132522784468
 21
4.700910836655462
 31
0.0
  0
SOLID
  5
26C
330
209
100
AcDbEntity
  8
0
 62
     0
 48
0.3
100
AcDbTrace
 10
7.11113249732786
 20
4.721744169988795
 30
0.0
 11
7.11113249732786
 21
4.680077503322129
 31
0.0
 12
6.98613249732786
 22
4.700910836655462
 32
0.0
 13
6.98613249732786
 23
4.700910836655462
 33
0.0
  0
SOLID
  5
26D
330
209
100
AcDbEntity
  8
0
 62
     0
 48
0.3
100
AcDbTrace
 10
6.111132522784468
 20
4.721744169988795
 30
0.0
 11
6.111132522784468
 21
4.680077503322129
 31
0.0
 12
6.236132522784468
 22
4.700910836655462
 32
0.0
 13
6.236132522784468
 23
4.700910836655462
 33
0.0
  0
MTEXT
  5
26E
330
209
100
AcDbEntity
  8
0
 62
     0
 48
0.3
100
AcDbMText
 10
6.564851838406204
 20
4.700910836655462
 30
0.0
 40
0.125
 41
0.0
 71
     5
 72
     1
  1
\A1;0.750
 73
     1
 44
1.0
  0
POINT
  5
26F
330
209
100
AcDbEntity
  8
DEFPOINTS
 62
     0
 48
0.3
100
AcDbPoint
 10
6.98613249732786
 20
4.951299109511298
 30
0.0
  0
POINT
  5
270
330
209
100
AcDbEntity
  8
DEFPOINTS
 62
     0
 48
0.3
100
AcDbPoint
 10
6.236132522784468
 20
4.951299109511298
 30
0.0
  0
POINT
  5
271
330
209
100
AcDbEntity
  8
DEFPOINTS
 62
     0
 48
0.3
100
AcDbPoint
 10
6.236132522784468
 20
4.700910836655462
 30
0.0
  0
ENDBLK
  5
215
330
209
100
AcDbEntity
  8
0
 48
0.3
100
AcDbBlockEnd
  0
BLOCK
  5
221
330
216
100
AcDbEntity
  8
0
 48
0.3
100
AcDbBlockBegin
  2
*D30
 70
     1
 10
0.0
 20
0.0
 30
0.0
  3
*D30
  1

  0
LINE
  5
272
330
216
100
AcDbEntity
  8
0
 62
     0
 48
0.3
370
    -2
100
AcDbLine
 10
5.361132547846088
 20
5.189275902989255
 30
0.0
 11
5.361132547846088
 21
4.187863277434031
 31
0.0
  0
LINE
  5
273
330
216
100
AcDbEntity
  8
0
 62
     0
 48
0.3
370
    -2
100
AcDbLine
 10
7.61113249732786
 20
4.888799109511298
 30
0.0
 11
7.61113249732786
 21
4.187863277434031
 31
0.0
  0
LINE
  5
274
330
216
100
AcDbEntity
  8
0
 62
     0
 48
0.3
370
    -2
100
AcDbLine
 10
5.486132547846088
 20
4.367863277434031
 30
0.0
 11
6.149892590346691
 21
4.367863277434031
 31
0.0
  0
LINE
  5
275
330
216
100
AcDbEntity
  8
0
 62
     0
 48
0.3
370
    -2
100
AcDbLine
 10
7.48613249732786
 20
4.367863277434031
 30
0.0
 11
6.809059257013359
 21
4.367863277434031
 31
0.0
  0
SOLID
  5
276
330
216
100
AcDbEntity
  8
0
 62
     0
 48
0.3
100
AcDbTrace
 10
5.486132547846088
 20
4.388696610767364
 30
0.0
 11
5.486132547846088
 21
4.347029944100698
 31
0.0
 12
5.361132547846088
 22
4.367863277434031
 32
0.0
 13
5.361132547846088
 23
4.367863277434031
 33
0.0
  0
SOLID
  5
277
330
216
100
AcDbEntity
  8
0
 62
     0
 48
0.3
100
AcDbTrace
 10
7.48613249732786
 20
4.388696610767364
 30
0.0
 11
7.48613249732786
 21
4.347029944100698
 31
0.0
 12
7.61113249732786
 22
4.367863277434031
 32
0.0
 13
7.61113249732786
 23
4.367863277434031
 33
0.0
  0
MTEXT
  5
278
330
216
100
AcDbEntity
  8
0
 62
     0
 48
0.3
100
AcDbMText
 10
6.479475923680025
 20
4.367863277434031
 30
0.0
 40
0.125
 41
0.0
 71
     5
 72
     1
  1
\A1;2.250
 73
     1
 44
1.0
  0
POINT
  5
279
330
216
100
AcDbEntity
  8
DEFPOINTS
 62
     0
 48
0.3
100
AcDbPoint
 10
5.361132547846088
 20
5.251775902989255
 30
0.0
  0
POINT
  5
27A
330
216
100
AcDbEntity
  8
DEFPOINTS
 62
     0
 48
0.3
100
AcDbPoint
 10
7.61113249732786
 20
4.951299109511298
 30
0.0
  0
POINT
  5
27B
330
216
100
AcDbEntity
  8
DEFPOINTS
 62
     0
 48
0.3
100
AcDbPoint
 10
7.61113249732786
 20
4.367863277434031
 30
0.0
  0
ENDBLK
  5
222
330
216
100
AcDbEntity
  8
0
 48
0.3
100
AcDbBlockEnd
  0
BLOCK
  5
22E
330
223
100
AcDbEntity
  8
0
 48
0.3
100
AcDbBlockBegin
  2
*D31
 70
     1
 10
0.0
 20
0.0
 30
0.0
  3
*D31
  1

  0
LINE
  5
27C
330
223
100
AcDbEntity
  8
0
 62
     0
 48
0.3
370
    -2
100
AcDbLine
 10
5.423632547846088
 20
5.251775902989255
 30
0.0
 11
6.045217151164323
 21
5.251775902989254
 31
0.0
  0
LINE
  5
27D
330
223
100
AcDbEntity
  8
0
 62
     0
 48
0.3
370
    -2
100
AcDbLine
 10
7.54863249732786
 20
4.951299109511298
 30
0.0
 11
5.685217151164324
 21
4.951299109511299
 31
0.0
  0
LINE
  5
27E
330
223
100
AcDbEntity
  8
0
 62
     0
 48
0.3
370
    -2
100
AcDbLine
 10
5.865217151164324
 20
5.376775902989255
 30
0.0
 11
5.865217151164324
 21
5.501775902989255
 31
0.0
  0
LINE
  5
27F
330
223
100
AcDbEntity
  8
0
 62
     0
 48
0.3
370
    -2
100
AcDbLine
 10
5.865217151164324
 20
4.826299109511299
 30
0.0
 11
5.865217151164324
 21
4.701299109511299
 31
0.0
  0
SOLID
  5
280
330
223
100
AcDbEntity
  8
0
 62
     0
 48
0.3
100
AcDbTrace
 10
5.844383817830991
 20
5.376775902989255
 30
0.0
 11
5.886050484497657
 21
5.376775902989255
 31
0.0
 12
5.865217151164324
 22
5.251775902989255
 32
0.0
 13
5.865217151164324
 23
5.251775902989255
 33
0.0
  0
SOLID
  5
281
330
223
100
AcDbEntity
  8
0
 62
     0
 48
0.3
100
AcDbTrace
 10
5.844383817830991
 20
4.826299109511299
 30
0.0
 11
5.886050484497657
 21
4.826299109511299
 31
0.0
 12
5.865217151164324
 22
4.951299109511299
 32
0.0
 13
5.865217151164324
 23
4.951299109511299
 33
0.0
  0
MTEXT
  5
282
330
223
100
AcDbEntity
  8
0
 62
     0
 48
0.3
100
AcDbMText
 10
5.865217151164323
 20
5.101537506250277
 30
0.0
 40
0.125
 41
0.0
 71
     5
 72
     1
  1
\A1;0.300
 73
     1
 44
1.0
  0
POINT
  5
283
330
223
100
AcDbEntity
  8
DEFPOINTS
 62
     0
 48
0.3
100
AcDbPoint
 10
5.361132547846088
 20
5.251775902989255
 30
0.0
  0
POINT
  5
284
330
223
100
AcDbEntity
  8
DEFPOINTS
 62
     0
 48
0.3
100
AcDbPoint
 10
7.61113249732786
 20
4.951299109511298
 30
0.0
  0
POINT
  5
285
330
223
100
AcDbEntity
  8
DEFPOINTS
 62
     0
 48
0.3
100
AcDbPoint
 10
5.865217151164324
 20
4.951299109511299
 30
0.0
  0
ENDBLK
  5
22F
330
223
100
AcDbEntity
  8
0
 48
0.3
100
AcDbBlockEnd
  0
BLOCK
  5
29D
330
292
100
AcDbEntity
  8
0
 48
0.3
100
AcDbBlockBegin
  2
*D32
 70
     1
 10
0.0
 20
0.0
 30
0.0
  3
*D32
  1

  0
LINE
  5
2A0
330
292
100
AcDbEntity
  8
0
 62
     0
 48
0.3
370
    -2
100
AcDbLine
 10
7.42363256426395
 20
5.171116166788118
 30
0.0
 11
8.692102689796678
 21
5.171116166788118
 31
0.0
  0
LINE
  5
2A1
330
292
100
AcDbEntity
  8
0
 62
     0
 48
0.3
370
    -2
100
AcDbLine
 10
7.423632564263949
 20
1.231116166788118
 30
0.0
 11
8.692102689796676
 21
1.231116166788118
 31
0.0
  0
LINE
  5
2A2
330
292
100
AcDbEntity
  8
0
 62
     0
 48
0.3
370
    -2
100
AcDbLine
 10
8.512102689796678
 20
5.046116166788118
 30
0.0
 11
8.512102689796677
 21
3.353616166788118
 31
0.0
  0
LINE
  5
2A3
330
292
100
AcDbEntity
  8
0
 62
     0
 48
0.3
370
    -2
100
AcDbLine
 10
8.512102689796677
 20
1.356116166788118
 30
0.0
 11
8.512102689796677
 21
3.048616166788118
 31
0.0
  0
SOLID
  5
2A4
330
292
100
AcDbEntity
  8
0
 62
     0
 48
0.3
100
AcDbTrace
 10
8.491269356463345
 20
5.046116166788118
 30
0.0
 11
8.532936023130012
 21
5.046116166788118
 31
0.0
 12
8.512102689796678
 22
5.171116166788118
 32
0.0
 13
8.512102689796678
 23
5.171116166788118
 33
0.0
  0
SOLID
  5
2A5
330
292
100
AcDbEntity
  8
0
 62
     0
 48
0.3
100
AcDbTrace
 10
8.491269356463343
 20
1.356116166788118
 30
0.0
 11
8.532936023130011
 21
1.356116166788118
 31
0.0
 12
8.512102689796677
 22
1.231116166788118
 32
0.0
 13
8.512102689796677
 23
1.231116166788118
 33
0.0
  0
MTEXT
  5
2A6
330
292
100
AcDbEntity
  8
0
 62
     0
 48
0.3
100
AcDbMText
 10
8.512102689796677
 20
3.20111616678812
 30
0.0
 40
0.125
 41
0.0
 71
     5
 72
     1
  1
\A1;3.940
 73
     1
 44
1.0
  0
POINT
  5
2A7
330
292
100
AcDbEntity
  8
DEFPOINTS
 62
     0
 48
0.3
100
AcDbPoint
 10
7.36113256426395
 20
5.171116166788118
 30
0.0
  0
POINT
  5
2A8
330
292
100
AcDbEntity
  8
DEFPOINTS
 62
     0
 48
0.3
100
AcDbPoint
 10
7.361132564263949
 20
1.231116166788118
 30
0.0
  0
POINT
  5
2A9
330
292
100
AcDbEntity
  8
DEFPOINTS
 62
     0
 48
0.3
100
AcDbPoint
 10
8.512102689796677
 20
1.231116166788118
 30
0.0
  0
ENDBLK
  5
29E
330
292
100
AcDbEntity
  8
0
 48
0.3
100
AcDbBlockEnd
  0
BLOCK
  5
2B8
330
2AC
100
AcDbEntity
  8
0
 48
0.3
100
AcDbBlockBegin
  2
*D33
 70
     1
 10
0.0
 20
0.0
 30
0.0
  3
*D33
  1

  0
LINE
  5
2C7
330
2AC
100
AcDbEntity
  8
0
 62
     0
 48
0.3
370
    -2
100
AcDbLine
 10
3.236132497327862
 20
1.451299109511299
 30
0.0
 11
2.214835029188173
 21
1.451299109511299
 31
0.0
  0
LINE
  5
2C8
330
2AC
100
AcDbEntity
  8
0
 62
     0
 48
0.3
370
    -2
100
AcDbLine
 10
3.236132497327862
 20
0.9512991095112994
 30
0.0
 11
2.214835029188172
 21
0.9512991095112997
 31
0.0
  0
LINE
  5
2C9
330
2AC
100
AcDbEntity
  8
0
 62
     0
 48
0.3
370
    -2
100
AcDbLine
 10
2.394835029188172
 20
1.326299109511299
 30
0.0
 11
2.394835029188172
 21
1.076299109511299
 31
0.0
  0
LINE
  5
2CA
330
2AC
100
AcDbEntity
  8
0
 62
     0
 48
0.3
370
    -2
100
AcDbLine
 10
2.394835029188172
 20
0.9512991095112994
 30
0.0
 11
2.394835029188172
 21
0.5338790029150427
 31
0.0
  0
LINE
  5
2CB
330
2AC
100
AcDbEntity
  8
0
 62
     0
 48
0.3
370
    -2
100
AcDbLine
 10
2.394835029188172
 20
0.5338790029150427
 30
0.0
 11
2.269835029188172
 21
0.5338790029150427
 31
0.0
  0
SOLID
  5
2CC
330
2AC
100
AcDbEntity
  8
0
 62
     0
 48
0.3
100
AcDbTrace
 10
2.374001695854839
 20
1.326299109511299
 30
0.0
 11
2.415668362521506
 21
1.326299109511299
 31
0.0
 12
2.394835029188172
 22
1.451299109511299
 32
0.0
 13
2.394835029188172
 23
1.451299109511299
 33
0.0
  0
SOLID
  5
2CD
330
2AC
100
AcDbEntity
  8
0
 62
     0
 48
0.3
100
AcDbTrace
 10
2.374001695854839
 20
1.076299109511299
 30
0.0
 11
2.415668362521506
 21
1.076299109511299
 31
0.0
 12
2.394835029188172
 22
0.9512991095112994
 32
0.0
 13
2.394835029188172
 23
0.9512991095112994
 33
0.0
  0
MTEXT
  5
2CE
330
2AC
100
AcDbEntity
  8
0
 62
     0
 48
0.3
100
AcDbMText
 10
1.961085029188172
 20
0.5338790029150431
 30
0.0
 40
0.125
 41
0.0
 71
     5
 72
     1
  1
\A1;0.500
 73
     1
 44
1.0
  0
POINT
  5
2CF
330
2AC
100
AcDbEntity
  8
DEFPOINTS
 62
     0
 48
0.3
100
AcDbPoint
 10
3.298632497327862
 20
1.451299109511299
 30
0.0
  0
POINT
  5
2D0
330
2AC
100
AcDbEntity
  8
DEFPOINTS
 62
     0
 48
0.3
100
AcDbPoint
 10
3.298632497327862
 20
0.9512991095112992
 30
0.0
  0
POINT
  5
2D1
330
2AC
100
AcDbEntity
  8
DEFPOINTS
 62
     0
 48
0.3
100
AcDbPoint
 10
2.394835029188172
 20
0.9512991095112994
 30
0.0
  0
ENDBLK
  5
2B9
330
2AC
100
AcDbEntity
  8
0
 48
0.3
100
AcDbBlockEnd
  0
BLOCK
  5
2DE
330
2D3
100
AcDbEntity
  8
0
 48
0.3
100
AcDbBlockBegin
  2
*D34
 70
     1
 10
0.0
 20
0.0
 30
0.0
  3
*D34
  1

  0
LINE
  5
412
330
2D3
100
AcDbEntity
  8
0
 62
     0
 48
0.3
370
    -2
100
AcDbLine
 10
7.611132497327859
 20
0.8887991095112987
 30
0.0
 11
7.611132497327859
 21
0.0975440077979639
 31
0.0
  0
LINE
  5
413
330
2D3
100
AcDbEntity
  8
0
 62
     0
 48
0.3
370
    -2
100
AcDbLine
 10
-0.2638675026721398
 20
0.8887991095112997
 30
0.0
 11
-0.2638675026721398
 21
0.0975440077979639
 31
0.0
  0
LINE
  5
414
330
2D3
100
AcDbEntity
  8
0
 62
     0
 48
0.3
370
    -2
100
AcDbLine
 10
7.486132497327859
 20
0.2775440077979638
 30
0.0
 11
4.01363249732786
 21
0.2775440077979638
 31
0.0
  0
LINE
  5
415
330
2D3
100
AcDbEntity
  8
0
 62
     0
 48
0.3
370
    -2
100
AcDbLine
 10
-0.1388675026721398
 20
0.2775440077979638
 30
0.0
 11
3.333632497327859
 21
0.2775440077979638
 31
0.0
  0
SOLID
  5
416
330
2D3
100
AcDbEntity
  8
0
 62
     0
 48
0.3
100
AcDbTrace
 10
7.486132497327859
 20
0.2983773411312972
 30
0.0
 11
7.486132497327859
 21
0.2567106744646305
 31
0.0
 12
7.611132497327859
 22
0.2775440077979638
 32
0.0
 13
7.611132497327859
 23
0.2775440077979638
 33
0.0
  0
SOLID
  5
417
330
2D3
100
AcDbEntity
  8
0
 62
     0
 48
0.3
100
AcDbTrace
 10
-0.1388675026721398
 20
0.2983773411312972
 30
0.0
 11
-0.1388675026721398
 21
0.2567106744646305
 31
0.0
 12
-0.2638675026721398
 22
0.2775440077979638
 32
0.0
 13
-0.2638675026721398
 23
0.2775440077979638
 33
0.0
  0
MTEXT
  5
418
330
2D3
100
AcDbEntity
  8
0
 62
     0
 48
0.3
100
AcDbMText
 10
3.673632497327859
 20
0.2775440077979638
 30
0.0
 40
0.125
 41
0.0
 71
     5
 72
     1
  1
\A1;7.875
 73
     1
 44
1.0
  0
POINT
  5
419
330
2D3
100
AcDbEntity
  8
DEFPOINTS
 62
     0
 48
0.3
100
AcDbPoint
 10
7.611132497327859
 20
0.9512991095112987
 30
0.0
  0
POINT
  5
41A
330
2D3
100
AcDbEntity
  8
DEFPOINTS
 62
     0
 48
0.3
100
AcDbPoint
 10
-0.2638675026721398
 20
0.9512991095112997
 30
0.0
  0
POINT
  5
41B
330
2D3
100
AcDbEntity
  8
DEFPOINTS
 62
     0
 48
0.3
100
AcDbPoint
 10
-0.2638675026721398
 20
0.2775440077979638
 30
0.0
  0
ENDBLK
  5
2DF
330
2D3
100
AcDbEntity
  8
0
 48
0.3
100
AcDbBlockEnd
  0
BLOCK
  5
312
330
307
100
AcDbEntity
  8
0
 48
0.3
100
AcDbBlockBegin
  2
*D36
 70
     1
 10
0.0
 20
0.0
 30
0.0
  3
*D36
  1

  0
LINE
  5
315
330
307
100
AcDbEntity
  8
0
 62
     0
 48
0.3
370
    -2
100
AcDbLine
 10
7.36113256426395
 20
5.233616166788118
 30
0.0
 11
7.36113256426395
 21
5.870794434014478
 31
0.0
  0
LINE
  5
316
330
307
100
AcDbEntity
  8
0
 62
     0
 48
0.3
370
    -2
100
AcDbLine
 10
7.61113249732786
 20
5.513799109511299
 30
0.0
 11
7.61113249732786
 21
5.870794434014478
 31
0.0
  0
LINE
  5
317
330
307
100
AcDbEntity
  8
0
 62
     0
 48
0.3
370
    -2
100
AcDbLine
 10
7.23613256426395
 20
5.690794434014478
 30
0.0
 11
7.11113256426395
 21
5.690794434014478
 31
0.0
  0
LINE
  5
318
330
307
100
AcDbEntity
  8
0
 62
     0
 48
0.3
370
    -2
100
AcDbLine
 10
7.73613249732786
 20
5.690794434014478
 30
0.0
 11
7.861132497327859
 21
5.690794434014478
 31
0.0
  0
SOLID
  5
319
330
307
100
AcDbEntity
  8
0
 62
     0
 48
0.3
100
AcDbTrace
 10
7.23613256426395
 20
5.711627767347811
 30
0.0
 11
7.23613256426395
 21
5.669961100681145
 31
0.0
 12
7.36113256426395
 22
5.690794434014478
 32
0.0
 13
7.36113256426395
 23
5.690794434014478
 33
0.0
  0
SOLID
  5
31A
330
307
100
AcDbEntity
  8
0
 62
     0
 48
0.3
100
AcDbTrace
 10
7.73613249732786
 20
5.711627767347811
 30
0.0
 11
7.73613249732786
 21
5.669961100681145
 31
0.0
 12
7.61113249732786
 22
5.690794434014478
 32
0.0
 13
7.61113249732786
 23
5.690794434014478
 33
0.0
  0
MTEXT
  5
31B
330
307
100
AcDbEntity
  8
0
 62
     0
 48
0.3
100
AcDbMText
 10
8.180299163994526
 20
5.690794434014478
 30
0.0
 40
0.125
 41
0.0
 71
     5
 72
     1
  1
\A1;0.250
 73
     1
 44
1.0
  0
POINT
  5
31C
330
307
100
AcDbEntity
  8
DEFPOINTS
 62
     0
 48
0.3
100
AcDbPoint
 10
7.36113256426395
 20
5.171116166788118
 30
0.0
  0
POINT
  5
31D
330
307
100
AcDbEntity
  8
DEFPOINTS
 62
     0
 48
0.3
100
AcDbPoint
 10
7.61113249732786
 20
5.451299109511299
 30
0.0
  0
POINT
  5
31E
330
307
100
AcDbEntity
  8
DEFPOINTS
 62
     0
 48
0.3
100
AcDbPoint
 10
7.61113249732786
 20
5.690794434014478
 30
0.0
  0
ENDBLK
  5
313
330
307
100
AcDbEntity
  8
0
 48
0.3
100
AcDbBlockEnd
  0
BLOCK
  5
349
330
33D
100
AcDbEntity
  8
0
 48
0.3
100
AcDbBlockBegin
  2
*D38
 70
     1
 10
0.0
 20
0.0
 30
0.0
  3
*D38
  1

  0
LINE
  5
426
330
33D
100
AcDbEntity
  8
0
 62
     0
 48
0.3
370
    -2
100
AcDbLine
 10
3.873632697954927
 20
1.230141894792055
 30
0.0
 11
4.684532896971219
 21
1.230141894792055
 31
0.0
  0
LINE
  5
427
330
33D
100
AcDbEntity
  8
0
 62
     0
 48
0.3
370
    -2
100
AcDbLine
 10
3.873632697954927
 20
1.451299109511299
 30
0.0
 11
4.684532896971219
 21
1.451299109511299
 31
0.0
  0
LINE
  5
428
330
33D
100
AcDbEntity
  8
0
 62
     0
 48
0.3
370
    -2
100
AcDbLine
 10
4.50453289697122
 20
1.105141894792055
 30
0.0
 11
4.50453289697122
 21
0.9801418947920556
 31
0.0
  0
LINE
  5
429
330
33D
100
AcDbEntity
  8
0
 62
     0
 48
0.3
370
    -2
100
AcDbLine
 10
4.50453289697122
 20
1.576299109511299
 30
0.0
 11
4.50453289697122
 21
1.701299109511299
 31
0.0
  0
SOLID
  5
42A
330
33D
100
AcDbEntity
  8
0
 62
     0
 48
0.3
100
AcDbTrace
 10
4.483699563637887
 20
1.105141894792055
 30
0.0
 11
4.525366230304553
 21
1.105141894792055
 31
0.0
 12
4.50453289697122
 22
1.230141894792055
 32
0.0
 13
4.50453289697122
 23
1.230141894792055
 33
0.0
  0
SOLID
  5
42B
330
33D
100
AcDbEntity
  8
0
 62
     0
 48
0.3
100
AcDbTrace
 10
4.483699563637887
 20
1.576299109511299
 30
0.0
 11
4.525366230304553
 21
1.576299109511299
 31
0.0
 12
4.50453289697122
 22
1.451299109511299
 32
0.0
 13
4.50453289697122
 23
1.451299109511299
 33
0.0
  0
MTEXT
  5
42C
330
33D
100
AcDbEntity
  8
0
 62
     0
 48
0.3
100
AcDbMText
 10
4.50453289697122
 20
1.340720502151678
 30
0.0
 40
0.125
 41
0.0
 71
     5
 72
     1
  1
\A1;0.220
 73
     1
 44
1.0
  0
POINT
  5
42D
330
33D
100
AcDbEntity
  8
DEFPOINTS
 62
     0
 48
0.3
100
AcDbPoint
 10
3.811132697954927
 20
1.230141894792055
 30
0.0
  0
POINT
  5
42E
330
33D
100
AcDbEntity
  8
DEFPOINTS
 62
     0
 48
0.3
100
AcDbPoint
 10
3.811132697954927
 20
1.451299109511299
 30
0.0
  0
POINT
  5
42F
330
33D
100
AcDbEntity
  8
DEFPOINTS
 62
     0
 48
0.3
100
AcDbPoint
 10
4.50453289697122
 20
1.451299109511299
 30
0.0
  0
ENDBLK
  5
34A
330
33D
100
AcDbEntity
  8
0
 48
0.3
100
AcDbBlockEnd
  0
BLOCK
  5
37A
330
36F
100
AcDbEntity
  8
0
 48
0.3
100
AcDbBlockBegin
  2
*D39
 70
     1
 10
0.0
 20
0.0
 30
0.0
  3
*D39
  1

  0
LINE
  5
388
330
36F
100
AcDbEntity
  8
0
 62
     0
 48
0.3
370
    -2
100
AcDbLine
 10
5.361132547846088
 20
1.214275902989255
 30
0.0
 11
5.361132547846088
 21
2.386467535846851
 31
0.0
  0
LINE
  5
389
330
36F
100
AcDbEntity
  8
0
 62
     0
 48
0.3
370
    -2
100
AcDbLine
 10
7.611132497327859
 20
1.013799109511298
 30
0.0
 11
7.611132497327859
 21
2.386467535846851
 31
0.0
  0
LINE
  5
38A
330
36F
100
AcDbEntity
  8
0
 62
     0
 48
0.3
370
    -2
100
AcDbLine
 10
5.486132547846088
 20
2.206467535846851
 30
0.0
 11
6.15654918925364
 21
2.206467535846851
 31
0.0
  0
LINE
  5
38B
330
36F
100
AcDbEntity
  8
0
 62
     0
 48
0.3
370
    -2
100
AcDbLine
 10
7.486132497327859
 20
2.206467535846851
 30
0.0
 11
6.815715855920307
 21
2.206467535846851
 31
0.0
  0
SOLID
  5
38C
330
36F
100
AcDbEntity
  8
0
 62
     0
 48
0.3
100
AcDbTrace
 10
5.486132547846088
 20
2.227300869180184
 30
0.0
 11
5.486132547846088
 21
2.185634202513517
 31
0.0
 12
5.361132547846088
 22
2.206467535846851
 32
0.0
 13
5.361132547846088
 23
2.206467535846851
 33
0.0
  0
SOLID
  5
38D
330
36F
100
AcDbEntity
  8
0
 62
     0
 48
0.3
100
AcDbTrace
 10
7.486132497327859
 20
2.227300869180184
 30
0.0
 11
7.486132497327859
 21
2.185634202513517
 31
0.0
 12
7.611132497327859
 22
2.206467535846851
 32
0.0
 13
7.611132497327859
 23
2.206467535846851
 33
0.0
  0
MTEXT
  5
38E
330
36F
100
AcDbEntity
  8
0
 62
     0
 48
0.3
100
AcDbMText
 10
6.486132522586974
 20
2.206467535846851
 30
0.0
 40
0.125
 41
0.0
 71
     5
 72
     1
  1
\A1;2.250
 73
     1
 44
1.0
  0
POINT
  5
38F
330
36F
100
AcDbEntity
  8
DEFPOINTS
 62
     0
 48
0.3
100
AcDbPoint
 10
5.361132547846088
 20
1.151775902989255
 30
0.0
  0
POINT
  5
390
330
36F
100
AcDbEntity
  8
DEFPOINTS
 62
     0
 48
0.3
100
AcDbPoint
 10
7.611132497327859
 20
0.9512991095112987
 30
0.0
  0
POINT
  5
391
330
36F
100
AcDbEntity
  8
DEFPOINTS
 62
     0
 48
0.3
100
AcDbPoint
 10
7.611132497327859
 20
2.206467535846851
 30
0.0
  0
ENDBLK
  5
37B
330
36F
100
AcDbEntity
  8
0
 48
0.3
100
AcDbBlockEnd
  0
BLOCK
  5
3EC
330
3E1
100
AcDbEntity
  8
0
 48
0.3
100
AcDbBlockBegin
  2
*D40
 70
     1
 10
0.0
 20
0.0
 30
0.0
  3
*D40
  1

  0
LINE
  5
486
330
3E1
100
AcDbEntity
  8
0
 62
     0
 48
0.3
370
    -2
100
AcDbLine
 10
5.361132547846088
 20
3.264275902989255
 30
0.0
 11
5.361132547846088
 21
4.517587539066633
 31
0.0
  0
LINE
  5
487
330
3E1
100
AcDbEntity
  8
0
 62
     0
 48
0.3
370
    -2
100
AcDbLine
 10
1.611132547846088
 20
3.264275902989255
 30
0.0
 11
1.611132547846088
 21
4.517587539066633
 31
0.0
  0
LINE
  5
488
330
3E1
100
AcDbEntity
  8
0
 62
     0
 48
0.3
370
    -2
100
AcDbLine
 10
5.236132547846088
 20
4.337587539066634
 30
0.0
 11
3.815715881179422
 21
4.337587539066634
 31
0.0
  0
LINE
  5
489
330
3E1
100
AcDbEntity
  8
0
 62
     0
 48
0.3
370
    -2
100
AcDbLine
 10
1.736132547846088
 20
4.337587539066634
 30
0.0
 11
3.156549214512755
 21
4.337587539066634
 31
0.0
  0
SOLID
  5
48A
330
3E1
100
AcDbEntity
  8
0
 62
     0
 48
0.3
100
AcDbTrace
 10
5.236132547846088
 20
4.358420872399967
 30
0.0
 11
5.236132547846088
 21
4.316754205733301
 31
0.0
 12
5.361132547846088
 22
4.337587539066634
 32
0.0
 13
5.361132547846088
 23
4.337587539066634
 33
0.0
  0
SOLID
  5
48B
330
3E1
100
AcDbEntity
  8
0
 62
     0
 48
0.3
100
AcDbTrace
 10
1.736132547846088
 20
4.358420872399967
 30
0.0
 11
1.736132547846088
 21
4.316754205733301
 31
0.0
 12
1.611132547846088
 22
4.337587539066634
 32
0.0
 13
1.611132547846088
 23
4.337587539066634
 33
0.0
  0
MTEXT
  5
48C
330
3E1
100
AcDbEntity
  8
0
 62
     0
 48
0.3
100
AcDbMText
 10
3.486132547846088
 20
4.337587539066634
 30
0.0
 40
0.125
 41
0.0
 71
     5
 72
     1
  1
\A1;3.750
 73
     1
 44
1.0
  0
POINT
  5
48D
330
3E1
100
AcDbEntity
  8
DEFPOINTS
 62
     0
 48
0.3
100
AcDbPoint
 10
5.361132547846088
 20
3.201775902989255
 30
0.0
  0
POINT
  5
48E
330
3E1
100
AcDbEntity
  8
DEFPOINTS
 62
     0
 48
0.3
100
AcDbPoint
 10
1.611132547846088
 20
3.201775902989255
 30
0.0
  0
POINT
  5
48F
330
3E1
100
AcDbEntity
  8
DEFPOINTS
 62
     0
 48
0.3
100
AcDbPoint
 10
1.611132547846088
 20
4.337587539066634
 30
0.0
  0
ENDBLK
  5
3ED
330
3E1
100
AcDbEntity
  8
0
 48
0.3
100
AcDbBlockEnd
  0
BLOCK
  5
43E
330
435
100
AcDbEntity
  8
0
 48
0.3
100
AcDbBlockBegin
  2
*D41
 70
     1
 10
0.0
 20
0.0
 30
0.0
  3
*D41
  1

  0
LINE
  5
47E
330
435
100
AcDbEntity
  8
0
 62
     0
 48
0.3
370
    -2
100
AcDbLine
 10
6.65882786850417
 20
3.604452396103601
 30
0.0
 11
6.53382786850417
 21
3.604452396103601
 31
0.0
  0
LINE
  5
47F
330
435
100
AcDbEntity
  8
0
 62
     0
 48
0.3
370
    -2
100
AcDbLine
 10
6.53382786850417
 20
3.604452396103601
 30
0.0
 11
6.247815385466725
 21
3.506242314057896
 31
0.0
  0
MTEXT
  5
480
330
435
100
AcDbEntity
  8
0
 62
     0
 48
0.3
100
AcDbMText
 10
7.040494535170837
 20
3.6044523961036
 30
0.0
 40
0.125
 41
0.0
 71
     5
 72
     1
  1
\A1;\U+22051.625
 73
     1
 44
1.0
  0
SOLID
  5
481
330
435
100
AcDbEntity
  8
0
 62
     0
 48
0.3
100
AcDbTrace
 10
6.241049465220755
 20
3.525946377116132
 30
0.0
 11
6.254581305712695
 21
3.48653825099966
 31
0.0
 12
6.129591007117307
 22
3.465646792582077
 32
0.0
 13
6.129591007117307
 23
3.465646792582077
 33
0.0
  0
LINE
  5
482
330
435
100
AcDbEntity
  8
0
 62
     0
 48
0.3
370
    -2
100
AcDbLine
 10
5.271132547846088
 20
3.201775902989255
 30
0.0
 11
5.451132547846088
 21
3.201775902989255
 31
0.0
  0
LINE
  5
483
330
435
100
AcDbEntity
  8
0
 62
     0
 48
0.3
370
    -2
100
AcDbLine
 10
5.361132547846088
 20
3.111775902989255
 30
0.0
 11
5.361132547846088
 21
3.291775902989255
 31
0.0
  0
POINT
  5
484
330
435
100
AcDbEntity
  8
DEFPOINTS
 62
     0
 48
0.3
100
AcDbPoint
 10
6.129591007117307
 20
3.465646792582077
 30
0.0
  0
POINT
  5
485
330
435
100
AcDbEntity
  8
DEFPOINTS
 62
     0
 48
0.3
100
AcDbPoint
 10
4.592674088574869
 20
2.937905013396433
 30
0.0
  0
ENDBLK
  5
43F
330
435
100
AcDbEntity
  8
0
 48
0.3
100
AcDbBlockEnd
  0
BLOCK
  5
454
330
44B
100
AcDbEntity
  8
0
 48
0.3
100
AcDbBlockBegin
  2
*D42
 70
     1
 10
0.0
 20
0.0
 30
0.0
  3
*D42
  1

  0
LINE
  5
46C
330
44B
100
AcDbEntity
  8
0
 62
     0
 48
0.3
370
    -2
100
AcDbLine
 10
3.450056761226703
 20
3.704537605660126
 30
0.0
 11
3.325056761226703
 21
3.704537605660126
 31
0.0
  0
LINE
  5
46D
330
44B
100
AcDbEntity
  8
0
 62
     0
 48
0.3
370
    -2
100
AcDbLine
 10
3.325056761226703
 20
3.704537605660126
 30
0.0
 11
3.122451169350954
 21
3.645105378991729
 31
0.0
  0
MTEXT
  5
46E
330
44B
100
AcDbEntity
  8
0
 62
     0
 48
0.3
100
AcDbMText
 10
3.83172342789337
 20
3.704537605660126
 30
0.0
 40
0.125
 41
0.0
 71
     5
 72
     1
  1
\A1;\U+22052.900
 73
     1
 44
1.0
  0
SOLID
  5
46F
330
44B
100
AcDbEntity
  8
0
 62
     0
 48
0.3
100
AcDbTrace
 10
3.116587022842985
 20
3.665096366048672
 30
0.0
 11
3.128315315858924
 21
3.625114391934786
 31
0.0
 12
3.002505247009298
 22
3.609920499943914
 32
0.0
 13
3.002505247009298
 23
3.609920499943914
 33
0.0
  0
LINE
  5
470
330
44B
100
AcDbEntity
  8
0
 62
     0
 48
0.3
370
    -2
100
AcDbLine
 10
1.521132547846088
 20
3.201775902989256
 30
0.0
 11
1.701132547846088
 21
3.201775902989256
 31
0.0
  0
LINE
  5
471
330
44B
100
AcDbEntity
  8
0
 62
     0
 48
0.3
370
    -2
100
AcDbLine
 10
1.611132547846088
 20
3.111775902989256
 30
0.0
 11
1.611132547846088
 21
3.291775902989256
 31
0.0
  0
POINT
  5
472
330
44B
100
AcDbEntity
  8
DEFPOINTS
 62
     0
 48
0.3
100
AcDbPoint
 10
3.002505247009298
 20
3.609920499943914
 30
0.0
  0
POINT
  5
473
330
44B
100
AcDbEntity
  8
DEFPOINTS
 62
     0
 48
0.3
100
AcDbPoint
 10
0.2197598486828778
 20
2.793631306034597
 30
0.0
  0
ENDBLK
  5
455
330
44B
100
AcDbEntity
  8
0
 48
0.3
100
AcDbBlockEnd
  0
ENDSEC
  0
SECTION
  2
ENTITIES
  0
VIEWPORT
  5
77
330
58
100
AcDbEntity
 67
     1
  8
0
100
AcDbViewport
 10
3.691443806670365
 20
2.49369635647295
 30
0.0
 40
19.31740645582263
 41
8.026715441126302
 68
     1
 69
     1
 12
3.691443806670365
 22
2.49369635647295
 13
0.0
 23
0.0
 14
0.5
 24
0.5
 15
0.5
 25
0.5
 16
0.0
 26
0.0
 36
1.0
 17
0.0
 27
0.0
 37
0.0
 42
50.0
 43
0.0
 44
0.0
 45
8.026715441126302
 50
0.0
 51
0.0
 72
   100
 90
    32800
  1

281
     0
 71
     1
 74
     0
110
0.0
120
0.0
130
0.0
111
1.0
121
0.0
131
0.0
112
0.0
122
1.0
132
0.0
 79
     0
146
0.0
  0
LWPOLYLINE
  5
86
330
58
100
AcDbEntity
 67
     1
  8
0
100
AcDbPolyline
 90
        4
 70
     1
 43
0.0
 10
-1.439262267973589
 20
6.396855050259421
 10
8.966538218833356
 20
6.396855050259421
 10
8.966538218833356
 20
-1.41285528304607
 10
-1.439262267973589
 20
-1.41285528304607
  0
LINE
  5
8A
330
58
100
AcDbEntity
 67
     1
  8
0
100
AcDbLine
 10
8.966538218833356
 20
-1.41285528304607
 30
0.0
 11
8.966538218833356
 21
-0.4128552830460706
 31
0.0
  0
LINE
  5
8B
330
58
100
AcDbEntity
 67
     1
  8
0
100
AcDbLine
 10
8.966538218833356
 20
-0.4128552830460706
 30
0.0
 11
6.466538218833356
 21
-0.4128552830460703
 31
0.0
  0
LINE
  5
8C
330
58
100
AcDbEntity
 67
     1
  8
0
100
AcDbLine
 10
6.466538218833356
 20
-0.4128552830460703
 30
0.0
 11
4.966538218833356
 21
-0.4128552830460701
 31
0.0
  0
LINE
  5
8D
330
58
100
AcDbEntity
 67
     1
  8
0
100
AcDbLine
 10
4.966538218833356
 20
-0.4128552830460701
 30
0.0
 11
4.966538218833356
 21
-1.41285528304607
 31
0.0
  0
LINE
  5
8E
330
58
100
AcDbEntity
 67
     1
  8
0
100
AcDbLine
 10
6.466538218833356
 20
-0.4128552830460703
 30
0.0
 11
6.466538218833356
 21
-1.40425062323316
 31
0.0
  0
MTEXT
  5
8F
330
58
100
AcDbEntity
 67
     1
  8
0
100
AcDbMText
 10
5.02064872125895
 20
-0.5532836662080878
 30
0.0
 40
0.1
 41
1.5
 71
     1
 72
     5
  1
  Tolerances\P.XXXX = +/- .001\P.XXX  = +/- .005\P.XX   = +/- .015
 73
     1
 44
1.0
  0
MTEXT
  5
AA
330
58
100
AcDbEntity
 67
     1
  8
0
 48
0.3
100
AcDbMText
 10
6.521832882367959
 20
-0.5918154731123369
 30
0.0
 40
0.1
 41
2.5
 71
     1
 72
     5
  1
G0704 Belt Drive Top View\PDaniel E. Kemp\P{\fArial|b0|i0|c0|p32;\H1.625x;©\fMS Shell Dlg|b0|i0|c0|p32;\H0.6538x; }06-30-2010
 73
     1
 44
1.0
  0
MTEXT
  5
AC
330
58
100
AcDbEntity
 67
     1
  8
0
 48
0.3
100
AcDbMText
 10
-0.8330378939457148
 20
-0.9104262006358538
 30
0.0
 40
0.1625
 41
9.997099999999999
 71
     1
 72
     5
  1
{\fArial|b0|i0|c0|p32;© Daniel E. Kemp 2010}
 73
     1
 44
1.0
  0
DIMENSION
  5
18E
330
58
100
AcDbEntity
 67
     1
  8
0
100
AcDbDimension
  2
*D23
 10
4.48426059700953
 20
5.170141894792055
 30
0.0
 11
4.484260597009529
 21
5.060720502151678
 31
0.0
 70
   160
  1
0.220
 71
     5
 42
0.2188427852807564
  3
Standard
100
AcDbAlignedDimension
 13
3.811132697954928
 23
4.951299109511299
 33
0.0
 14
3.811132697954928
 24
5.170141894792055
 34
0.0
 50
90.0
100
AcDbRotatedDimension
  0
DIMENSION
  5
190
330
58
100
AcDbEntity
 67
     1
  8
0
100
AcDbDimension
  2
*D24
 10
3.811132697954928
 20
5.690794434014478
 30
0.0
 11
5.059855666669952
 21
5.690794434014478
 31
0.0
 70
   160
 71
     5
 42
3.549999866309022
  3
Standard
100
AcDbAlignedDimension
 13
7.36113256426395
 23
5.171116166788118
 33
0.0
 14
3.811132697954928
 24
5.170141894792055
 34
0.0
100
AcDbRotatedDimension
  0
CIRCLE
  5
191
330
58
100
AcDbEntity
 67
     1
  8
0
100
AcDbCircle
 10
3.811132697954928
 20
5.170141894792055
 30
0.0
 40
0.1875
  0
CIRCLE
  5
192
330
58
100
AcDbEntity
 67
     1
  8
0
100
AcDbCircle
 10
3.811132697954928
 20
5.170141894792055
 30
0.0
 40
0.128
  0
LINE
  5
193
102
{ACAD_REACTORS
330
31F
102
}
330
58
100
AcDbEntity
 67
     1
  8
0
100
AcDbLine
 10
-0.263867502672138
 20
5.4512991095113
 30
0.0
 11
7.61113249732786
 21
5.451299109511299
 31
0.0
  0
LINE
  5
194
330
58
100
AcDbEntity
 67
     1
  8
0
100
AcDbLine
 10
7.61113249732786
 20
4.951299109511298
 30
0.0
 11
-0.263867502672138
 21
4.9512991095113
 31
0.0
  0
CIRCLE
  5
195
330
58
100
AcDbEntity
 67
     1
  8
0
100
AcDbCircle
 10
3.811132697954927
 20
1.230141894792055
 30
0.0
 40
0.1875
  0
CIRCLE
  5
196
102
{ACAD_REACTORS
330
357
102
}
330
58
100
AcDbEntity
 67
     1
  8
0
100
AcDbCircle
 10
3.811132697954927
 20
1.230141894792055
 30
0.0
 40
0.128
  0
LINE
  5
197
102
{ACAD_REACTORS
330
2C6
102
}
330
58
100
AcDbEntity
 67
     1
  8
0
100
AcDbLine
 10
-0.2638675026721398
 20
1.451299109511299
 30
0.0
 11
7.611132497327859
 21
1.451299109511298
 31
0.0
  0
LINE
  5
198
102
{ACAD_REACTORS
330
2C6
330
2EB
330
387
102
}
330
58
100
AcDbEntity
 67
     1
  8
0
100
AcDbLine
 10
7.611132497327859
 20
0.9512991095112987
 30
0.0
 11
-0.2638675026721398
 21
0.9512991095112997
 31
0.0
  0
LINE
  5
199
102
{ACAD_REACTORS
330
2C6
102
}
330
58
100
AcDbEntity
 67
     1
  8
0
100
AcDbLine
 10
3.298632497327862
 20
0.9512991095112987
 30
0.0
 11
3.298632497327862
 21
1.451299109511299
 31
0.0
  0
LINE
  5
19A
330
58
100
AcDbEntity
 67
     1
  8
0
100
AcDbLine
 10
-0.0763675026721407
 20
0.9512991095112997
 30
0.0
 11
-0.0763675026721407
 21
1.451299109511299
 31
0.0
  0
LINE
  5
19B
330
58
100
AcDbEntity
 67
     1
  8
0
100
AcDbLine
 10
-0.2638675026721398
 20
0.9512991095112997
 30
0.0
 11
-0.2638675026721398
 21
1.451299109511299
 31
0.0
  0
DIMENSION
  5
19C
330
58
100
AcDbEntity
 67
     1
  8
0
100
AcDbDimension
  2
*D25
 10
0.3168541286659476
 20
5.348196634574548
 30
0.0
 11
-0.7700895594995943
 21
4.340586350683678
 31
0.0
 70
   163
  1
%%C0.375 X .375
 71
     5
 42
0.3750000000000053
  3
Standard
100
AcDbDiametricDimension
 15
0.205411534625864
 25
4.990138611017442
 35
0.0
 40
0.0
1001
ACAD
1000
DSTYLE
1002
{
1070
   140
1040
0.1
1002
}
  0
DIMENSION
  5
19D
330
58
100
AcDbEntity
 67
     1
  8
0
100
AcDbDimension
  2
*D26
 10
0.3405422391885913
 20
5.269557592383193
 30
0.0
 11
-0.6524503555940906
 21
4.667909528739269
 31
0.0
 70
   163
 71
     5
 42
0.2559999999999976
  3
Standard
100
AcDbDiametricDimension
 15
0.1817234241032204
 25
5.06877765320879
 35
0.0
 40
0.0
  0
DIMENSION
  5
19E
330
58
100
AcDbEntity
 67
     1
  8
0
100
AcDbDimension
  2
*D27
 10
0.2611328316459061
 20
5.690794434014478
 30
0.0
 11
1.579055928513247
 21
5.690794434014478
 31
0.0
 70
   160
 71
     5
 42
3.549999866309022
  3
Standard
100
AcDbAlignedDimension
 13
3.811132697954928
 23
5.170141894792055
 33
0.0
 14
0.2611328316459061
 24
5.169167622795992
 34
0.0
100
AcDbRotatedDimension
  0
INSERT
  5
19F
330
58
100
AcDbEntity
 67
     1
  8
0
100
AcDbBlockReference
  2
*U20
 10
-1.289729522785656
 20
-3.088229342945602
 30
0.0
  0
CIRCLE
  5
1A0
330
58
100
AcDbEntity
 67
     1
  8
0
100
AcDbCircle
 10
0.2611328316459041
 20
1.229167622795992
 30
0.0
 40
0.1875
  0
CIRCLE
  5
1A1
330
58
100
AcDbEntity
 67
     1
  8
0
100
AcDbCircle
 10
0.2611328316459041
 20
1.229167622795992
 30
0.0
 40
0.128
  0
LINE
  5
1A2
330
58
100
AcDbEntity
 67
     1
  8
0
100
AcDbLine
 10
-0.263867502672138
 20
4.9512991095113
 30
0.0
 11
-0.263867502672138
 21
5.4512991095113
 31
0.0
  0
INSERT
  5
1A3
330
58
100
AcDbEntity
 67
     1
  8
0
100
AcDbBlockReference
  2
*U19
 10
-1.289729522785656
 20
-0.633875406034969
 30
0.0
  0
LINE
  5
1A4
330
58
100
AcDbEntity
 67
     1
  8
0
100
AcDbLine
 10
-0.0763675026721402
 20
4.9512991095113
 30
0.0
 11
-0.0763675026721402
 21
5.4512991095113
 31
0.0
  0
CIRCLE
  5
1A5
330
58
100
AcDbEntity
 67
     1
  8
0
100
AcDbCircle
 10
0.2611328316459061
 20
5.169167622795992
 30
0.0
 40
0.1875
  0
CIRCLE
  5
1A6
330
58
100
AcDbEntity
 67
     1
  8
0
100
AcDbCircle
 10
0.2611328316459061
 20
5.169167622795992
 30
0.0
 40
0.128
  0
LINE
  5
1A7
330
58
100
AcDbEntity
 67
     1
  8
0
100
AcDbLine
 10
3.298632497327862
 20
4.951299109511299
 30
0.0
 11
3.298632497327862
 21
5.4512991095113
 31
0.0
  0
DIMENSION
  5
1A8
330
58
100
AcDbEntity
 67
     1
  8
0
100
AcDbDimension
  2
*D28
 10
5.851566966205473
 20
1.451299109511299
 30
0.0
 11
5.851566966205473
 21
1.301537506250277
 31
0.0
 70
   160
 71
     5
 42
0.2995232065220443
  3
Standard
100
AcDbAlignedDimension
 13
5.361132547846088
 23
1.151775902989255
 33
0.0
 14
7.611132497327859
 24
1.451299109511298
 34
0.0
 50
90.0
100
AcDbRotatedDimension
  0
LINE
  5
1AA
330
58
100
AcDbEntity
 67
     1
  8
0
100
AcDbLine
 10
7.611132497327859
 20
1.451299109511298
 30
0.0
 11
7.611132497327859
 21
0.9512991095112987
 31
0.0
  0
DIMENSION
  5
1AB
330
58
100
AcDbEntity
 67
     1
  8
0
100
AcDbDimension
  2
*D29
 10
6.236132522784468
 20
4.700910836655462
 30
0.0
 11
6.564851838406204
 21
4.700910836655462
 31
0.0
 70
   160
 71
     5
 42
0.7499999745433917
  3
Standard
100
AcDbAlignedDimension
 13
6.98613249732786
 23
4.951299109511298
 33
0.0
 14
6.236132522784468
 24
4.951299109511298
 34
0.0
100
AcDbRotatedDimension
  0
LINE
  5
1AC
330
58
100
AcDbEntity
 67
     1
  8
0
100
AcDbLine
 10
7.61113249732786
 20
4.951299109511298
 30
0.0
 11
6.98613249732786
 21
4.951299109511298
 31
0.0
  0
DIMENSION
  5
1AD
330
58
100
AcDbEntity
 67
     1
  8
0
100
AcDbDimension
  2
*D30
 10
7.61113249732786
 20
4.367863277434031
 30
0.0
 11
6.479475923680025
 21
4.367863277434031
 31
0.0
 70
   160
 71
     5
 42
2.249999949481771
  3
Standard
100
AcDbAlignedDimension
 13
5.361132547846088
 23
5.251775902989255
 33
0.0
 14
7.61113249732786
 24
4.951299109511298
 34
0.0
100
AcDbRotatedDimension
  0
DIMENSION
  5
1AE
330
58
100
AcDbEntity
 67
     1
  8
0
100
AcDbDimension
  2
*D31
 10
5.865217151164324
 20
4.951299109511299
 30
0.0
 11
5.865217151164323
 21
5.101537506250277
 31
0.0
 70
   160
 71
     5
 42
0.300476793477956
  3
Standard
100
AcDbAlignedDimension
 13
5.361132547846088
 23
5.251775902989255
 33
0.0
 14
7.61113249732786
 24
4.951299109511298
 34
0.0
 50
90.0
100
AcDbRotatedDimension
  0
CIRCLE
  5
1B0
102
{ACAD_REACTORS
330
387
330
433
102
}
330
58
100
AcDbEntity
 67
     1
  8
0
100
AcDbCircle
 10
5.361132547846088
 20
1.151775902989255
 30
0.0
 40
0.125
  0
CIRCLE
  5
1B1
330
58
100
AcDbEntity
 67
     1
  8
0
100
AcDbCircle
 10
5.361132547846088
 20
5.251775902989255
 30
0.0
 40
0.125
  0
ARC
  5
1B2
330
58
100
AcDbEntity
 67
     1
  8
0
  6
HIDDENX2
100
AcDbCircle
 10
6.423632522784468
 20
5.138652545952288
 30
0.0
 40
0.1875
100
AcDbArc
 50
90.01492819362242
 51
180.0
  0
LINE
  5
1B3
330
58
100
AcDbEntity
 67
     1
  8
0
  6
HIDDENX2
100
AcDbLine
 10
6.236132522784468
 20
5.138652545952288
 30
0.0
 11
6.236132522784468
 21
4.951299109511298
 31
0.0
  0
ARC
  5
1B4
330
58
100
AcDbEntity
 67
     1
  8
0
  6
HIDDENX2
100
AcDbCircle
 10
6.79863249732786
 20
5.138750250746648
 30
0.0
 40
0.1875
100
AcDbArc
 50
0.0
 51
90.01492819362239
  0
LINE
  5
1B5
330
58
100
AcDbEntity
 67
     1
  8
0
  6
HIDDENX2
100
AcDbLine
 10
6.98613249732786
 20
4.951299109511298
 30
0.0
 11
6.98613249732786
 21
5.138750250746648
 31
0.0
  0
LINE
  5
1B6
330
58
100
AcDbEntity
 67
     1
  8
0
  6
HIDDENX2
100
AcDbLine
 10
6.798583644929021
 20
5.326250244382498
 30
0.0
 11
6.42358367038563
 21
5.326152539588136
 31
0.0
  0
CIRCLE
  5
1B7
102
{ACAD_REACTORS
330
2AA
102
}
330
58
100
AcDbEntity
 67
     1
  8
0
100
AcDbCircle
 10
7.361132564263949
 20
1.231116166788118
 30
0.0
 40
0.1875
  0
CIRCLE
  5
1B8
330
58
100
AcDbEntity
 67
     1
  8
0
100
AcDbCircle
 10
7.361132564263949
 20
1.231116166788118
 30
0.0
 40
0.128
  0
LINE
  5
1B9
330
58
100
AcDbEntity
 67
     1
  8
0
100
AcDbLine
 10
7.611132497327859
 20
1.451299109511298
 30
0.0
 11
7.611132497327859
 21
1.231299109511299
 31
0.0
  0
CIRCLE
  5
1BA
102
{ACAD_REACTORS
330
2AA
330
31F
102
}
330
58
100
AcDbEntity
 67
     1
  8
0
100
AcDbCircle
 10
7.36113256426395
 20
5.171116166788118
 30
0.0
 40
0.1875
  0
CIRCLE
  5
1BB
330
58
100
AcDbEntity
 67
     1
  8
0
100
AcDbCircle
 10
7.36113256426395
 20
5.171116166788118
 30
0.0
 40
0.128
  0
LINE
  5
1BC
330
58
100
AcDbEntity
 67
     1
  8
0
100
AcDbLine
 10
7.61113249732786
 20
5.451299109511299
 30
0.0
 11
7.61113249732786
 21
5.231299109511298
 31
0.0
  0
LINE
  5
1BD
330
58
100
AcDbEntity
 67
     1
  8
0
100
AcDbLine
 10
7.61113249732786
 20
5.451299109511299
 30
0.0
 11
7.61113249732786
 21
4.951299109511298
 31
0.0
  0
LINE
  5
1BE
330
58
100
AcDbEntity
 67
     1
  8
0
100
AcDbLine
 10
7.61113249732786
 20
4.951299109511298
 30
0.0
 11
7.61113249732786
 21
5.151299109511297
 31
0.0
  0
DIMENSION
  5
291
102
{ACAD_XDICTIONARY
360
29F
102
}
102
{ACAD_REACTORS
330
2AA
102
}
330
58
100
AcDbEntity
 67
     1
  8
0
 48
0.3
100
AcDbDimension
  2
*D32
 10
8.512102689796677
 20
1.231116166788118
 30
0.0
 11
8.512102689796677
 21
3.20111616678812
 31
0.0
 70
    32
 71
     5
 42
3.94
  3
Standard
100
AcDbAlignedDimension
 13
7.36113256426395
 23
5.171116166788118
 33
0.0
 14
7.361132564263949
 24
1.231116166788118
 34
0.0
 50
90.0
100
AcDbRotatedDimension
  0
DIMENSION
  5
2AB
102
{ACAD_XDICTIONARY
360
2BA
102
}
102
{ACAD_REACTORS
330
2C6
102
}
330
58
100
AcDbEntity
 67
     1
  8
0
 48
0.3
100
AcDbDimension
  2
*D33
 10
2.394835029188172
 20
0.9512991095112994
 30
0.0
 11
1.961085029188172
 21
0.5338790029150431
 31
0.0
 70
   160
 71
     5
 42
0.5
  3
Standard
100
AcDbAlignedDimension
 13
3.298632497327862
 23
1.451299109511299
 33
0.0
 14
3.298632497327862
 24
0.9512991095112992
 34
0.0
 50
90.0
100
AcDbRotatedDimension
  0
DIMENSION
  5
2D2
102
{ACAD_XDICTIONARY
360
2E0
102
}
102
{ACAD_REACTORS
330
2EB
102
}
330
58
100
AcDbEntity
 67
     1
  8
0
 48
0.3
100
AcDbDimension
  2
*D34
 10
-0.2638675026721398
 20
0.2775440077979638
 30
0.0
 11
3.673632497327859
 21
0.2775440077979638
 31
0.0
 70
   160
 71
     5
 42
7.874999999999999
  3
Standard
100
AcDbAlignedDimension
 13
7.611132497327859
 23
0.9512991095112987
 33
0.0
 14
-0.2638675026721398
 24
0.9512991095112997
 34
0.0
100
AcDbRotatedDimension
  0
DIMENSION
  5
306
102
{ACAD_XDICTIONARY
360
314
102
}
102
{ACAD_REACTORS
330
31F
102
}
330
58
100
AcDbEntity
 67
     1
  8
0
 48
0.3
100
AcDbDimension
  2
*D36
 10
7.61113249732786
 20
5.690794434014478
 30
0.0
 11
8.180299163994526
 21
5.690794434014478
 31
0.0
 70
    32
 71
     5
 42
0.2499999330639095
  3
Standard
100
AcDbAlignedDimension
 13
7.36113256426395
 23
5.171116166788118
 33
0.0
 14
7.61113249732786
 24
5.451299109511299
 34
0.0
100
AcDbRotatedDimension
  0
DIMENSION
  5
33C
102
{ACAD_XDICTIONARY
360
34B
102
}
102
{ACAD_REACTORS
330
357
102
}
330
58
100
AcDbEntity
 67
     1
  8
0
 48
0.3
100
AcDbDimension
  2
*D38
 10
4.50453289697122
 20
1.451299109511299
 30
0.0
 11
4.50453289697122
 21
1.340720502151678
 31
0.0
 70
   160
  1
0.220
 71
     5
 42
0.2211572147192435
  3
Standard
100
AcDbAlignedDimension
 13
3.811132697954927
 23
1.230141894792055
 33
0.0
 14
3.811132697954927
 24
1.451299109511299
 34
0.0
 50
90.0
100
AcDbRotatedDimension
  0
DIMENSION
  5
36E
102
{ACAD_XDICTIONARY
360
37C
102
}
102
{ACAD_REACTORS
330
387
102
}
330
58
100
AcDbEntity
 67
     1
  8
0
 48
0.3
100
AcDbDimension
  2
*D39
 10
7.611132497327859
 20
2.206467535846851
 30
0.0
 11
6.486132522586974
 21
2.206467535846851
 31
0.0
 70
   160
 71
     5
 42
2.249999949481771
  3
Standard
100
AcDbAlignedDimension
 13
5.361132547846088
 23
1.151775902989255
 33
0.0
 14
7.611132497327859
 24
0.9512991095112987
 34
0.0
100
AcDbRotatedDimension
  0
CIRCLE
  5
394
102
{ACAD_REACTORS
330
3F9
330
449
102
}
330
58
100
AcDbEntity
 67
     1
  8
0
 48
0.3
100
AcDbCircle
 10
5.361132547846088
 20
3.201775902989255
 30
0.0
 40
0.8125
  0
CIRCLE
  5
395
102
{ACAD_REACTORS
330
3F9
330
45F
102
}
330
58
100
AcDbEntity
 67
     1
  8
0
 48
0.3
100
AcDbCircle
 10
1.611132547846088
 20
3.201775902989255
 30
0.0
 40
1.45
  0
DIMENSION
  5
3E0
102
{ACAD_XDICTIONARY
360
3EE
102
}
102
{ACAD_REACTORS
330
3F9
102
}
330
58
100
AcDbEntity
 67
     1
  8
0
 48
0.3
100
AcDbDimension
  2
*D40
 10
1.611132547846088
 20
4.337587539066634
 30
0.0
 11
3.486132547846088
 21
4.337587539066634
 31
0.0
 70
   160
 71
     5
 42
3.75
  3
Standard
100
AcDbAlignedDimension
 13
5.361132547846088
 23
3.201775902989255
 33
0.0
 14
1.611132547846088
 24
3.201775902989255
 34
0.0
100
AcDbRotatedDimension
  0
LEADER
  5
404
330
58
100
AcDbEntity
 67
     1
  8
0
 48
0.3
100
AcDbLeader
  3
Standard
 73
     0
 40
0.1666666666666667
 41
1.4375
 76
     3
 10
0.1611325478460885
 20
3.201775902989255
 30
0.0
 10
0.7684413600779508
 20
2.771577616758085
 30
0.0
 10
0.9755641322762757
 20
2.771577616758085
 30
0.0
340
405
213
0.0
223
-0.0625
233
0.0
1001
ACAD
1000
DSTYLE
1002
{
1070
   147
1040
0.09
1070
    77
1070
     0
1002
}
  0
MTEXT
  5
405
102
{ACAD_REACTORS
330
404
102
}
330
58
100
AcDbEntity
 67
     1
  8
0
 48
0.3
100
AcDbMText
 10
1.065564132276275
 20
2.834077616758085
 30
0.0
 40
0.125
 41
0.0
 71
     1
 72
     1
  1
\A1;spindle pulley
 73
     1
 44
1.0
  0
LEADER
  5
406
330
58
100
AcDbEntity
 67
     1
  8
0
 48
0.3
100
AcDbLeader
  3
Standard
 73
     0
 40
0.375
 41
0.5833333333333334
 76
     3
 10
4.548632547846088
 20
3.201775902989255
 30
0.0
 10
4.948555128394467
 20
2.940722487188262
 30
0.0
 10
5.136848577206443
 20
2.940722487188262
 30
0.0
340
407
213
0.0
223
-0.0625
233
0.0
1001
ACAD
1000
DSTYLE
1002
{
1070
   147
1040
0.09
1070
    77
1070
     0
1002
}
  0
MTEXT
  5
407
102
{ACAD_REACTORS
330
406
102
}
330
58
100
AcDbEntity
 67
     1
  8
0
 48
0.3
100
AcDbMText
 10
5.226848577206443
 20
3.003222487188262
 30
0.0
 40
0.125
 41
0.0
 71
     1
 72
     1
  1
\A1;motor\Ppulley
 73
     1
 44
1.0
  0
LEADER
  5
430
102
{ACAD_XDICTIONARY
360
432
102
}
102
{ACAD_REACTORS
330
433
102
}
330
58
100
AcDbEntity
 67
     1
  8
0
 48
0.3
100
AcDbLeader
  3
Standard
 73
     0
 40
0.125
 41
1.3125
 76
     3
 10
5.361132547846088
 20
1.151775902989255
 30
0.0
 10
4.855420327574265
 20
2.022830265482994
 30
0.0
 10
4.721371593115044
 20
2.022830265482994
 30
0.0
340
431
213
0.0
223
0.0625
233
0.0
1001
ACAD
1000
DSTYLE
1002
{
1070
   147
1040
0.09
1070
    77
1070
     0
1002
}
  0
MTEXT
  5
431
102
{ACAD_REACTORS
330
430
102
}
330
58
100
AcDbEntity
 67
     1
  8
0
 48
0.3
100
AcDbMText
 10
4.631371593115044
 20
1.960330265482994
 30
0.0
 40
0.125
 41
0.0
 71
     9
 72
     1
  1
\A1;1/4-20 x .75
 73
     1
 44
1.0
  0
DIMENSION
  5
434
102
{ACAD_XDICTIONARY
360
440
102
}
102
{ACAD_REACTORS
330
449
102
}
330
58
100
AcDbEntity
 67
     1
  8
0
 48
0.3
100
AcDbDimension
  2
*D41
 10
4.592674088574869
 20
2.937905013396433
 30
0.0
 11
7.040494535170837
 21
3.6044523961036
 31
0.0
 70
   163
 71
     5
 42
1.625000000000002
  3
Standard
100
AcDbDiametricDimension
 15
6.129591007117307
 25
3.465646792582077
 35
0.0
 40
0.0
1001
ACAD
1000
DSTYLE
1002
{
1070
   288
1070
     1
1002
}
  0
DIMENSION
  5
44A
102
{ACAD_XDICTIONARY
360
456
102
}
102
{ACAD_REACTORS
330
45F
102
}
330
58
100
AcDbEntity
 67
     1
  8
0
 48
0.3
100
AcDbDimension
  2
*D42
 10
0.2197598486828778
 20
2.793631306034597
 30
0.0
 11
3.83172342789337
 21
3.704537605660126
 31
0.0
 70
   163
 71
     5
 42
2.899999999999998
  3
Standard
100
AcDbDiametricDimension
 15
3.002505247009298
 25
3.609920499943914
 35
0.0
 40
0.0
1001
ACAD
1000
DSTYLE
1002
{
1070
   288
1070
     1
1002
}
  0
ENDSEC
  0
SECTION
  2
OBJECTS
  0
DICTIONARY
  5
C
330
0
100
AcDbDictionary
281
     1
  3
ACAD_GROUP
350
D
  3
ACAD_LAYOUT
350
1A
  3
ACAD_MLINESTYLE
350
17
  3
ACAD_PLOTSETTINGS
350
19
  3
ACAD_PLOTSTYLENAME
350
E
  3
AcDbVariableDictionary
350
66
  0
DICTIONARY
  5
29F
330
291
100
AcDbDictionary
280
     1
281
     1
  3
ACAD_DIMASSOC
360
2AA
  0
DICTIONARY
  5
2BA
330
2AB
100
AcDbDictionary
280
     1
281
     1
  3
ACAD_DIMASSOC
360
2C6
  0
DICTIONARY
  5
2E0
330
2D2
100
AcDbDictionary
280
     1
281
     1
  3
ACAD_DIMASSOC
360
2EB
  0
DICTIONARY
  5
314
330
306
100
AcDbDictionary
280
     1
281
     1
  3
ACAD_DIMASSOC
360
31F
  0
DICTIONARY
  5
34B
330
33C
100
AcDbDictionary
280
     1
281
     1
  3
ACAD_DIMASSOC
360
357
  0
DICTIONARY
  5
37C
330
36E
100
AcDbDictionary
280
     1
281
     1
  3
ACAD_DIMASSOC
360
387
  0
DICTIONARY
  5
3EE
330
3E0
100
AcDbDictionary
280
     1
281
     1
  3
ACAD_DIMASSOC
360
3F9
  0
DICTIONARY
  5
432
330
430
100
AcDbDictionary
280
     1
281
     1
  3
ACAD_DIMASSOC
360
433
  0
DICTIONARY
  5
440
330
434
100
AcDbDictionary
280
     1
281
     1
  3
ACAD_DIMASSOC
360
449
  0
DICTIONARY
  5
456
330
44A
100
AcDbDictionary
280
     1
281
     1
  3
ACAD_DIMASSOC
360
45F
  0
DICTIONARY
  5
D
102
{ACAD_REACTORS
330
C
102
}
330
C
100
AcDbDictionary
281
     1
  0
DICTIONARY
  5
1A
102
{ACAD_REACTORS
330
C
102
}
330
C
100
AcDbDictionary
281
     1
  3
Layout1
350
59
  3
Layout2
350
5E
  3
Model
350
22
  0
DICTIONARY
  5
17
102
{ACAD_REACTORS
330
C
102
}
330
C
100
AcDbDictionary
281
     1
  3
Standard
350
18
  0
DICTIONARY
  5
19
102
{ACAD_REACTORS
330
C
102
}
330
C
100
AcDbDictionary
281
     1
  0
ACDBDICTIONARYWDFLT
  5
E
102
{ACAD_REACTORS
330
C
102
}
330
C
100
AcDbDictionary
281
     1
  3
Normal
350
F
100
AcDbDictionaryWithDefault
340
F
  0
DICTIONARY
  5
66
102
{ACAD_REACTORS
330
C
102
}
330
C
100
AcDbDictionary
281
     1
  3
DIMASSOC
350
67
  3
HIDETEXT
350
6B
  0
DIMASSOC
  5
2AA
102
{ACAD_REACTORS
330
29F
102
}
330
29F
100
AcDbDimAssoc
330
291
 90
        3
 70
     0
 71
     0
  1
AcDbOsnapPointRef
 72
     3
331
1BA
 73
     2
 91
        0
 40
0.0
 10
7.36113256426395
 20
5.171116166788118
 30
0.0
 75
     0
  1
AcDbOsnapPointRef
 72
     3
331
1B7
 73
     2
 91
        0
 40
0.0
 10
7.361132564263949
 20
1.231116166788118
 30
0.0
 75
     0
  0
DIMASSOC
  5
2C6
102
{ACAD_REACTORS
330
2BA
102
}
330
2BA
100
AcDbDimAssoc
330
2AB
 90
        3
 70
     0
 71
     0
  1
AcDbOsnapPointRef
 72
     6
331
197
 73
     2
 91
        0
 40
0.4523809523809527
 10
3.298632497327862
 20
1.451299109511299
 30
0.0
332
199
 74
     2
 92
        0
 75
     0
  1
AcDbOsnapPointRef
 72
     6
331
198
 73
     2
 91
        0
 40
0.5476190476190474
 10
3.298632497327862
 20
0.9512991095112992
 30
0.0
332
199
 74
     2
 92
        0
 75
     0
  0
DIMASSOC
  5
2EB
102
{ACAD_REACTORS
330
2E0
102
}
330
2E0
100
AcDbDimAssoc
330
2D2
 90
        3
 70
     0
 71
     0
  1
AcDbOsnapPointRef
 72
    13
331
198
 73
     2
 91
        0
 40
0.0
 10
7.611132497327859
 20
0.9512991095112987
 30
0.0
 75
     0
  1
AcDbOsnapPointRef
 72
     1
331
198
 73
     2
 91
        0
 40
1.0
 10
-0.2638675026721398
 20
0.9512991095112997
 30
0.0
 75
     0
  0
DIMASSOC
  5
31F
102
{ACAD_REACTORS
330
314
102
}
330
314
100
AcDbDimAssoc
330
306
 90
        3
 70
     0
 71
     0
  1
AcDbOsnapPointRef
 72
     3
331
1BA
 73
     2
 91
        0
 40
0.0
 10
7.36113256426395
 20
5.171116166788118
 30
0.0
 75
     0
  1
AcDbOsnapPointRef
 72
     1
331
193
 73
     2
 91
        0
 40
1.0
 10
7.61113249732786
 20
5.451299109511299
 30
0.0
 75
     0
  0
DIMASSOC
  5
357
102
{ACAD_REACTORS
330
34B
102
}
330
34B
100
AcDbDimAssoc
330
33C
 90
        1
 70
     0
 71
     0
  1
AcDbOsnapPointRef
 72
     3
331
196
 73
     2
 91
        0
 40
0.0
 10
3.811132697954927
 20
1.230141894792055
 30
0.0
 75
     0
  0
DIMASSOC
  5
387
102
{ACAD_REACTORS
330
37C
102
}
330
37C
100
AcDbDimAssoc
330
36E
 90
        3
 70
     0
 71
     0
  1
AcDbOsnapPointRef
 72
     3
331
1B0
 73
     2
 91
        0
 40
0.0
 10
5.361132547846088
 20
1.151775902989255
 30
0.0
 75
     0
  1
AcDbOsnapPointRef
 72
    13
331
198
 73
     2
 91
        0
 40
0.0
 10
7.611132497327859
 20
0.9512991095112987
 30
0.0
 75
     0
  0
DIMASSOC
  5
3F9
102
{ACAD_REACTORS
330
3EE
102
}
330
3EE
100
AcDbDimAssoc
330
3E0
 90
        3
 70
     0
 71
     0
  1
AcDbOsnapPointRef
 72
     3
331
394
 73
     2
 91
        0
 40
0.0
 10
5.361132547846088
 20
3.201775902989255
 30
0.0
 75
     0
  1
AcDbOsnapPointRef
 72
     3
331
395
 73
     2
 91
        0
 40
0.0
 10
1.611132547846088
 20
3.201775902989255
 30
0.0
 75
     0
  0
DIMASSOC
  5
433
102
{ACAD_REACTORS
330
432
102
}
330
432
100
AcDbDimAssoc
330
430
 90
        1
 70
     0
 71
     0
  1
AcDbOsnapPointRef
 72
     3
331
1B0
 73
     2
 91
        0
 40
0.0
 10
5.361132547846088
 20
1.151775902989255
 30
0.0
 75
     0
  0
DIMASSOC
  5
449
102
{ACAD_REACTORS
330
440
102
}
330
440
100
AcDbDimAssoc
330
434
 90
        2
 70
     0
 71
     0
  1
AcDbOsnapPointRef
 72
     3
331
394
 73
     2
 91
        0
 40
0.0
 10
5.361132547846088
 20
3.201775902989255
 30
0.0
 75
     0
  0
DIMASSOC
  5
45F
102
{ACAD_REACTORS
330
456
102
}
330
456
100
AcDbDimAssoc
330
44A
 90
        2
 70
     0
 71
     0
  1
AcDbOsnapPointRef
 72
     3
331
395
 73
     2
 91
        0
 40
0.0
 10
1.611132547846088
 20
3.201775902989255
 30
0.0
 75
     0
  0
LAYOUT
  5
59
102
{ACAD_REACTORS
330
1A
102
}
330
1A
100
AcDbPlotSettings
  1

  2
none_device
  4
Letter_(8.50_x_11.00_Inches)
  6

 40
6.349999904632568
 41
6.349999904632568
 42
6.350006103515625
 43
6.350006103515625
 44
215.8999938964843
 45
279.3999938964843
 46
38.3032
 47
38.15079999999999
 48
0.0
 49
0.0
140
0.0
141
0.0
142
1.0
143
1.0
 70
   688
 72
     0
 73
     1
 74
     5
  7

 75
    16
147
1.0
148
0.0
149
0.0
100
AcDbLayout
  1
Layout1
 70
     1
 71
     1
 10
-1.75200024029589
 20
-1.757999996245376
 11
9.247999519408217
 21
6.741999763458731
 12
0.0
 22
0.0
 32
0.0
 14
-1.439262267973589
 24
-1.41285528304607
 34
0.0
 15
8.966538218833356
 25
6.396855050259421
 35
0.0
146
0.0
 13
0.0
 23
0.0
 33
0.0
 16
1.0
 26
0.0
 36
0.0
 17
0.0
 27
1.0
 37
0.0
 76
     0
330
58
331
77
  0
LAYOUT
  5
5E
102
{ACAD_REACTORS
330
1A
102
}
330
1A
100
AcDbPlotSettings
  1

  2
None
  4

  6

 40
0.0
 41
0.0
 42
0.0
 43
0.0
 44
0.0
 45
0.0
 46
0.0
 47
0.0
 48
0.0
 49
0.0
140
0.0
141
0.0
142
1.0
143
1.0
 70
   688
 72
     0
 73
     0
 74
     5
  7

 75
    16
147
1.0
148
0.0
149
0.0
100
AcDbLayout
  1
Layout2
 70
     1
 71
     2
 10
0.0
 20
0.0
 11
12.0
 21
9.0
 12
0.0
 22
0.0
 32
0.0
 14
0.0
 24
0.0
 34
0.0
 15
0.0
 25
0.0
 35
0.0
146
0.0
 13
0.0
 23
0.0
 33
0.0
 16
1.0
 26
0.0
 36
0.0
 17
0.0
 27
1.0
 37
0.0
 76
     0
330
5D
  0
LAYOUT
  5
22
102
{ACAD_REACTORS
330
1A
102
}
330
1A
100
AcDbPlotSettings
  1

  2
none_device
  4
ANSI_A_(8.50_x_11.00_Inches)
  6

 40
6.349999904632568
 41
19.04999923706054
 42
6.350006103515625
 43
19.04998779296875
 44
215.8999938964843
 45
279.3999938964843
 46
0.0
 47
0.0
 48
0.0
 49
0.0
140
0.0
141
0.0
142
1.0
143
2.584895464708373
 70
 11952
 72
     0
 73
     1
 74
     0
  7

 75
     0
147
0.3868628397755418
148
0.0
149
0.0
100
AcDbLayout
  1
Model
 70
     1
 71
     0
 10
0.0
 20
0.0
 11
12.0
 21
9.0
 12
0.0
 22
0.0
 32
0.0
 14
0.0
 24
0.0
 34
0.0
 15
0.0
 25
0.0
 35
0.0
146
0.0
 13
0.0
 23
0.0
 33
0.0
 16
1.0
 26
0.0
 36
0.0
 17
0.0
 27
1.0
 37
0.0
 76
     0
330
1F
  0
MLINESTYLE
  5
18
102
{ACAD_REACTORS
330
17
102
}
330
17
100
AcDbMlineStyle
  2
STANDARD
 70
     0
  3

 62
   256
 51
90.0
 52
90.0
 71
     2
 49
0.5
 62
   256
  6
BYLAYER
 49
-0.5
 62
   256
  6
BYLAYER
  0
ACDBPLACEHOLDER
  5
F
102
{ACAD_REACTORS
330
E
102
}
330
E
  0
DICTIONARYVAR
  5
67
102
{ACAD_REACTORS
330
66
102
}
330
66
100
DictionaryVariables
280
     0
  1
2
  0
DICTIONARYVAR
  5
6B
102
{ACAD_REACTORS
330
66
102
}
330
66
100
DictionaryVariables
280
     0
  1
1
  0
ENDSEC
  0
EOF
