  0
SECTION
  2
HEADER
  9
$ACADVER
  1
AC1015
  9
$ACADMAINTVER
 70
    13
  9
$DWGCODEPAGE
  3
ANSI_1252
  9
$INSBASE
 10
0.0
 20
0.0
 30
0.0
  9
$EXTMIN
 10
1.000000000000000E+20
 20
1.000000000000000E+20
 30
1.000000000000000E+20
  9
$EXTMAX
 10
-1.000000000000000E+20
 20
-1.000000000000000E+20
 30
-1.000000000000000E+20
  9
$LIMMIN
 10
0.0
 20
0.0
  9
$LIMMAX
 10
12.0
 20
9.0
  9
$ORTHOMODE
 70
     0
  9
$REGENMODE
 70
     1
  9
$FILLMODE
 70
     1
  9
$QTEXTMODE
 70
     0
  9
$MIRRTEXT
 70
     1
  9
$LTSCALE
 40
0.3
  9
$ATTMODE
 70
     1
  9
$TEXTSIZE
 40
0.2
  9
$TRACEWID
 40
0.05
  9
$TEXTSTYLE
  7
Standard
  9
$CLAYER
  8
0
  9
$CELTYPE
  6
HIDDENX2
  9
$CECOLOR
 62
   256
  9
$CELTSCALE
 40
0.3
  9
$DISPSILH
 70
     0
  9
$DIMSCALE
 40
1.0
  9
$DIMASZ
 40
0.125
  9
$DIMEXO
 40
0.0625
  9
$DIMDLI
 40
0.38
  9
$DIMRND
 40
0.0
  9
$DIMDLE
 40
0.0
  9
$DIMEXE
 40
0.18
  9
$DIMTP
 40
0.0
  9
$DIMTM
 40
0.0
  9
$DIMTXT
 40
0.125
  9
$DIMCEN
 40
0.09
  9
$DIMTSZ
 40
0.0
  9
$DIMTOL
 70
     0
  9
$DIMLIM
 70
     0
  9
$DIMTIH
 70
     1
  9
$DIMTOH
 70
     1
  9
$DIMSE1
 70
     0
  9
$DIMSE2
 70
     0
  9
$DIMTAD
 70
     0
  9
$DIMZIN
 70
     0
  9
$DIMBLK
  1

  9
$DIMASO
 70
     1
  9
$DIMSHO
 70
     1
  9
$DIMPOST
  1

  9
$DIMAPOST
  1

  9
$DIMALT
 70
     0
  9
$DIMALTD
 70
     2
  9
$DIMALTF
 40
25.4
  9
$DIMLFAC
 40
1.0
  9
$DIMTOFL
 70
     0
  9
$DIMTVP
 40
0.0
  9
$DIMTIX
 70
     0
  9
$DIMSOXD
 70
     0
  9
$DIMSAH
 70
     0
  9
$DIMBLK1
  1

  9
$DIMBLK2
  1

  9
$DIMSTYLE
  2
Standard
  9
$DIMCLRD
 70
     0
  9
$DIMCLRE
 70
     0
  9
$DIMCLRT
 70
     0
  9
$DIMTFAC
 40
1.0
  9
$DIMGAP
 40
0.09
  9
$DIMJUST
 70
     0
  9
$DIMSD1
 70
     0
  9
$DIMSD2
 70
     0
  9
$DIMTOLJ
 70
     1
  9
$DIMTZIN
 70
     0
  9
$DIMALTZ
 70
     0
  9
$DIMALTTZ
 70
     0
  9
$DIMUPT
 70
     0
  9
$DIMDEC
 70
     3
  9
$DIMTDEC
 70
     3
  9
$DIMALTU
 70
     2
  9
$DIMALTTD
 70
     2
  9
$DIMTXSTY
  7
Standard
  9
$DIMAUNIT
 70
     0
  9
$DIMADEC
 70
     0
  9
$DIMALTRND
 40
0.0
  9
$DIMAZIN
 70
     0
  9
$DIMDSEP
 70
    46
  9
$DIMATFIT
 70
     3
  9
$DIMFRAC
 70
     0
  9
$DIMLDRBLK
  1

  9
$DIMLUNIT
 70
     2
  9
$DIMLWD
 70
    -2
  9
$DIMLWE
 70
    -2
  9
$DIMTMOVE
 70
     0
  9
$LUNITS
 70
     2
  9
$LUPREC
 70
     4
  9
$SKETCHINC
 40
0.1
  9
$FILLETRAD
 40
0.075
  9
$AUNITS
 70
     0
  9
$AUPREC
 70
     0
  9
$MENU
  1
.
  9
$ELEVATION
 40
0.0
  9
$PELEVATION
 40
0.0
  9
$THICKNESS
 40
0.0
  9
$LIMCHECK
 70
     0
  9
$CHAMFERA
 40
0.5
  9
$CHAMFERB
 40
0.5
  9
$CHAMFERC
 40
1.0
  9
$CHAMFERD
 40
0.0
  9
$SKPOLY
 70
     0
  9
$TDCREATE
 40
2454412.579853507
  9
$TDUCREATE
 40
2454412.788186840
  9
$TDUPDATE
 40
2455925.772373587
  9
$TDUUPDATE
 40
2455925.980706921
  9
$TDINDWG
 40
0.4243723843
  9
$TDUSRTIMER
 40
0.4243723843
  9
$USRTIMER
 70
     1
  9
$ANGBASE
 50
0.0
  9
$ANGDIR
 70
     0
  9
$PDMODE
 70
     0
  9
$PDSIZE
 40
0.0
  9
$PLINEWID
 40
0.0
  9
$SPLFRAME
 70
     0
  9
$SPLINETYPE
 70
     6
  9
$SPLINESEGS
 70
     8
  9
$HANDSEED
  5
288
  9
$SURFTAB1
 70
     6
  9
$SURFTAB2
 70
     6
  9
$SURFTYPE
 70
     6
  9
$SURFU
 70
     6
  9
$SURFV
 70
     6
  9
$UCSBASE
  2

  9
$UCSNAME
  2

  9
$UCSORG
 10
0.0
 20
0.0
 30
0.0
  9
$UCSXDIR
 10
1.0
 20
0.0
 30
0.0
  9
$UCSYDIR
 10
0.0
 20
1.0
 30
0.0
  9
$UCSORTHOREF
  2

  9
$UCSORTHOVIEW
 70
     0
  9
$UCSORGTOP
 10
0.0
 20
0.0
 30
0.0
  9
$UCSORGBOTTOM
 10
0.0
 20
0.0
 30
0.0
  9
$UCSORGLEFT
 10
0.0
 20
0.0
 30
0.0
  9
$UCSORGRIGHT
 10
0.0
 20
0.0
 30
0.0
  9
$UCSORGFRONT
 10
0.0
 20
0.0
 30
0.0
  9
$UCSORGBACK
 10
0.0
 20
0.0
 30
0.0
  9
$PUCSBASE
  2

  9
$PUCSNAME
  2

  9
$PUCSORG
 10
0.0
 20
0.0
 30
0.0
  9
$PUCSXDIR
 10
1.0
 20
0.0
 30
0.0
  9
$PUCSYDIR
 10
0.0
 20
1.0
 30
0.0
  9
$PUCSORTHOREF
  2

  9
$PUCSORTHOVIEW
 70
     0
  9
$PUCSORGTOP
 10
0.0
 20
0.0
 30
0.0
  9
$PUCSORGBOTTOM
 10
0.0
 20
0.0
 30
0.0
  9
$PUCSORGLEFT
 10
0.0
 20
0.0
 30
0.0
  9
$PUCSORGRIGHT
 10
0.0
 20
0.0
 30
0.0
  9
$PUCSORGFRONT
 10
0.0
 20
0.0
 30
0.0
  9
$PUCSORGBACK
 10
0.0
 20
0.0
 30
0.0
  9
$USERI1
 70
     0
  9
$USERI2
 70
     0
  9
$USERI3
 70
     0
  9
$USERI4
 70
     0
  9
$USERI5
 70
     0
  9
$USERR1
 40
0.0
  9
$USERR2
 40
0.0
  9
$USERR3
 40
0.0
  9
$USERR4
 40
0.0
  9
$USERR5
 40
0.0
  9
$WORLDVIEW
 70
     1
  9
$SHADEDGE
 70
     3
  9
$SHADEDIF
 70
    70
  9
$TILEMODE
 70
     0
  9
$MAXACTVP
 70
    64
  9
$PINSBASE
 10
0.0
 20
0.0
 30
0.0
  9
$PLIMCHECK
 70
     0
  9
$PEXTMIN
 10
-1.439262267973589
 20
-1.41285528304607
 30
0.0
  9
$PEXTMAX
 10
8.966538218833356
 20
6.396855050259421
 30
0.0
  9
$PLIMMIN
 10
-1.647916538508858
 20
-1.657916660534115
  9
$PLIMMAX
 10
9.35208322119525
 20
6.842083099169992
  9
$UNITMODE
 70
     0
  9
$VISRETAIN
 70
     1
  9
$PLINEGEN
 70
     0
  9
$PSLTSCALE
 70
     1
  9
$TREEDEPTH
 70
  3020
  9
$CMLSTYLE
  2
Standard
  9
$CMLJUST
 70
     0
  9
$CMLSCALE
 40
1.0
  9
$PROXYGRAPHICS
 70
     1
  9
$MEASUREMENT
 70
     0
  9
$CELWEIGHT
370
    -1
  9
$ENDCAPS
280
     0
  9
$JOINSTYLE
280
     0
  9
$LWDISPLAY
290
     0
  9
$INSUNITS
 70
     1
  9
$HYPERLINKBASE
  1

  9
$STYLESHEET
  1

  9
$XEDIT
290
     1
  9
$CEPSNTYPE
380
     0
  9
$PSTYLEMODE
290
     1
  9
$FINGERPRINTGUID
  2
{FDEAD576-A652-11D2-9A35-0060089B3A3F}
  9
$VERSIONGUID
  2
{353FF88A-1401-4DB8-8BE7-5BAEE8CA1BDD}
  9
$EXTNAMES
290
     1
  9
$PSVPSCALE
 40
0.0
  9
$OLESTARTUP
290
     0
  0
ENDSEC
  0
SECTION
  2
CLASSES
  0
CLASS
  1
ACDBDICTIONARYWDFLT
  2
AcDbDictionaryWithDefault
  3
AutoCAD 2000
 90
        0
280
     0
281
     0
  0
CLASS
  1
ACDBPLACEHOLDER
  2
AcDbPlaceHolder
  3
AutoCAD 2000
 90
        0
280
     0
281
     0
  0
CLASS
  1
LAYOUT
  2
AcDbLayout
  3
AutoCAD 2000
 90
        0
280
     0
281
     0
  0
CLASS
  1
DICTIONARYVAR
  2
AcDbDictionaryVar
  3
AutoCAD 2000
 90
        0
280
     0
281
     0
  0
CLASS
  1
DIMASSOC
  2
AcDbDimAssoc
  3
"AcDbDimAssoc|Product Desc:     AcDim ARX App For Dimension|Company:          Autodesk, Inc.|WEB Address:      www.autodesk.com"
 90
        0
280
     0
281
     0
  0
ENDSEC
  0
SECTION
  2
TABLES
  0
TABLE
  2
VPORT
  5
8
330
0
100
AcDbSymbolTable
 70
     1
  0
VPORT
  5
74
330
8
100
AcDbSymbolTableRecord
100
AcDbViewportTableRecord
  2
*Active
 70
     0
 10
0.0
 20
0.0
 11
1.0
 21
1.0
 12
20.48748698095427
 22
9.784138269231398
 13
0.0
 23
0.0
 14
0.5
 24
0.5
 15
0.5
 25
0.5
 16
0.0
 26
0.0
 36
1.0
 17
0.0
 27
0.0
 37
0.0
 40
19.56827653846279
 41
2.093949044585987
 42
50.0
 43
0.0
 44
0.0
 50
0.0
 51
0.0
 71
     0
 72
   100
 73
     1
 74
     3
 75
     0
 76
     0
 77
     0
 78
     0
281
     0
 65
     1
110
0.0
120
0.0
130
0.0
111
1.0
121
0.0
131
0.0
112
0.0
122
1.0
132
0.0
 79
     0
146
0.0
  0
ENDTAB
  0
TABLE
  2
LTYPE
  5
5
330
0
100
AcDbSymbolTable
 70
     3
  0
LTYPE
  5
14
330
5
100
AcDbSymbolTableRecord
100
AcDbLinetypeTableRecord
  2
ByBlock
 70
     0
  3

 72
    65
 73
     0
 40
0.0
  0
LTYPE
  5
15
330
5
100
AcDbSymbolTableRecord
100
AcDbLinetypeTableRecord
  2
ByLayer
 70
     0
  3

 72
    65
 73
     0
 40
0.0
  0
LTYPE
  5
16
330
5
100
AcDbSymbolTableRecord
100
AcDbLinetypeTableRecord
  2
Continuous
 70
     0
  3
Solid line
 72
    65
 73
     0
 40
0.0
  0
LTYPE
  5
92
330
5
100
AcDbSymbolTableRecord
100
AcDbLinetypeTableRecord
  2
HIDDENX2
 70
     0
  3
Hidden (2x) ____ ____ ____ ____ ____ ____ ____
 72
    65
 73
     2
 40
0.75
 49
0.5
 74
     0
 49
-0.25
 74
     0
  0
LTYPE
  5
93
330
5
100
AcDbSymbolTableRecord
100
AcDbLinetypeTableRecord
  2
threads
 70
     0
  3
Zig zag /\/\/\/\/\/\/\/\/\/\/\/\/\/\/\/\/\/\/\/
 72
    65
 73
     4
 40
0.8001000000000001
 49
0.0001
 74
     0
 49
-0.2
 74
     4
 75
   131
340
91
 46
0.2
 50
0.0
 44
-0.2
 45
0.0
 49
-0.4
 74
     4
 75
   131
340
91
 46
0.2
 50
180.0
 44
0.2
 45
0.0
 49
-0.2
 74
     0
  0
ENDTAB
  0
TABLE
  2
LAYER
  5
2
330
0
100
AcDbSymbolTable
 70
     2
  0
LAYER
  5
10
330
2
100
AcDbSymbolTableRecord
100
AcDbLayerTableRecord
  2
0
 70
     0
 62
     7
  6
Continuous
370
    -3
390
F
  0
LAYER
  5
F3
330
2
100
AcDbSymbolTableRecord
100
AcDbLayerTableRecord
  2
Defpoints
 70
     0
 62
     7
  6
Continuous
290
     0
370
    -3
390
F
  0
ENDTAB
  0
TABLE
  2
STYLE
  5
3
330
0
100
AcDbSymbolTable
 70
     2
  0
STYLE
  5
11
330
3
100
AcDbSymbolTableRecord
100
AcDbTextStyleTableRecord
  2
Standard
 70
     0
 40
0.0
 41
1.0
 50
0.0
 71
     0
 42
0.2
  3
txt
  4

  0
STYLE
  5
91
330
3
100
AcDbSymbolTableRecord
100
AcDbTextStyleTableRecord
  2

 70
     1
 40
0.0
 41
1.0
 50
0.0
 71
     0
 42
0.2
  3
ltypeshp.shx
  4

  0
ENDTAB
  0
TABLE
  2
VIEW
  5
6
330
0
100
AcDbSymbolTable
 70
     0
  0
ENDTAB
  0
TABLE
  2
UCS
  5
7
330
0
100
AcDbSymbolTable
 70
     0
  0
ENDTAB
  0
TABLE
  2
APPID
  5
9
330
0
100
AcDbSymbolTable
 70
     1
  0
APPID
  5
12
330
9
100
AcDbSymbolTableRecord
100
AcDbRegAppTableRecord
  2
ACAD
 70
     0
  0
ENDTAB
  0
TABLE
  2
DIMSTYLE
  5
A
330
0
100
AcDbSymbolTable
 70
     1
100
AcDbDimStyleTable
 71
     1
340
27
  0
DIMSTYLE
105
27
102
{ACAD_REACTORS
330
1CC
330
1E2
330
1F8
330
20E
330
220
330
236
330
250
102
}
330
A
100
AcDbSymbolTableRecord
100
AcDbDimStyleTableRecord
  2
Standard
 70
     0
 41
0.125
140
0.125
271
     3
272
     3
340
11
  0
ENDTAB
  0
TABLE
  2
BLOCK_RECORD
  5
1
330
0
100
AcDbSymbolTable
 70
     8
  0
BLOCK_RECORD
  5
1F
330
1
100
AcDbSymbolTableRecord
100
AcDbBlockTableRecord
  2
*Model_Space
340
22
  0
BLOCK_RECORD
  5
58
330
1
100
AcDbSymbolTableRecord
100
AcDbBlockTableRecord
  2
*Paper_Space
340
59
  0
BLOCK_RECORD
  5
5D
330
1
100
AcDbSymbolTableRecord
100
AcDbBlockTableRecord
  2
*Paper_Space0
340
5E
  0
BLOCK_RECORD
  5
1CD
330
1
100
AcDbSymbolTableRecord
100
AcDbBlockTableRecord
  2
*D1
340
0
  0
BLOCK_RECORD
  5
1E3
330
1
100
AcDbSymbolTableRecord
100
AcDbBlockTableRecord
  2
*D2
340
0
  0
BLOCK_RECORD
  5
1F9
330
1
100
AcDbSymbolTableRecord
100
AcDbBlockTableRecord
  2
*D3
340
0
  0
BLOCK_RECORD
  5
20F
330
1
100
AcDbSymbolTableRecord
100
AcDbBlockTableRecord
  2
*D4
340
0
  0
BLOCK_RECORD
  5
221
330
1
100
AcDbSymbolTableRecord
100
AcDbBlockTableRecord
  2
*D5
340
0
  0
BLOCK_RECORD
  5
237
330
1
100
AcDbSymbolTableRecord
100
AcDbBlockTableRecord
  2
*D6
340
0
  0
BLOCK_RECORD
  5
251
330
1
100
AcDbSymbolTableRecord
100
AcDbBlockTableRecord
  2
*D7
340
0
  0
ENDTAB
  0
ENDSEC
  0
SECTION
  2
BLOCKS
  0
BLOCK
  5
20
330
1F
100
AcDbEntity
  8
0
100
AcDbBlockBegin
  2
*Model_Space
 70
     0
 10
0.0
 20
0.0
 30
0.0
  3
*Model_Space
  1

  0
ENDBLK
  5
21
330
1F
100
AcDbEntity
  8
0
100
AcDbBlockEnd
  0
BLOCK
  5
5A
330
58
100
AcDbEntity
 67
     1
  8
0
100
AcDbBlockBegin
  2
*Paper_Space
 70
     0
 10
0.0
 20
0.0
 30
0.0
  3
*Paper_Space
  1

  0
ENDBLK
  5
5B
330
58
100
AcDbEntity
 67
     1
  8
0
100
AcDbBlockEnd
  0
BLOCK
  5
5F
330
5D
100
AcDbEntity
  8
0
100
AcDbBlockBegin
  2
*Paper_Space0
 70
     0
 10
0.0
 20
0.0
 30
0.0
  3
*Paper_Space0
  1

  0
ENDBLK
  5
60
330
5D
100
AcDbEntity
  8
0
100
AcDbBlockEnd
  0
BLOCK
  5
1D6
330
1CD
100
AcDbEntity
  8
0
 48
0.3
100
AcDbBlockBegin
  2
*D1
 70
     1
 10
0.0
 20
0.0
 30
0.0
  3
*D1
  1

  0
LINE
  5
1D9
330
1CD
100
AcDbEntity
  8
0
 62
     0
 48
0.3
370
    -2
100
AcDbLine
 10
1.34270678402496
 20
3.505794018756432
 30
0.0
 11
1.46770678402496
 21
3.505794018756432
 31
0.0
  0
LINE
  5
1DA
330
1CD
100
AcDbEntity
  8
0
 62
     0
 48
0.3
370
    -2
100
AcDbLine
 10
1.46770678402496
 20
3.505794018756432
 30
0.0
 11
1.780762567901859
 21
3.352460144932651
 31
0.0
  0
MTEXT
  5
1DB
330
1CD
100
AcDbEntity
  8
0
 62
     0
 48
0.3
100
AcDbMText
 10
0.9610401173582941
 20
3.505794018756432
 30
0.0
 40
0.125
 41
0.0
 71
     5
 72
     1
  1
\A1;\U+22050.750
 73
     1
 44
1.0
  0
SOLID
  5
1DC
330
1CD
100
AcDbEntity
  8
0
 62
     0
 48
0.3
100
AcDbTrace
 10
1.789926493747253
 20
3.371169774562281
 30
0.0
 11
1.771598642056466
 21
3.333750515303021
 31
0.0
 12
1.893020345679637
 22
3.297476589860292
 32
0.0
 13
1.893020345679637
 23
3.297476589860292
 33
0.0
  0
LINE
  5
1DD
330
1CD
100
AcDbEntity
  8
0
 62
     0
 48
0.3
370
    -2
100
AcDbLine
 10
2.139793679012971
 20
3.132525924643218
 30
0.0
 11
2.31979367901297
 21
3.132525924643218
 31
0.0
  0
LINE
  5
1DE
330
1CD
100
AcDbEntity
  8
0
 62
     0
 48
0.3
370
    -2
100
AcDbLine
 10
2.229793679012971
 20
3.042525924643217
 30
0.0
 11
2.229793679012971
 21
3.222525924643218
 31
0.0
  0
POINT
  5
1DF
330
1CD
100
AcDbEntity
  8
Defpoints
 62
     0
 48
0.3
100
AcDbPoint
 10
1.893020345679637
 20
3.297476589860292
 30
0.0
  0
POINT
  5
1E0
330
1CD
100
AcDbEntity
  8
Defpoints
 62
     0
 48
0.3
100
AcDbPoint
 10
2.566567012346304
 20
2.967575259426143
 30
0.0
  0
ENDBLK
  5
1D7
330
1CD
100
AcDbEntity
  8
0
 48
0.3
100
AcDbBlockEnd
  0
BLOCK
  5
1EC
330
1E3
100
AcDbEntity
  8
0
 48
0.3
100
AcDbBlockBegin
  2
*D2
 70
     1
 10
0.0
 20
0.0
 30
0.0
  3
*D2
  1

  0
LINE
  5
1EF
330
1E3
100
AcDbEntity
  8
0
 62
     0
 48
0.3
370
    -2
100
AcDbLine
 10
1.546319283954232
 20
2.701035709856736
 30
0.0
 11
1.671319283954233
 21
2.701035709856736
 31
0.0
  0
LINE
  5
1F0
330
1E3
100
AcDbEntity
  8
0
 62
     0
 48
0.3
370
    -2
100
AcDbLine
 10
1.671319283954233
 20
2.701035709856736
 30
0.0
 11
1.959951892757319
 21
2.924039928973581
 31
0.0
  0
MTEXT
  5
1F1
330
1E3
100
AcDbEntity
  8
0
 62
     0
 48
0.3
100
AcDbMText
 10
1.154235950620899
 20
2.701035709856737
 30
0.0
 40
0.125
 41
0.0
 71
     5
 72
     1
  1
\A1;\U+22050.432
 73
     1
 44
1.0
  0
SOLID
  5
1F2
330
1E3
100
AcDbEntity
  8
0
 62
     0
 48
0.3
100
AcDbTrace
 10
1.947214478554629
 20
2.940525864106502
 30
0.0
 11
1.97268930696001
 21
2.907553993840661
 31
0.0
 12
2.058867503554846
 22
3.000464414189724
 32
0.0
 13
2.058867503554846
 23
3.000464414189724
 33
0.0
  0
LINE
  5
1F3
330
1E3
100
AcDbEntity
  8
0
 62
     0
 48
0.3
370
    -2
100
AcDbLine
 10
2.139793679012971
 20
3.132525924643218
 30
0.0
 11
2.319793679012971
 21
3.132525924643218
 31
0.0
  0
LINE
  5
1F4
330
1E3
100
AcDbEntity
  8
0
 62
     0
 48
0.3
370
    -2
100
AcDbLine
 10
2.229793679012971
 20
3.042525924643218
 30
0.0
 11
2.22979367901297
 21
3.222525924643218
 31
0.0
  0
POINT
  5
1F5
330
1E3
100
AcDbEntity
  8
Defpoints
 62
     0
 48
0.3
100
AcDbPoint
 10
2.058867503554846
 20
3.000464414189724
 30
0.0
  0
POINT
  5
1F6
330
1E3
100
AcDbEntity
  8
Defpoints
 62
     0
 48
0.3
100
AcDbPoint
 10
2.400719854471096
 20
3.264587435096711
 30
0.0
  0
ENDBLK
  5
1ED
330
1E3
100
AcDbEntity
  8
0
 48
0.3
100
AcDbBlockEnd
  0
BLOCK
  5
202
330
1F9
100
AcDbEntity
  8
0
 48
0.3
100
AcDbBlockBegin
  2
*D3
 70
     1
 10
0.0
 20
0.0
 30
0.0
  3
*D3
  1

  0
LINE
  5
205
330
1F9
100
AcDbEntity
  8
0
 62
     0
 48
0.3
370
    -2
100
AcDbLine
 10
1.945226067118226
 20
2.394461104949156
 30
0.0
 11
2.070226067118226
 21
2.394461104949156
 31
0.0
  0
LINE
  5
206
330
1F9
100
AcDbEntity
  8
0
 62
     0
 48
0.3
370
    -2
100
AcDbLine
 10
2.070226067118226
 20
2.394461104949156
 30
0.0
 11
2.170361302253826
 21
2.857627115819392
 31
0.0
  0
MTEXT
  5
207
330
1F9
100
AcDbEntity
  8
0
 62
     0
 48
0.3
100
AcDbMText
 10
1.573976067118226
 20
2.394461104949155
 30
0.0
 40
0.125
 41
0.0
 71
     5
 72
     1
  1
\A1;\U+22050.312
 73
     1
 44
1.0
  0
SOLID
  5
208
330
1F9
100
AcDbEntity
  8
0
 62
     0
 48
0.3
100
AcDbTrace
 10
2.149998427526135
 20
2.862029514097847
 30
0.0
 11
2.190724176981516
 21
2.853224717540936
 31
0.0
 12
2.196775691924557
 22
2.979804364185537
 32
0.0
 13
2.196775691924557
 23
2.979804364185537
 33
0.0
  0
LINE
  5
209
330
1F9
100
AcDbEntity
  8
0
 62
     0
 48
0.3
370
    -2
100
AcDbLine
 10
2.139793679012971
 20
3.132525924643219
 30
0.0
 11
2.31979367901297
 21
3.132525924643218
 31
0.0
  0
LINE
  5
20A
330
1F9
100
AcDbEntity
  8
0
 62
     0
 48
0.3
370
    -2
100
AcDbLine
 10
2.229793679012971
 20
3.042525924643219
 30
0.0
 11
2.229793679012971
 21
3.222525924643218
 31
0.0
  0
POINT
  5
20B
330
1F9
100
AcDbEntity
  8
Defpoints
 62
     0
 48
0.3
100
AcDbPoint
 10
2.196775691924557
 20
2.979804364185537
 30
0.0
  0
POINT
  5
20C
330
1F9
100
AcDbEntity
  8
Defpoints
 62
     0
 48
0.3
100
AcDbPoint
 10
2.262811666101385
 20
3.2852474851009
 30
0.0
  0
ENDBLK
  5
203
330
1F9
100
AcDbEntity
  8
0
 48
0.3
100
AcDbBlockEnd
  0
BLOCK
  5
216
330
20F
100
AcDbEntity
  8
0
 48
0.3
100
AcDbBlockBegin
  2
*D4
 70
     1
 10
0.0
 20
0.0
 30
0.0
  3
*D4
  1

  0
LINE
  5
219
330
20F
100
AcDbEntity
  8
0
 62
     0
 48
0.3
370
    -2
100
AcDbLine
 10
1.646046014765989
 20
4.01164211556582
 30
0.0
 11
1.771046014765989
 21
4.01164211556582
 31
0.0
  0
LINE
  5
21A
330
20F
100
AcDbEntity
  8
0
 62
     0
 48
0.3
370
    -2
100
AcDbLine
 10
1.771046014765989
 20
4.01164211556582
 30
0.0
 11
2.028668887982086
 21
3.485130828943904
 31
0.0
  0
MTEXT
  5
21B
330
20F
100
AcDbEntity
  8
0
 62
     0
 48
0.3
100
AcDbMText
 10
1.264379348099322
 20
4.01164211556582
 30
0.0
 40
0.125
 41
0.0
 71
     5
 72
     1
  1
\A1;R0.094
 73
     1
 44
1.0
  0
SOLID
  5
21C
330
20F
100
AcDbEntity
  8
0
 62
     0
 48
0.3
100
AcDbTrace
 10
2.04738217956913
 20
3.494287274529176
 30
0.0
 11
2.009955596395042
 21
3.475974383358633
 31
0.0
 12
2.083607561493716
 22
3.372851079421639
 32
0.0
 13
2.083607561493716
 23
3.372851079421639
 33
0.0
  0
POINT
  5
21D
330
20F
100
AcDbEntity
  8
Defpoints
 62
     0
 48
0.3
100
AcDbPoint
 10
2.083607561493716
 20
3.372851079421639
 30
0.0
  0
POINT
  5
21E
330
20F
100
AcDbEntity
  8
Defpoints
 62
     0
 48
0.3
100
AcDbPoint
 10
2.042293679012971
 20
3.45728545106238
 30
0.0
  0
ENDBLK
  5
217
330
20F
100
AcDbEntity
  8
0
 48
0.3
100
AcDbBlockEnd
  0
BLOCK
  5
22A
330
221
100
AcDbEntity
  8
0
 48
0.3
100
AcDbBlockBegin
  2
*D5
 70
     1
 10
0.0
 20
0.0
 30
0.0
  3
*D5
  1

  0
LINE
  5
22D
330
221
100
AcDbEntity
  8
0
 62
     0
 48
0.3
370
    -2
100
AcDbLine
 10
2.571119021652535
 20
3.820032990718881
 30
0.0
 11
2.446119021652535
 21
3.82003299071888
 31
0.0
  0
LINE
  5
22E
330
221
100
AcDbEntity
  8
0
 62
     0
 48
0.3
370
    -2
100
AcDbLine
 10
2.446119021652535
 20
3.82003299071888
 30
0.0
 11
2.340324614800538
 21
3.610383485255909
 31
0.0
  0
MTEXT
  5
22F
330
221
100
AcDbEntity
  8
0
 62
     0
 48
0.3
100
AcDbMText
 10
2.952785688319202
 20
3.820032990718881
 30
0.0
 40
0.125
 41
0.0
 71
     5
 72
     1
  1
\A1;R0.075
 73
     1
 44
1.0
  0
SOLID
  5
230
330
221
100
AcDbEntity
  8
0
 62
     0
 48
0.3
100
AcDbTrace
 10
2.32172525178608
 20
3.619769191048987
 30
0.0
 11
2.358923977814995
 21
3.600997779462832
 31
0.0
 12
2.284010380042076
 22
3.498787307169163
 32
0.0
 13
2.284010380042076
 23
3.498787307169163
 33
0.0
  0
LINE
  5
231
330
221
100
AcDbEntity
  8
0
 62
     0
 48
0.3
370
    -2
100
AcDbLine
 10
2.160221839186999
 20
3.431829600317115
 30
0.0
 11
2.340221839186999
 21
3.431829600317114
 31
0.0
  0
LINE
  5
232
330
221
100
AcDbEntity
  8
0
 62
     0
 48
0.3
370
    -2
100
AcDbLine
 10
2.250221839186999
 20
3.341829600317115
 30
0.0
 11
2.250221839186998
 21
3.521829600317114
 31
0.0
  0
POINT
  5
233
330
221
100
AcDbEntity
  8
Defpoints
 62
     0
 48
0.3
100
AcDbPoint
 10
2.284010380042076
 20
3.498787307169163
 30
0.0
  0
POINT
  5
234
330
221
100
AcDbEntity
  8
Defpoints
 62
     0
 48
0.3
100
AcDbPoint
 10
2.250221839186999
 20
3.431829600317115
 30
0.0
  0
ENDBLK
  5
22B
330
221
100
AcDbEntity
  8
0
 48
0.3
100
AcDbBlockEnd
  0
BLOCK
  5
242
330
237
100
AcDbEntity
  8
0
 48
0.3
100
AcDbBlockBegin
  2
*D6
 70
     1
 10
0.0
 20
0.0
 30
0.0
  3
*D6
  1

  0
LINE
  5
245
330
237
100
AcDbEntity
  8
0
 62
     0
 48
0.3
370
    -2
100
AcDbLine
 10
3.332078370570727
 20
2.691493928568017
 30
0.0
 11
3.332078370570727
 21
1.984530144827868
 31
0.0
  0
LINE
  5
246
330
237
100
AcDbEntity
  8
0
 62
     0
 48
0.3
370
    -2
100
AcDbLine
 10
3.582078370570727
 20
2.691493928568017
 30
0.0
 11
3.582078370570727
 21
1.984530144827868
 31
0.0
  0
LINE
  5
247
330
237
100
AcDbEntity
  8
0
 62
     0
 48
0.3
370
    -2
100
AcDbLine
 10
3.207078370570727
 20
2.164530144827867
 30
0.0
 11
3.082078370570727
 21
2.164530144827867
 31
0.0
  0
LINE
  5
248
330
237
100
AcDbEntity
  8
0
 62
     0
 48
0.3
370
    -2
100
AcDbLine
 10
3.707078370570727
 20
2.164530144827867
 30
0.0
 11
3.832078370570727
 21
2.164530144827867
 31
0.0
  0
SOLID
  5
249
330
237
100
AcDbEntity
  8
0
 62
     0
 48
0.3
100
AcDbTrace
 10
3.207078370570727
 20
2.185363478161201
 30
0.0
 11
3.207078370570727
 21
2.143696811494534
 31
0.0
 12
3.332078370570727
 22
2.164530144827867
 32
0.0
 13
3.332078370570727
 23
2.164530144827867
 33
0.0
  0
SOLID
  5
24A
330
237
100
AcDbEntity
  8
0
 62
     0
 48
0.3
100
AcDbTrace
 10
3.707078370570727
 20
2.185363478161201
 30
0.0
 11
3.707078370570727
 21
2.143696811494534
 31
0.0
 12
3.582078370570727
 22
2.164530144827867
 32
0.0
 13
3.582078370570727
 23
2.164530144827867
 33
0.0
  0
MTEXT
  5
24B
330
237
100
AcDbEntity
  8
0
 62
     0
 48
0.3
100
AcDbMText
 10
4.151245037237393
 20
2.164530144827867
 30
0.0
 40
0.125
 41
0.0
 71
     5
 72
     1
  1
\A1;0.250
 73
     1
 44
1.0
  0
POINT
  5
24C
330
237
100
AcDbEntity
  8
Defpoints
 62
     0
 48
0.3
100
AcDbPoint
 10
3.332078370570727
 20
2.753993928568017
 30
0.0
  0
POINT
  5
24D
330
237
100
AcDbEntity
  8
Defpoints
 62
     0
 48
0.3
100
AcDbPoint
 10
3.582078370570727
 20
2.753993928568017
 30
0.0
  0
POINT
  5
24E
330
237
100
AcDbEntity
  8
Defpoints
 62
     0
 48
0.3
100
AcDbPoint
 10
3.582078370570727
 20
2.164530144827867
 30
0.0
  0
ENDBLK
  5
243
330
237
100
AcDbEntity
  8
0
 48
0.3
100
AcDbBlockEnd
  0
BLOCK
  5
25C
330
251
100
AcDbEntity
  8
0
 48
0.3
100
AcDbBlockBegin
  2
*D7
 70
     1
 10
0.0
 20
0.0
 30
0.0
  3
*D7
  1

  0
LINE
  5
270
330
251
100
AcDbEntity
  8
0
 62
     0
 48
0.3
370
    -2
100
AcDbLine
 10
3.332078370570727
 20
2.854025924643218
 30
0.0
 11
3.332078370570727
 21
2.360084027466871
 31
0.0
  0
LINE
  5
271
330
251
100
AcDbEntity
  8
0
 62
     0
 48
0.3
370
    -2
100
AcDbLine
 10
3.457078370570727
 20
2.854025924643218
 30
0.0
 11
3.457078370570727
 21
2.360084027466871
 31
0.0
  0
LINE
  5
272
330
251
100
AcDbEntity
  8
0
 62
     0
 48
0.3
370
    -2
100
AcDbLine
 10
3.207078370570727
 20
2.540084027466871
 30
0.0
 11
3.082078370570727
 21
2.540084027466871
 31
0.0
  0
LINE
  5
273
330
251
100
AcDbEntity
  8
0
 62
     0
 48
0.3
370
    -2
100
AcDbLine
 10
3.582078370570727
 20
2.540084027466871
 30
0.0
 11
3.707078370570727
 21
2.540084027466871
 31
0.0
  0
SOLID
  5
274
330
251
100
AcDbEntity
  8
0
 62
     0
 48
0.3
100
AcDbTrace
 10
3.207078370570727
 20
2.560917360800204
 30
0.0
 11
3.207078370570727
 21
2.519250694133537
 31
0.0
 12
3.332078370570727
 22
2.540084027466871
 32
0.0
 13
3.332078370570727
 23
2.540084027466871
 33
0.0
  0
SOLID
  5
275
330
251
100
AcDbEntity
  8
0
 62
     0
 48
0.3
100
AcDbTrace
 10
3.582078370570727
 20
2.560917360800204
 30
0.0
 11
3.582078370570727
 21
2.519250694133537
 31
0.0
 12
3.457078370570727
 22
2.540084027466871
 32
0.0
 13
3.457078370570727
 23
2.540084027466871
 33
0.0
  0
MTEXT
  5
276
330
251
100
AcDbEntity
  8
0
 62
     0
 48
0.3
100
AcDbMText
 10
4.015828370570726
 20
2.540084027466871
 30
0.0
 40
0.125
 41
0.0
 71
     5
 72
     1
  1
\A1;0.125
 73
     1
 44
1.0
  0
POINT
  5
277
330
251
100
AcDbEntity
  8
Defpoints
 62
     0
 48
0.3
100
AcDbPoint
 10
3.332078370570727
 20
2.916525924643218
 30
0.0
  0
POINT
  5
278
330
251
100
AcDbEntity
  8
Defpoints
 62
     0
 48
0.3
100
AcDbPoint
 10
3.457078370570727
 20
2.916525924643218
 30
0.0
  0
POINT
  5
279
330
251
100
AcDbEntity
  8
Defpoints
 62
     0
 48
0.3
100
AcDbPoint
 10
3.457078370570727
 20
2.540084027466871
 30
0.0
  0
ENDBLK
  5
25D
330
251
100
AcDbEntity
  8
0
 48
0.3
100
AcDbBlockEnd
  0
ENDSEC
  0
SECTION
  2
ENTITIES
  0
VIEWPORT
  5
77
330
58
100
AcDbEntity
 67
     1
  8
0
100
AcDbViewport
 10
3.411160730282915
 20
2.391445960578947
 30
0.0
 40
18.97593805343642
 41
8.358448904489852
 68
     1
 69
     1
 12
3.411160730282915
 22
2.391445960578947
 13
0.0
 23
0.0
 14
0.5
 24
0.5
 15
0.5
 25
0.5
 16
0.0
 26
0.0
 36
1.0
 17
0.0
 27
0.0
 37
0.0
 42
50.0
 43
0.0
 44
0.0
 45
8.358448904489852
 50
0.0
 51
0.0
 72
   100
 90
    32800
  1

281
     0
 71
     1
 74
     0
110
0.0
120
0.0
130
0.0
111
1.0
121
0.0
131
0.0
112
0.0
122
1.0
132
0.0
 79
     0
146
0.0
  0
LWPOLYLINE
  5
86
330
58
100
AcDbEntity
 67
     1
  8
0
100
AcDbPolyline
 90
        4
 70
     1
 43
0.0
 10
-1.439262267973589
 20
6.396855050259421
 10
8.966538218833356
 20
6.396855050259421
 10
8.966538218833356
 20
-1.41285528304607
 10
-1.439262267973589
 20
-1.41285528304607
  0
LINE
  5
8A
330
58
100
AcDbEntity
 67
     1
  8
0
100
AcDbLine
 10
8.966538218833356
 20
-1.41285528304607
 30
0.0
 11
8.966538218833356
 21
-0.4128552830460706
 31
0.0
  0
LINE
  5
8B
330
58
100
AcDbEntity
 67
     1
  8
0
100
AcDbLine
 10
8.966538218833356
 20
-0.4128552830460706
 30
0.0
 11
6.466538218833356
 21
-0.4128552830460703
 31
0.0
  0
LINE
  5
8C
330
58
100
AcDbEntity
 67
     1
  8
0
100
AcDbLine
 10
6.466538218833356
 20
-0.4128552830460703
 30
0.0
 11
4.966538218833356
 21
-0.4128552830460701
 31
0.0
  0
LINE
  5
8D
330
58
100
AcDbEntity
 67
     1
  8
0
100
AcDbLine
 10
4.966538218833356
 20
-0.4128552830460701
 30
0.0
 11
4.966538218833356
 21
-1.41285528304607
 31
0.0
  0
LINE
  5
8E
330
58
100
AcDbEntity
 67
     1
  8
0
100
AcDbLine
 10
6.466538218833356
 20
-0.4128552830460703
 30
0.0
 11
6.466538218833356
 21
-1.40425062323316
 31
0.0
  0
MTEXT
  5
8F
330
58
100
AcDbEntity
 67
     1
  8
0
100
AcDbMText
 10
5.02064872125895
 20
-0.5532836662080878
 30
0.0
 40
0.1
 41
1.5
 71
     1
 72
     5
  1
  Tolerances\P.XXXX = +/- .001\P.XXX  = +/- .005\P.XX   = +/- .015\PMat: Aluminum
 73
     1
 44
1.0
  0
MTEXT
  5
AA
330
58
100
AcDbEntity
 67
     1
  8
0
 48
0.3
100
AcDbMText
 10
6.688767870543038
 20
-0.5779304272488833
 30
0.0
 40
0.1
 41
2.5
 71
     1
 72
     5
  1
G0704 Power Drawbar 2\PBase Retainer Knob\PDaniel E. Kemp\P{\fArial|b0|i0|c0|p32;\H1.625x;©\fMS Shell Dlg|b0|i0|c0|p32;\H0.6538x; \fArial|b0|i0|c0|p32;\H0.9412x;12-08}-2011
 73
     1
 44
1.0
  0
MTEXT
  5
AC
330
58
100
AcDbEntity
 67
     1
  8
0
 48
0.3
100
AcDbMText
 10
-0.8330378939457148
 20
-0.9104262006358538
 30
0.0
 40
0.1625
 41
9.997099999999999
 71
     1
 72
     5
  1
{\fArial|b0|i0|c0|p32;© Daniel E. Kemp 2011}
 73
     1
 44
1.0
  0
CIRCLE
  5
BA
102
{ACAD_REACTORS
330
20D
102
}
330
58
100
AcDbEntity
 67
     1
  8
0
 48
0.3
100
AcDbCircle
 10
2.229793679012971
 20
3.132525924643218
 30
0.0
 40
0.15625
  0
CIRCLE
  5
DD
102
{ACAD_REACTORS
330
1F7
102
}
330
58
100
AcDbEntity
 67
     1
  8
0
 48
0.3
100
AcDbCircle
 10
2.229793679012971
 20
3.132525924643218
 30
0.0
 40
0.216
  0
ARC
  5
196
102
{ACAD_REACTORS
330
1E1
102
}
330
58
100
AcDbEntity
 67
     1
  8
0
 48
0.3
100
AcDbCircle
 10
2.229793679012971
 20
3.132525924643218
 30
0.0
 40
0.375
100
AcDbArc
 50
146.0954874315687
 51
153.9045125684309
  0
ARC
  5
198
330
58
100
AcDbEntity
 67
     1
  8
0
 48
0.3
100
AcDbCircle
 10
2.604793679012971
 20
3.132525924643218
 30
0.0
 40
0.094
100
AcDbArc
 50
128.6632253668815
 51
231.3367746331184
  0
ARC
  5
199
330
58
100
AcDbEntity
 67
     1
  8
0
 48
0.3
100
AcDbCircle
 10
2.417293679012971
 20
3.457285451062382
 30
0.0
 40
0.094
100
AcDbArc
 50
188.6632253668815
 51
291.3367746331183
  0
ARC
  5
19A
102
{ACAD_REACTORS
330
21F
102
}
330
58
100
AcDbEntity
 67
     1
  8
0
 48
0.3
100
AcDbCircle
 10
2.042293679012971
 20
3.457285451062383
 30
0.0
 40
0.094
100
AcDbArc
 50
248.6632253668816
 51
351.3367746331179
  0
ARC
  5
19B
330
58
100
AcDbEntity
 67
     1
  8
0
 48
0.3
100
AcDbCircle
 10
1.85479367901297
 20
3.132525924643218
 30
0.0
 40
0.094
100
AcDbArc
 50
308.6632253668818
 51
51.33677463311808
  0
ARC
  5
19C
330
58
100
AcDbEntity
 67
     1
  8
0
 48
0.3
100
AcDbCircle
 10
2.04229367901297
 20
2.807766398224053
 30
0.0
 40
0.094
100
AcDbArc
 50
8.66322536688151
 51
111.3367746331184
  0
ARC
  5
19D
330
58
100
AcDbEntity
 67
     1
  8
0
 48
0.3
100
AcDbCircle
 10
2.417293679012971
 20
2.807766398224053
 30
0.0
 40
0.094
100
AcDbArc
 50
68.6632253668816
 51
171.3367746331184
  0
ARC
  5
1A1
330
58
100
AcDbEntity
 67
     1
  8
0
 48
0.3
100
AcDbCircle
 10
2.229793679012971
 20
3.132525924643218
 30
0.0
 40
0.375
100
AcDbArc
 50
206.0954874315688
 51
213.9045125684309
  0
ARC
  5
1A4
330
58
100
AcDbEntity
 67
     1
  8
0
 48
0.3
100
AcDbCircle
 10
2.229793679012971
 20
3.132525924643218
 30
0.0
 40
0.375
100
AcDbArc
 50
266.0954874315689
 51
273.9045125684309
  0
ARC
  5
1A7
330
58
100
AcDbEntity
 67
     1
  8
0
 48
0.3
100
AcDbCircle
 10
2.229793679012971
 20
3.132525924643218
 30
0.0
 40
0.375
100
AcDbArc
 50
326.095487431569
 51
333.9045125684309
  0
ARC
  5
1AA
330
58
100
AcDbEntity
 67
     1
  8
0
 48
0.3
100
AcDbCircle
 10
2.229793679012971
 20
3.132525924643218
 30
0.0
 40
0.375
100
AcDbArc
 50
26.095487431569
 51
33.90451256843088
  0
ARC
  5
1AD
330
58
100
AcDbEntity
 67
     1
  8
0
 48
0.3
100
AcDbCircle
 10
2.229793679012971
 20
3.132525924643218
 30
0.0
 40
0.375
100
AcDbArc
 50
86.09548743156892
 51
93.90451256843087
  0
ARC
  5
1B3
330
58
100
AcDbEntity
 67
     1
  8
0
 48
0.3
100
AcDbCircle
 10
1.960375012346304
 20
3.264486456816878
 30
0.0
 40
0.075
100
AcDbArc
 50
153.9045125684311
 51
231.3367746331183
  0
ARC
  5
1B4
330
58
100
AcDbEntity
 67
     1
  8
0
 48
0.3
100
AcDbCircle
 10
1.980803172520335
 20
3.299869068143454
 30
0.0
 40
0.075
100
AcDbArc
 50
68.6632253668816
 51
146.0954874315687
  0
ARC
  5
1B5
330
58
100
AcDbEntity
 67
     1
  8
0
 48
0.3
100
AcDbCircle
 10
1.960375012346304
 20
3.000565392469559
 30
0.0
 40
0.075
100
AcDbArc
 50
128.6632253668816
 51
206.0954874315688
  0
ARC
  5
1B6
330
58
100
AcDbEntity
 67
     1
  8
0
 48
0.3
100
AcDbCircle
 10
1.980803172520334
 20
2.965182781142983
 30
0.0
 40
0.075
100
AcDbArc
 50
213.9045125684308
 51
291.336774633118
  0
ARC
  5
1B7
330
58
100
AcDbEntity
 67
     1
  8
0
 48
0.3
100
AcDbCircle
 10
2.20936551883894
 20
2.833222248969322
 30
0.0
 40
0.075
100
AcDbArc
 50
188.6632253668817
 51
266.0954874315688
  0
ARC
  5
1B8
330
58
100
AcDbEntity
 67
     1
  8
0
 48
0.3
100
AcDbCircle
 10
2.250221839187001
 20
2.833222248969322
 30
0.0
 40
0.075
100
AcDbArc
 50
273.9045125684308
 51
351.3367746331182
  0
ARC
  5
1B9
330
58
100
AcDbEntity
 67
     1
  8
0
 48
0.3
100
AcDbCircle
 10
2.478784185505607
 20
2.965182781142983
 30
0.0
 40
0.075
100
AcDbArc
 50
248.6632253668816
 51
326.0954874315689
  0
ARC
  5
1BA
330
58
100
AcDbEntity
 67
     1
  8
0
 48
0.3
100
AcDbCircle
 10
2.499212345679637
 20
3.000565392469558
 30
0.0
 40
0.075
100
AcDbArc
 50
333.9045125684307
 51
51.3367746331183
  0
ARC
  5
1BB
330
58
100
AcDbEntity
 67
     1
  8
0
 48
0.3
100
AcDbCircle
 10
2.499212345679637
 20
3.264486456816878
 30
0.0
 40
0.075
100
AcDbArc
 50
308.6632253668817
 51
26.09548743156887
  0
ARC
  5
1BC
330
58
100
AcDbEntity
 67
     1
  8
0
 48
0.3
100
AcDbCircle
 10
2.478784185505607
 20
3.299869068143452
 30
0.0
 40
0.075
100
AcDbArc
 50
33.90451256843084
 51
111.336774633118
  0
ARC
  5
1BD
102
{ACAD_REACTORS
330
235
102
}
330
58
100
AcDbEntity
 67
     1
  8
0
 48
0.3
100
AcDbCircle
 10
2.250221839187001
 20
3.431829600317113
 30
0.0
 40
0.075
100
AcDbArc
 50
8.663225366881402
 51
86.0954874315688
  0
ARC
  5
1BE
330
58
100
AcDbEntity
 67
     1
  8
0
 48
0.3
100
AcDbCircle
 10
2.209365518838941
 20
3.431829600317113
 30
0.0
 40
0.075
100
AcDbArc
 50
93.90451256843087
 51
171.3367746331182
  0
LINE
  5
1C0
330
58
100
AcDbEntity
 67
     1
  8
0
 48
0.3
100
AcDbLine
 10
3.332078370570727
 20
3.503993928568017
 30
0.0
 11
3.582078370570727
 21
3.503993928568017
 31
0.0
  0
LINE
  5
1C1
102
{ACAD_REACTORS
330
24F
102
}
330
58
100
AcDbEntity
 67
     1
  8
0
 48
0.3
100
AcDbLine
 10
3.582078370570727
 20
3.503993928568017
 30
0.0
 11
3.582078370570727
 21
2.753993928568017
 31
0.0
  0
LINE
  5
1C2
330
58
100
AcDbEntity
 67
     1
  8
0
 48
0.3
100
AcDbLine
 10
3.582078370570727
 20
2.753993928568017
 30
0.0
 11
3.332078370570727
 21
2.753993928568017
 31
0.0
  0
LINE
  5
1C3
102
{ACAD_REACTORS
330
24F
102
}
330
58
100
AcDbEntity
 67
     1
  8
0
 48
0.3
100
AcDbLine
 10
3.332078370570727
 20
2.753993928568017
 30
0.0
 11
3.332078370570727
 21
3.503993928568017
 31
0.0
  0
LINE
  5
1C5
330
58
100
AcDbEntity
 67
     1
  8
0
  6
HIDDENX2
 48
0.3
100
AcDbLine
 10
3.332078370570727
 20
3.348525924643218
 30
0.0
 11
3.457078370570727
 21
3.348525924643218
 31
0.0
  0
LINE
  5
1C6
102
{ACAD_REACTORS
330
269
102
}
330
58
100
AcDbEntity
 67
     1
  8
0
  6
HIDDENX2
 48
0.3
100
AcDbLine
 10
3.457078370570727
 20
3.348525924643218
 30
0.0
 11
3.457078370570727
 21
2.916525924643218
 31
0.0
  0
LINE
  5
1C9
330
58
100
AcDbEntity
 67
     1
  8
0
  6
HIDDENX2
 48
0.3
100
AcDbLine
 10
3.532078370570727
 20
3.288775924643218
 30
0.0
 11
3.582078370570727
 21
3.288775924643218
 31
0.0
  0
LINE
  5
1CB
330
58
100
AcDbEntity
 67
     1
  8
0
  6
HIDDENX2
 48
0.3
100
AcDbLine
 10
3.532078370570727
 20
2.976275924643218
 30
0.0
 11
3.582078370570727
 21
2.976275924643218
 31
0.0
  0
DIMENSION
  5
1CC
102
{ACAD_XDICTIONARY
360
1D8
102
}
102
{ACAD_REACTORS
330
1E1
102
}
330
58
100
AcDbEntity
 67
     1
  8
0
 48
0.3
100
AcDbDimension
  2
*D1
 10
2.566567012346304
 20
2.967575259426143
 30
0.0
 11
1.46770678402496
 21
3.505794018756432
 31
0.0
 70
   163
 71
     5
 42
0.7500000000000002
  3
Standard
100
AcDbDiametricDimension
 15
1.893020345679637
 25
3.297476589860292
 35
0.0
 40
0.0
1001
ACAD
1000
DSTYLE
1002
{
1070
   279
1070
     1
1070
   288
1070
     1
1002
}
  0
DIMENSION
  5
1E2
102
{ACAD_XDICTIONARY
360
1EE
102
}
102
{ACAD_REACTORS
330
1F7
102
}
330
58
100
AcDbEntity
 67
     1
  8
0
 48
0.3
100
AcDbDimension
  2
*D2
 10
2.400719854471096
 20
3.264587435096711
 30
0.0
 11
1.154235950620899
 21
2.701035709856737
 31
0.0
 70
   163
 71
     5
 42
0.432
  3
Standard
100
AcDbDiametricDimension
 15
2.058867503554846
 25
3.000464414189724
 35
0.0
 40
0.0
1001
ACAD
1000
DSTYLE
1002
{
1070
   288
1070
     1
1002
}
  0
DIMENSION
  5
1F8
102
{ACAD_XDICTIONARY
360
204
102
}
102
{ACAD_REACTORS
330
20D
102
}
330
58
100
AcDbEntity
 67
     1
  8
0
 48
0.3
100
AcDbDimension
  2
*D3
 10
2.262811666101385
 20
3.2852474851009
 30
0.0
 11
1.573976067118226
 21
2.394461104949155
 31
0.0
 70
   163
 71
     5
 42
0.3124999999999996
  3
Standard
100
AcDbDiametricDimension
 15
2.196775691924557
 25
2.979804364185537
 35
0.0
 40
0.0
1001
ACAD
1000
DSTYLE
1002
{
1070
   288
1070
     1
1002
}
  0
DIMENSION
  5
20E
102
{ACAD_XDICTIONARY
360
218
102
}
102
{ACAD_REACTORS
330
21F
102
}
330
58
100
AcDbEntity
 67
     1
  8
0
 48
0.3
100
AcDbDimension
  2
*D4
 10
2.042293679012971
 20
3.45728545106238
 30
0.0
 11
1.771046014765989
 21
4.01164211556582
 31
0.0
 70
   164
 71
     5
 42
0.0939999999999977
  3
Standard
100
AcDbRadialDimension
 15
2.083607561493716
 25
3.372851079421639
 35
0.0
 40
0.0
1001
ACAD
1000
DSTYLE
1002
{
1070
   279
1070
     1
1070
   288
1070
     1
1002
}
  0
DIMENSION
  5
220
102
{ACAD_XDICTIONARY
360
22C
102
}
102
{ACAD_REACTORS
330
235
102
}
330
58
100
AcDbEntity
 67
     1
  8
0
 48
0.3
100
AcDbDimension
  2
*D5
 10
2.250221839186999
 20
3.431829600317115
 30
0.0
 11
2.952785688319202
 21
3.820032990718881
 31
0.0
 70
   164
 71
     5
 42
0.0750000000000002
  3
Standard
100
AcDbRadialDimension
 15
2.284010380042076
 25
3.498787307169163
 35
0.0
 40
0.0
1001
ACAD
1000
DSTYLE
1002
{
1070
   288
1070
     1
1002
}
  0
DIMENSION
  5
236
102
{ACAD_XDICTIONARY
360
244
102
}
102
{ACAD_REACTORS
330
24F
102
}
330
58
100
AcDbEntity
 67
     1
  8
0
 48
0.3
100
AcDbDimension
  2
*D6
 10
3.582078370570727
 20
2.164530144827867
 30
0.0
 11
4.151245037237393
 21
2.164530144827867
 31
0.0
 70
    32
 71
     5
 42
0.25
  3
Standard
100
AcDbAlignedDimension
 13
3.332078370570727
 23
2.753993928568017
 33
0.0
 14
3.582078370570727
 24
2.753993928568017
 34
0.0
100
AcDbRotatedDimension
  0
DIMENSION
  5
250
102
{ACAD_XDICTIONARY
360
25E
102
}
102
{ACAD_REACTORS
330
269
102
}
330
58
100
AcDbEntity
 67
     1
  8
0
 48
0.3
100
AcDbDimension
  2
*D7
 10
3.457078370570727
 20
2.540084027466871
 30
0.0
 11
4.015828370570726
 21
2.540084027466871
 31
0.0
 70
    32
 71
     5
 42
0.125
  3
Standard
100
AcDbAlignedDimension
 13
3.332078370570727
 23
2.916525924643218
 33
0.0
 14
3.457078370570727
 24
2.916525924643218
 34
0.0
100
AcDbRotatedDimension
  0
MTEXT
  5
26A
330
58
100
AcDbEntity
 67
     1
  8
0
 48
0.3
100
AcDbMText
 10
-0.829584887543163
 20
0.6378699819142604
 30
0.0
 40
0.125
 41
5.451399999999999
 71
     1
 72
     5
  1
Use with McMaster Shoulder Screw #91259A591\PRemove .125 from length of 1/4-20 threads
 73
     1
 44
1.0
  0
LINE
  5
27B
102
{ACAD_REACTORS
330
269
102
}
330
58
100
AcDbEntity
 67
     1
  8
0
  6
HIDDENX2
 48
0.3
100
AcDbLine
 10
3.457078370570727
 20
2.916525924643218
 30
0.0
 11
3.332078370570727
 21
2.916525924643218
 31
0.0
  0
LINE
  5
27C
330
58
100
AcDbEntity
 67
     1
  8
0
  6
HIDDENX2
 48
0.3
100
AcDbLine
 10
3.532078370570727
 20
3.288775924643218
 30
0.0
 11
3.457078370570727
 21
3.288775924643218
 31
0.0
  0
LINE
  5
27D
330
58
100
AcDbEntity
 67
     1
  8
0
  6
HIDDENX2
 48
0.3
100
AcDbLine
 10
3.532078370570727
 20
2.976275924643218
 30
0.0
 11
3.457078370570727
 21
2.976275924643218
 31
0.0
  0
ENDSEC
  0
SECTION
  2
OBJECTS
  0
DICTIONARY
  5
C
330
0
100
AcDbDictionary
281
     1
  3
ACAD_GROUP
350
D
  3
ACAD_LAYOUT
350
1A
  3
ACAD_MLINESTYLE
350
17
  3
ACAD_PLOTSETTINGS
350
19
  3
ACAD_PLOTSTYLENAME
350
E
  3
AcDbVariableDictionary
350
66
  0
DICTIONARY
  5
1D8
330
1CC
100
AcDbDictionary
280
     1
281
     1
  3
ACAD_DIMASSOC
360
1E1
  0
DICTIONARY
  5
1EE
330
1E2
100
AcDbDictionary
280
     1
281
     1
  3
ACAD_DIMASSOC
360
1F7
  0
DICTIONARY
  5
204
330
1F8
100
AcDbDictionary
280
     1
281
     1
  3
ACAD_DIMASSOC
360
20D
  0
DICTIONARY
  5
218
330
20E
100
AcDbDictionary
280
     1
281
     1
  3
ACAD_DIMASSOC
360
21F
  0
DICTIONARY
  5
22C
330
220
100
AcDbDictionary
280
     1
281
     1
  3
ACAD_DIMASSOC
360
235
  0
DICTIONARY
  5
244
330
236
100
AcDbDictionary
280
     1
281
     1
  3
ACAD_DIMASSOC
360
24F
  0
DICTIONARY
  5
25E
330
250
100
AcDbDictionary
280
     1
281
     1
  3
ACAD_DIMASSOC
360
269
  0
DICTIONARY
  5
D
102
{ACAD_REACTORS
330
C
102
}
330
C
100
AcDbDictionary
281
     1
  0
DICTIONARY
  5
1A
102
{ACAD_REACTORS
330
C
102
}
330
C
100
AcDbDictionary
281
     1
  3
Layout1
350
59
  3
Layout2
350
5E
  3
Model
350
22
  0
DICTIONARY
  5
17
102
{ACAD_REACTORS
330
C
102
}
330
C
100
AcDbDictionary
281
     1
  3
Standard
350
18
  0
DICTIONARY
  5
19
102
{ACAD_REACTORS
330
C
102
}
330
C
100
AcDbDictionary
281
     1
  0
ACDBDICTIONARYWDFLT
  5
E
102
{ACAD_REACTORS
330
C
102
}
330
C
100
AcDbDictionary
281
     1
  3
Normal
350
F
100
AcDbDictionaryWithDefault
340
F
  0
DICTIONARY
  5
66
102
{ACAD_REACTORS
330
C
102
}
330
C
100
AcDbDictionary
281
     1
  3
DIMASSOC
350
67
  3
HIDETEXT
350
6B
  0
DIMASSOC
  5
1E1
102
{ACAD_REACTORS
330
1D8
102
}
330
1D8
100
AcDbDimAssoc
330
1CC
 90
        2
 70
     0
 71
     0
  1
AcDbOsnapPointRef
 72
     3
331
196
 73
     2
 91
        0
 40
0.0
 10
0.0
 20
0.0
 30
0.0
 75
     0
  0
DIMASSOC
  5
1F7
102
{ACAD_REACTORS
330
1EE
102
}
330
1EE
100
AcDbDimAssoc
330
1E2
 90
        2
 70
     0
 71
     0
  1
AcDbOsnapPointRef
 72
     3
331
DD
 73
     2
 91
        0
 40
0.0
 10
0.0
 20
0.0
 30
0.0
 75
     0
  0
DIMASSOC
  5
20D
102
{ACAD_REACTORS
330
204
102
}
330
204
100
AcDbDimAssoc
330
1F8
 90
        2
 70
     0
 71
     0
  1
AcDbOsnapPointRef
 72
     3
331
BA
 73
     2
 91
        0
 40
0.0
 10
0.0
 20
0.0
 30
0.0
 75
     0
  0
DIMASSOC
  5
21F
102
{ACAD_REACTORS
330
218
102
}
330
218
100
AcDbDimAssoc
330
20E
 90
        2
 70
     0
 71
     0
  1
AcDbOsnapPointRef
 72
     3
331
19A
 73
     2
 91
        0
 40
0.0
 10
0.0
 20
0.0
 30
0.0
 75
     0
  0
DIMASSOC
  5
235
102
{ACAD_REACTORS
330
22C
102
}
330
22C
100
AcDbDimAssoc
330
220
 90
        2
 70
     0
 71
     0
  1
AcDbOsnapPointRef
 72
     3
331
1BD
 73
     2
 91
        0
 40
0.0
 10
0.0
 20
0.0
 30
0.0
 75
     0
  0
DIMASSOC
  5
24F
102
{ACAD_REACTORS
330
244
102
}
330
244
100
AcDbDimAssoc
330
236
 90
        3
 70
     0
 71
     0
  1
AcDbOsnapPointRef
 72
    13
331
1C3
 73
     2
 91
        0
 40
0.0
 10
3.332078370570727
 20
2.753993928568017
 30
0.0
 75
     0
  1
AcDbOsnapPointRef
 72
     1
331
1C1
 73
     2
 91
        0
 40
1.0
 10
3.582078370570727
 20
2.753993928568017
 30
0.0
 75
     0
  0
DIMASSOC
  5
269
102
{ACAD_REACTORS
330
25E
102
}
330
25E
100
AcDbDimAssoc
330
250
 90
        3
 70
     0
 71
     0
  1
AcDbOsnapPointRef
 72
     1
331
27B
 73
     2
 91
        0
 40
1.0
 10
3.332078370570727
 20
2.916525924643218
 30
0.0
 75
     0
  1
AcDbOsnapPointRef
 72
     1
331
1C6
 73
     2
 91
        0
 40
1.0
 10
3.457078370570727
 20
2.916525924643218
 30
0.0
 75
     0
  0
LAYOUT
  5
59
102
{ACAD_REACTORS
330
1A
102
}
330
1A
100
AcDbPlotSettings
  1

  2
\\USER-65CC15D9F7\EPSON Stylus Photo R200 Series
  4
User256
  6

 40
3.757083177566528
 41
3.757076978683471
 42
3.757080078125
 43
3.757080078125
 44
215.8999938964843
 45
279.3999938964843
 46
38.35399999999999
 47
38.09999999999999
 48
0.0
 49
0.0
140
0.0
141
0.0
142
1.0
143
1.0
 70
   688
 72
     0
 73
     1
 74
     5
  7

 75
    16
147
1.0
148
0.0
149
0.0
100
AcDbLayout
  1
Layout1
 70
     1
 71
     1
 10
-1.647916538508858
 20
-1.657916660534115
 11
9.35208322119525
 21
6.842083099169992
 12
0.0
 22
0.0
 32
0.0
 14
-1.439262267973589
 24
-1.41285528304607
 34
0.0
 15
8.966538218833356
 25
6.396855050259421
 35
0.0
146
0.0
 13
0.0
 23
0.0
 33
0.0
 16
1.0
 26
0.0
 36
0.0
 17
0.0
 27
1.0
 37
0.0
 76
     0
330
58
331
77
  0
LAYOUT
  5
5E
102
{ACAD_REACTORS
330
1A
102
}
330
1A
100
AcDbPlotSettings
  1

  2
None
  4

  6

 40
0.0
 41
0.0
 42
0.0
 43
0.0
 44
0.0
 45
0.0
 46
0.0
 47
0.0
 48
0.0
 49
0.0
140
0.0
141
0.0
142
1.0
143
1.0
 70
   688
 72
     0
 73
     0
 74
     5
  7

 75
    16
147
1.0
148
0.0
149
0.0
100
AcDbLayout
  1
Layout2
 70
     1
 71
     2
 10
0.0
 20
0.0
 11
12.0
 21
9.0
 12
0.0
 22
0.0
 32
0.0
 14
0.0
 24
0.0
 34
0.0
 15
0.0
 25
0.0
 35
0.0
146
0.0
 13
0.0
 23
0.0
 33
0.0
 16
1.0
 26
0.0
 36
0.0
 17
0.0
 27
1.0
 37
0.0
 76
     0
330
5D
  0
LAYOUT
  5
22
102
{ACAD_REACTORS
330
1A
102
}
330
1A
100
AcDbPlotSettings
  1

  2
none_device
  4
ANSI_A_(8.50_x_11.00_Inches)
  6

 40
6.349999904632568
 41
19.04999923706054
 42
6.350006103515625
 43
19.04998779296875
 44
215.8999938964843
 45
279.3999938964843
 46
0.0
 47
0.0
 48
0.0
 49
0.0
140
0.0
141
0.0
142
1.0
143
2.584895464708373
 70
 11952
 72
     0
 73
     1
 74
     0
  7

 75
     0
147
0.3868628397755418
148
0.0
149
0.0
100
AcDbLayout
  1
Model
 70
     1
 71
     0
 10
0.0
 20
0.0
 11
12.0
 21
9.0
 12
0.0
 22
0.0
 32
0.0
 14
0.0
 24
0.0
 34
0.0
 15
0.0
 25
0.0
 35
0.0
146
0.0
 13
0.0
 23
0.0
 33
0.0
 16
1.0
 26
0.0
 36
0.0
 17
0.0
 27
1.0
 37
0.0
 76
     0
330
1F
  0
MLINESTYLE
  5
18
102
{ACAD_REACTORS
330
17
102
}
330
17
100
AcDbMlineStyle
  2
STANDARD
 70
     0
  3

 62
   256
 51
90.0
 52
90.0
 71
     2
 49
0.5
 62
   256
  6
BYLAYER
 49
-0.5
 62
   256
  6
BYLAYER
  0
ACDBPLACEHOLDER
  5
F
102
{ACAD_REACTORS
330
E
102
}
330
E
  0
DICTIONARYVAR
  5
67
102
{ACAD_REACTORS
330
66
102
}
330
66
100
DictionaryVariables
280
     0
  1
2
  0
DICTIONARYVAR
  5
6B
102
{ACAD_REACTORS
330
66
102
}
330
66
100
DictionaryVariables
280
     0
  1
1
  0
ENDSEC
  0
EOF
