  0
SECTION
  2
HEADER
  9
$ACADVER
  1
AC1015
  9
$ACADMAINTVER
 70
    13
  9
$DWGCODEPAGE
  3
ANSI_1252
  9
$INSBASE
 10
0.0
 20
0.0
 30
0.0
  9
$EXTMIN
 10
1.000000000000000E+20
 20
1.000000000000000E+20
 30
1.000000000000000E+20
  9
$EXTMAX
 10
-1.000000000000000E+20
 20
-1.000000000000000E+20
 30
-1.000000000000000E+20
  9
$LIMMIN
 10
0.0
 20
0.0
  9
$LIMMAX
 10
12.0
 20
9.0
  9
$ORTHOMODE
 70
     0
  9
$REGENMODE
 70
     1
  9
$FILLMODE
 70
     1
  9
$QTEXTMODE
 70
     0
  9
$MIRRTEXT
 70
     1
  9
$LTSCALE
 40
0.3
  9
$ATTMODE
 70
     1
  9
$TEXTSIZE
 40
0.2
  9
$TRACEWID
 40
0.05
  9
$TEXTSTYLE
  7
Standard
  9
$CLAYER
  8
0
  9
$CELTYPE
  6
ByLayer
  9
$CECOLOR
 62
   256
  9
$CELTSCALE
 40
0.3
  9
$DISPSILH
 70
     0
  9
$DIMSCALE
 40
1.0
  9
$DIMASZ
 40
0.125
  9
$DIMEXO
 40
0.0625
  9
$DIMDLI
 40
0.38
  9
$DIMRND
 40
0.0
  9
$DIMDLE
 40
0.0
  9
$DIMEXE
 40
0.18
  9
$DIMTP
 40
0.0
  9
$DIMTM
 40
0.0
  9
$DIMTXT
 40
0.125
  9
$DIMCEN
 40
0.09
  9
$DIMTSZ
 40
0.0
  9
$DIMTOL
 70
     0
  9
$DIMLIM
 70
     0
  9
$DIMTIH
 70
     1
  9
$DIMTOH
 70
     1
  9
$DIMSE1
 70
     0
  9
$DIMSE2
 70
     0
  9
$DIMTAD
 70
     0
  9
$DIMZIN
 70
     0
  9
$DIMBLK
  1

  9
$DIMASO
 70
     1
  9
$DIMSHO
 70
     1
  9
$DIMPOST
  1

  9
$DIMAPOST
  1

  9
$DIMALT
 70
     0
  9
$DIMALTD
 70
     2
  9
$DIMALTF
 40
25.4
  9
$DIMLFAC
 40
1.0
  9
$DIMTOFL
 70
     0
  9
$DIMTVP
 40
0.0
  9
$DIMTIX
 70
     0
  9
$DIMSOXD
 70
     0
  9
$DIMSAH
 70
     0
  9
$DIMBLK1
  1

  9
$DIMBLK2
  1

  9
$DIMSTYLE
  2
Standard
  9
$DIMCLRD
 70
     0
  9
$DIMCLRE
 70
     0
  9
$DIMCLRT
 70
     0
  9
$DIMTFAC
 40
1.0
  9
$DIMGAP
 40
0.09
  9
$DIMJUST
 70
     0
  9
$DIMSD1
 70
     0
  9
$DIMSD2
 70
     0
  9
$DIMTOLJ
 70
     1
  9
$DIMTZIN
 70
     0
  9
$DIMALTZ
 70
     0
  9
$DIMALTTZ
 70
     0
  9
$DIMUPT
 70
     0
  9
$DIMDEC
 70
     3
  9
$DIMTDEC
 70
     3
  9
$DIMALTU
 70
     2
  9
$DIMALTTD
 70
     2
  9
$DIMTXSTY
  7
Standard
  9
$DIMAUNIT
 70
     0
  9
$DIMADEC
 70
     0
  9
$DIMALTRND
 40
0.0
  9
$DIMAZIN
 70
     0
  9
$DIMDSEP
 70
    46
  9
$DIMATFIT
 70
     3
  9
$DIMFRAC
 70
     0
  9
$DIMLDRBLK
  1

  9
$DIMLUNIT
 70
     2
  9
$DIMLWD
 70
    -2
  9
$DIMLWE
 70
    -2
  9
$DIMTMOVE
 70
     0
  9
$LUNITS
 70
     2
  9
$LUPREC
 70
     4
  9
$SKETCHINC
 40
0.1
  9
$FILLETRAD
 40
0.5
  9
$AUNITS
 70
     0
  9
$AUPREC
 70
     0
  9
$MENU
  1
.
  9
$ELEVATION
 40
0.0
  9
$PELEVATION
 40
0.0
  9
$THICKNESS
 40
0.0
  9
$LIMCHECK
 70
     0
  9
$CHAMFERA
 40
0.5
  9
$CHAMFERB
 40
0.5
  9
$CHAMFERC
 40
1.0
  9
$CHAMFERD
 40
0.0
  9
$SKPOLY
 70
     0
  9
$TDCREATE
 40
2454412.579853507
  9
$TDUCREATE
 40
2454412.788186840
  9
$TDUPDATE
 40
2455925.742524953
  9
$TDUUPDATE
 40
2455925.950858287
  9
$TDINDWG
 40
0.3923009028
  9
$TDUSRTIMER
 40
0.3923009028
  9
$USRTIMER
 70
     1
  9
$ANGBASE
 50
0.0
  9
$ANGDIR
 70
     0
  9
$PDMODE
 70
     0
  9
$PDSIZE
 40
0.0
  9
$PLINEWID
 40
0.0
  9
$SPLFRAME
 70
     0
  9
$SPLINETYPE
 70
     6
  9
$SPLINESEGS
 70
     8
  9
$HANDSEED
  5
2CA
  9
$SURFTAB1
 70
     6
  9
$SURFTAB2
 70
     6
  9
$SURFTYPE
 70
     6
  9
$SURFU
 70
     6
  9
$SURFV
 70
     6
  9
$UCSBASE
  2

  9
$UCSNAME
  2

  9
$UCSORG
 10
0.0
 20
0.0
 30
0.0
  9
$UCSXDIR
 10
1.0
 20
0.0
 30
0.0
  9
$UCSYDIR
 10
0.0
 20
1.0
 30
0.0
  9
$UCSORTHOREF
  2

  9
$UCSORTHOVIEW
 70
     0
  9
$UCSORGTOP
 10
0.0
 20
0.0
 30
0.0
  9
$UCSORGBOTTOM
 10
0.0
 20
0.0
 30
0.0
  9
$UCSORGLEFT
 10
0.0
 20
0.0
 30
0.0
  9
$UCSORGRIGHT
 10
0.0
 20
0.0
 30
0.0
  9
$UCSORGFRONT
 10
0.0
 20
0.0
 30
0.0
  9
$UCSORGBACK
 10
0.0
 20
0.0
 30
0.0
  9
$PUCSBASE
  2

  9
$PUCSNAME
  2

  9
$PUCSORG
 10
0.0
 20
0.0
 30
0.0
  9
$PUCSXDIR
 10
1.0
 20
0.0
 30
0.0
  9
$PUCSYDIR
 10
0.0
 20
1.0
 30
0.0
  9
$PUCSORTHOREF
  2

  9
$PUCSORTHOVIEW
 70
     0
  9
$PUCSORGTOP
 10
0.0
 20
0.0
 30
0.0
  9
$PUCSORGBOTTOM
 10
0.0
 20
0.0
 30
0.0
  9
$PUCSORGLEFT
 10
0.0
 20
0.0
 30
0.0
  9
$PUCSORGRIGHT
 10
0.0
 20
0.0
 30
0.0
  9
$PUCSORGFRONT
 10
0.0
 20
0.0
 30
0.0
  9
$PUCSORGBACK
 10
0.0
 20
0.0
 30
0.0
  9
$USERI1
 70
     0
  9
$USERI2
 70
     0
  9
$USERI3
 70
     0
  9
$USERI4
 70
     0
  9
$USERI5
 70
     0
  9
$USERR1
 40
0.0
  9
$USERR2
 40
0.0
  9
$USERR3
 40
0.0
  9
$USERR4
 40
0.0
  9
$USERR5
 40
0.0
  9
$WORLDVIEW
 70
     1
  9
$SHADEDGE
 70
     3
  9
$SHADEDIF
 70
    70
  9
$TILEMODE
 70
     0
  9
$MAXACTVP
 70
    64
  9
$PINSBASE
 10
0.0
 20
0.0
 30
0.0
  9
$PLIMCHECK
 70
     0
  9
$PEXTMIN
 10
-1.439262267973589
 20
-1.41285528304607
 30
0.0
  9
$PEXTMAX
 10
8.966538218833356
 20
6.396855050259421
 30
0.0
  9
$PLIMMIN
 10
-1.75200024029589
 20
-1.757999996245376
  9
$PLIMMAX
 10
9.247999519408217
 20
6.741999763458731
  9
$UNITMODE
 70
     0
  9
$VISRETAIN
 70
     1
  9
$PLINEGEN
 70
     0
  9
$PSLTSCALE
 70
     1
  9
$TREEDEPTH
 70
  3020
  9
$CMLSTYLE
  2
Standard
  9
$CMLJUST
 70
     0
  9
$CMLSCALE
 40
1.0
  9
$PROXYGRAPHICS
 70
     1
  9
$MEASUREMENT
 70
     0
  9
$CELWEIGHT
370
    -1
  9
$ENDCAPS
280
     0
  9
$JOINSTYLE
280
     0
  9
$LWDISPLAY
290
     0
  9
$INSUNITS
 70
     1
  9
$HYPERLINKBASE
  1

  9
$STYLESHEET
  1

  9
$XEDIT
290
     1
  9
$CEPSNTYPE
380
     0
  9
$PSTYLEMODE
290
     1
  9
$FINGERPRINTGUID
  2
{FDEAD576-A652-11D2-9A35-0060089B3A3F}
  9
$VERSIONGUID
  2
{F722C046-5DEC-4B70-8DA5-FEEE932F959C}
  9
$EXTNAMES
290
     1
  9
$PSVPSCALE
 40
0.0
  9
$OLESTARTUP
290
     0
  0
ENDSEC
  0
SECTION
  2
CLASSES
  0
CLASS
  1
ACDBDICTIONARYWDFLT
  2
AcDbDictionaryWithDefault
  3
AutoCAD 2000
 90
        0
280
     0
281
     0
  0
CLASS
  1
ACDBPLACEHOLDER
  2
AcDbPlaceHolder
  3
AutoCAD 2000
 90
        0
280
     0
281
     0
  0
CLASS
  1
LAYOUT
  2
AcDbLayout
  3
AutoCAD 2000
 90
        0
280
     0
281
     0
  0
CLASS
  1
DICTIONARYVAR
  2
AcDbDictionaryVar
  3
AutoCAD 2000
 90
        0
280
     0
281
     0
  0
CLASS
  1
DIMASSOC
  2
AcDbDimAssoc
  3
"AcDbDimAssoc|Product Desc:     AcDim ARX App For Dimension|Company:          Autodesk, Inc.|WEB Address:      www.autodesk.com"
 90
        0
280
     0
281
     0
  0
ENDSEC
  0
SECTION
  2
TABLES
  0
TABLE
  2
VPORT
  5
8
330
0
100
AcDbSymbolTable
 70
     1
  0
VPORT
  5
74
330
8
100
AcDbSymbolTableRecord
100
AcDbViewportTableRecord
  2
*Active
 70
     0
 10
0.0
 20
0.0
 11
1.0
 21
1.0
 12
20.48748698095427
 22
9.784138269231398
 13
0.0
 23
0.0
 14
0.5
 24
0.5
 15
0.5
 25
0.5
 16
0.0
 26
0.0
 36
1.0
 17
0.0
 27
0.0
 37
0.0
 40
19.56827653846279
 41
2.093949044585987
 42
50.0
 43
0.0
 44
0.0
 50
0.0
 51
0.0
 71
     0
 72
   100
 73
     1
 74
     3
 75
     0
 76
     0
 77
     0
 78
     0
281
     0
 65
     1
110
0.0
120
0.0
130
0.0
111
1.0
121
0.0
131
0.0
112
0.0
122
1.0
132
0.0
 79
     0
146
0.0
  0
ENDTAB
  0
TABLE
  2
LTYPE
  5
5
330
0
100
AcDbSymbolTable
 70
     3
  0
LTYPE
  5
14
330
5
100
AcDbSymbolTableRecord
100
AcDbLinetypeTableRecord
  2
ByBlock
 70
     0
  3

 72
    65
 73
     0
 40
0.0
  0
LTYPE
  5
15
330
5
100
AcDbSymbolTableRecord
100
AcDbLinetypeTableRecord
  2
ByLayer
 70
     0
  3

 72
    65
 73
     0
 40
0.0
  0
LTYPE
  5
16
330
5
100
AcDbSymbolTableRecord
100
AcDbLinetypeTableRecord
  2
Continuous
 70
     0
  3
Solid line
 72
    65
 73
     0
 40
0.0
  0
LTYPE
  5
92
330
5
100
AcDbSymbolTableRecord
100
AcDbLinetypeTableRecord
  2
HIDDENX2
 70
     0
  3
Hidden (2x) ____ ____ ____ ____ ____ ____ ____
 72
    65
 73
     2
 40
0.75
 49
0.5
 74
     0
 49
-0.25
 74
     0
  0
LTYPE
  5
93
330
5
100
AcDbSymbolTableRecord
100
AcDbLinetypeTableRecord
  2
threads
 70
     0
  3
Zig zag /\/\/\/\/\/\/\/\/\/\/\/\/\/\/\/\/\/\/\/
 72
    65
 73
     4
 40
0.8001000000000001
 49
0.0001
 74
     0
 49
-0.2
 74
     4
 75
   131
340
91
 46
0.2
 50
0.0
 44
-0.2
 45
0.0
 49
-0.4
 74
     4
 75
   131
340
91
 46
0.2
 50
180.0
 44
0.2
 45
0.0
 49
-0.2
 74
     0
  0
ENDTAB
  0
TABLE
  2
LAYER
  5
2
330
0
100
AcDbSymbolTable
 70
     2
  0
LAYER
  5
10
330
2
100
AcDbSymbolTableRecord
100
AcDbLayerTableRecord
  2
0
 70
     0
 62
     7
  6
Continuous
370
    -3
390
F
  0
LAYER
  5
FD
330
2
100
AcDbSymbolTableRecord
100
AcDbLayerTableRecord
  2
Defpoints
 70
     0
 62
     7
  6
Continuous
290
     0
370
    -3
390
F
  0
ENDTAB
  0
TABLE
  2
STYLE
  5
3
330
0
100
AcDbSymbolTable
 70
     2
  0
STYLE
  5
11
330
3
100
AcDbSymbolTableRecord
100
AcDbTextStyleTableRecord
  2
Standard
 70
     0
 40
0.0
 41
1.0
 50
0.0
 71
     0
 42
0.2
  3
txt
  4

  0
STYLE
  5
91
330
3
100
AcDbSymbolTableRecord
100
AcDbTextStyleTableRecord
  2

 70
     1
 40
0.0
 41
1.0
 50
0.0
 71
     0
 42
0.2
  3
ltypeshp.shx
  4

  0
ENDTAB
  0
TABLE
  2
VIEW
  5
6
330
0
100
AcDbSymbolTable
 70
     0
  0
ENDTAB
  0
TABLE
  2
UCS
  5
7
330
0
100
AcDbSymbolTable
 70
     0
  0
ENDTAB
  0
TABLE
  2
APPID
  5
9
330
0
100
AcDbSymbolTable
 70
     1
  0
APPID
  5
12
330
9
100
AcDbSymbolTableRecord
100
AcDbRegAppTableRecord
  2
ACAD
 70
     0
  0
ENDTAB
  0
TABLE
  2
DIMSTYLE
  5
A
330
0
100
AcDbSymbolTable
 70
     1
100
AcDbDimStyleTable
 71
     1
340
27
  0
DIMSTYLE
105
27
102
{ACAD_REACTORS
330
FC
330
117
330
13E
330
172
330
1A6
330
1C2
330
1DE
330
212
330
228
330
23E
330
272
330
280
330
29A
102
}
330
A
100
AcDbSymbolTableRecord
100
AcDbDimStyleTableRecord
  2
Standard
 70
     0
 41
0.125
140
0.125
271
     3
272
     3
340
11
  0
ENDTAB
  0
TABLE
  2
BLOCK_RECORD
  5
1
330
0
100
AcDbSymbolTable
 70
    17
  0
BLOCK_RECORD
  5
1F
330
1
100
AcDbSymbolTableRecord
100
AcDbBlockTableRecord
  2
*Model_Space
340
22
  0
BLOCK_RECORD
  5
58
330
1
100
AcDbSymbolTableRecord
100
AcDbBlockTableRecord
  2
*Paper_Space
340
59
  0
BLOCK_RECORD
  5
5D
330
1
100
AcDbSymbolTableRecord
100
AcDbBlockTableRecord
  2
*Paper_Space0
340
5E
  0
BLOCK_RECORD
  5
FE
330
1
100
AcDbSymbolTableRecord
100
AcDbBlockTableRecord
  2
*D1
340
0
  0
BLOCK_RECORD
  5
118
330
1
100
AcDbSymbolTableRecord
100
AcDbBlockTableRecord
  2
*D2
340
0
  0
BLOCK_RECORD
  5
13F
330
1
100
AcDbSymbolTableRecord
100
AcDbBlockTableRecord
  2
*D3
340
0
  0
BLOCK_RECORD
  5
173
330
1
100
AcDbSymbolTableRecord
100
AcDbBlockTableRecord
  2
*D5
340
0
  0
BLOCK_RECORD
  5
1A7
330
1
100
AcDbSymbolTableRecord
100
AcDbBlockTableRecord
  2
*D7
340
0
  0
BLOCK_RECORD
  5
1C3
330
1
100
AcDbSymbolTableRecord
100
AcDbBlockTableRecord
  2
*D8
340
0
  0
BLOCK_RECORD
  5
1DF
330
1
100
AcDbSymbolTableRecord
100
AcDbBlockTableRecord
  2
*D9
340
0
  0
BLOCK_RECORD
  5
213
330
1
100
AcDbSymbolTableRecord
100
AcDbBlockTableRecord
  2
*D11
340
0
  0
BLOCK_RECORD
  5
229
330
1
100
AcDbSymbolTableRecord
100
AcDbBlockTableRecord
  2
*D12
340
0
  0
BLOCK_RECORD
  5
23F
330
1
100
AcDbSymbolTableRecord
100
AcDbBlockTableRecord
  2
*D13
340
0
  0
BLOCK_RECORD
  5
273
330
1
100
AcDbSymbolTableRecord
100
AcDbBlockTableRecord
  2
*D14
340
0
  0
BLOCK_RECORD
  5
281
330
1
100
AcDbSymbolTableRecord
100
AcDbBlockTableRecord
  2
*D15
340
0
  0
BLOCK_RECORD
  5
29B
330
1
100
AcDbSymbolTableRecord
100
AcDbBlockTableRecord
  2
*D16
340
0
  0
ENDTAB
  0
ENDSEC
  0
SECTION
  2
BLOCKS
  0
BLOCK
  5
20
330
1F
100
AcDbEntity
  8
0
100
AcDbBlockBegin
  2
*Model_Space
 70
     0
 10
0.0
 20
0.0
 30
0.0
  3
*Model_Space
  1

  0
ENDBLK
  5
21
330
1F
100
AcDbEntity
  8
0
100
AcDbBlockEnd
  0
BLOCK
  5
5A
330
58
100
AcDbEntity
 67
     1
  8
0
100
AcDbBlockBegin
  2
*Paper_Space
 70
     0
 10
0.0
 20
0.0
 30
0.0
  3
*Paper_Space
  1

  0
ENDBLK
  5
5B
330
58
100
AcDbEntity
 67
     1
  8
0
100
AcDbBlockEnd
  0
BLOCK
  5
5F
330
5D
100
AcDbEntity
  8
0
100
AcDbBlockBegin
  2
*Paper_Space0
 70
     0
 10
0.0
 20
0.0
 30
0.0
  3
*Paper_Space0
  1

  0
ENDBLK
  5
60
330
5D
100
AcDbEntity
  8
0
100
AcDbBlockEnd
  0
BLOCK
  5
109
330
FE
100
AcDbEntity
  8
0
 48
0.3
100
AcDbBlockBegin
  2
*D1
 70
     1
 10
0.0
 20
0.0
 30
0.0
  3
*D1
  1

  0
LINE
  5
264
330
FE
100
AcDbEntity
  8
0
 62
     0
 48
0.3
370
    -2
100
AcDbLine
 10
1.255249879064999
 20
5.272675460034853
 30
0.0
 11
-0.5450195380409468
 21
5.272675460034853
 31
0.0
  0
LINE
  5
265
330
FE
100
AcDbEntity
  8
0
 62
     0
 48
0.3
370
    -2
100
AcDbLine
 10
1.255249879064998
 20
2.772675460034852
 30
0.0
 11
-0.5450195380409473
 21
2.772675460034853
 31
0.0
  0
LINE
  5
266
330
FE
100
AcDbEntity
  8
0
 62
     0
 48
0.3
370
    -2
100
AcDbLine
 10
-0.3650195380409468
 20
5.147675460034853
 30
0.0
 11
-0.365019538040947
 21
4.175175460034853
 31
0.0
  0
LINE
  5
267
330
FE
100
AcDbEntity
  8
0
 62
     0
 48
0.3
370
    -2
100
AcDbLine
 10
-0.3650195380409473
 20
2.897675460034853
 30
0.0
 11
-0.3650195380409471
 21
3.870175460034853
 31
0.0
  0
SOLID
  5
268
330
FE
100
AcDbEntity
  8
0
 62
     0
 48
0.3
100
AcDbTrace
 10
-0.3858528713742801
 20
5.147675460034853
 30
0.0
 11
-0.3441862047076134
 21
5.147675460034853
 31
0.0
 12
-0.3650195380409468
 22
5.272675460034853
 32
0.0
 13
-0.3650195380409468
 23
5.272675460034853
 33
0.0
  0
SOLID
  5
269
330
FE
100
AcDbEntity
  8
0
 62
     0
 48
0.3
100
AcDbTrace
 10
-0.3858528713742806
 20
2.897675460034853
 30
0.0
 11
-0.344186204707614
 21
2.897675460034853
 31
0.0
 12
-0.3650195380409473
 22
2.772675460034853
 32
0.0
 13
-0.3650195380409473
 23
2.772675460034853
 33
0.0
  0
MTEXT
  5
26A
330
FE
100
AcDbEntity
  8
0
 62
     0
 48
0.3
100
AcDbMText
 10
-0.3650195380409477
 20
4.022675460034853
 30
0.0
 40
0.125
 41
0.0
 71
     5
 72
     1
  1
\A1;2.500
 73
     1
 44
1.0
  0
POINT
  5
26B
330
FE
100
AcDbEntity
  8
Defpoints
 62
     0
 48
0.3
100
AcDbPoint
 10
1.317749879064999
 20
5.272675460034853
 30
0.0
  0
POINT
  5
26C
330
FE
100
AcDbEntity
  8
Defpoints
 62
     0
 48
0.3
100
AcDbPoint
 10
1.317749879064998
 20
2.772675460034852
 30
0.0
  0
POINT
  5
26D
330
FE
100
AcDbEntity
  8
Defpoints
 62
     0
 48
0.3
100
AcDbPoint
 10
-0.3650195380409473
 20
2.772675460034853
 30
0.0
  0
ENDBLK
  5
10A
330
FE
100
AcDbEntity
  8
0
 48
0.3
100
AcDbBlockEnd
  0
BLOCK
  5
124
330
118
100
AcDbEntity
  8
0
 48
0.3
100
AcDbBlockBegin
  2
*D2
 70
     1
 10
0.0
 20
0.0
 30
0.0
  3
*D2
  1

  0
LINE
  5
133
330
118
100
AcDbEntity
  8
0
 62
     0
 48
0.3
370
    -2
100
AcDbLine
 10
1.442749879064998
 20
5.022675460034852
 30
0.0
 11
0.3402156722822569
 21
5.022675460034852
 31
0.0
  0
LINE
  5
134
330
118
100
AcDbEntity
  8
0
 62
     0
 48
0.3
370
    -2
100
AcDbLine
 10
1.255249879064999
 20
5.272675460034853
 30
0.0
 11
0.3402156722822569
 21
5.272675460034853
 31
0.0
  0
LINE
  5
135
330
118
100
AcDbEntity
  8
0
 62
     0
 48
0.3
370
    -2
100
AcDbLine
 10
0.5202156722822569
 20
4.897675460034852
 30
0.0
 11
0.5202156722822569
 21
4.772675460034852
 31
0.0
  0
LINE
  5
136
330
118
100
AcDbEntity
  8
0
 62
     0
 48
0.3
370
    -2
100
AcDbLine
 10
0.520215672282257
 20
5.397675460034853
 30
0.0
 11
0.520215672282257
 21
5.522675460034853
 31
0.0
  0
LINE
  5
137
330
118
100
AcDbEntity
  8
0
 62
     0
 48
0.3
370
    -2
100
AcDbLine
 10
0.520215672282257
 20
5.522675460034853
 30
0.0
 11
0.645215672282257
 21
5.522675460034853
 31
0.0
  0
SOLID
  5
138
330
118
100
AcDbEntity
  8
0
 62
     0
 48
0.3
100
AcDbTrace
 10
0.4993823389489236
 20
4.897675460034852
 30
0.0
 11
0.5410490056155903
 21
4.897675460034852
 31
0.0
 12
0.5202156722822569
 22
5.022675460034852
 32
0.0
 13
0.5202156722822569
 23
5.022675460034852
 33
0.0
  0
SOLID
  5
139
330
118
100
AcDbEntity
  8
0
 62
     0
 48
0.3
100
AcDbTrace
 10
0.4993823389489237
 20
5.397675460034853
 30
0.0
 11
0.5410490056155904
 21
5.397675460034853
 31
0.0
 12
0.520215672282257
 22
5.272675460034853
 32
0.0
 13
0.520215672282257
 23
5.272675460034853
 33
0.0
  0
MTEXT
  5
13A
330
118
100
AcDbEntity
  8
0
 62
     0
 48
0.3
100
AcDbMText
 10
0.9643823389489227
 20
5.522675460034853
 30
0.0
 40
0.125
 41
0.0
 71
     5
 72
     1
  1
\A1;0.250
 73
     1
 44
1.0
  0
POINT
  5
13B
330
118
100
AcDbEntity
  8
Defpoints
 62
     0
 48
0.3
100
AcDbPoint
 10
1.505249879064998
 20
5.022675460034852
 30
0.0
  0
POINT
  5
13C
330
118
100
AcDbEntity
  8
Defpoints
 62
     0
 48
0.3
100
AcDbPoint
 10
1.317749879064999
 20
5.272675460034853
 30
0.0
  0
POINT
  5
13D
330
118
100
AcDbEntity
  8
Defpoints
 62
     0
 48
0.3
100
AcDbPoint
 10
0.520215672282257
 20
5.272675460034853
 30
0.0
  0
ENDBLK
  5
125
330
118
100
AcDbEntity
  8
0
 48
0.3
100
AcDbBlockEnd
  0
BLOCK
  5
14A
330
13F
100
AcDbEntity
  8
0
 48
0.3
100
AcDbBlockBegin
  2
*D3
 70
     1
 10
0.0
 20
0.0
 30
0.0
  3
*D3
  1

  0
LINE
  5
14D
330
13F
100
AcDbEntity
  8
0
 62
     0
 48
0.3
370
    -2
100
AcDbLine
 10
1.442749879064998
 20
5.022675460034852
 30
0.0
 11
0.3360956745562049
 21
5.022675460034852
 31
0.0
  0
LINE
  5
14E
330
13F
100
AcDbEntity
  8
0
 62
     0
 48
0.3
370
    -2
100
AcDbLine
 10
1.442749879064998
 20
3.022675460034852
 30
0.0
 11
0.3360956745562045
 21
3.022675460034852
 31
0.0
  0
LINE
  5
14F
330
13F
100
AcDbEntity
  8
0
 62
     0
 48
0.3
370
    -2
100
AcDbLine
 10
0.516095674556205
 20
4.897675460034852
 30
0.0
 11
0.5160956745562048
 21
4.175175460034852
 31
0.0
  0
LINE
  5
150
330
13F
100
AcDbEntity
  8
0
 62
     0
 48
0.3
370
    -2
100
AcDbLine
 10
0.5160956745562046
 20
3.147675460034852
 30
0.0
 11
0.5160956745562048
 21
3.870175460034852
 31
0.0
  0
SOLID
  5
151
330
13F
100
AcDbEntity
  8
0
 62
     0
 48
0.3
100
AcDbTrace
 10
0.4952623412228717
 20
4.897675460034852
 30
0.0
 11
0.5369290078895384
 21
4.897675460034852
 31
0.0
 12
0.516095674556205
 22
5.022675460034852
 32
0.0
 13
0.516095674556205
 23
5.022675460034852
 33
0.0
  0
SOLID
  5
152
330
13F
100
AcDbEntity
  8
0
 62
     0
 48
0.3
100
AcDbTrace
 10
0.4952623412228713
 20
3.147675460034852
 30
0.0
 11
0.5369290078895379
 21
3.147675460034852
 31
0.0
 12
0.5160956745562046
 22
3.022675460034852
 32
0.0
 13
0.5160956745562046
 23
3.022675460034852
 33
0.0
  0
MTEXT
  5
153
330
13F
100
AcDbEntity
  8
0
 62
     0
 48
0.3
100
AcDbMText
 10
0.5160956745562041
 20
4.022675460034852
 30
0.0
 40
0.125
 41
0.0
 71
     5
 72
     1
  1
\A1;2.000
 73
     1
 44
1.0
  0
POINT
  5
154
330
13F
100
AcDbEntity
  8
Defpoints
 62
     0
 48
0.3
100
AcDbPoint
 10
1.505249879064998
 20
5.022675460034852
 30
0.0
  0
POINT
  5
155
330
13F
100
AcDbEntity
  8
Defpoints
 62
     0
 48
0.3
100
AcDbPoint
 10
1.505249879064998
 20
3.022675460034852
 30
0.0
  0
POINT
  5
156
330
13F
100
AcDbEntity
  8
Defpoints
 62
     0
 48
0.3
100
AcDbPoint
 10
0.5160956745562046
 20
3.022675460034852
 30
0.0
  0
ENDBLK
  5
14B
330
13F
100
AcDbEntity
  8
0
 48
0.3
100
AcDbBlockEnd
  0
BLOCK
  5
17E
330
173
100
AcDbEntity
  8
0
 48
0.3
100
AcDbBlockBegin
  2
*D5
 70
     1
 10
0.0
 20
0.0
 30
0.0
  3
*D5
  1

  0
LINE
  5
181
330
173
100
AcDbEntity
  8
0
 62
     0
 48
0.3
370
    -2
100
AcDbLine
 10
1.505249879064998
 20
2.960175460034852
 30
0.0
 11
1.505249879064998
 21
2.155684367091986
 31
0.0
  0
LINE
  5
182
330
173
100
AcDbEntity
  8
0
 62
     0
 48
0.3
370
    -2
100
AcDbLine
 10
5.630249879064997
 20
2.960175460034852
 30
0.0
 11
5.630249879064997
 21
2.155684367091986
 31
0.0
  0
LINE
  5
183
330
173
100
AcDbEntity
  8
0
 62
     0
 48
0.3
370
    -2
100
AcDbLine
 10
1.630249879064998
 20
2.335684367091985
 30
0.0
 11
3.248583212398331
 21
2.335684367091985
 31
0.0
  0
LINE
  5
184
330
173
100
AcDbEntity
  8
0
 62
     0
 48
0.3
370
    -2
100
AcDbLine
 10
5.505249879064997
 20
2.335684367091985
 30
0.0
 11
3.886916545731665
 21
2.335684367091985
 31
0.0
  0
SOLID
  5
185
330
173
100
AcDbEntity
  8
0
 62
     0
 48
0.3
100
AcDbTrace
 10
1.630249879064998
 20
2.356517700425319
 30
0.0
 11
1.630249879064998
 21
2.314851033758652
 31
0.0
 12
1.505249879064998
 22
2.335684367091985
 32
0.0
 13
1.505249879064998
 23
2.335684367091985
 33
0.0
  0
SOLID
  5
186
330
173
100
AcDbEntity
  8
0
 62
     0
 48
0.3
100
AcDbTrace
 10
5.505249879064997
 20
2.356517700425319
 30
0.0
 11
5.505249879064997
 21
2.314851033758652
 31
0.0
 12
5.630249879064997
 22
2.335684367091985
 32
0.0
 13
5.630249879064997
 23
2.335684367091985
 33
0.0
  0
MTEXT
  5
187
330
173
100
AcDbEntity
  8
0
 62
     0
 48
0.3
100
AcDbMText
 10
3.567749879064998
 20
2.335684367091985
 30
0.0
 40
0.125
 41
0.0
 71
     5
 72
     1
  1
\A1;4.125
 73
     1
 44
1.0
  0
POINT
  5
188
330
173
100
AcDbEntity
  8
Defpoints
 62
     0
 48
0.3
100
AcDbPoint
 10
1.505249879064998
 20
3.022675460034852
 30
0.0
  0
POINT
  5
189
330
173
100
AcDbEntity
  8
Defpoints
 62
     0
 48
0.3
100
AcDbPoint
 10
5.630249879064997
 20
3.022675460034852
 30
0.0
  0
POINT
  5
18A
330
173
100
AcDbEntity
  8
Defpoints
 62
     0
 48
0.3
100
AcDbPoint
 10
5.630249879064997
 20
2.335684367091985
 30
0.0
  0
ENDBLK
  5
17F
330
173
100
AcDbEntity
  8
0
 48
0.3
100
AcDbBlockEnd
  0
BLOCK
  5
1B3
330
1A7
100
AcDbEntity
  8
0
 48
0.3
100
AcDbBlockBegin
  2
*D7
 70
     1
 10
0.0
 20
0.0
 30
0.0
  3
*D7
  1

  0
LINE
  5
259
330
1A7
100
AcDbEntity
  8
0
 62
     0
 48
0.3
370
    -2
100
AcDbLine
 10
1.255249879064998
 20
1.52143606902139
 30
0.0
 11
0.3360956745562046
 21
1.521436069021391
 31
0.0
  0
LINE
  5
25A
330
1A7
100
AcDbEntity
  8
0
 62
     0
 48
0.3
370
    -2
100
AcDbLine
 10
1.255249879064997
 20
1.021436069021391
 30
0.0
 11
0.3360956745562045
 21
1.021436069021391
 31
0.0
  0
LINE
  5
25B
330
1A7
100
AcDbEntity
  8
0
 62
     0
 48
0.3
370
    -2
100
AcDbLine
 10
0.5160956745562047
 20
1.39643606902139
 30
0.0
 11
0.5160956745562046
 21
1.146436069021391
 31
0.0
  0
LINE
  5
25C
330
1A7
100
AcDbEntity
  8
0
 62
     0
 48
0.3
370
    -2
100
AcDbLine
 10
0.5160956745562046
 20
1.021436069021391
 30
0.0
 11
0.5160956745562046
 21
0.8964360690213911
 31
0.0
  0
LINE
  5
25D
330
1A7
100
AcDbEntity
  8
0
 62
     0
 48
0.3
370
    -2
100
AcDbLine
 10
0.5160956745562046
 20
0.8964360690213911
 30
0.0
 11
0.3910956745562046
 21
0.8964360690213911
 31
0.0
  0
SOLID
  5
25E
330
1A7
100
AcDbEntity
  8
0
 62
     0
 48
0.3
100
AcDbTrace
 10
0.4952623412228714
 20
1.396436069021391
 30
0.0
 11
0.5369290078895381
 21
1.39643606902139
 31
0.0
 12
0.5160956745562047
 22
1.52143606902139
 32
0.0
 13
0.5160956745562047
 23
1.52143606902139
 33
0.0
  0
SOLID
  5
25F
330
1A7
100
AcDbEntity
  8
0
 62
     0
 48
0.3
100
AcDbTrace
 10
0.4952623412228713
 20
1.146436069021391
 30
0.0
 11
0.5369290078895379
 21
1.146436069021391
 31
0.0
 12
0.5160956745562046
 22
1.021436069021391
 32
0.0
 13
0.5160956745562046
 23
1.021436069021391
 33
0.0
  0
MTEXT
  5
260
330
1A7
100
AcDbEntity
  8
0
 62
     0
 48
0.3
100
AcDbMText
 10
0.0823456745562044
 20
0.8964360690213911
 30
0.0
 40
0.125
 41
0.0
 71
     5
 72
     1
  1
\A1;0.500
 73
     1
 44
1.0
  0
POINT
  5
261
330
1A7
100
AcDbEntity
  8
Defpoints
 62
     0
 48
0.3
100
AcDbPoint
 10
1.317749879064998
 20
1.52143606902139
 30
0.0
  0
POINT
  5
262
330
1A7
100
AcDbEntity
  8
Defpoints
 62
     0
 48
0.3
100
AcDbPoint
 10
1.317749879064997
 20
1.021436069021391
 30
0.0
  0
POINT
  5
263
330
1A7
100
AcDbEntity
  8
Defpoints
 62
     0
 48
0.3
100
AcDbPoint
 10
0.5160956745562046
 20
1.021436069021391
 30
0.0
  0
ENDBLK
  5
1B4
330
1A7
100
AcDbEntity
  8
0
 48
0.3
100
AcDbBlockEnd
  0
BLOCK
  5
1CF
330
1C3
100
AcDbEntity
  8
0
 48
0.3
100
AcDbBlockBegin
  2
*D8
 70
     1
 10
0.0
 20
0.0
 30
0.0
  3
*D8
  1

  0
LINE
  5
1D2
330
1C3
100
AcDbEntity
  8
0
 62
     0
 48
0.3
370
    -2
100
AcDbLine
 10
5.505249879064997
 20
1.52143606902139
 30
0.0
 11
7.173065180215786
 21
1.52143606902139
 31
0.0
  0
LINE
  5
1D3
330
1C3
100
AcDbEntity
  8
0
 62
     0
 48
0.3
370
    -2
100
AcDbLine
 10
5.505249879064997
 20
1.26143606902139
 30
0.0
 11
7.173065180215786
 21
1.26143606902139
 31
0.0
  0
LINE
  5
1D4
330
1C3
100
AcDbEntity
  8
0
 62
     0
 48
0.3
370
    -2
100
AcDbLine
 10
6.993065180215786
 20
1.64643606902139
 30
0.0
 11
6.993065180215786
 21
1.77143606902139
 31
0.0
  0
LINE
  5
1D5
330
1C3
100
AcDbEntity
  8
0
 62
     0
 48
0.3
370
    -2
100
AcDbLine
 10
6.993065180215786
 20
1.13643606902139
 30
0.0
 11
6.993065180215786
 21
1.01143606902139
 31
0.0
  0
LINE
  5
1D6
330
1C3
100
AcDbEntity
  8
0
 62
     0
 48
0.3
370
    -2
100
AcDbLine
 10
6.993065180215786
 20
1.01143606902139
 30
0.0
 11
6.868065180215786
 21
1.01143606902139
 31
0.0
  0
SOLID
  5
1D7
330
1C3
100
AcDbEntity
  8
0
 62
     0
 48
0.3
100
AcDbTrace
 10
6.972231846882453
 20
1.64643606902139
 30
0.0
 11
7.013898513549119
 21
1.64643606902139
 31
0.0
 12
6.993065180215786
 22
1.52143606902139
 32
0.0
 13
6.993065180215786
 23
1.52143606902139
 33
0.0
  0
SOLID
  5
1D8
330
1C3
100
AcDbEntity
  8
0
 62
     0
 48
0.3
100
AcDbTrace
 10
6.972231846882453
 20
1.13643606902139
 30
0.0
 11
7.013898513549119
 21
1.13643606902139
 31
0.0
 12
6.993065180215786
 22
1.26143606902139
 32
0.0
 13
6.993065180215786
 23
1.26143606902139
 33
0.0
  0
MTEXT
  5
1D9
330
1C3
100
AcDbEntity
  8
0
 62
     0
 48
0.3
100
AcDbMText
 10
6.54889851354912
 20
1.011436069021391
 30
0.0
 40
0.125
 41
0.0
 71
     5
 72
     1
  1
\A1;0.260
 73
     1
 44
1.0
  0
POINT
  5
1DA
330
1C3
100
AcDbEntity
  8
Defpoints
 62
     0
 48
0.3
100
AcDbPoint
 10
5.442749879064997
 20
1.52143606902139
 30
0.0
  0
POINT
  5
1DB
330
1C3
100
AcDbEntity
  8
Defpoints
 62
     0
 48
0.3
100
AcDbPoint
 10
5.442749879064997
 20
1.26143606902139
 30
0.0
  0
POINT
  5
1DC
330
1C3
100
AcDbEntity
  8
Defpoints
 62
     0
 48
0.3
100
AcDbPoint
 10
6.993065180215786
 20
1.26143606902139
 30
0.0
  0
ENDBLK
  5
1D0
330
1C3
100
AcDbEntity
  8
0
 48
0.3
100
AcDbBlockEnd
  0
BLOCK
  5
1EA
330
1DF
100
AcDbEntity
  8
0
 48
0.3
100
AcDbBlockBegin
  2
*D9
 70
     1
 10
0.0
 20
0.0
 30
0.0
  3
*D9
  1

  0
LINE
  5
1ED
330
1DF
100
AcDbEntity
  8
0
 62
     0
 48
0.3
370
    -2
100
AcDbLine
 10
3.630249879064999
 20
4.022675460034853
 30
0.0
 11
7.018483555857067
 21
4.022675460034852
 31
0.0
  0
LINE
  5
1EE
330
1DF
100
AcDbEntity
  8
0
 62
     0
 48
0.3
370
    -2
100
AcDbLine
 10
5.880249879064999
 20
5.272675460034853
 30
0.0
 11
7.018483555857066
 21
5.272675460034852
 31
0.0
  0
LINE
  5
1EF
330
1DF
100
AcDbEntity
  8
0
 62
     0
 48
0.3
370
    -2
100
AcDbLine
 10
6.838483555857067
 20
4.147675460034852
 30
0.0
 11
6.838483555857067
 21
4.495175460034852
 31
0.0
  0
LINE
  5
1F0
330
1DF
100
AcDbEntity
  8
0
 62
     0
 48
0.3
370
    -2
100
AcDbLine
 10
6.838483555857067
 20
5.147675460034852
 30
0.0
 11
6.838483555857067
 21
4.800175460034852
 31
0.0
  0
SOLID
  5
1F1
330
1DF
100
AcDbEntity
  8
0
 62
     0
 48
0.3
100
AcDbTrace
 10
6.817650222523734
 20
4.147675460034852
 30
0.0
 11
6.8593168891904
 21
4.147675460034852
 31
0.0
 12
6.838483555857067
 22
4.022675460034852
 32
0.0
 13
6.838483555857067
 23
4.022675460034852
 33
0.0
  0
SOLID
  5
1F2
330
1DF
100
AcDbEntity
  8
0
 62
     0
 48
0.3
100
AcDbTrace
 10
6.817650222523734
 20
5.147675460034852
 30
0.0
 11
6.8593168891904
 21
5.147675460034852
 31
0.0
 12
6.838483555857067
 22
5.272675460034852
 32
0.0
 13
6.838483555857067
 23
5.272675460034852
 33
0.0
  0
MTEXT
  5
1F3
330
1DF
100
AcDbEntity
  8
0
 62
     0
 48
0.3
100
AcDbMText
 10
6.838483555857066
 20
4.647675460034854
 30
0.0
 40
0.125
 41
0.0
 71
     5
 72
     1
  1
\A1;1.250
 73
     1
 44
1.0
  0
POINT
  5
1F4
330
1DF
100
AcDbEntity
  8
Defpoints
 62
     0
 48
0.3
100
AcDbPoint
 10
3.567749879064999
 20
4.022675460034853
 30
0.0
  0
POINT
  5
1F5
330
1DF
100
AcDbEntity
  8
Defpoints
 62
     0
 48
0.3
100
AcDbPoint
 10
5.817749879064999
 20
5.272675460034853
 30
0.0
  0
POINT
  5
1F6
330
1DF
100
AcDbEntity
  8
Defpoints
 62
     0
 48
0.3
100
AcDbPoint
 10
6.838483555857067
 20
5.272675460034852
 30
0.0
  0
ENDBLK
  5
1EB
330
1DF
100
AcDbEntity
  8
0
 48
0.3
100
AcDbBlockEnd
  0
BLOCK
  5
21C
330
213
100
AcDbEntity
  8
0
 48
0.3
100
AcDbBlockBegin
  2
*D11
 70
     1
 10
0.0
 20
0.0
 30
0.0
  3
*D11
  1

  0
LINE
  5
2C1
330
213
100
AcDbEntity
  8
0
 62
     0
 48
0.3
370
    -2
100
AcDbLine
 10
4.36689367045521
 20
3.292788826843923
 30
0.0
 11
4.24189367045521
 21
3.292788826843923
 31
0.0
  0
LINE
  5
2C2
330
213
100
AcDbEntity
  8
0
 62
     0
 48
0.3
370
    -2
100
AcDbLine
 10
4.24189367045521
 20
3.292788826843923
 30
0.0
 11
4.076623891625589
 21
3.471724246822209
 31
0.0
  0
MTEXT
  5
2C3
330
213
100
AcDbEntity
  8
0
 62
     0
 48
0.3
100
AcDbMText
 10
4.738143670455211
 20
3.292788826843924
 30
0.0
 40
0.125
 41
0.0
 71
     5
 72
     1
  1
\A1;\U+22051.250
 73
     1
 44
1.0
  0
SOLID
  5
2C4
330
213
100
AcDbEntity
  8
0
 62
     0
 48
0.3
100
AcDbTrace
 10
4.091928091992607
 20
3.485859636060003
 30
0.0
 11
4.061319691258572
 21
3.457588857584415
 31
0.0
 12
3.991811556198824
 22
3.563549449024316
 32
0.0
 13
3.991811556198824
 23
3.563549449024316
 33
0.0
  0
LINE
  5
2C5
330
213
100
AcDbEntity
  8
0
 62
     0
 48
0.3
370
    -2
100
AcDbLine
 10
3.477749879064999
 20
4.022675460034853
 30
0.0
 11
3.657749879064998
 21
4.022675460034853
 31
0.0
  0
LINE
  5
2C6
330
213
100
AcDbEntity
  8
0
 62
     0
 48
0.3
370
    -2
100
AcDbLine
 10
3.567749879064999
 20
3.932675460034852
 30
0.0
 11
3.567749879064998
 21
4.112675460034852
 31
0.0
  0
POINT
  5
2C7
330
213
100
AcDbEntity
  8
Defpoints
 62
     0
 48
0.3
100
AcDbPoint
 10
3.991811556198824
 20
3.563549449024316
 30
0.0
  0
POINT
  5
2C8
330
213
100
AcDbEntity
  8
Defpoints
 62
     0
 48
0.3
100
AcDbPoint
 10
3.143688201931173
 20
4.481801471045388
 30
0.0
  0
ENDBLK
  5
21D
330
213
100
AcDbEntity
  8
0
 48
0.3
100
AcDbBlockEnd
  0
BLOCK
  5
232
330
229
100
AcDbEntity
  8
0
 48
0.3
100
AcDbBlockBegin
  2
*D12
 70
     1
 10
0.0
 20
0.0
 30
0.0
  3
*D12
  1

  0
LINE
  5
235
330
229
100
AcDbEntity
  8
0
 62
     0
 48
0.3
370
    -2
100
AcDbLine
 10
6.39191281081176
 20
3.447203776561838
 30
0.0
 11
6.26691281081176
 21
3.447203776561837
 31
0.0
  0
LINE
  5
236
330
229
100
AcDbEntity
  8
0
 62
     0
 48
0.3
370
    -2
100
AcDbLine
 10
6.26691281081176
 20
3.447203776561837
 30
0.0
 11
5.890249317178906
 21
3.196043687171348
 31
0.0
  0
MTEXT
  5
237
330
229
100
AcDbEntity
  8
0
 62
     0
 48
0.3
100
AcDbMText
 10
6.783996144145093
 20
3.447203776561838
 30
0.0
 40
0.125
 41
0.0
 71
     5
 72
     1
  1
\A1;\U+22050.375
 73
     1
 44
1.0
  0
SOLID
  5
238
330
229
100
AcDbEntity
  8
0
 62
     0
 48
0.3
100
AcDbTrace
 10
5.878691435369807
 20
3.213376983045609
 30
0.0
 11
5.901807198988007
 21
3.178710391297087
 31
0.0
 12
5.786249541933343
 22
3.12669639631675
 32
0.0
 13
5.786249541933343
 23
3.12669639631675
 33
0.0
  0
LINE
  5
239
330
229
100
AcDbEntity
  8
0
 62
     0
 48
0.3
370
    -2
100
AcDbLine
 10
5.540249879064996
 20
3.022675460034851
 30
0.0
 11
5.720249879064996
 21
3.022675460034853
 31
0.0
  0
LINE
  5
23A
330
229
100
AcDbEntity
  8
0
 62
     0
 48
0.3
370
    -2
100
AcDbLine
 10
5.630249879064997
 20
2.932675460034852
 30
0.0
 11
5.630249879064997
 21
3.112675460034852
 31
0.0
  0
POINT
  5
23B
330
229
100
AcDbEntity
  8
Defpoints
 62
     0
 48
0.3
100
AcDbPoint
 10
5.786249541933343
 20
3.12669639631675
 30
0.0
  0
POINT
  5
23C
330
229
100
AcDbEntity
  8
Defpoints
 62
     0
 48
0.3
100
AcDbPoint
 10
5.474250216196652
 20
2.918654523752954
 30
0.0
  0
ENDBLK
  5
233
330
229
100
AcDbEntity
  8
0
 48
0.3
100
AcDbBlockEnd
  0
BLOCK
  5
248
330
23F
100
AcDbEntity
  8
0
 48
0.3
100
AcDbBlockBegin
  2
*D13
 70
     1
 10
0.0
 20
0.0
 30
0.0
  3
*D13
  1

  0
LINE
  5
24B
330
23F
100
AcDbEntity
  8
0
 62
     0
 48
0.3
370
    -2
100
AcDbLine
 10
6.33008016106827
 20
2.613362995120603
 30
0.0
 11
6.20508016106827
 21
2.613362995120603
 31
0.0
  0
LINE
  5
24C
330
23F
100
AcDbEntity
  8
0
 62
     0
 48
0.3
370
    -2
100
AcDbLine
 10
6.20508016106827
 20
2.613362995120603
 30
0.0
 11
5.836341376947208
 21
2.875926373152966
 31
0.0
  0
MTEXT
  5
24D
330
23F
100
AcDbEntity
  8
0
 62
     0
 48
0.3
100
AcDbMText
 10
6.722163494401604
 20
2.613362995120602
 30
0.0
 40
0.125
 41
0.0
 71
     5
 72
     1
  1
\A1;\U+22050.256
 73
     1
 44
1.0
  0
SOLID
  5
24E
330
23F
100
AcDbEntity
  8
0
 62
     0
 48
0.3
100
AcDbTrace
 10
5.848425458541566
 20
2.89289701691797
 30
0.0
 11
5.824257295352849
 21
2.858955729387963
 31
0.0
 12
5.734517514357183
 22
2.948430862719116
 32
0.0
 13
5.734517514357183
 23
2.948430862719116
 33
0.0
  0
LINE
  5
24F
330
23F
100
AcDbEntity
  8
0
 62
     0
 48
0.3
370
    -2
100
AcDbLine
 10
5.540249879064999
 20
3.022675460034854
 30
0.0
 11
5.720249879064999
 21
3.022675460034854
 31
0.0
  0
LINE
  5
250
330
23F
100
AcDbEntity
  8
0
 62
     0
 48
0.3
370
    -2
100
AcDbLine
 10
5.630249879064999
 20
2.932675460034853
 30
0.0
 11
5.630249879064999
 21
3.112675460034853
 31
0.0
  0
POINT
  5
251
330
23F
100
AcDbEntity
  8
Defpoints
 62
     0
 48
0.3
100
AcDbPoint
 10
5.734517514357183
 20
2.948430862719116
 30
0.0
  0
POINT
  5
252
330
23F
100
AcDbEntity
  8
Defpoints
 62
     0
 48
0.3
100
AcDbPoint
 10
5.525982243772812
 20
3.09692005735059
 30
0.0
  0
ENDBLK
  5
249
330
23F
100
AcDbEntity
  8
0
 48
0.3
100
AcDbBlockEnd
  0
BLOCK
  5
27E
330
273
100
AcDbEntity
  8
0
 48
0.3
100
AcDbBlockBegin
  2
*D14
 70
     1
 10
0.0
 20
0.0
 30
0.0
  3
*D14
  1

  0
LINE
  5
274
330
273
100
AcDbEntity
  8
0
 62
     0
 48
0.3
370
    -2
100
AcDbLine
 10
3.567749879064998
 20
4.085175460034853
 30
0.0
 11
3.567749879064998
 21
5.907053404390303
 31
0.0
  0
LINE
  5
275
330
273
100
AcDbEntity
  8
0
 62
     0
 48
0.3
370
    -2
100
AcDbLine
 10
5.880249879064999
 20
5.335175460034853
 30
0.0
 11
5.880249879064999
 21
5.907053404390303
 31
0.0
  0
LINE
  5
276
330
273
100
AcDbEntity
  8
0
 62
     0
 48
0.3
370
    -2
100
AcDbLine
 10
3.692749879064998
 20
5.727053404390304
 30
0.0
 11
4.404833212398332
 21
5.727053404390304
 31
0.0
  0
LINE
  5
277
330
273
100
AcDbEntity
  8
0
 62
     0
 48
0.3
370
    -2
100
AcDbLine
 10
5.755249879064999
 20
5.727053404390304
 30
0.0
 11
5.043166545731666
 21
5.727053404390304
 31
0.0
  0
SOLID
  5
278
330
273
100
AcDbEntity
  8
0
 62
     0
 48
0.3
100
AcDbTrace
 10
3.692749879064998
 20
5.747886737723637
 30
0.0
 11
3.692749879064998
 21
5.706220071056971
 31
0.0
 12
3.567749879064998
 22
5.727053404390304
 32
0.0
 13
3.567749879064998
 23
5.727053404390304
 33
0.0
  0
SOLID
  5
279
330
273
100
AcDbEntity
  8
0
 62
     0
 48
0.3
100
AcDbTrace
 10
5.755249879064999
 20
5.747886737723637
 30
0.0
 11
5.755249879064999
 21
5.706220071056971
 31
0.0
 12
5.880249879064999
 22
5.727053404390304
 32
0.0
 13
5.880249879064999
 23
5.727053404390304
 33
0.0
  0
MTEXT
  5
27A
330
273
100
AcDbEntity
  8
0
 62
     0
 48
0.3
100
AcDbMText
 10
4.723999879064999
 20
5.727053404390304
 30
0.0
 40
0.125
 41
0.0
 71
     5
 72
     1
  1
\A1;2.313
 73
     1
 44
1.0
  0
POINT
  5
27B
330
273
100
AcDbEntity
  8
Defpoints
 62
     0
 48
0.3
100
AcDbPoint
 10
3.567749879064998
 20
4.022675460034853
 30
0.0
  0
POINT
  5
27C
330
273
100
AcDbEntity
  8
Defpoints
 62
     0
 48
0.3
100
AcDbPoint
 10
5.880249879064999
 20
5.272675460034853
 30
0.0
  0
POINT
  5
27D
330
273
100
AcDbEntity
  8
Defpoints
 62
     0
 48
0.3
100
AcDbPoint
 10
5.880249879064999
 20
5.727053404390304
 30
0.0
  0
ENDBLK
  5
27F
330
273
100
AcDbEntity
  8
0
 48
0.3
100
AcDbBlockEnd
  0
BLOCK
  5
28C
330
281
100
AcDbEntity
  8
0
 48
0.3
100
AcDbBlockBegin
  2
*D15
 70
     1
 10
0.0
 20
0.0
 30
0.0
  3
*D15
  1

  0
LINE
  5
28F
330
281
100
AcDbEntity
  8
0
 62
     0
 48
0.3
370
    -2
100
AcDbLine
 10
1.505249879064998
 20
2.960175460034852
 30
0.0
 11
1.505249879064998
 21
2.155684367091986
 31
0.0
  0
LINE
  5
290
330
281
100
AcDbEntity
  8
0
 62
     0
 48
0.3
370
    -2
100
AcDbLine
 10
1.255249879064998
 20
2.710175460034852
 30
0.0
 11
1.255249879064998
 21
2.155684367091986
 31
0.0
  0
LINE
  5
291
330
281
100
AcDbEntity
  8
0
 62
     0
 48
0.3
370
    -2
100
AcDbLine
 10
1.630249879064998
 20
2.335684367091985
 30
0.0
 11
1.755249879064998
 21
2.335684367091985
 31
0.0
  0
LINE
  5
292
330
281
100
AcDbEntity
  8
0
 62
     0
 48
0.3
370
    -2
100
AcDbLine
 10
1.130249879064998
 20
2.335684367091985
 30
0.0
 11
1.005249879064998
 21
2.335684367091985
 31
0.0
  0
SOLID
  5
293
330
281
100
AcDbEntity
  8
0
 62
     0
 48
0.3
100
AcDbTrace
 10
1.630249879064998
 20
2.356517700425319
 30
0.0
 11
1.630249879064998
 21
2.314851033758652
 31
0.0
 12
1.505249879064998
 22
2.335684367091985
 32
0.0
 13
1.505249879064998
 23
2.335684367091985
 33
0.0
  0
SOLID
  5
294
330
281
100
AcDbEntity
  8
0
 62
     0
 48
0.3
100
AcDbTrace
 10
1.130249879064998
 20
2.356517700425319
 30
0.0
 11
1.130249879064998
 21
2.314851033758652
 31
0.0
 12
1.255249879064998
 22
2.335684367091985
 32
0.0
 13
1.255249879064998
 23
2.335684367091985
 33
0.0
  0
MTEXT
  5
295
330
281
100
AcDbEntity
  8
0
 62
     0
 48
0.3
100
AcDbMText
 10
0.686083212398332
 20
2.335684367091985
 30
0.0
 40
0.125
 41
0.0
 71
     5
 72
     1
  1
\A1;0.250
 73
     1
 44
1.0
  0
POINT
  5
296
330
281
100
AcDbEntity
  8
Defpoints
 62
     0
 48
0.3
100
AcDbPoint
 10
1.505249879064998
 20
3.022675460034852
 30
0.0
  0
POINT
  5
297
330
281
100
AcDbEntity
  8
Defpoints
 62
     0
 48
0.3
100
AcDbPoint
 10
1.255249879064998
 20
2.772675460034852
 30
0.0
  0
POINT
  5
298
330
281
100
AcDbEntity
  8
Defpoints
 62
     0
 48
0.3
100
AcDbPoint
 10
1.255249879064998
 20
2.335684367091985
 30
0.0
  0
ENDBLK
  5
28D
330
281
100
AcDbEntity
  8
0
 48
0.3
100
AcDbBlockEnd
  0
BLOCK
  5
2A6
330
29B
100
AcDbEntity
  8
0
 48
0.3
100
AcDbBlockBegin
  2
*D16
 70
     1
 10
0.0
 20
0.0
 30
0.0
  3
*D16
  1

  0
LINE
  5
2A9
330
29B
100
AcDbEntity
  8
0
 62
     0
 48
0.3
370
    -2
100
AcDbLine
 10
1.255249879064997
 20
0.958936069021391
 30
0.0
 11
1.255249879064997
 21
0.1101129074980809
 31
0.0
  0
LINE
  5
2AA
330
29B
100
AcDbEntity
  8
0
 62
     0
 48
0.3
370
    -2
100
AcDbLine
 10
5.880249879064995
 20
0.9589360690213906
 30
0.0
 11
5.880249879064995
 21
0.1101129074980809
 31
0.0
  0
LINE
  5
2AB
330
29B
100
AcDbEntity
  8
0
 62
     0
 48
0.3
370
    -2
100
AcDbLine
 10
1.380249879064997
 20
0.2901129074980808
 30
0.0
 11
3.227749879064996
 21
0.2901129074980808
 31
0.0
  0
LINE
  5
2AC
330
29B
100
AcDbEntity
  8
0
 62
     0
 48
0.3
370
    -2
100
AcDbLine
 10
5.755249879064995
 20
0.2901129074980808
 30
0.0
 11
3.907749879064996
 21
0.2901129074980808
 31
0.0
  0
SOLID
  5
2AD
330
29B
100
AcDbEntity
  8
0
 62
     0
 48
0.3
100
AcDbTrace
 10
1.380249879064997
 20
0.3109462408314141
 30
0.0
 11
1.380249879064997
 21
0.2692795741647475
 31
0.0
 12
1.255249879064997
 22
0.2901129074980808
 32
0.0
 13
1.255249879064997
 23
0.2901129074980808
 33
0.0
  0
SOLID
  5
2AE
330
29B
100
AcDbEntity
  8
0
 62
     0
 48
0.3
100
AcDbTrace
 10
5.755249879064995
 20
0.3109462408314141
 30
0.0
 11
5.755249879064995
 21
0.2692795741647475
 31
0.0
 12
5.880249879064995
 22
0.2901129074980808
 32
0.0
 13
5.880249879064995
 23
0.2901129074980808
 33
0.0
  0
MTEXT
  5
2AF
330
29B
100
AcDbEntity
  8
0
 62
     0
 48
0.3
100
AcDbMText
 10
3.567749879064996
 20
0.2901129074980808
 30
0.0
 40
0.125
 41
0.0
 71
     5
 72
     1
  1
\A1;4.625
 73
     1
 44
1.0
  0
POINT
  5
2B0
330
29B
100
AcDbEntity
  8
Defpoints
 62
     0
 48
0.3
100
AcDbPoint
 10
1.255249879064997
 20
1.021436069021391
 30
0.0
  0
POINT
  5
2B1
330
29B
100
AcDbEntity
  8
Defpoints
 62
     0
 48
0.3
100
AcDbPoint
 10
5.880249879064995
 20
1.02143606902139
 30
0.0
  0
POINT
  5
2B2
330
29B
100
AcDbEntity
  8
Defpoints
 62
     0
 48
0.3
100
AcDbPoint
 10
5.880249879064995
 20
0.2901129074980808
 30
0.0
  0
ENDBLK
  5
2A7
330
29B
100
AcDbEntity
  8
0
 48
0.3
100
AcDbBlockEnd
  0
ENDSEC
  0
SECTION
  2
ENTITIES
  0
VIEWPORT
  5
77
330
58
100
AcDbEntity
 67
     1
  8
0
100
AcDbViewport
 10
3.603394050971317
 20
2.593370122178483
 30
0.0
 40
18.46162913353734
 41
8.131908070724781
 68
     1
 69
     1
 12
3.603394050971317
 22
2.593370122178483
 13
0.0
 23
0.0
 14
0.5
 24
0.5
 15
0.5
 25
0.5
 16
0.0
 26
0.0
 36
1.0
 17
0.0
 27
0.0
 37
0.0
 42
50.0
 43
0.0
 44
0.0
 45
8.131908070724781
 50
0.0
 51
0.0
 72
   100
 90
    32800
  1

281
     0
 71
     1
 74
     0
110
0.0
120
0.0
130
0.0
111
1.0
121
0.0
131
0.0
112
0.0
122
1.0
132
0.0
 79
     0
146
0.0
  0
LWPOLYLINE
  5
86
330
58
100
AcDbEntity
 67
     1
  8
0
100
AcDbPolyline
 90
        4
 70
     1
 43
0.0
 10
-1.439262267973589
 20
6.396855050259421
 10
8.966538218833356
 20
6.396855050259421
 10
8.966538218833356
 20
-1.41285528304607
 10
-1.439262267973589
 20
-1.41285528304607
  0
LINE
  5
8A
330
58
100
AcDbEntity
 67
     1
  8
0
100
AcDbLine
 10
8.966538218833356
 20
-1.41285528304607
 30
0.0
 11
8.966538218833356
 21
-0.4128552830460706
 31
0.0
  0
LINE
  5
8B
330
58
100
AcDbEntity
 67
     1
  8
0
100
AcDbLine
 10
8.966538218833356
 20
-0.4128552830460706
 30
0.0
 11
6.466538218833356
 21
-0.4128552830460703
 31
0.0
  0
LINE
  5
8C
330
58
100
AcDbEntity
 67
     1
  8
0
100
AcDbLine
 10
6.466538218833356
 20
-0.4128552830460703
 30
0.0
 11
4.966538218833356
 21
-0.4128552830460701
 31
0.0
  0
LINE
  5
8D
330
58
100
AcDbEntity
 67
     1
  8
0
100
AcDbLine
 10
4.966538218833356
 20
-0.4128552830460701
 30
0.0
 11
4.966538218833356
 21
-1.41285528304607
 31
0.0
  0
LINE
  5
8E
330
58
100
AcDbEntity
 67
     1
  8
0
100
AcDbLine
 10
6.466538218833356
 20
-0.4128552830460703
 30
0.0
 11
6.466538218833356
 21
-1.40425062323316
 31
0.0
  0
MTEXT
  5
8F
330
58
100
AcDbEntity
 67
     1
  8
0
100
AcDbMText
 10
5.02064872125895
 20
-0.5532836662080878
 30
0.0
 40
0.1
 41
1.5
 71
     1
 72
     5
  1
  Tolerances\P.XXXX = +/- .001\P.XXX  = +/- .005\P.XX   = +/- .015\PMat: Aluminum
 73
     1
 44
1.0
  0
MTEXT
  5
AA
330
58
100
AcDbEntity
 67
     1
  8
0
 48
0.3
100
AcDbMText
 10
6.688767870543038
 20
-0.5779304272488833
 30
0.0
 40
0.1
 41
2.5
 71
     1
 72
     5
  1
G0704 Power Drawbar 2\PGeneric Top Plate\PDaniel E. Kemp\P{\fArial|b0|i0|c0|p32;\H1.625x;©\fMS Shell Dlg|b0|i0|c0|p32;\H0.6538x; 12-12-}2011
 73
     1
 44
1.0
  0
MTEXT
  5
AC
330
58
100
AcDbEntity
 67
     1
  8
0
 48
0.3
100
AcDbMText
 10
-0.8330378939457148
 20
-0.9104262006358538
 30
0.0
 40
0.1625
 41
9.997099999999999
 71
     1
 72
     5
  1
{\fArial|b0|i0|c0|p32;© Daniel E. Kemp 2011}
 73
     1
 44
1.0
  0
LINE
  5
CF
330
58
100
AcDbEntity
 67
     1
  8
0
 48
0.3
100
AcDbLine
 10
1.255249879064999
 20
5.272675460034853
 30
0.0
 11
1.255249879064998
 21
2.772675460034852
 31
0.0
  0
CIRCLE
  5
D0
330
58
100
AcDbEntity
 67
     1
  8
0
 48
0.3
100
AcDbCircle
 10
1.505249879064998
 20
3.022675460034852
 30
0.0
 40
0.128
  0
CIRCLE
  5
D3
330
58
100
AcDbEntity
 67
     1
  8
0
 48
0.3
100
AcDbCircle
 10
1.505249879064998
 20
5.022675460034852
 30
0.0
 40
0.128
  0
LINE
  5
D6
330
58
100
AcDbEntity
 67
     1
  8
0
 48
0.3
100
AcDbLine
 10
5.880249879064999
 20
5.272675460034852
 30
0.0
 11
5.880249879064997
 21
2.772675460034852
 31
0.0
  0
CIRCLE
  5
D7
102
{ACAD_REACTORS
330
253
102
}
330
58
100
AcDbEntity
 67
     1
  8
0
 48
0.3
100
AcDbCircle
 10
5.630249879064997
 20
3.022675460034852
 30
0.0
 40
0.128
  0
CIRCLE
  5
DC
330
58
100
AcDbEntity
 67
     1
  8
0
 48
0.3
100
AcDbCircle
 10
5.630249879064997
 20
5.022675460034852
 30
0.0
 40
0.128
  0
CIRCLE
  5
DE
102
{ACAD_REACTORS
330
132
330
157
102
}
330
58
100
AcDbEntity
 67
     1
  8
0
 48
0.3
100
AcDbCircle
 10
1.505249879064998
 20
5.022675460034852
 30
0.0
 40
0.1875
  0
CIRCLE
  5
DF
102
{ACAD_REACTORS
330
157
330
18B
330
299
102
}
330
58
100
AcDbEntity
 67
     1
  8
0
 48
0.3
100
AcDbCircle
 10
1.505249879064998
 20
3.022675460034852
 30
0.0
 40
0.1875
  0
CIRCLE
  5
E0
330
58
100
AcDbEntity
 67
     1
  8
0
 48
0.3
100
AcDbCircle
 10
5.630249879064997
 20
5.022675460034852
 30
0.0
 40
0.1875
  0
CIRCLE
  5
E1
102
{ACAD_REACTORS
330
18B
330
23D
102
}
330
58
100
AcDbEntity
 67
     1
  8
0
 48
0.3
100
AcDbCircle
 10
5.630249879064997
 20
3.022675460034852
 30
0.0
 40
0.1875
  0
CIRCLE
  5
E3
102
{ACAD_REACTORS
330
1F7
330
227
102
}
330
58
100
AcDbEntity
 67
     1
  8
0
 48
0.3
100
AcDbCircle
 10
3.567749879064999
 20
4.022675460034853
 30
0.0
 40
0.625
  0
LINE
  5
E5
330
58
100
AcDbEntity
 67
     1
  8
0
 48
0.3
100
AcDbLine
 10
5.880249879064995
 20
1.52143606902139
 30
0.0
 11
5.880249879064995
 21
1.02143606902139
 31
0.0
  0
LINE
  5
E7
330
58
100
AcDbEntity
 67
     1
  8
0
 48
0.3
100
AcDbLine
 10
1.255249879064997
 20
1.021436069021391
 30
0.0
 11
1.255249879064998
 21
1.52143606902139
 31
0.0
  0
LINE
  5
E9
330
58
100
AcDbEntity
 67
     1
  8
0
  6
HIDDENX2
 48
0.3
100
AcDbLine
 10
3.067749879064998
 20
1.52143606902139
 30
0.0
 11
3.067749879064998
 21
1.02143606902139
 31
0.0
  0
LINE
  5
EB
330
58
100
AcDbEntity
 67
     1
  8
0
  6
HIDDENX2
 48
0.3
100
AcDbLine
 10
4.067749879064998
 20
1.52143606902139
 30
0.0
 11
4.067749879064998
 21
1.02143606902139
 31
0.0
  0
LINE
  5
ED
330
58
100
AcDbEntity
 67
     1
  8
0
  6
HIDDENX2
 48
0.3
100
AcDbLine
 10
1.692749879064998
 20
1.52143606902139
 30
0.0
 11
1.692749879064998
 21
1.26143606902139
 31
0.0
  0
LINE
  5
EE
330
58
100
AcDbEntity
 67
     1
  8
0
  6
HIDDENX2
 48
0.3
100
AcDbLine
 10
1.692749879064998
 20
1.26143606902139
 30
0.0
 11
1.317749879064998
 21
1.26143606902139
 31
0.0
  0
LINE
  5
EF
330
58
100
AcDbEntity
 67
     1
  8
0
  6
HIDDENX2
 48
0.3
100
AcDbLine
 10
1.317749879064998
 20
1.26143606902139
 30
0.0
 11
1.317749879064998
 21
1.52143606902139
 31
0.0
  0
LINE
  5
F1
102
{ACAD_REACTORS
330
1DD
102
}
330
58
100
AcDbEntity
 67
     1
  8
0
  6
HIDDENX2
 48
0.3
100
AcDbLine
 10
5.442749879064997
 20
1.52143606902139
 30
0.0
 11
5.442749879064997
 21
1.26143606902139
 31
0.0
  0
LINE
  5
F2
102
{ACAD_REACTORS
330
1DD
102
}
330
58
100
AcDbEntity
 67
     1
  8
0
  6
HIDDENX2
 48
0.3
100
AcDbLine
 10
5.442749879064997
 20
1.26143606902139
 30
0.0
 11
5.817749879064995
 21
1.26143606902139
 31
0.0
  0
LINE
  5
F3
330
58
100
AcDbEntity
 67
     1
  8
0
  6
HIDDENX2
 48
0.3
100
AcDbLine
 10
5.817749879064995
 20
1.26143606902139
 30
0.0
 11
5.817749879064995
 21
1.52143606902139
 31
0.0
  0
LINE
  5
F5
330
58
100
AcDbEntity
 67
     1
  8
0
  6
HIDDENX2
 48
0.3
100
AcDbLine
 10
5.758249879064997
 20
1.26143606902139
 30
0.0
 11
5.758249879064997
 21
1.02143606902139
 31
0.0
  0
LINE
  5
F7
330
58
100
AcDbEntity
 67
     1
  8
0
  6
HIDDENX2
 48
0.3
100
AcDbLine
 10
5.502249879064997
 20
1.26143606902139
 30
0.0
 11
5.502249879064997
 21
1.02143606902139
 31
0.0
  0
LINE
  5
F9
330
58
100
AcDbEntity
 67
     1
  8
0
  6
HIDDENX2
 48
0.3
100
AcDbLine
 10
1.633249879064998
 20
1.26143606902139
 30
0.0
 11
1.633249879064998
 21
1.021436069021391
 31
0.0
  0
LINE
  5
FB
330
58
100
AcDbEntity
 67
     1
  8
0
  6
HIDDENX2
 48
0.3
100
AcDbLine
 10
1.377249879064998
 20
1.26143606902139
 30
0.0
 11
1.377249879064997
 21
1.021436069021391
 31
0.0
  0
DIMENSION
  5
FC
330
58
100
AcDbEntity
 67
     1
  8
0
 48
0.3
100
AcDbDimension
  2
*D1
 10
-0.3650195380409473
 20
2.772675460034853
 30
0.0
 11
-0.3650195380409477
 21
4.022675460034853
 31
0.0
 70
    32
 71
     5
 42
2.5
  3
Standard
100
AcDbAlignedDimension
 13
1.317749879064999
 23
5.272675460034853
 33
0.0
 14
1.317749879064998
 24
2.772675460034852
 34
0.0
 50
90.0
100
AcDbRotatedDimension
  0
DIMENSION
  5
117
102
{ACAD_XDICTIONARY
360
126
102
}
102
{ACAD_REACTORS
330
132
102
}
330
58
100
AcDbEntity
 67
     1
  8
0
 48
0.3
100
AcDbDimension
  2
*D2
 10
0.520215672282257
 20
5.272675460034853
 30
0.0
 11
0.9643823389489227
 21
5.522675460034853
 31
0.0
 70
   160
 71
     5
 42
0.2500000000000009
  3
Standard
100
AcDbAlignedDimension
 13
1.505249879064998
 23
5.022675460034852
 33
0.0
 14
1.317749879064999
 24
5.272675460034853
 34
0.0
 50
90.0
100
AcDbRotatedDimension
  0
DIMENSION
  5
13E
102
{ACAD_XDICTIONARY
360
14C
102
}
102
{ACAD_REACTORS
330
157
102
}
330
58
100
AcDbEntity
 67
     1
  8
0
 48
0.3
100
AcDbDimension
  2
*D3
 10
0.5160956745562046
 20
3.022675460034852
 30
0.0
 11
0.5160956745562041
 21
4.022675460034852
 31
0.0
 70
    32
 71
     5
 42
1.999999999999999
  3
Standard
100
AcDbAlignedDimension
 13
1.505249879064998
 23
5.022675460034852
 33
0.0
 14
1.505249879064998
 24
3.022675460034852
 34
0.0
 50
90.0
100
AcDbRotatedDimension
  0
DIMENSION
  5
172
102
{ACAD_XDICTIONARY
360
180
102
}
102
{ACAD_REACTORS
330
18B
102
}
330
58
100
AcDbEntity
 67
     1
  8
0
 48
0.3
100
AcDbDimension
  2
*D5
 10
5.630249879064997
 20
2.335684367091985
 30
0.0
 11
3.567749879064998
 21
2.335684367091985
 31
0.0
 70
    32
 71
     5
 42
4.124999999999999
  3
Standard
100
AcDbAlignedDimension
 13
1.505249879064998
 23
3.022675460034852
 33
0.0
 14
5.630249879064997
 24
3.022675460034852
 34
0.0
100
AcDbRotatedDimension
  0
DIMENSION
  5
1A6
330
58
100
AcDbEntity
 67
     1
  8
0
 48
0.3
100
AcDbDimension
  2
*D7
 10
0.5160956745562046
 20
1.021436069021391
 30
0.0
 11
0.0823456745562044
 21
0.8964360690213911
 31
0.0
 70
    32
 71
     5
 42
0.4999999999999999
  3
Standard
100
AcDbAlignedDimension
 13
1.317749879064998
 23
1.52143606902139
 33
0.0
 14
1.317749879064997
 24
1.021436069021391
 34
0.0
 50
90.0
100
AcDbRotatedDimension
  0
DIMENSION
  5
1C2
102
{ACAD_XDICTIONARY
360
1D1
102
}
102
{ACAD_REACTORS
330
1DD
102
}
330
58
100
AcDbEntity
 67
     1
  8
0
 48
0.3
100
AcDbDimension
  2
*D8
 10
6.993065180215786
 20
1.26143606902139
 30
0.0
 11
6.54889851354912
 21
1.011436069021391
 31
0.0
 70
    32
 71
     5
 42
0.26
  3
Standard
100
AcDbAlignedDimension
 13
5.442749879064997
 23
1.52143606902139
 33
0.0
 14
5.442749879064997
 24
1.26143606902139
 34
0.0
 50
90.0
100
AcDbRotatedDimension
  0
DIMENSION
  5
1DE
102
{ACAD_XDICTIONARY
360
1EC
102
}
102
{ACAD_REACTORS
330
1F7
102
}
330
58
100
AcDbEntity
 67
     1
  8
0
 48
0.3
100
AcDbDimension
  2
*D9
 10
6.838483555857067
 20
5.272675460034852
 30
0.0
 11
6.838483555857066
 21
4.647675460034854
 31
0.0
 70
    32
 71
     5
 42
1.25
  3
Standard
100
AcDbAlignedDimension
 13
3.567749879064999
 23
4.022675460034853
 33
0.0
 14
5.817749879064999
 24
5.272675460034853
 34
0.0
 50
90.0
100
AcDbRotatedDimension
  0
DIMENSION
  5
212
102
{ACAD_XDICTIONARY
360
21E
102
}
102
{ACAD_REACTORS
330
227
102
}
330
58
100
AcDbEntity
 67
     1
  8
0
 48
0.3
100
AcDbDimension
  2
*D11
 10
3.143688201931173
 20
4.481801471045388
 30
0.0
 11
4.738143670455211
 21
3.292788826843924
 31
0.0
 70
   163
 71
     5
 42
1.249999999999999
  3
Standard
100
AcDbDiametricDimension
 15
3.991811556198824
 25
3.563549449024316
 35
0.0
 40
0.0
1001
ACAD
1000
DSTYLE
1002
{
1070
   288
1070
     1
1002
}
  0
DIMENSION
  5
228
102
{ACAD_XDICTIONARY
360
234
102
}
102
{ACAD_REACTORS
330
23D
102
}
330
58
100
AcDbEntity
 67
     1
  8
0
 48
0.3
100
AcDbDimension
  2
*D12
 10
5.474250216196652
 20
2.918654523752954
 30
0.0
 11
6.783996144145093
 21
3.447203776561838
 31
0.0
 70
   163
 71
     5
 42
0.3750000000000009
  3
Standard
100
AcDbDiametricDimension
 15
5.786249541933343
 25
3.12669639631675
 35
0.0
 40
0.0
1001
ACAD
1000
DSTYLE
1002
{
1070
   288
1070
     1
1002
}
  0
DIMENSION
  5
23E
102
{ACAD_XDICTIONARY
360
24A
102
}
102
{ACAD_REACTORS
330
253
102
}
330
58
100
AcDbEntity
 67
     1
  8
0
 48
0.3
100
AcDbDimension
  2
*D13
 10
5.525982243772812
 20
3.09692005735059
 30
0.0
 11
6.722163494401604
 21
2.613362995120602
 31
0.0
 70
   163
 71
     5
 42
0.2560000000000011
  3
Standard
100
AcDbDiametricDimension
 15
5.734517514357183
 25
2.948430862719116
 35
0.0
 40
0.0
1001
ACAD
1000
DSTYLE
1002
{
1070
   288
1070
     1
1002
}
  0
LINE
  5
26E
330
58
100
AcDbEntity
 67
     1
  8
0
 48
0.3
100
AcDbLine
 10
1.255249879064999
 20
5.272675460034853
 30
0.0
 11
5.880249879064999
 21
5.272675460034852
 31
0.0
  0
LINE
  5
26F
102
{ACAD_REACTORS
330
299
102
}
330
58
100
AcDbEntity
 67
     1
  8
0
 48
0.3
100
AcDbLine
 10
1.255249879064998
 20
2.772675460034852
 30
0.0
 11
5.880249879064997
 21
2.772675460034852
 31
0.0
  0
LINE
  5
270
330
58
100
AcDbEntity
 67
     1
  8
0
 48
0.3
100
AcDbLine
 10
1.255249879064998
 20
1.52143606902139
 30
0.0
 11
5.880249879064995
 21
1.52143606902139
 31
0.0
  0
LINE
  5
271
102
{ACAD_REACTORS
330
2B3
102
}
330
58
100
AcDbEntity
 67
     1
  8
0
 48
0.3
100
AcDbLine
 10
1.255249879064997
 20
1.021436069021391
 30
0.0
 11
5.880249879064995
 21
1.02143606902139
 31
0.0
  0
DIMENSION
  5
272
330
58
100
AcDbEntity
 67
     1
  8
0
 48
0.3
100
AcDbDimension
  2
*D14
 10
5.880249879064999
 20
5.727053404390304
 30
0.0
 11
4.723999879064999
 21
5.727053404390304
 31
0.0
 70
    32
 71
     5
 42
2.3125
  3
Standard
100
AcDbAlignedDimension
 13
3.567749879064998
 23
4.022675460034853
 33
0.0
 14
5.880249879064999
 24
5.272675460034853
 34
0.0
100
AcDbRotatedDimension
  0
DIMENSION
  5
280
102
{ACAD_XDICTIONARY
360
28E
102
}
102
{ACAD_REACTORS
330
299
102
}
330
58
100
AcDbEntity
 67
     1
  8
0
 48
0.3
100
AcDbDimension
  2
*D15
 10
1.255249879064998
 20
2.335684367091985
 30
0.0
 11
0.686083212398332
 21
2.335684367091985
 31
0.0
 70
    32
 71
     5
 42
0.25
  3
Standard
100
AcDbAlignedDimension
 13
1.505249879064998
 23
3.022675460034852
 33
0.0
 14
1.255249879064998
 24
2.772675460034852
 34
0.0
100
AcDbRotatedDimension
  0
DIMENSION
  5
29A
102
{ACAD_XDICTIONARY
360
2A8
102
}
102
{ACAD_REACTORS
330
2B3
102
}
330
58
100
AcDbEntity
 67
     1
  8
0
 48
0.3
100
AcDbDimension
  2
*D16
 10
5.880249879064995
 20
0.2901129074980808
 30
0.0
 11
3.567749879064996
 21
0.2901129074980808
 31
0.0
 70
    32
 71
     5
 42
4.624999999999998
  3
Standard
100
AcDbAlignedDimension
 13
1.255249879064997
 23
1.021436069021391
 33
0.0
 14
5.880249879064995
 24
1.02143606902139
 34
0.0
100
AcDbRotatedDimension
  0
MTEXT
  5
2C9
330
58
100
AcDbEntity
 67
     1
  8
0
 48
0.3
100
AcDbMText
 10
-1.133574516615354
 20
-0.1642711512466661
 30
0.0
 40
0.125
 41
5.8193
 71
     1
 72
     5
  1
Add mounting holes for your air cylinder 
 73
     1
 44
1.0
  0
ENDSEC
  0
SECTION
  2
OBJECTS
  0
DICTIONARY
  5
C
330
0
100
AcDbDictionary
281
     1
  3
ACAD_GROUP
350
D
  3
ACAD_LAYOUT
350
1A
  3
ACAD_MLINESTYLE
350
17
  3
ACAD_PLOTSETTINGS
350
19
  3
ACAD_PLOTSTYLENAME
350
E
  3
AcDbVariableDictionary
350
66
  0
DICTIONARY
  5
126
330
117
100
AcDbDictionary
280
     1
281
     1
  3
ACAD_DIMASSOC
360
132
  0
DICTIONARY
  5
14C
330
13E
100
AcDbDictionary
280
     1
281
     1
  3
ACAD_DIMASSOC
360
157
  0
DICTIONARY
  5
180
330
172
100
AcDbDictionary
280
     1
281
     1
  3
ACAD_DIMASSOC
360
18B
  0
DICTIONARY
  5
1D1
330
1C2
100
AcDbDictionary
280
     1
281
     1
  3
ACAD_DIMASSOC
360
1DD
  0
DICTIONARY
  5
1EC
330
1DE
100
AcDbDictionary
280
     1
281
     1
  3
ACAD_DIMASSOC
360
1F7
  0
DICTIONARY
  5
21E
330
212
100
AcDbDictionary
280
     1
281
     1
  3
ACAD_DIMASSOC
360
227
  0
DICTIONARY
  5
234
330
228
100
AcDbDictionary
280
     1
281
     1
  3
ACAD_DIMASSOC
360
23D
  0
DICTIONARY
  5
24A
330
23E
100
AcDbDictionary
280
     1
281
     1
  3
ACAD_DIMASSOC
360
253
  0
DICTIONARY
  5
28E
330
280
100
AcDbDictionary
280
     1
281
     1
  3
ACAD_DIMASSOC
360
299
  0
DICTIONARY
  5
2A8
330
29A
100
AcDbDictionary
280
     1
281
     1
  3
ACAD_DIMASSOC
360
2B3
  0
DICTIONARY
  5
D
102
{ACAD_REACTORS
330
C
102
}
330
C
100
AcDbDictionary
281
     1
  0
DICTIONARY
  5
1A
102
{ACAD_REACTORS
330
C
102
}
330
C
100
AcDbDictionary
281
     1
  3
Layout1
350
59
  3
Layout2
350
5E
  3
Model
350
22
  0
DICTIONARY
  5
17
102
{ACAD_REACTORS
330
C
102
}
330
C
100
AcDbDictionary
281
     1
  3
Standard
350
18
  0
DICTIONARY
  5
19
102
{ACAD_REACTORS
330
C
102
}
330
C
100
AcDbDictionary
281
     1
  0
ACDBDICTIONARYWDFLT
  5
E
102
{ACAD_REACTORS
330
C
102
}
330
C
100
AcDbDictionary
281
     1
  3
Normal
350
F
100
AcDbDictionaryWithDefault
340
F
  0
DICTIONARY
  5
66
102
{ACAD_REACTORS
330
C
102
}
330
C
100
AcDbDictionary
281
     1
  3
DIMASSOC
350
67
  3
HIDETEXT
350
6B
  0
DIMASSOC
  5
132
102
{ACAD_REACTORS
330
126
102
}
330
126
100
AcDbDimAssoc
330
117
 90
        1
 70
     0
 71
     0
  1
AcDbOsnapPointRef
 72
     3
331
DE
 73
     2
 91
        0
 40
0.0
 10
1.505249879064998
 20
5.022675460034852
 30
0.0
 75
     0
  0
DIMASSOC
  5
157
102
{ACAD_REACTORS
330
14C
102
}
330
14C
100
AcDbDimAssoc
330
13E
 90
        3
 70
     0
 71
     0
  1
AcDbOsnapPointRef
 72
     3
331
DE
 73
     2
 91
        0
 40
0.0
 10
1.505249879064998
 20
5.022675460034852
 30
0.0
 75
     0
  1
AcDbOsnapPointRef
 72
     3
331
DF
 73
     2
 91
        0
 40
0.0
 10
1.505249879064998
 20
3.022675460034852
 30
0.0
 75
     0
  0
DIMASSOC
  5
18B
102
{ACAD_REACTORS
330
180
102
}
330
180
100
AcDbDimAssoc
330
172
 90
        3
 70
     0
 71
     0
  1
AcDbOsnapPointRef
 72
     3
331
DF
 73
     2
 91
        0
 40
0.0
 10
1.505249879064998
 20
3.022675460034852
 30
0.0
 75
     0
  1
AcDbOsnapPointRef
 72
     3
331
E1
 73
     2
 91
        0
 40
0.0
 10
5.630249879064997
 20
3.022675460034852
 30
0.0
 75
     0
  0
DIMASSOC
  5
1DD
102
{ACAD_REACTORS
330
1D1
102
}
330
1D1
100
AcDbDimAssoc
330
1C2
 90
        3
 70
     0
 71
     0
  1
AcDbOsnapPointRef
 72
    13
331
F1
 73
     2
 91
        0
 40
0.0
 10
5.442749879064997
 20
1.52143606902139
 30
0.0
 75
     0
  1
AcDbOsnapPointRef
 72
    13
331
F2
 73
     2
 91
        0
 40
0.0
 10
5.442749879064997
 20
1.26143606902139
 30
0.0
 75
     0
  0
DIMASSOC
  5
1F7
102
{ACAD_REACTORS
330
1EC
102
}
330
1EC
100
AcDbDimAssoc
330
1DE
 90
        1
 70
     0
 71
     0
  1
AcDbOsnapPointRef
 72
     3
331
E3
 73
     2
 91
        0
 40
0.0
 10
3.567749879064999
 20
4.022675460034853
 30
0.0
 75
     0
  0
DIMASSOC
  5
227
102
{ACAD_REACTORS
330
21E
102
}
330
21E
100
AcDbDimAssoc
330
212
 90
        2
 70
     0
 71
     0
  1
AcDbOsnapPointRef
 72
     3
331
E3
 73
     2
 91
        0
 40
0.0
 10
3.567749879064999
 20
4.022675460034853
 30
0.0
 75
     0
  0
DIMASSOC
  5
23D
102
{ACAD_REACTORS
330
234
102
}
330
234
100
AcDbDimAssoc
330
228
 90
        2
 70
     0
 71
     0
  1
AcDbOsnapPointRef
 72
     3
331
E1
 73
     2
 91
        0
 40
0.0
 10
0.0
 20
0.0
 30
0.0
 75
     0
  0
DIMASSOC
  5
253
102
{ACAD_REACTORS
330
24A
102
}
330
24A
100
AcDbDimAssoc
330
23E
 90
        2
 70
     0
 71
     0
  1
AcDbOsnapPointRef
 72
     3
331
D7
 73
     2
 91
        0
 40
0.0
 10
0.0
 20
0.0
 30
0.0
 75
     0
  0
DIMASSOC
  5
299
102
{ACAD_REACTORS
330
28E
102
}
330
28E
100
AcDbDimAssoc
330
280
 90
        3
 70
     0
 71
     0
  1
AcDbOsnapPointRef
 72
     3
331
DF
 73
     2
 91
        0
 40
0.0
 10
1.505249879064998
 20
3.022675460034852
 30
0.0
 75
     0
  1
AcDbOsnapPointRef
 72
    13
331
26F
 73
     2
 91
        0
 40
0.0
 10
1.255249879064998
 20
2.772675460034852
 30
0.0
 75
     0
  0
DIMASSOC
  5
2B3
102
{ACAD_REACTORS
330
2A8
102
}
330
2A8
100
AcDbDimAssoc
330
29A
 90
        3
 70
     0
 71
     0
  1
AcDbOsnapPointRef
 72
    13
331
271
 73
     2
 91
        0
 40
0.0
 10
1.255249879064997
 20
1.021436069021391
 30
0.0
 75
     0
  1
AcDbOsnapPointRef
 72
     1
331
271
 73
     2
 91
        0
 40
1.0
 10
5.880249879064995
 20
1.02143606902139
 30
0.0
 75
     0
  0
LAYOUT
  5
59
102
{ACAD_REACTORS
330
1A
102
}
330
1A
100
AcDbPlotSettings
  1

  2
none_device
  4
Letter_(8.50_x_11.00_Inches)
  6

 40
6.349999904632568
 41
6.349999904632568
 42
6.350006103515625
 43
6.350006103515625
 44
215.8999938964843
 45
279.3999938964843
 46
38.3032
 47
38.15079999999999
 48
0.0
 49
0.0
140
0.0
141
0.0
142
1.0
143
1.0
 70
   688
 72
     0
 73
     1
 74
     5
  7

 75
    16
147
1.0
148
0.0
149
0.0
100
AcDbLayout
  1
Layout1
 70
     1
 71
     1
 10
-1.75200024029589
 20
-1.757999996245376
 11
9.247999519408217
 21
6.741999763458731
 12
0.0
 22
0.0
 32
0.0
 14
-1.439262267973589
 24
-1.41285528304607
 34
0.0
 15
8.966538218833356
 25
6.396855050259421
 35
0.0
146
0.0
 13
0.0
 23
0.0
 33
0.0
 16
1.0
 26
0.0
 36
0.0
 17
0.0
 27
1.0
 37
0.0
 76
     0
330
58
331
77
  0
LAYOUT
  5
5E
102
{ACAD_REACTORS
330
1A
102
}
330
1A
100
AcDbPlotSettings
  1

  2
None
  4

  6

 40
0.0
 41
0.0
 42
0.0
 43
0.0
 44
0.0
 45
0.0
 46
0.0
 47
0.0
 48
0.0
 49
0.0
140
0.0
141
0.0
142
1.0
143
1.0
 70
   688
 72
     0
 73
     0
 74
     5
  7

 75
    16
147
1.0
148
0.0
149
0.0
100
AcDbLayout
  1
Layout2
 70
     1
 71
     2
 10
0.0
 20
0.0
 11
12.0
 21
9.0
 12
0.0
 22
0.0
 32
0.0
 14
0.0
 24
0.0
 34
0.0
 15
0.0
 25
0.0
 35
0.0
146
0.0
 13
0.0
 23
0.0
 33
0.0
 16
1.0
 26
0.0
 36
0.0
 17
0.0
 27
1.0
 37
0.0
 76
     0
330
5D
  0
LAYOUT
  5
22
102
{ACAD_REACTORS
330
1A
102
}
330
1A
100
AcDbPlotSettings
  1

  2
none_device
  4
ANSI_A_(8.50_x_11.00_Inches)
  6

 40
6.349999904632568
 41
19.04999923706054
 42
6.350006103515625
 43
19.04998779296875
 44
215.8999938964843
 45
279.3999938964843
 46
0.0
 47
0.0
 48
0.0
 49
0.0
140
0.0
141
0.0
142
1.0
143
2.584895464708373
 70
 11952
 72
     0
 73
     1
 74
     0
  7

 75
     0
147
0.3868628397755418
148
0.0
149
0.0
100
AcDbLayout
  1
Model
 70
     1
 71
     0
 10
0.0
 20
0.0
 11
12.0
 21
9.0
 12
0.0
 22
0.0
 32
0.0
 14
0.0
 24
0.0
 34
0.0
 15
0.0
 25
0.0
 35
0.0
146
0.0
 13
0.0
 23
0.0
 33
0.0
 16
1.0
 26
0.0
 36
0.0
 17
0.0
 27
1.0
 37
0.0
 76
     0
330
1F
  0
MLINESTYLE
  5
18
102
{ACAD_REACTORS
330
17
102
}
330
17
100
AcDbMlineStyle
  2
STANDARD
 70
     0
  3

 62
   256
 51
90.0
 52
90.0
 71
     2
 49
0.5
 62
   256
  6
BYLAYER
 49
-0.5
 62
   256
  6
BYLAYER
  0
ACDBPLACEHOLDER
  5
F
102
{ACAD_REACTORS
330
E
102
}
330
E
  0
DICTIONARYVAR
  5
67
102
{ACAD_REACTORS
330
66
102
}
330
66
100
DictionaryVariables
280
     0
  1
2
  0
DICTIONARYVAR
  5
6B
102
{ACAD_REACTORS
330
66
102
}
330
66
100
DictionaryVariables
280
     0
  1
1
  0
ENDSEC
  0
EOF
