  0
SECTION
  2
HEADER
  9
$ACADVER
  1
AC1015
  9
$ACADMAINTVER
 70
    13
  9
$DWGCODEPAGE
  3
ANSI_1252
  9
$INSBASE
 10
0.0
 20
0.0
 30
0.0
  9
$EXTMIN
 10
1.000000000000000E+20
 20
1.000000000000000E+20
 30
1.000000000000000E+20
  9
$EXTMAX
 10
-1.000000000000000E+20
 20
-1.000000000000000E+20
 30
-1.000000000000000E+20
  9
$LIMMIN
 10
0.0
 20
0.0
  9
$LIMMAX
 10
12.0
 20
9.0
  9
$ORTHOMODE
 70
     0
  9
$REGENMODE
 70
     1
  9
$FILLMODE
 70
     1
  9
$QTEXTMODE
 70
     0
  9
$MIRRTEXT
 70
     1
  9
$LTSCALE
 40
0.3
  9
$ATTMODE
 70
     1
  9
$TEXTSIZE
 40
0.2
  9
$TRACEWID
 40
0.05
  9
$TEXTSTYLE
  7
Standard
  9
$CLAYER
  8
0
  9
$CELTYPE
  6
ByLayer
  9
$CECOLOR
 62
   256
  9
$CELTSCALE
 40
0.3
  9
$DISPSILH
 70
     0
  9
$DIMSCALE
 40
1.0
  9
$DIMASZ
 40
0.125
  9
$DIMEXO
 40
0.0625
  9
$DIMDLI
 40
0.38
  9
$DIMRND
 40
0.0
  9
$DIMDLE
 40
0.0
  9
$DIMEXE
 40
0.18
  9
$DIMTP
 40
0.0
  9
$DIMTM
 40
0.0
  9
$DIMTXT
 40
0.125
  9
$DIMCEN
 40
0.09
  9
$DIMTSZ
 40
0.0
  9
$DIMTOL
 70
     0
  9
$DIMLIM
 70
     0
  9
$DIMTIH
 70
     1
  9
$DIMTOH
 70
     1
  9
$DIMSE1
 70
     0
  9
$DIMSE2
 70
     0
  9
$DIMTAD
 70
     0
  9
$DIMZIN
 70
     0
  9
$DIMBLK
  1

  9
$DIMASO
 70
     1
  9
$DIMSHO
 70
     1
  9
$DIMPOST
  1

  9
$DIMAPOST
  1

  9
$DIMALT
 70
     0
  9
$DIMALTD
 70
     2
  9
$DIMALTF
 40
25.4
  9
$DIMLFAC
 40
1.0
  9
$DIMTOFL
 70
     0
  9
$DIMTVP
 40
0.0
  9
$DIMTIX
 70
     0
  9
$DIMSOXD
 70
     0
  9
$DIMSAH
 70
     0
  9
$DIMBLK1
  1

  9
$DIMBLK2
  1

  9
$DIMSTYLE
  2
Standard
  9
$DIMCLRD
 70
     0
  9
$DIMCLRE
 70
     0
  9
$DIMCLRT
 70
     0
  9
$DIMTFAC
 40
1.0
  9
$DIMGAP
 40
0.09
  9
$DIMJUST
 70
     0
  9
$DIMSD1
 70
     0
  9
$DIMSD2
 70
     0
  9
$DIMTOLJ
 70
     1
  9
$DIMTZIN
 70
     0
  9
$DIMALTZ
 70
     0
  9
$DIMALTTZ
 70
     0
  9
$DIMUPT
 70
     0
  9
$DIMDEC
 70
     3
  9
$DIMTDEC
 70
     3
  9
$DIMALTU
 70
     2
  9
$DIMALTTD
 70
     2
  9
$DIMTXSTY
  7
Standard
  9
$DIMAUNIT
 70
     0
  9
$DIMADEC
 70
     0
  9
$DIMALTRND
 40
0.0
  9
$DIMAZIN
 70
     0
  9
$DIMDSEP
 70
    46
  9
$DIMATFIT
 70
     3
  9
$DIMFRAC
 70
     0
  9
$DIMLDRBLK
  1

  9
$DIMLUNIT
 70
     2
  9
$DIMLWD
 70
    -2
  9
$DIMLWE
 70
    -2
  9
$DIMTMOVE
 70
     0
  9
$LUNITS
 70
     2
  9
$LUPREC
 70
     4
  9
$SKETCHINC
 40
0.1
  9
$FILLETRAD
 40
0.5
  9
$AUNITS
 70
     0
  9
$AUPREC
 70
     0
  9
$MENU
  1
.
  9
$ELEVATION
 40
0.0
  9
$PELEVATION
 40
0.0
  9
$THICKNESS
 40
0.0
  9
$LIMCHECK
 70
     0
  9
$CHAMFERA
 40
0.5
  9
$CHAMFERB
 40
0.5
  9
$CHAMFERC
 40
1.0
  9
$CHAMFERD
 40
0.0
  9
$SKPOLY
 70
     0
  9
$TDCREATE
 40
2454412.579853507
  9
$TDUCREATE
 40
2454412.788186840
  9
$TDUPDATE
 40
2455925.770437824
  9
$TDUUPDATE
 40
2455925.978771157
  9
$TDINDWG
 40
0.3901441435
  9
$TDUSRTIMER
 40
0.3901441435
  9
$USRTIMER
 70
     1
  9
$ANGBASE
 50
0.0
  9
$ANGDIR
 70
     0
  9
$PDMODE
 70
     0
  9
$PDSIZE
 40
0.0
  9
$PLINEWID
 40
0.0
  9
$SPLFRAME
 70
     0
  9
$SPLINETYPE
 70
     6
  9
$SPLINESEGS
 70
     8
  9
$HANDSEED
  5
167
  9
$SURFTAB1
 70
     6
  9
$SURFTAB2
 70
     6
  9
$SURFTYPE
 70
     6
  9
$SURFU
 70
     6
  9
$SURFV
 70
     6
  9
$UCSBASE
  2

  9
$UCSNAME
  2

  9
$UCSORG
 10
0.0
 20
0.0
 30
0.0
  9
$UCSXDIR
 10
1.0
 20
0.0
 30
0.0
  9
$UCSYDIR
 10
0.0
 20
1.0
 30
0.0
  9
$UCSORTHOREF
  2

  9
$UCSORTHOVIEW
 70
     0
  9
$UCSORGTOP
 10
0.0
 20
0.0
 30
0.0
  9
$UCSORGBOTTOM
 10
0.0
 20
0.0
 30
0.0
  9
$UCSORGLEFT
 10
0.0
 20
0.0
 30
0.0
  9
$UCSORGRIGHT
 10
0.0
 20
0.0
 30
0.0
  9
$UCSORGFRONT
 10
0.0
 20
0.0
 30
0.0
  9
$UCSORGBACK
 10
0.0
 20
0.0
 30
0.0
  9
$PUCSBASE
  2

  9
$PUCSNAME
  2

  9
$PUCSORG
 10
0.0
 20
0.0
 30
0.0
  9
$PUCSXDIR
 10
1.0
 20
0.0
 30
0.0
  9
$PUCSYDIR
 10
0.0
 20
1.0
 30
0.0
  9
$PUCSORTHOREF
  2

  9
$PUCSORTHOVIEW
 70
     0
  9
$PUCSORGTOP
 10
0.0
 20
0.0
 30
0.0
  9
$PUCSORGBOTTOM
 10
0.0
 20
0.0
 30
0.0
  9
$PUCSORGLEFT
 10
0.0
 20
0.0
 30
0.0
  9
$PUCSORGRIGHT
 10
0.0
 20
0.0
 30
0.0
  9
$PUCSORGFRONT
 10
0.0
 20
0.0
 30
0.0
  9
$PUCSORGBACK
 10
0.0
 20
0.0
 30
0.0
  9
$USERI1
 70
     0
  9
$USERI2
 70
     0
  9
$USERI3
 70
     0
  9
$USERI4
 70
     0
  9
$USERI5
 70
     0
  9
$USERR1
 40
0.0
  9
$USERR2
 40
0.0
  9
$USERR3
 40
0.0
  9
$USERR4
 40
0.0
  9
$USERR5
 40
0.0
  9
$WORLDVIEW
 70
     1
  9
$SHADEDGE
 70
     3
  9
$SHADEDIF
 70
    70
  9
$TILEMODE
 70
     0
  9
$MAXACTVP
 70
    64
  9
$PINSBASE
 10
0.0
 20
0.0
 30
0.0
  9
$PLIMCHECK
 70
     0
  9
$PEXTMIN
 10
-1.439262267973589
 20
-1.45797533402469
 30
0.0
  9
$PEXTMAX
 10
8.966538218833356
 20
6.396855050259421
 30
0.0
  9
$PLIMMIN
 10
-1.75200024029589
 20
-1.757999996245376
  9
$PLIMMAX
 10
9.247999519408217
 20
6.741999763458731
  9
$UNITMODE
 70
     0
  9
$VISRETAIN
 70
     1
  9
$PLINEGEN
 70
     0
  9
$PSLTSCALE
 70
     1
  9
$TREEDEPTH
 70
  3020
  9
$CMLSTYLE
  2
Standard
  9
$CMLJUST
 70
     0
  9
$CMLSCALE
 40
1.0
  9
$PROXYGRAPHICS
 70
     1
  9
$MEASUREMENT
 70
     0
  9
$CELWEIGHT
370
    -1
  9
$ENDCAPS
280
     0
  9
$JOINSTYLE
280
     0
  9
$LWDISPLAY
290
     0
  9
$INSUNITS
 70
     1
  9
$HYPERLINKBASE
  1

  9
$STYLESHEET
  1

  9
$XEDIT
290
     1
  9
$CEPSNTYPE
380
     0
  9
$PSTYLEMODE
290
     1
  9
$FINGERPRINTGUID
  2
{FDEAD576-A652-11D2-9A35-0060089B3A3F}
  9
$VERSIONGUID
  2
{874AA64F-F587-4E3D-91E8-7F1DB34775E2}
  9
$EXTNAMES
290
     1
  9
$PSVPSCALE
 40
0.0
  9
$OLESTARTUP
290
     0
  0
ENDSEC
  0
SECTION
  2
CLASSES
  0
CLASS
  1
ACDBDICTIONARYWDFLT
  2
AcDbDictionaryWithDefault
  3
AutoCAD 2000
 90
        0
280
     0
281
     0
  0
CLASS
  1
ACDBPLACEHOLDER
  2
AcDbPlaceHolder
  3
AutoCAD 2000
 90
        0
280
     0
281
     0
  0
CLASS
  1
LAYOUT
  2
AcDbLayout
  3
AutoCAD 2000
 90
        0
280
     0
281
     0
  0
CLASS
  1
DICTIONARYVAR
  2
AcDbDictionaryVar
  3
AutoCAD 2000
 90
        0
280
     0
281
     0
  0
CLASS
  1
DIMASSOC
  2
AcDbDimAssoc
  3
"AcDbDimAssoc|Product Desc:     AcDim ARX App For Dimension|Company:          Autodesk, Inc.|WEB Address:      www.autodesk.com"
 90
        0
280
     0
281
     0
  0
ENDSEC
  0
SECTION
  2
TABLES
  0
TABLE
  2
VPORT
  5
8
330
0
100
AcDbSymbolTable
 70
     1
  0
VPORT
  5
74
330
8
100
AcDbSymbolTableRecord
100
AcDbViewportTableRecord
  2
*Active
 70
     0
 10
0.0
 20
0.0
 11
1.0
 21
1.0
 12
20.48748698095427
 22
9.784138269231398
 13
0.0
 23
0.0
 14
0.5
 24
0.5
 15
0.5
 25
0.5
 16
0.0
 26
0.0
 36
1.0
 17
0.0
 27
0.0
 37
0.0
 40
19.56827653846279
 41
2.093949044585987
 42
50.0
 43
0.0
 44
0.0
 50
0.0
 51
0.0
 71
     0
 72
   100
 73
     1
 74
     3
 75
     0
 76
     0
 77
     0
 78
     0
281
     0
 65
     1
110
0.0
120
0.0
130
0.0
111
1.0
121
0.0
131
0.0
112
0.0
122
1.0
132
0.0
 79
     0
146
0.0
  0
ENDTAB
  0
TABLE
  2
LTYPE
  5
5
330
0
100
AcDbSymbolTable
 70
     3
  0
LTYPE
  5
14
330
5
100
AcDbSymbolTableRecord
100
AcDbLinetypeTableRecord
  2
ByBlock
 70
     0
  3

 72
    65
 73
     0
 40
0.0
  0
LTYPE
  5
15
330
5
100
AcDbSymbolTableRecord
100
AcDbLinetypeTableRecord
  2
ByLayer
 70
     0
  3

 72
    65
 73
     0
 40
0.0
  0
LTYPE
  5
16
330
5
100
AcDbSymbolTableRecord
100
AcDbLinetypeTableRecord
  2
Continuous
 70
     0
  3
Solid line
 72
    65
 73
     0
 40
0.0
  0
LTYPE
  5
92
330
5
100
AcDbSymbolTableRecord
100
AcDbLinetypeTableRecord
  2
HIDDENX2
 70
     0
  3
Hidden (2x) ____ ____ ____ ____ ____ ____ ____
 72
    65
 73
     2
 40
0.75
 49
0.5
 74
     0
 49
-0.25
 74
     0
  0
LTYPE
  5
93
330
5
100
AcDbSymbolTableRecord
100
AcDbLinetypeTableRecord
  2
threads
 70
     0
  3
Zig zag /\/\/\/\/\/\/\/\/\/\/\/\/\/\/\/\/\/\/\/
 72
    65
 73
     4
 40
0.8001000000000001
 49
0.0001
 74
     0
 49
-0.2
 74
     4
 75
   131
340
91
 46
0.2
 50
0.0
 44
-0.2
 45
0.0
 49
-0.4
 74
     4
 75
   131
340
91
 46
0.2
 50
180.0
 44
0.2
 45
0.0
 49
-0.2
 74
     0
  0
ENDTAB
  0
TABLE
  2
LAYER
  5
2
330
0
100
AcDbSymbolTable
 70
     2
  0
LAYER
  5
10
330
2
100
AcDbSymbolTableRecord
100
AcDbLayerTableRecord
  2
0
 70
     0
 62
     7
  6
Continuous
370
    -3
390
F
  0
LAYER
  5
D5
330
2
100
AcDbSymbolTableRecord
100
AcDbLayerTableRecord
  2
Defpoints
 70
     0
 62
     7
  6
Continuous
290
     0
370
    -3
390
F
  0
ENDTAB
  0
TABLE
  2
STYLE
  5
3
330
0
100
AcDbSymbolTable
 70
     2
  0
STYLE
  5
11
330
3
100
AcDbSymbolTableRecord
100
AcDbTextStyleTableRecord
  2
Standard
 70
     0
 40
0.0
 41
1.0
 50
0.0
 71
     0
 42
0.2
  3
txt
  4

  0
STYLE
  5
91
330
3
100
AcDbSymbolTableRecord
100
AcDbTextStyleTableRecord
  2

 70
     1
 40
0.0
 41
1.0
 50
0.0
 71
     0
 42
0.2
  3
ltypeshp.shx
  4

  0
ENDTAB
  0
TABLE
  2
VIEW
  5
6
330
0
100
AcDbSymbolTable
 70
     0
  0
ENDTAB
  0
TABLE
  2
UCS
  5
7
330
0
100
AcDbSymbolTable
 70
     0
  0
ENDTAB
  0
TABLE
  2
APPID
  5
9
330
0
100
AcDbSymbolTable
 70
     1
  0
APPID
  5
12
330
9
100
AcDbSymbolTableRecord
100
AcDbRegAppTableRecord
  2
ACAD
 70
     0
  0
ENDTAB
  0
TABLE
  2
DIMSTYLE
  5
A
330
0
100
AcDbSymbolTable
 70
     1
100
AcDbDimStyleTable
 71
     1
340
27
  0
DIMSTYLE
105
27
102
{ACAD_REACTORS
330
D4
330
EB
330
101
330
119
330
133
330
14D
102
}
330
A
100
AcDbSymbolTableRecord
100
AcDbDimStyleTableRecord
  2
Standard
 70
     0
 41
0.125
140
0.125
271
     3
272
     3
340
11
  0
ENDTAB
  0
TABLE
  2
BLOCK_RECORD
  5
1
330
0
100
AcDbSymbolTable
 70
     7
  0
BLOCK_RECORD
  5
1F
330
1
100
AcDbSymbolTableRecord
100
AcDbBlockTableRecord
  2
*Model_Space
340
22
  0
BLOCK_RECORD
  5
58
330
1
100
AcDbSymbolTableRecord
100
AcDbBlockTableRecord
  2
*Paper_Space
340
59
  0
BLOCK_RECORD
  5
5D
330
1
100
AcDbSymbolTableRecord
100
AcDbBlockTableRecord
  2
*Paper_Space0
340
5E
  0
BLOCK_RECORD
  5
D6
330
1
100
AcDbSymbolTableRecord
100
AcDbBlockTableRecord
  2
*D1
340
0
  0
BLOCK_RECORD
  5
EC
330
1
100
AcDbSymbolTableRecord
100
AcDbBlockTableRecord
  2
*D2
340
0
  0
BLOCK_RECORD
  5
102
330
1
100
AcDbSymbolTableRecord
100
AcDbBlockTableRecord
  2
*D3
340
0
  0
BLOCK_RECORD
  5
11A
330
1
100
AcDbSymbolTableRecord
100
AcDbBlockTableRecord
  2
*D4
340
0
  0
BLOCK_RECORD
  5
134
330
1
100
AcDbSymbolTableRecord
100
AcDbBlockTableRecord
  2
*D5
340
0
  0
BLOCK_RECORD
  5
14E
330
1
100
AcDbSymbolTableRecord
100
AcDbBlockTableRecord
  2
*D6
340
0
  0
ENDTAB
  0
ENDSEC
  0
SECTION
  2
BLOCKS
  0
BLOCK
  5
20
330
1F
100
AcDbEntity
  8
0
100
AcDbBlockBegin
  2
*Model_Space
 70
     0
 10
0.0
 20
0.0
 30
0.0
  3
*Model_Space
  1

  0
ENDBLK
  5
21
330
1F
100
AcDbEntity
  8
0
100
AcDbBlockEnd
  0
BLOCK
  5
5A
330
58
100
AcDbEntity
 67
     1
  8
0
100
AcDbBlockBegin
  2
*Paper_Space
 70
     0
 10
0.0
 20
0.0
 30
0.0
  3
*Paper_Space
  1

  0
ENDBLK
  5
5B
330
58
100
AcDbEntity
 67
     1
  8
0
100
AcDbBlockEnd
  0
BLOCK
  5
5F
330
5D
100
AcDbEntity
  8
0
100
AcDbBlockBegin
  2
*Paper_Space0
 70
     0
 10
0.0
 20
0.0
 30
0.0
  3
*Paper_Space0
  1

  0
ENDBLK
  5
60
330
5D
100
AcDbEntity
  8
0
100
AcDbBlockEnd
  0
BLOCK
  5
DF
330
D6
100
AcDbEntity
  8
0
 48
0.3
100
AcDbBlockBegin
  2
*D1
 70
     1
 10
0.0
 20
0.0
 30
0.0
  3
*D1
  1

  0
LINE
  5
E2
330
D6
100
AcDbEntity
  8
0
 62
     0
 48
0.3
370
    -2
100
AcDbLine
 10
-0.2270043022125692
 20
5.348591723372862
 30
0.0
 11
-0.1020043022125692
 21
5.348591723372862
 31
0.0
  0
LINE
  5
E3
330
D6
100
AcDbEntity
  8
0
 62
     0
 48
0.3
370
    -2
100
AcDbLine
 10
-0.1020043022125692
 20
5.348591723372862
 30
0.0
 11
0.2296945191515674
 21
4.962167609297584
 31
0.0
  0
MTEXT
  5
E4
330
D6
100
AcDbEntity
  8
0
 62
     0
 48
0.3
100
AcDbMText
 10
-0.5982543022125695
 20
5.348591723372862
 30
0.0
 40
0.125
 41
0.0
 71
     5
 72
     1
  1
\A1;\U+22050.500
 73
     1
 44
1.0
  0
SOLID
  5
E5
330
D6
100
AcDbEntity
  8
0
 62
     0
 48
0.3
100
AcDbTrace
 10
0.2455026957437769
 20
4.975737035615867
 30
0.0
 11
0.2138863425593578
 21
4.948598182979301
 31
0.0
 12
0.3111110770612622
 22
4.867318549744327
 32
0.0
 13
0.3111110770612622
 23
4.867318549744327
 33
0.0
  0
LINE
  5
E6
330
D6
100
AcDbEntity
  8
0
 62
     0
 48
0.3
370
    -2
100
AcDbLine
 10
0.3839441928806506
 20
4.677620430637812
 30
0.0
 11
0.5639441928806504
 21
4.677620430637812
 31
0.0
  0
LINE
  5
E7
330
D6
100
AcDbEntity
  8
0
 62
     0
 48
0.3
370
    -2
100
AcDbLine
 10
0.473944192880651
 20
4.587620430637812
 30
0.0
 11
0.4739441928806505
 21
4.767620430637812
 31
0.0
  0
POINT
  5
E8
330
D6
100
AcDbEntity
  8
Defpoints
 62
     0
 48
0.3
100
AcDbPoint
 10
0.3111110770612622
 20
4.867318549744327
 30
0.0
  0
POINT
  5
E9
330
D6
100
AcDbEntity
  8
Defpoints
 62
     0
 48
0.3
100
AcDbPoint
 10
0.6367773087000406
 20
4.487922311531297
 30
0.0
  0
ENDBLK
  5
E0
330
D6
100
AcDbEntity
  8
0
 48
0.3
100
AcDbBlockEnd
  0
BLOCK
  5
F5
330
EC
100
AcDbEntity
  8
0
 48
0.3
100
AcDbBlockBegin
  2
*D2
 70
     1
 10
0.0
 20
0.0
 30
0.0
  3
*D2
  1

  0
LINE
  5
F8
330
EC
100
AcDbEntity
  8
0
 62
     0
 48
0.3
370
    -2
100
AcDbLine
 10
-0.1432786012041729
 20
2.588622648035452
 30
0.0
 11
-0.0182786012041731
 21
2.588622648035452
 31
0.0
  0
LINE
  5
F9
330
EC
100
AcDbEntity
  8
0
 62
     0
 48
0.3
370
    -2
100
AcDbLine
 10
-0.0182786012041731
 20
2.588622648035452
 30
0.0
 11
0.2495018475162118
 21
2.230196903178325
 31
0.0
  0
MTEXT
  5
FA
330
EC
100
AcDbEntity
  8
0
 62
     0
 48
0.3
100
AcDbMText
 10
-0.514528601204173
 20
2.588622648035452
 30
0.0
 40
0.125
 41
0.0
 71
     5
 72
     1
  1
\A1;\U+22050.500
 73
     1
 44
1.0
  0
SOLID
  5
FB
330
EC
100
AcDbEntity
  8
0
 62
     0
 48
0.3
100
AcDbTrace
 10
0.266191704864139
 20
2.242665922365238
 30
0.0
 11
0.2328119901682845
 21
2.217727883991412
 31
0.0
 12
0.3243159626376916
 22
2.130057759090761
 32
0.0
 13
0.3243159626376916
 23
2.130057759090761
 33
0.0
  0
LINE
  5
FC
330
EC
100
AcDbEntity
  8
0
 62
     0
 48
0.3
370
    -2
100
AcDbLine
 10
0.3839441928806504
 20
1.929779470915632
 30
0.0
 11
0.5639441928806505
 21
1.929779470915632
 31
0.0
  0
LINE
  5
FD
330
EC
100
AcDbEntity
  8
0
 62
     0
 48
0.3
370
    -2
100
AcDbLine
 10
0.4739441928806503
 20
1.839779470915632
 30
0.0
 11
0.4739441928806505
 21
2.019779470915632
 31
0.0
  0
POINT
  5
FE
330
EC
100
AcDbEntity
  8
Defpoints
 62
     0
 48
0.3
100
AcDbPoint
 10
0.3243159626376916
 20
2.130057759090761
 30
0.0
  0
POINT
  5
FF
330
EC
100
AcDbEntity
  8
Defpoints
 62
     0
 48
0.3
100
AcDbPoint
 10
0.62357242312361
 20
1.729501182740504
 30
0.0
  0
ENDBLK
  5
F6
330
EC
100
AcDbEntity
  8
0
 48
0.3
100
AcDbBlockEnd
  0
BLOCK
  5
10B
330
102
100
AcDbEntity
  8
0
 48
0.3
100
AcDbBlockBegin
  2
*D3
 70
     1
 10
0.0
 20
0.0
 30
0.0
  3
*D3
  1

  0
LINE
  5
10E
330
102
100
AcDbEntity
  8
0
 62
     0
 48
0.3
370
    -2
100
AcDbLine
 10
0.9021154196328573
 20
2.491047992398073
 30
0.0
 11
0.7771154196328573
 21
2.491047992398073
 31
0.0
  0
LINE
  5
10F
330
102
100
AcDbEntity
  8
0
 62
     0
 48
0.3
370
    -2
100
AcDbLine
 10
0.7771154196328573
 20
2.491047992398073
 30
0.0
 11
0.5941833441581736
 21
2.152381237530503
 31
0.0
  0
MTEXT
  5
110
330
102
100
AcDbEntity
  8
0
 62
     0
 48
0.3
100
AcDbMText
 10
1.29419875296619
 20
2.491047992398073
 30
0.0
 40
0.125
 41
0.0
 71
     5
 72
     1
  1
\A1;\U+22050.256
 73
     1
 44
1.0
  0
SOLID
  5
111
330
102
100
AcDbEntity
  8
0
 62
     0
 48
0.3
100
AcDbTrace
 10
0.5758531591602428
 20
2.162282353413039
 30
0.0
 11
0.6125135291561042
 21
2.142480121647967
 31
0.0
 12
0.534776648862955
 22
2.042400127542919
 32
0.0
 13
0.534776648862955
 23
2.042400127542919
 33
0.0
  0
LINE
  5
112
330
102
100
AcDbEntity
  8
0
 62
     0
 48
0.3
370
    -2
100
AcDbLine
 10
0.3839441928806511
 20
1.929779470915633
 30
0.0
 11
0.5639441928806511
 21
1.929779470915633
 31
0.0
  0
LINE
  5
113
330
102
100
AcDbEntity
  8
0
 62
     0
 48
0.3
370
    -2
100
AcDbLine
 10
0.473944192880651
 20
1.839779470915633
 30
0.0
 11
0.4739441928806509
 21
2.019779470915633
 31
0.0
  0
POINT
  5
114
330
102
100
AcDbEntity
  8
Defpoints
 62
     0
 48
0.3
100
AcDbPoint
 10
0.534776648862955
 20
2.042400127542919
 30
0.0
  0
POINT
  5
115
330
102
100
AcDbEntity
  8
Defpoints
 62
     0
 48
0.3
100
AcDbPoint
 10
0.4131117368983471
 20
1.817158814288347
 30
0.0
  0
ENDBLK
  5
10C
330
102
100
AcDbEntity
  8
0
 48
0.3
100
AcDbBlockEnd
  0
BLOCK
  5
125
330
11A
100
AcDbEntity
  8
0
 48
0.3
100
AcDbBlockBegin
  2
*D4
 70
     1
 10
0.0
 20
0.0
 30
0.0
  3
*D4
  1

  0
LINE
  5
128
330
11A
100
AcDbEntity
  8
0
 62
     0
 48
0.3
370
    -2
100
AcDbLine
 10
2.241434355796144
 20
4.365120430637812
 30
0.0
 11
2.241434355796144
 21
3.704971766586403
 31
0.0
  0
LINE
  5
129
330
11A
100
AcDbEntity
  8
0
 62
     0
 48
0.3
370
    -2
100
AcDbLine
 10
3.241434355796144
 20
4.365120430637812
 30
0.0
 11
3.241434355796144
 21
3.704971766586403
 31
0.0
  0
LINE
  5
12A
330
11A
100
AcDbEntity
  8
0
 62
     0
 48
0.3
370
    -2
100
AcDbLine
 10
2.116434355796144
 20
3.884971766586403
 30
0.0
 11
1.991434355796144
 21
3.884971766586403
 31
0.0
  0
LINE
  5
12B
330
11A
100
AcDbEntity
  8
0
 62
     0
 48
0.3
370
    -2
100
AcDbLine
 10
3.366434355796144
 20
3.884971766586403
 30
0.0
 11
3.491434355796144
 21
3.884971766586403
 31
0.0
  0
SOLID
  5
12C
330
11A
100
AcDbEntity
  8
0
 62
     0
 48
0.3
100
AcDbTrace
 10
2.116434355796144
 20
3.905805099919736
 30
0.0
 11
2.116434355796144
 21
3.864138433253069
 31
0.0
 12
2.241434355796144
 22
3.884971766586403
 32
0.0
 13
2.241434355796144
 23
3.884971766586403
 33
0.0
  0
SOLID
  5
12D
330
11A
100
AcDbEntity
  8
0
 62
     0
 48
0.3
100
AcDbTrace
 10
3.366434355796144
 20
3.905805099919736
 30
0.0
 11
3.366434355796144
 21
3.864138433253069
 31
0.0
 12
3.241434355796144
 22
3.884971766586403
 32
0.0
 13
3.241434355796144
 23
3.884971766586403
 33
0.0
  0
MTEXT
  5
12E
330
11A
100
AcDbEntity
  8
0
 62
     0
 48
0.3
100
AcDbMText
 10
2.741434355796144
 20
3.884971766586403
 30
0.0
 40
0.125
 41
0.0
 71
     5
 72
     1
  1
\A1;1.000
 73
     1
 44
1.0
  0
POINT
  5
12F
330
11A
100
AcDbEntity
  8
Defpoints
 62
     0
 48
0.3
100
AcDbPoint
 10
2.241434355796144
 20
4.427620430637812
 30
0.0
  0
POINT
  5
130
330
11A
100
AcDbEntity
  8
Defpoints
 62
     0
 48
0.3
100
AcDbPoint
 10
3.241434355796144
 20
4.427620430637812
 30
0.0
  0
POINT
  5
131
330
11A
100
AcDbEntity
  8
Defpoints
 62
     0
 48
0.3
100
AcDbPoint
 10
3.241434355796144
 20
3.884971766586403
 30
0.0
  0
ENDBLK
  5
126
330
11A
100
AcDbEntity
  8
0
 48
0.3
100
AcDbBlockEnd
  0
BLOCK
  5
13F
330
134
100
AcDbEntity
  8
0
 48
0.3
100
AcDbBlockBegin
  2
*D5
 70
     1
 10
0.0
 20
0.0
 30
0.0
  3
*D5
  1

  0
LINE
  5
142
330
134
100
AcDbEntity
  8
0
 62
     0
 48
0.3
370
    -2
100
AcDbLine
 10
2.241434355796144
 20
4.514620430637812
 30
0.0
 11
2.241434355796144
 21
4.011634990389129
 31
0.0
  0
LINE
  5
143
330
134
100
AcDbEntity
  8
0
 62
     0
 48
0.3
370
    -2
100
AcDbLine
 10
2.991434355796144
 20
4.514620430637812
 30
0.0
 11
2.991434355796144
 21
4.011634990389129
 31
0.0
  0
LINE
  5
144
330
134
100
AcDbEntity
  8
0
 62
     0
 48
0.3
370
    -2
100
AcDbLine
 10
2.116434355796144
 20
4.191634990389129
 30
0.0
 11
1.991434355796144
 21
4.191634990389129
 31
0.0
  0
LINE
  5
145
330
134
100
AcDbEntity
  8
0
 62
     0
 48
0.3
370
    -2
100
AcDbLine
 10
3.116434355796144
 20
4.191634990389129
 30
0.0
 11
3.241434355796144
 21
4.191634990389129
 31
0.0
  0
SOLID
  5
146
330
134
100
AcDbEntity
  8
0
 62
     0
 48
0.3
100
AcDbTrace
 10
2.116434355796144
 20
4.212468323722462
 30
0.0
 11
2.116434355796144
 21
4.170801657055796
 31
0.0
 12
2.241434355796144
 22
4.191634990389129
 32
0.0
 13
2.241434355796144
 23
4.191634990389129
 33
0.0
  0
SOLID
  5
147
330
134
100
AcDbEntity
  8
0
 62
     0
 48
0.3
100
AcDbTrace
 10
3.116434355796144
 20
4.212468323722462
 30
0.0
 11
3.116434355796144
 21
4.170801657055796
 31
0.0
 12
2.991434355796144
 22
4.191634990389129
 32
0.0
 13
2.991434355796144
 23
4.191634990389129
 33
0.0
  0
MTEXT
  5
148
330
134
100
AcDbEntity
  8
0
 62
     0
 48
0.3
100
AcDbMText
 10
2.616434355796144
 20
4.191634990389129
 30
0.0
 40
0.125
 41
0.0
 71
     5
 72
     1
  1
\A1;0.750
 73
     1
 44
1.0
  0
POINT
  5
149
330
134
100
AcDbEntity
  8
Defpoints
 62
     0
 48
0.3
100
AcDbPoint
 10
2.241434355796144
 20
4.577120430637812
 30
0.0
  0
POINT
  5
14A
330
134
100
AcDbEntity
  8
Defpoints
 62
     0
 48
0.3
100
AcDbPoint
 10
2.991434355796144
 20
4.577120430637812
 30
0.0
  0
POINT
  5
14B
330
134
100
AcDbEntity
  8
Defpoints
 62
     0
 48
0.3
100
AcDbPoint
 10
2.991434355796144
 20
4.191634990389129
 30
0.0
  0
ENDBLK
  5
140
330
134
100
AcDbEntity
  8
0
 48
0.3
100
AcDbBlockEnd
  0
BLOCK
  5
159
330
14E
100
AcDbEntity
  8
0
 48
0.3
100
AcDbBlockBegin
  2
*D6
 70
     1
 10
0.0
 20
0.0
 30
0.0
  3
*D6
  1

  0
LINE
  5
15C
330
14E
100
AcDbEntity
  8
0
 62
     0
 48
0.3
370
    -2
100
AcDbLine
 10
2.241434355796143
 20
1.617279470915633
 30
0.0
 11
2.241434355796143
 21
0.903184981690117
 31
0.0
  0
LINE
  5
15D
330
14E
100
AcDbEntity
  8
0
 62
     0
 48
0.3
370
    -2
100
AcDbLine
 10
3.616434355796143
 20
1.617279470915633
 30
0.0
 11
3.616434355796143
 21
0.903184981690117
 31
0.0
  0
LINE
  5
15E
330
14E
100
AcDbEntity
  8
0
 62
     0
 48
0.3
370
    -2
100
AcDbLine
 10
2.366434355796143
 20
1.083184981690116
 30
0.0
 11
2.609767689129476
 21
1.083184981690116
 31
0.0
  0
LINE
  5
15F
330
14E
100
AcDbEntity
  8
0
 62
     0
 48
0.3
370
    -2
100
AcDbLine
 10
3.491434355796143
 20
1.083184981690116
 30
0.0
 11
3.24810102246281
 21
1.083184981690116
 31
0.0
  0
SOLID
  5
160
330
14E
100
AcDbEntity
  8
0
 62
     0
 48
0.3
100
AcDbTrace
 10
2.366434355796143
 20
1.10401831502345
 30
0.0
 11
2.366434355796143
 21
1.062351648356783
 31
0.0
 12
2.241434355796143
 22
1.083184981690116
 32
0.0
 13
2.241434355796143
 23
1.083184981690116
 33
0.0
  0
SOLID
  5
161
330
14E
100
AcDbEntity
  8
0
 62
     0
 48
0.3
100
AcDbTrace
 10
3.491434355796143
 20
1.10401831502345
 30
0.0
 11
3.491434355796143
 21
1.062351648356783
 31
0.0
 12
3.616434355796143
 22
1.083184981690116
 32
0.0
 13
3.616434355796143
 23
1.083184981690116
 33
0.0
  0
MTEXT
  5
162
330
14E
100
AcDbEntity
  8
0
 62
     0
 48
0.3
100
AcDbMText
 10
2.928934355796143
 20
1.083184981690116
 30
0.0
 40
0.125
 41
0.0
 71
     5
 72
     1
  1
\A1;1.375
 73
     1
 44
1.0
  0
POINT
  5
163
330
14E
100
AcDbEntity
  8
Defpoints
 62
     0
 48
0.3
100
AcDbPoint
 10
2.241434355796143
 20
1.679779470915633
 30
0.0
  0
POINT
  5
164
330
14E
100
AcDbEntity
  8
Defpoints
 62
     0
 48
0.3
100
AcDbPoint
 10
3.616434355796143
 20
1.679779470915633
 30
0.0
  0
POINT
  5
165
330
14E
100
AcDbEntity
  8
Defpoints
 62
     0
 48
0.3
100
AcDbPoint
 10
3.616434355796143
 20
1.083184981690116
 30
0.0
  0
ENDBLK
  5
15A
330
14E
100
AcDbEntity
  8
0
 48
0.3
100
AcDbBlockEnd
  0
ENDSEC
  0
SECTION
  2
ENTITIES
  0
VIEWPORT
  5
77
330
58
100
AcDbEntity
 67
     1
  8
0
100
AcDbViewport
 10
3.926102911721622
 20
2.456275151423737
 30
0.0
 40
18.46162917649515
 41
8.131908089646675
 68
     1
 69
     1
 12
3.926102911721622
 22
2.456275151423737
 13
0.0
 23
0.0
 14
0.5
 24
0.5
 15
0.5
 25
0.5
 16
0.0
 26
0.0
 36
1.0
 17
0.0
 27
0.0
 37
0.0
 42
50.0
 43
0.0
 44
0.0
 45
8.131908089646675
 50
0.0
 51
0.0
 72
   100
 90
    32800
  1

281
     0
 71
     1
 74
     0
110
0.0
120
0.0
130
0.0
111
1.0
121
0.0
131
0.0
112
0.0
122
1.0
132
0.0
 79
     0
146
0.0
  0
LWPOLYLINE
  5
86
330
58
100
AcDbEntity
 67
     1
  8
0
100
AcDbPolyline
 90
        4
 70
     1
 43
0.0
 10
-1.439262267973589
 20
6.396855050259421
 10
8.966538218833356
 20
6.396855050259421
 10
8.966538218833356
 20
-1.41285528304607
 10
-1.439262267973589
 20
-1.41285528304607
  0
LINE
  5
8A
330
58
100
AcDbEntity
 67
     1
  8
0
100
AcDbLine
 10
8.966538218833356
 20
-1.41285528304607
 30
0.0
 11
8.966538218833356
 21
-0.4128552830460706
 31
0.0
  0
LINE
  5
8B
330
58
100
AcDbEntity
 67
     1
  8
0
100
AcDbLine
 10
8.966538218833356
 20
-0.4128552830460706
 30
0.0
 11
6.466538218833356
 21
-0.4128552830460703
 31
0.0
  0
LINE
  5
8C
330
58
100
AcDbEntity
 67
     1
  8
0
100
AcDbLine
 10
6.466538218833356
 20
-0.4128552830460703
 30
0.0
 11
4.966538218833356
 21
-0.4128552830460701
 31
0.0
  0
LINE
  5
8D
330
58
100
AcDbEntity
 67
     1
  8
0
100
AcDbLine
 10
4.966538218833356
 20
-0.4128552830460701
 30
0.0
 11
4.966538218833356
 21
-1.41285528304607
 31
0.0
  0
LINE
  5
8E
330
58
100
AcDbEntity
 67
     1
  8
0
100
AcDbLine
 10
6.466538218833356
 20
-0.4128552830460703
 30
0.0
 11
6.466538218833356
 21
-1.40425062323316
 31
0.0
  0
MTEXT
  5
8F
330
58
100
AcDbEntity
 67
     1
  8
0
100
AcDbMText
 10
5.02064872125895
 20
-0.5532836662080878
 30
0.0
 40
0.1
 41
1.5
 71
     1
 72
     5
  1
  Tolerances\P.XXXX = +/- .001\P.XXX  = +/- .005\P.XX   = +/- .015\PMat: Aluminum
 73
     1
 44
1.0
  0
MTEXT
  5
AA
330
58
100
AcDbEntity
 67
     1
  8
0
 48
0.3
100
AcDbMText
 10
6.58451328325313
 20
-0.4564311999741509
 30
0.0
 40
0.1
 41
2.5
 71
     1
 72
     5
  1
G0704 PDB 2\PAlternate Base Legs\Pand Side Supports\PDaniel E. Kemp\P{\fArial|b0|i0|c0|p32;\H1.625x;©\fMS Shell Dlg|b0|i0|c0|p32;\H0.6538x; 12-29-}2011
 73
     1
 44
1.0
  0
MTEXT
  5
AC
330
58
100
AcDbEntity
 67
     1
  8
0
 48
0.3
100
AcDbMText
 10
-0.8330378939457148
 20
-0.9104262006358538
 30
0.0
 40
0.1625
 41
9.997099999999999
 71
     1
 72
     5
  1
{\fArial|b0|i0|c0|p32;© Daniel E. Kemp 2011}
 73
     1
 44
1.0
  0
CIRCLE
  5
B7
102
{ACAD_REACTORS
330
EA
102
}
330
58
100
AcDbEntity
 67
     1
  8
0
 48
0.3
100
AcDbCircle
 10
0.4739441928806514
 20
4.677620430637812
 30
0.0
 40
0.25
  0
CIRCLE
  5
B9
102
{ACAD_REACTORS
330
100
102
}
330
58
100
AcDbEntity
 67
     1
  8
0
 48
0.3
100
AcDbCircle
 10
0.4739441928806509
 20
1.929779470915633
 30
0.0
 40
0.25
  0
LINE
  5
BB
330
58
100
AcDbEntity
 67
     1
  8
0
 48
0.3
100
AcDbLine
 10
2.241434355796144
 20
4.927620430637812
 30
0.0
 11
3.241434355796144
 21
4.927620430637812
 31
0.0
  0
LINE
  5
BC
330
58
100
AcDbEntity
 67
     1
  8
0
 48
0.3
100
AcDbLine
 10
3.241434355796144
 20
4.927620430637812
 30
0.0
 11
3.241434355796144
 21
4.427620430637812
 31
0.0
  0
LINE
  5
BD
102
{ACAD_REACTORS
330
132
102
}
330
58
100
AcDbEntity
 67
     1
  8
0
 48
0.3
100
AcDbLine
 10
3.241434355796144
 20
4.427620430637812
 30
0.0
 11
2.241434355796144
 21
4.427620430637812
 31
0.0
  0
LINE
  5
BE
330
58
100
AcDbEntity
 67
     1
  8
0
 48
0.3
100
AcDbLine
 10
2.241434355796144
 20
4.427620430637812
 30
0.0
 11
2.241434355796144
 21
4.927620430637812
 31
0.0
  0
LINE
  5
C0
330
58
100
AcDbEntity
 67
     1
  8
0
 48
0.3
100
AcDbLine
 10
2.241434355796143
 20
2.179779470915633
 30
0.0
 11
3.616434355796143
 21
2.179779470915633
 31
0.0
  0
LINE
  5
C1
330
58
100
AcDbEntity
 67
     1
  8
0
 48
0.3
100
AcDbLine
 10
3.616434355796143
 20
2.179779470915633
 30
0.0
 11
3.616434355796143
 21
1.679779470915633
 31
0.0
  0
LINE
  5
C2
102
{ACAD_REACTORS
330
166
102
}
330
58
100
AcDbEntity
 67
     1
  8
0
 48
0.3
100
AcDbLine
 10
3.616434355796143
 20
1.679779470915633
 30
0.0
 11
2.241434355796143
 21
1.679779470915633
 31
0.0
  0
LINE
  5
C3
330
58
100
AcDbEntity
 67
     1
  8
0
 48
0.3
100
AcDbLine
 10
2.241434355796143
 20
1.679779470915633
 30
0.0
 11
2.241434355796143
 21
2.179779470915633
 31
0.0
  0
CIRCLE
  5
C4
330
58
100
AcDbEntity
 67
     1
  8
0
 48
0.3
100
AcDbCircle
 10
0.4739441928806514
 20
4.677620430637812
 30
0.0
 40
0.1005
  0
CIRCLE
  5
C5
102
{ACAD_REACTORS
330
116
102
}
330
58
100
AcDbEntity
 67
     1
  8
0
 48
0.3
100
AcDbCircle
 10
0.4739441928806509
 20
1.929779470915633
 30
0.0
 40
0.128
  0
LINE
  5
C7
330
58
100
AcDbEntity
 67
     1
  8
0
  6
threads
 48
0.3
100
AcDbLine
 10
2.241434355796144
 20
4.778120430637812
 30
0.0
 11
2.991434355796144
 21
4.778120430637812
 31
0.0
  0
LINE
  5
C9
102
{ACAD_REACTORS
330
14C
102
}
330
58
100
AcDbEntity
 67
     1
  8
0
  6
threads
 48
0.3
100
AcDbLine
 10
2.241434355796144
 20
4.577120430637812
 30
0.0
 11
2.991434355796144
 21
4.577120430637812
 31
0.0
  0
LINE
  5
CA
330
58
100
AcDbEntity
 67
     1
  8
0
  6
HIDDENX2
 48
0.3
100
AcDbLine
 10
2.991434355796144
 20
4.778120430637812
 30
0.0
 11
2.991434355796144
 21
4.577120430637812
 31
0.0
  0
LINE
  5
CC
330
58
100
AcDbEntity
 67
     1
  8
0
  6
HIDDENX2
 48
0.3
100
AcDbLine
 10
2.241434355796143
 20
2.057779470915633
 30
0.0
 11
3.616434355796143
 21
2.057779470915633
 31
0.0
  0
LINE
  5
CE
330
58
100
AcDbEntity
 67
     1
  8
0
  6
HIDDENX2
 48
0.3
100
AcDbLine
 10
2.241434355796143
 20
1.801779470915633
 30
0.0
 11
3.616434355796143
 21
1.801779470915633
 31
0.0
  0
LINE
  5
D0
330
58
100
AcDbEntity
 67
     1
  8
0
 48
0.3
100
AcDbLine
 10
2.241434355796143
 20
3.303699950776723
 30
0.0
 11
-0.8536726198644046
 21
3.303699950776723
 31
0.0
  0
LINE
  5
D1
330
58
100
AcDbEntity
 67
     1
  8
0
 48
0.3
100
AcDbLine
 10
-0.8536726198644046
 20
3.303699950776723
 30
0.0
 11
8.424985371451811
 21
3.303699950776723
 31
0.0
  0
MTEXT
  5
D2
330
58
100
AcDbEntity
 67
     1
  8
0
 48
0.3
100
AcDbMText
 10
5.279972119241101
 20
4.892603408599214
 30
0.0
 40
0.125
 41
3.145
 71
     1
 72
     5
  1
Alternate PDB 2 \PBase Legs (4)
 73
     1
 44
1.0
  0
MTEXT
  5
D3
330
58
100
AcDbEntity
 67
     1
  8
0
 48
0.3
100
AcDbMText
 10
5.2799721192411
 20
2.212765854320597
 30
0.0
 40
0.125
 41
2.067715881046723
 71
     1
 72
     5
  1
Alternate PDB 2 Side Supports (4)
 73
     1
 44
1.0
  0
DIMENSION
  5
D4
102
{ACAD_XDICTIONARY
360
E1
102
}
102
{ACAD_REACTORS
330
EA
102
}
330
58
100
AcDbEntity
 67
     1
  8
0
 48
0.3
100
AcDbDimension
  2
*D1
 10
0.6367773087000406
 20
4.487922311531297
 30
0.0
 11
-0.5982543022125695
 21
5.348591723372862
 31
0.0
 70
   163
 71
     5
 42
0.5000000000000005
  3
Standard
100
AcDbDiametricDimension
 15
0.3111110770612622
 25
4.867318549744327
 35
0.0
 40
0.0
1001
ACAD
1000
DSTYLE
1002
{
1070
   288
1070
     1
1002
}
  0
DIMENSION
  5
EB
102
{ACAD_XDICTIONARY
360
F7
102
}
102
{ACAD_REACTORS
330
100
102
}
330
58
100
AcDbEntity
 67
     1
  8
0
 48
0.3
100
AcDbDimension
  2
*D2
 10
0.62357242312361
 20
1.729501182740504
 30
0.0
 11
-0.514528601204173
 21
2.588622648035452
 31
0.0
 70
   163
 71
     5
 42
0.4999999999999992
  3
Standard
100
AcDbDiametricDimension
 15
0.3243159626376916
 25
2.130057759090761
 35
0.0
 40
0.0
1001
ACAD
1000
DSTYLE
1002
{
1070
   288
1070
     1
1002
}
  0
DIMENSION
  5
101
102
{ACAD_XDICTIONARY
360
10D
102
}
102
{ACAD_REACTORS
330
116
102
}
330
58
100
AcDbEntity
 67
     1
  8
0
 48
0.3
100
AcDbDimension
  2
*D3
 10
0.4131117368983471
 20
1.817158814288347
 30
0.0
 11
1.29419875296619
 21
2.491047992398073
 31
0.0
 70
   163
 71
     5
 42
0.2560000000000002
  3
Standard
100
AcDbDiametricDimension
 15
0.534776648862955
 25
2.042400127542919
 35
0.0
 40
0.0
1001
ACAD
1000
DSTYLE
1002
{
1070
   288
1070
     1
1002
}
  0
LEADER
  5
117
330
58
100
AcDbEntity
 67
     1
  8
0
 48
0.3
100
AcDbLeader
  3
Standard
 73
     0
 40
0.125
 41
0.6458333333333334
 76
     3
 10
0.4739441928806505
 20
4.767620430637812
 30
0.0
 10
0.8050239866356534
 20
5.292834777294359
 30
0.0
 10
0.9724753886524483
 20
5.292834777294359
 30
0.0
340
118
213
0.0
223
-0.0625
233
0.0
1001
ACAD
1000
DSTYLE
1002
{
1070
   147
1040
0.09
1070
    77
1070
     0
1002
}
  0
MTEXT
  5
118
102
{ACAD_REACTORS
330
117
102
}
330
58
100
AcDbEntity
 67
     1
  8
0
 48
0.3
100
AcDbMText
 10
1.062475388652448
 20
5.355334777294359
 30
0.0
 40
0.125
 41
0.0
 71
     1
 72
     1
  1
\A1;1/4-20
 73
     1
 44
1.0
  0
DIMENSION
  5
119
102
{ACAD_XDICTIONARY
360
127
102
}
102
{ACAD_REACTORS
330
132
102
}
330
58
100
AcDbEntity
 67
     1
  8
0
 48
0.3
100
AcDbDimension
  2
*D4
 10
3.241434355796144
 20
3.884971766586403
 30
0.0
 11
2.741434355796144
 21
3.884971766586403
 31
0.0
 70
    32
 71
     5
 42
1.0
  3
Standard
100
AcDbAlignedDimension
 13
2.241434355796144
 23
4.427620430637812
 33
0.0
 14
3.241434355796144
 24
4.427620430637812
 34
0.0
100
AcDbRotatedDimension
  0
DIMENSION
  5
133
102
{ACAD_XDICTIONARY
360
141
102
}
102
{ACAD_REACTORS
330
14C
102
}
330
58
100
AcDbEntity
 67
     1
  8
0
 48
0.3
100
AcDbDimension
  2
*D5
 10
2.991434355796144
 20
4.191634990389129
 30
0.0
 11
2.616434355796144
 21
4.191634990389129
 31
0.0
 70
    32
 71
     5
 42
0.75
  3
Standard
100
AcDbAlignedDimension
 13
2.241434355796144
 23
4.577120430637812
 33
0.0
 14
2.991434355796144
 24
4.577120430637812
 34
0.0
100
AcDbRotatedDimension
  0
DIMENSION
  5
14D
102
{ACAD_XDICTIONARY
360
15B
102
}
102
{ACAD_REACTORS
330
166
102
}
330
58
100
AcDbEntity
 67
     1
  8
0
 48
0.3
100
AcDbDimension
  2
*D6
 10
3.616434355796143
 20
1.083184981690116
 30
0.0
 11
2.928934355796143
 21
1.083184981690116
 31
0.0
 70
    32
 71
     5
 42
1.375
  3
Standard
100
AcDbAlignedDimension
 13
2.241434355796143
 23
1.679779470915633
 33
0.0
 14
3.616434355796143
 24
1.679779470915633
 34
0.0
100
AcDbRotatedDimension
  0
ENDSEC
  0
SECTION
  2
OBJECTS
  0
DICTIONARY
  5
C
330
0
100
AcDbDictionary
281
     1
  3
ACAD_GROUP
350
D
  3
ACAD_LAYOUT
350
1A
  3
ACAD_MLINESTYLE
350
17
  3
ACAD_PLOTSETTINGS
350
19
  3
ACAD_PLOTSTYLENAME
350
E
  3
AcDbVariableDictionary
350
66
  0
DICTIONARY
  5
E1
330
D4
100
AcDbDictionary
280
     1
281
     1
  3
ACAD_DIMASSOC
360
EA
  0
DICTIONARY
  5
F7
330
EB
100
AcDbDictionary
280
     1
281
     1
  3
ACAD_DIMASSOC
360
100
  0
DICTIONARY
  5
10D
330
101
100
AcDbDictionary
280
     1
281
     1
  3
ACAD_DIMASSOC
360
116
  0
DICTIONARY
  5
127
330
119
100
AcDbDictionary
280
     1
281
     1
  3
ACAD_DIMASSOC
360
132
  0
DICTIONARY
  5
141
330
133
100
AcDbDictionary
280
     1
281
     1
  3
ACAD_DIMASSOC
360
14C
  0
DICTIONARY
  5
15B
330
14D
100
AcDbDictionary
280
     1
281
     1
  3
ACAD_DIMASSOC
360
166
  0
DICTIONARY
  5
D
102
{ACAD_REACTORS
330
C
102
}
330
C
100
AcDbDictionary
281
     1
  0
DICTIONARY
  5
1A
102
{ACAD_REACTORS
330
C
102
}
330
C
100
AcDbDictionary
281
     1
  3
Layout1
350
59
  3
Layout2
350
5E
  3
Model
350
22
  0
DICTIONARY
  5
17
102
{ACAD_REACTORS
330
C
102
}
330
C
100
AcDbDictionary
281
     1
  3
Standard
350
18
  0
DICTIONARY
  5
19
102
{ACAD_REACTORS
330
C
102
}
330
C
100
AcDbDictionary
281
     1
  0
ACDBDICTIONARYWDFLT
  5
E
102
{ACAD_REACTORS
330
C
102
}
330
C
100
AcDbDictionary
281
     1
  3
Normal
350
F
100
AcDbDictionaryWithDefault
340
F
  0
DICTIONARY
  5
66
102
{ACAD_REACTORS
330
C
102
}
330
C
100
AcDbDictionary
281
     1
  3
DIMASSOC
350
67
  3
HIDETEXT
350
6B
  0
DIMASSOC
  5
EA
102
{ACAD_REACTORS
330
E1
102
}
330
E1
100
AcDbDimAssoc
330
D4
 90
        2
 70
     0
 71
     0
  1
AcDbOsnapPointRef
 72
     3
331
B7
 73
     2
 91
        0
 40
0.0
 10
0.0
 20
0.0
 30
0.0
 75
     0
  0
DIMASSOC
  5
100
102
{ACAD_REACTORS
330
F7
102
}
330
F7
100
AcDbDimAssoc
330
EB
 90
        2
 70
     0
 71
     0
  1
AcDbOsnapPointRef
 72
     3
331
B9
 73
     2
 91
        0
 40
0.0
 10
0.0
 20
0.0
 30
0.0
 75
     0
  0
DIMASSOC
  5
116
102
{ACAD_REACTORS
330
10D
102
}
330
10D
100
AcDbDimAssoc
330
101
 90
        2
 70
     0
 71
     0
  1
AcDbOsnapPointRef
 72
     3
331
C5
 73
     2
 91
        0
 40
0.0
 10
0.0
 20
0.0
 30
0.0
 75
     0
  0
DIMASSOC
  5
132
102
{ACAD_REACTORS
330
127
102
}
330
127
100
AcDbDimAssoc
330
119
 90
        3
 70
     0
 71
     0
  1
AcDbOsnapPointRef
 72
     1
331
BD
 73
     2
 91
        0
 40
1.0
 10
2.241434355796144
 20
4.427620430637812
 30
0.0
 75
     0
  1
AcDbOsnapPointRef
 72
    13
331
BD
 73
     2
 91
        0
 40
0.0
 10
3.241434355796144
 20
4.427620430637812
 30
0.0
 75
     0
  0
DIMASSOC
  5
14C
102
{ACAD_REACTORS
330
141
102
}
330
141
100
AcDbDimAssoc
330
133
 90
        3
 70
     0
 71
     0
  1
AcDbOsnapPointRef
 72
    13
331
C9
 73
     2
 91
        0
 40
0.0
 10
2.241434355796144
 20
4.577120430637812
 30
0.0
 75
     0
  1
AcDbOsnapPointRef
 72
     1
331
C9
 73
     2
 91
        0
 40
1.0
 10
2.991434355796144
 20
4.577120430637812
 30
0.0
 75
     0
  0
DIMASSOC
  5
166
102
{ACAD_REACTORS
330
15B
102
}
330
15B
100
AcDbDimAssoc
330
14D
 90
        3
 70
     0
 71
     0
  1
AcDbOsnapPointRef
 72
     1
331
C2
 73
     2
 91
        0
 40
1.0
 10
2.241434355796143
 20
1.679779470915633
 30
0.0
 75
     0
  1
AcDbOsnapPointRef
 72
    13
331
C2
 73
     2
 91
        0
 40
0.0
 10
3.616434355796143
 20
1.679779470915633
 30
0.0
 75
     0
  0
LAYOUT
  5
59
102
{ACAD_REACTORS
330
1A
102
}
330
1A
100
AcDbPlotSettings
  1

  2
none_device
  4
Letter_(8.50_x_11.00_Inches)
  6

 40
6.349999904632568
 41
6.349999904632568
 42
6.350006103515625
 43
6.350006103515625
 44
215.8999938964843
 45
279.3999938964843
 46
38.3032
 47
38.15079999999999
 48
0.0
 49
0.0
140
0.0
141
0.0
142
1.0
143
1.0
 70
   688
 72
     0
 73
     1
 74
     5
  7

 75
    16
147
1.0
148
0.0
149
0.0
100
AcDbLayout
  1
Layout1
 70
     1
 71
     1
 10
-1.75200024029589
 20
-1.757999996245376
 11
9.247999519408217
 21
6.741999763458731
 12
0.0
 22
0.0
 32
0.0
 14
-1.439262267973589
 24
-1.45797533402469
 34
0.0
 15
8.966538218833356
 25
6.396855050259421
 35
0.0
146
0.0
 13
0.0
 23
0.0
 33
0.0
 16
1.0
 26
0.0
 36
0.0
 17
0.0
 27
1.0
 37
0.0
 76
     0
330
58
331
77
  0
LAYOUT
  5
5E
102
{ACAD_REACTORS
330
1A
102
}
330
1A
100
AcDbPlotSettings
  1

  2
None
  4

  6

 40
0.0
 41
0.0
 42
0.0
 43
0.0
 44
0.0
 45
0.0
 46
0.0
 47
0.0
 48
0.0
 49
0.0
140
0.0
141
0.0
142
1.0
143
1.0
 70
   688
 72
     0
 73
     0
 74
     5
  7

 75
    16
147
1.0
148
0.0
149
0.0
100
AcDbLayout
  1
Layout2
 70
     1
 71
     2
 10
0.0
 20
0.0
 11
12.0
 21
9.0
 12
0.0
 22
0.0
 32
0.0
 14
0.0
 24
0.0
 34
0.0
 15
0.0
 25
0.0
 35
0.0
146
0.0
 13
0.0
 23
0.0
 33
0.0
 16
1.0
 26
0.0
 36
0.0
 17
0.0
 27
1.0
 37
0.0
 76
     0
330
5D
  0
LAYOUT
  5
22
102
{ACAD_REACTORS
330
1A
102
}
330
1A
100
AcDbPlotSettings
  1

  2
none_device
  4
ANSI_A_(8.50_x_11.00_Inches)
  6

 40
6.349999904632568
 41
19.04999923706054
 42
6.350006103515625
 43
19.04998779296875
 44
215.8999938964843
 45
279.3999938964843
 46
0.0
 47
0.0
 48
0.0
 49
0.0
140
0.0
141
0.0
142
1.0
143
2.584895464708373
 70
 11952
 72
     0
 73
     1
 74
     0
  7

 75
     0
147
0.3868628397755418
148
0.0
149
0.0
100
AcDbLayout
  1
Model
 70
     1
 71
     0
 10
0.0
 20
0.0
 11
12.0
 21
9.0
 12
0.0
 22
0.0
 32
0.0
 14
0.0
 24
0.0
 34
0.0
 15
0.0
 25
0.0
 35
0.0
146
0.0
 13
0.0
 23
0.0
 33
0.0
 16
1.0
 26
0.0
 36
0.0
 17
0.0
 27
1.0
 37
0.0
 76
     0
330
1F
  0
MLINESTYLE
  5
18
102
{ACAD_REACTORS
330
17
102
}
330
17
100
AcDbMlineStyle
  2
STANDARD
 70
     0
  3

 62
   256
 51
90.0
 52
90.0
 71
     2
 49
0.5
 62
   256
  6
BYLAYER
 49
-0.5
 62
   256
  6
BYLAYER
  0
ACDBPLACEHOLDER
  5
F
102
{ACAD_REACTORS
330
E
102
}
330
E
  0
DICTIONARYVAR
  5
67
102
{ACAD_REACTORS
330
66
102
}
330
66
100
DictionaryVariables
280
     0
  1
2
  0
DICTIONARYVAR
  5
6B
102
{ACAD_REACTORS
330
66
102
}
330
66
100
DictionaryVariables
280
     0
  1
1
  0
ENDSEC
  0
EOF
