  0
SECTION
  2
HEADER
  9
$ACADVER
  1
AC1015
  9
$ACADMAINTVER
 70
    13
  9
$DWGCODEPAGE
  3
ANSI_1252
  9
$INSBASE
 10
0.0
 20
0.0
 30
0.0
  9
$EXTMIN
 10
1.000000000000000E+20
 20
1.000000000000000E+20
 30
1.000000000000000E+20
  9
$EXTMAX
 10
-1.000000000000000E+20
 20
-1.000000000000000E+20
 30
-1.000000000000000E+20
  9
$LIMMIN
 10
0.0
 20
0.0
  9
$LIMMAX
 10
12.0
 20
9.0
  9
$ORTHOMODE
 70
     0
  9
$REGENMODE
 70
     1
  9
$FILLMODE
 70
     1
  9
$QTEXTMODE
 70
     0
  9
$MIRRTEXT
 70
     1
  9
$LTSCALE
 40
0.3
  9
$ATTMODE
 70
     1
  9
$TEXTSIZE
 40
0.2
  9
$TRACEWID
 40
0.05
  9
$TEXTSTYLE
  7
Standard
  9
$CLAYER
  8
0
  9
$CELTYPE
  6
ByLayer
  9
$CECOLOR
 62
   256
  9
$CELTSCALE
 40
0.3
  9
$DISPSILH
 70
     0
  9
$DIMSCALE
 40
1.0
  9
$DIMASZ
 40
0.125
  9
$DIMEXO
 40
0.0625
  9
$DIMDLI
 40
0.38
  9
$DIMRND
 40
0.0
  9
$DIMDLE
 40
0.0
  9
$DIMEXE
 40
0.18
  9
$DIMTP
 40
0.0
  9
$DIMTM
 40
0.0
  9
$DIMTXT
 40
0.125
  9
$DIMCEN
 40
0.09
  9
$DIMTSZ
 40
0.0
  9
$DIMTOL
 70
     0
  9
$DIMLIM
 70
     0
  9
$DIMTIH
 70
     1
  9
$DIMTOH
 70
     1
  9
$DIMSE1
 70
     0
  9
$DIMSE2
 70
     0
  9
$DIMTAD
 70
     0
  9
$DIMZIN
 70
     0
  9
$DIMBLK
  1

  9
$DIMASO
 70
     1
  9
$DIMSHO
 70
     1
  9
$DIMPOST
  1

  9
$DIMAPOST
  1

  9
$DIMALT
 70
     0
  9
$DIMALTD
 70
     2
  9
$DIMALTF
 40
25.4
  9
$DIMLFAC
 40
1.0
  9
$DIMTOFL
 70
     0
  9
$DIMTVP
 40
0.0
  9
$DIMTIX
 70
     0
  9
$DIMSOXD
 70
     0
  9
$DIMSAH
 70
     0
  9
$DIMBLK1
  1

  9
$DIMBLK2
  1

  9
$DIMSTYLE
  2
Standard
  9
$DIMCLRD
 70
     0
  9
$DIMCLRE
 70
     0
  9
$DIMCLRT
 70
     0
  9
$DIMTFAC
 40
1.0
  9
$DIMGAP
 40
0.09
  9
$DIMJUST
 70
     0
  9
$DIMSD1
 70
     0
  9
$DIMSD2
 70
     0
  9
$DIMTOLJ
 70
     1
  9
$DIMTZIN
 70
     0
  9
$DIMALTZ
 70
     0
  9
$DIMALTTZ
 70
     0
  9
$DIMUPT
 70
     0
  9
$DIMDEC
 70
     3
  9
$DIMTDEC
 70
     3
  9
$DIMALTU
 70
     2
  9
$DIMALTTD
 70
     2
  9
$DIMTXSTY
  7
Standard
  9
$DIMAUNIT
 70
     0
  9
$DIMADEC
 70
     0
  9
$DIMALTRND
 40
0.0
  9
$DIMAZIN
 70
     0
  9
$DIMDSEP
 70
    46
  9
$DIMATFIT
 70
     3
  9
$DIMFRAC
 70
     0
  9
$DIMLDRBLK
  1

  9
$DIMLUNIT
 70
     2
  9
$DIMLWD
 70
    -2
  9
$DIMLWE
 70
    -2
  9
$DIMTMOVE
 70
     0
  9
$LUNITS
 70
     2
  9
$LUPREC
 70
     4
  9
$SKETCHINC
 40
0.1
  9
$FILLETRAD
 40
0.5
  9
$AUNITS
 70
     0
  9
$AUPREC
 70
     0
  9
$MENU
  1
.
  9
$ELEVATION
 40
0.0
  9
$PELEVATION
 40
0.0
  9
$THICKNESS
 40
0.0
  9
$LIMCHECK
 70
     0
  9
$CHAMFERA
 40
0.5
  9
$CHAMFERB
 40
0.5
  9
$CHAMFERC
 40
1.0
  9
$CHAMFERD
 40
0.0
  9
$SKPOLY
 70
     0
  9
$TDCREATE
 40
2454412.579853507
  9
$TDUCREATE
 40
2454412.788186840
  9
$TDUPDATE
 40
2455925.737805266
  9
$TDUUPDATE
 40
2455925.946138599
  9
$TDINDWG
 40
0.4017539815
  9
$TDUSRTIMER
 40
0.4017539815
  9
$USRTIMER
 70
     1
  9
$ANGBASE
 50
0.0
  9
$ANGDIR
 70
     0
  9
$PDMODE
 70
     0
  9
$PDSIZE
 40
0.0
  9
$PLINEWID
 40
0.0
  9
$SPLFRAME
 70
     0
  9
$SPLINETYPE
 70
     6
  9
$SPLINESEGS
 70
     8
  9
$HANDSEED
  5
2BE
  9
$SURFTAB1
 70
     6
  9
$SURFTAB2
 70
     6
  9
$SURFTYPE
 70
     6
  9
$SURFU
 70
     6
  9
$SURFV
 70
     6
  9
$UCSBASE
  2

  9
$UCSNAME
  2

  9
$UCSORG
 10
0.0
 20
0.0
 30
0.0
  9
$UCSXDIR
 10
1.0
 20
0.0
 30
0.0
  9
$UCSYDIR
 10
0.0
 20
1.0
 30
0.0
  9
$UCSORTHOREF
  2

  9
$UCSORTHOVIEW
 70
     0
  9
$UCSORGTOP
 10
0.0
 20
0.0
 30
0.0
  9
$UCSORGBOTTOM
 10
0.0
 20
0.0
 30
0.0
  9
$UCSORGLEFT
 10
0.0
 20
0.0
 30
0.0
  9
$UCSORGRIGHT
 10
0.0
 20
0.0
 30
0.0
  9
$UCSORGFRONT
 10
0.0
 20
0.0
 30
0.0
  9
$UCSORGBACK
 10
0.0
 20
0.0
 30
0.0
  9
$PUCSBASE
  2

  9
$PUCSNAME
  2

  9
$PUCSORG
 10
0.0
 20
0.0
 30
0.0
  9
$PUCSXDIR
 10
1.0
 20
0.0
 30
0.0
  9
$PUCSYDIR
 10
0.0
 20
1.0
 30
0.0
  9
$PUCSORTHOREF
  2

  9
$PUCSORTHOVIEW
 70
     0
  9
$PUCSORGTOP
 10
0.0
 20
0.0
 30
0.0
  9
$PUCSORGBOTTOM
 10
0.0
 20
0.0
 30
0.0
  9
$PUCSORGLEFT
 10
0.0
 20
0.0
 30
0.0
  9
$PUCSORGRIGHT
 10
0.0
 20
0.0
 30
0.0
  9
$PUCSORGFRONT
 10
0.0
 20
0.0
 30
0.0
  9
$PUCSORGBACK
 10
0.0
 20
0.0
 30
0.0
  9
$USERI1
 70
     0
  9
$USERI2
 70
     0
  9
$USERI3
 70
     0
  9
$USERI4
 70
     0
  9
$USERI5
 70
     0
  9
$USERR1
 40
0.0
  9
$USERR2
 40
0.0
  9
$USERR3
 40
0.0
  9
$USERR4
 40
0.0
  9
$USERR5
 40
0.0
  9
$WORLDVIEW
 70
     1
  9
$SHADEDGE
 70
     3
  9
$SHADEDIF
 70
    70
  9
$TILEMODE
 70
     0
  9
$MAXACTVP
 70
    64
  9
$PINSBASE
 10
0.0
 20
0.0
 30
0.0
  9
$PLIMCHECK
 70
     0
  9
$PEXTMIN
 10
-1.439262267973589
 20
-1.41285528304607
 30
0.0
  9
$PEXTMAX
 10
8.966538218833356
 20
6.396855050259421
 30
0.0
  9
$PLIMMIN
 10
-1.75200024029589
 20
-1.757999996245376
  9
$PLIMMAX
 10
9.247999519408217
 20
6.741999763458731
  9
$UNITMODE
 70
     0
  9
$VISRETAIN
 70
     1
  9
$PLINEGEN
 70
     0
  9
$PSLTSCALE
 70
     1
  9
$TREEDEPTH
 70
  3020
  9
$CMLSTYLE
  2
Standard
  9
$CMLJUST
 70
     0
  9
$CMLSCALE
 40
1.0
  9
$PROXYGRAPHICS
 70
     1
  9
$MEASUREMENT
 70
     0
  9
$CELWEIGHT
370
    -1
  9
$ENDCAPS
280
     0
  9
$JOINSTYLE
280
     0
  9
$LWDISPLAY
290
     0
  9
$INSUNITS
 70
     1
  9
$HYPERLINKBASE
  1

  9
$STYLESHEET
  1

  9
$XEDIT
290
     1
  9
$CEPSNTYPE
380
     0
  9
$PSTYLEMODE
290
     1
  9
$FINGERPRINTGUID
  2
{FDEAD576-A652-11D2-9A35-0060089B3A3F}
  9
$VERSIONGUID
  2
{48786127-765F-4EC5-A417-F1BF2DE086AD}
  9
$EXTNAMES
290
     1
  9
$PSVPSCALE
 40
0.0
  9
$OLESTARTUP
290
     0
  0
ENDSEC
  0
SECTION
  2
CLASSES
  0
CLASS
  1
ACDBDICTIONARYWDFLT
  2
AcDbDictionaryWithDefault
  3
AutoCAD 2000
 90
        0
280
     0
281
     0
  0
CLASS
  1
ACDBPLACEHOLDER
  2
AcDbPlaceHolder
  3
AutoCAD 2000
 90
        0
280
     0
281
     0
  0
CLASS
  1
LAYOUT
  2
AcDbLayout
  3
AutoCAD 2000
 90
        0
280
     0
281
     0
  0
CLASS
  1
DICTIONARYVAR
  2
AcDbDictionaryVar
  3
AutoCAD 2000
 90
        0
280
     0
281
     0
  0
CLASS
  1
DIMASSOC
  2
AcDbDimAssoc
  3
"AcDbDimAssoc|Product Desc:     AcDim ARX App For Dimension|Company:          Autodesk, Inc.|WEB Address:      www.autodesk.com"
 90
        0
280
     0
281
     0
  0
ENDSEC
  0
SECTION
  2
TABLES
  0
TABLE
  2
VPORT
  5
8
330
0
100
AcDbSymbolTable
 70
     1
  0
VPORT
  5
74
330
8
100
AcDbSymbolTableRecord
100
AcDbViewportTableRecord
  2
*Active
 70
     0
 10
0.0
 20
0.0
 11
1.0
 21
1.0
 12
20.48748698095427
 22
9.784138269231398
 13
0.0
 23
0.0
 14
0.5
 24
0.5
 15
0.5
 25
0.5
 16
0.0
 26
0.0
 36
1.0
 17
0.0
 27
0.0
 37
0.0
 40
19.56827653846279
 41
2.093949044585987
 42
50.0
 43
0.0
 44
0.0
 50
0.0
 51
0.0
 71
     0
 72
   100
 73
     1
 74
     3
 75
     0
 76
     0
 77
     0
 78
     0
281
     0
 65
     1
110
0.0
120
0.0
130
0.0
111
1.0
121
0.0
131
0.0
112
0.0
122
1.0
132
0.0
 79
     0
146
0.0
  0
ENDTAB
  0
TABLE
  2
LTYPE
  5
5
330
0
100
AcDbSymbolTable
 70
     3
  0
LTYPE
  5
14
330
5
100
AcDbSymbolTableRecord
100
AcDbLinetypeTableRecord
  2
ByBlock
 70
     0
  3

 72
    65
 73
     0
 40
0.0
  0
LTYPE
  5
15
330
5
100
AcDbSymbolTableRecord
100
AcDbLinetypeTableRecord
  2
ByLayer
 70
     0
  3

 72
    65
 73
     0
 40
0.0
  0
LTYPE
  5
16
330
5
100
AcDbSymbolTableRecord
100
AcDbLinetypeTableRecord
  2
Continuous
 70
     0
  3
Solid line
 72
    65
 73
     0
 40
0.0
  0
LTYPE
  5
92
330
5
100
AcDbSymbolTableRecord
100
AcDbLinetypeTableRecord
  2
HIDDENX2
 70
     0
  3
Hidden (2x) ____ ____ ____ ____ ____ ____ ____
 72
    65
 73
     2
 40
0.75
 49
0.5
 74
     0
 49
-0.25
 74
     0
  0
LTYPE
  5
93
330
5
100
AcDbSymbolTableRecord
100
AcDbLinetypeTableRecord
  2
threads
 70
     0
  3
Zig zag /\/\/\/\/\/\/\/\/\/\/\/\/\/\/\/\/\/\/\/
 72
    65
 73
     4
 40
0.8001000000000001
 49
0.0001
 74
     0
 49
-0.2
 74
     4
 75
   131
340
91
 46
0.2
 50
0.0
 44
-0.2
 45
0.0
 49
-0.4
 74
     4
 75
   131
340
91
 46
0.2
 50
180.0
 44
0.2
 45
0.0
 49
-0.2
 74
     0
  0
ENDTAB
  0
TABLE
  2
LAYER
  5
2
330
0
100
AcDbSymbolTable
 70
     2
  0
LAYER
  5
10
330
2
100
AcDbSymbolTableRecord
100
AcDbLayerTableRecord
  2
0
 70
     0
 62
     7
  6
Continuous
370
    -3
390
F
  0
LAYER
  5
10C
330
2
100
AcDbSymbolTableRecord
100
AcDbLayerTableRecord
  2
Defpoints
 70
     0
 62
     7
  6
Continuous
290
     0
370
    -3
390
F
  0
ENDTAB
  0
TABLE
  2
STYLE
  5
3
330
0
100
AcDbSymbolTable
 70
     2
  0
STYLE
  5
11
330
3
100
AcDbSymbolTableRecord
100
AcDbTextStyleTableRecord
  2
Standard
 70
     0
 40
0.0
 41
1.0
 50
0.0
 71
     0
 42
0.2
  3
txt
  4

  0
STYLE
  5
91
330
3
100
AcDbSymbolTableRecord
100
AcDbTextStyleTableRecord
  2

 70
     1
 40
0.0
 41
1.0
 50
0.0
 71
     0
 42
0.2
  3
ltypeshp.shx
  4

  0
ENDTAB
  0
TABLE
  2
VIEW
  5
6
330
0
100
AcDbSymbolTable
 70
     0
  0
ENDTAB
  0
TABLE
  2
UCS
  5
7
330
0
100
AcDbSymbolTable
 70
     0
  0
ENDTAB
  0
TABLE
  2
APPID
  5
9
330
0
100
AcDbSymbolTable
 70
     1
  0
APPID
  5
12
330
9
100
AcDbSymbolTableRecord
100
AcDbRegAppTableRecord
  2
ACAD
 70
     0
  0
ENDTAB
  0
TABLE
  2
DIMSTYLE
  5
A
330
0
100
AcDbSymbolTable
 70
     1
100
AcDbDimStyleTable
 71
     1
340
27
  0
DIMSTYLE
105
27
102
{ACAD_REACTORS
330
10B
330
142
330
15C
330
176
330
190
330
1AC
330
1C8
330
1E2
330
1FC
330
216
330
23E
330
256
330
268
330
2A4
102
}
330
A
100
AcDbSymbolTableRecord
100
AcDbDimStyleTableRecord
  2
Standard
 70
     0
 41
0.125
140
0.125
271
     3
272
     3
340
11
  0
ENDTAB
  0
TABLE
  2
BLOCK_RECORD
  5
1
330
0
100
AcDbSymbolTable
 70
    15
  0
BLOCK_RECORD
  5
1F
330
1
100
AcDbSymbolTableRecord
100
AcDbBlockTableRecord
  2
*Model_Space
340
22
  0
BLOCK_RECORD
  5
58
330
1
100
AcDbSymbolTableRecord
100
AcDbBlockTableRecord
  2
*Paper_Space
340
59
  0
BLOCK_RECORD
  5
5D
330
1
100
AcDbSymbolTableRecord
100
AcDbBlockTableRecord
  2
*Paper_Space0
340
5E
  0
BLOCK_RECORD
  5
10D
330
1
100
AcDbSymbolTableRecord
100
AcDbBlockTableRecord
  2
*D1
340
0
  0
BLOCK_RECORD
  5
143
330
1
100
AcDbSymbolTableRecord
100
AcDbBlockTableRecord
  2
*D2
340
0
  0
BLOCK_RECORD
  5
15D
330
1
100
AcDbSymbolTableRecord
100
AcDbBlockTableRecord
  2
*D3
340
0
  0
BLOCK_RECORD
  5
177
330
1
100
AcDbSymbolTableRecord
100
AcDbBlockTableRecord
  2
*D4
340
0
  0
BLOCK_RECORD
  5
191
330
1
100
AcDbSymbolTableRecord
100
AcDbBlockTableRecord
  2
*D5
340
0
  0
BLOCK_RECORD
  5
1AD
330
1
100
AcDbSymbolTableRecord
100
AcDbBlockTableRecord
  2
*D6
340
0
  0
BLOCK_RECORD
  5
1C9
330
1
100
AcDbSymbolTableRecord
100
AcDbBlockTableRecord
  2
*D7
340
0
  0
BLOCK_RECORD
  5
1E3
330
1
100
AcDbSymbolTableRecord
100
AcDbBlockTableRecord
  2
*D8
340
0
  0
BLOCK_RECORD
  5
1FD
330
1
100
AcDbSymbolTableRecord
100
AcDbBlockTableRecord
  2
*D9
340
0
  0
BLOCK_RECORD
  5
217
330
1
100
AcDbSymbolTableRecord
100
AcDbBlockTableRecord
  2
*D10
340
0
  0
BLOCK_RECORD
  5
23F
330
1
100
AcDbSymbolTableRecord
100
AcDbBlockTableRecord
  2
*D11
340
0
  0
BLOCK_RECORD
  5
257
330
1
100
AcDbSymbolTableRecord
100
AcDbBlockTableRecord
  2
*D12
340
0
  0
BLOCK_RECORD
  5
269
330
1
100
AcDbSymbolTableRecord
100
AcDbBlockTableRecord
  2
*D13
340
0
  0
BLOCK_RECORD
  5
2A5
330
1
100
AcDbSymbolTableRecord
100
AcDbBlockTableRecord
  2
*D14
340
0
  0
ENDTAB
  0
ENDSEC
  0
SECTION
  2
BLOCKS
  0
BLOCK
  5
20
330
1F
100
AcDbEntity
  8
0
100
AcDbBlockBegin
  2
*Model_Space
 70
     0
 10
0.0
 20
0.0
 30
0.0
  3
*Model_Space
  1

  0
ENDBLK
  5
21
330
1F
100
AcDbEntity
  8
0
100
AcDbBlockEnd
  0
BLOCK
  5
5A
330
58
100
AcDbEntity
 67
     1
  8
0
100
AcDbBlockBegin
  2
*Paper_Space
 70
     0
 10
0.0
 20
0.0
 30
0.0
  3
*Paper_Space
  1

  0
ENDBLK
  5
5B
330
58
100
AcDbEntity
 67
     1
  8
0
100
AcDbBlockEnd
  0
BLOCK
  5
5F
330
5D
100
AcDbEntity
  8
0
100
AcDbBlockBegin
  2
*Paper_Space0
 70
     0
 10
0.0
 20
0.0
 30
0.0
  3
*Paper_Space0
  1

  0
ENDBLK
  5
60
330
5D
100
AcDbEntity
  8
0
100
AcDbBlockEnd
  0
BLOCK
  5
119
330
10D
100
AcDbEntity
  8
0
 48
0.3
100
AcDbBlockBegin
  2
*D1
 70
     1
 10
0.0
 20
0.0
 30
0.0
  3
*D1
  1

  0
LINE
  5
11C
330
10D
100
AcDbEntity
  8
0
 62
     0
 48
0.3
370
    -2
100
AcDbLine
 10
1.585848464773095
 20
4.711384908717732
 30
0.0
 11
-0.2057206244203727
 21
4.711384908717732
 31
0.0
  0
LINE
  5
11D
330
10D
100
AcDbEntity
  8
0
 62
     0
 48
0.3
370
    -2
100
AcDbLine
 10
1.585848464773095
 20
4.211384908717732
 30
0.0
 11
-0.2057206244203728
 21
4.211384908717732
 31
0.0
  0
LINE
  5
11E
330
10D
100
AcDbEntity
  8
0
 62
     0
 48
0.3
370
    -2
100
AcDbLine
 10
-0.0257206244203729
 20
4.586384908717732
 30
0.0
 11
-0.0257206244203729
 21
4.336384908717732
 31
0.0
  0
LINE
  5
11F
330
10D
100
AcDbEntity
  8
0
 62
     0
 48
0.3
370
    -2
100
AcDbLine
 10
-0.025720624420373
 20
4.211384908717732
 30
0.0
 11
-0.025720624420373
 21
4.086384908717732
 31
0.0
  0
LINE
  5
120
330
10D
100
AcDbEntity
  8
0
 62
     0
 48
0.3
370
    -2
100
AcDbLine
 10
-0.025720624420373
 20
4.086384908717732
 30
0.0
 11
-0.150720624420373
 21
4.086384908717732
 31
0.0
  0
SOLID
  5
121
330
10D
100
AcDbEntity
  8
0
 62
     0
 48
0.3
100
AcDbTrace
 10
-0.0465539577537062
 20
4.586384908717732
 30
0.0
 11
-0.0048872910870396
 21
4.586384908717732
 31
0.0
 12
-0.0257206244203729
 22
4.711384908717732
 32
0.0
 13
-0.0257206244203729
 23
4.711384908717732
 33
0.0
  0
SOLID
  5
122
330
10D
100
AcDbEntity
  8
0
 62
     0
 48
0.3
100
AcDbTrace
 10
-0.0465539577537063
 20
4.336384908717732
 30
0.0
 11
-0.0048872910870396
 21
4.336384908717732
 31
0.0
 12
-0.025720624420373
 22
4.211384908717732
 32
0.0
 13
-0.025720624420373
 23
4.211384908717732
 33
0.0
  0
MTEXT
  5
123
330
10D
100
AcDbEntity
  8
0
 62
     0
 48
0.3
100
AcDbMText
 10
-0.4594706244203736
 20
4.086384908717732
 30
0.0
 40
0.125
 41
0.0
 71
     5
 72
     1
  1
\A1;0.500
 73
     1
 44
1.0
  0
POINT
  5
124
330
10D
100
AcDbEntity
  8
Defpoints
 62
     0
 48
0.3
100
AcDbPoint
 10
1.648348464773095
 20
4.711384908717732
 30
0.0
  0
POINT
  5
125
330
10D
100
AcDbEntity
  8
Defpoints
 62
     0
 48
0.3
100
AcDbPoint
 10
1.648348464773095
 20
4.211384908717732
 30
0.0
  0
POINT
  5
126
330
10D
100
AcDbEntity
  8
Defpoints
 62
     0
 48
0.3
100
AcDbPoint
 10
-0.025720624420373
 20
4.211384908717732
 30
0.0
  0
ENDBLK
  5
11A
330
10D
100
AcDbEntity
  8
0
 48
0.3
100
AcDbBlockEnd
  0
BLOCK
  5
14E
330
143
100
AcDbEntity
  8
0
 48
0.3
100
AcDbBlockBegin
  2
*D2
 70
     1
 10
0.0
 20
0.0
 30
0.0
  3
*D2
  1

  0
LINE
  5
151
330
143
100
AcDbEntity
  8
0
 62
     0
 48
0.3
370
    -2
100
AcDbLine
 10
2.148397492942887
 20
4.336384908717732
 30
0.0
 11
2.148397492942887
 21
3.572387924189296
 31
0.0
  0
LINE
  5
152
330
143
100
AcDbEntity
  8
0
 62
     0
 48
0.3
370
    -2
100
AcDbLine
 10
1.648348464773095
 20
4.148884908717732
 30
0.0
 11
1.648348464773095
 21
3.572387924189296
 31
0.0
  0
LINE
  5
153
330
143
100
AcDbEntity
  8
0
 62
     0
 48
0.3
370
    -2
100
AcDbLine
 10
2.023397492942887
 20
3.752387924189296
 30
0.0
 11
1.773348464773095
 21
3.752387924189296
 31
0.0
  0
LINE
  5
154
330
143
100
AcDbEntity
  8
0
 62
     0
 48
0.3
370
    -2
100
AcDbLine
 10
1.648348464773095
 20
3.752387924189296
 30
0.0
 11
1.523348464773095
 21
3.752387924189296
 31
0.0
  0
SOLID
  5
155
330
143
100
AcDbEntity
  8
0
 62
     0
 48
0.3
100
AcDbTrace
 10
2.023397492942887
 20
3.773221257522629
 30
0.0
 11
2.023397492942887
 21
3.731554590855962
 31
0.0
 12
2.148397492942887
 22
3.752387924189296
 32
0.0
 13
2.148397492942887
 23
3.752387924189296
 33
0.0
  0
SOLID
  5
156
330
143
100
AcDbEntity
  8
0
 62
     0
 48
0.3
100
AcDbTrace
 10
1.773348464773095
 20
3.773221257522629
 30
0.0
 11
1.773348464773095
 21
3.731554590855962
 31
0.0
 12
1.648348464773095
 22
3.752387924189296
 32
0.0
 13
1.648348464773095
 23
3.752387924189296
 33
0.0
  0
MTEXT
  5
157
330
143
100
AcDbEntity
  8
0
 62
     0
 48
0.3
100
AcDbMText
 10
1.214598464773095
 20
3.752387924189296
 30
0.0
 40
0.125
 41
0.0
 71
     5
 72
     1
  1
\A1;0.500
 73
     1
 44
1.0
  0
POINT
  5
158
330
143
100
AcDbEntity
  8
Defpoints
 62
     0
 48
0.3
100
AcDbPoint
 10
2.148397492942887
 20
4.398884908717732
 30
0.0
  0
POINT
  5
159
330
143
100
AcDbEntity
  8
Defpoints
 62
     0
 48
0.3
100
AcDbPoint
 10
1.648348464773095
 20
4.211384908717732
 30
0.0
  0
POINT
  5
15A
330
143
100
AcDbEntity
  8
Defpoints
 62
     0
 48
0.3
100
AcDbPoint
 10
1.648348464773095
 20
3.752387924189296
 30
0.0
  0
ENDBLK
  5
14F
330
143
100
AcDbEntity
  8
0
 48
0.3
100
AcDbBlockEnd
  0
BLOCK
  5
168
330
15D
100
AcDbEntity
  8
0
 48
0.3
100
AcDbBlockBegin
  2
*D3
 70
     1
 10
0.0
 20
0.0
 30
0.0
  3
*D3
  1

  0
LINE
  5
16B
330
15D
100
AcDbEntity
  8
0
 62
     0
 48
0.3
370
    -2
100
AcDbLine
 10
2.148397492942887
 20
4.336384908717732
 30
0.0
 11
2.148397492942887
 21
3.585890442665757
 31
0.0
  0
LINE
  5
16C
330
15D
100
AcDbEntity
  8
0
 62
     0
 48
0.3
370
    -2
100
AcDbLine
 10
3.148348464773095
 20
4.423884908717733
 30
0.0
 11
3.148348464773095
 21
3.585890442665757
 31
0.0
  0
LINE
  5
16D
330
15D
100
AcDbEntity
  8
0
 62
     0
 48
0.3
370
    -2
100
AcDbLine
 10
2.023397492942887
 20
3.765890442665757
 30
0.0
 11
1.898397492942887
 21
3.765890442665757
 31
0.0
  0
LINE
  5
16E
330
15D
100
AcDbEntity
  8
0
 62
     0
 48
0.3
370
    -2
100
AcDbLine
 10
3.273348464773095
 20
3.765890442665757
 30
0.0
 11
3.398348464773095
 21
3.765890442665757
 31
0.0
  0
SOLID
  5
16F
330
15D
100
AcDbEntity
  8
0
 62
     0
 48
0.3
100
AcDbTrace
 10
2.023397492942887
 20
3.78672377599909
 30
0.0
 11
2.023397492942887
 21
3.745057109332423
 31
0.0
 12
2.148397492942887
 22
3.765890442665757
 32
0.0
 13
2.148397492942887
 23
3.765890442665757
 33
0.0
  0
SOLID
  5
170
330
15D
100
AcDbEntity
  8
0
 62
     0
 48
0.3
100
AcDbTrace
 10
3.273348464773095
 20
3.78672377599909
 30
0.0
 11
3.273348464773095
 21
3.745057109332423
 31
0.0
 12
3.148348464773095
 22
3.765890442665757
 32
0.0
 13
3.148348464773095
 23
3.765890442665757
 33
0.0
  0
MTEXT
  5
171
330
15D
100
AcDbEntity
  8
0
 62
     0
 48
0.3
100
AcDbMText
 10
2.648372978857991
 20
3.765890442665757
 30
0.0
 40
0.125
 41
0.0
 71
     5
 72
     1
  1
\A1;1.000
 73
     1
 44
1.0
  0
POINT
  5
172
330
15D
100
AcDbEntity
  8
Defpoints
 62
     0
 48
0.3
100
AcDbPoint
 10
2.148397492942887
 20
4.398884908717732
 30
0.0
  0
POINT
  5
173
330
15D
100
AcDbEntity
  8
Defpoints
 62
     0
 48
0.3
100
AcDbPoint
 10
3.148348464773095
 20
4.486384908717733
 30
0.0
  0
POINT
  5
174
330
15D
100
AcDbEntity
  8
Defpoints
 62
     0
 48
0.3
100
AcDbPoint
 10
3.148348464773095
 20
3.765890442665757
 30
0.0
  0
ENDBLK
  5
169
330
15D
100
AcDbEntity
  8
0
 48
0.3
100
AcDbBlockEnd
  0
BLOCK
  5
182
330
177
100
AcDbEntity
  8
0
 48
0.3
100
AcDbBlockBegin
  2
*D4
 70
     1
 10
0.0
 20
0.0
 30
0.0
  3
*D4
  1

  0
LINE
  5
185
330
177
100
AcDbEntity
  8
0
 62
     0
 48
0.3
370
    -2
100
AcDbLine
 10
2.148397492942887
 20
4.336384908717732
 30
0.0
 11
2.148397492942887
 21
3.234825261433392
 31
0.0
  0
LINE
  5
186
330
177
100
AcDbEntity
  8
0
 62
     0
 48
0.3
370
    -2
100
AcDbLine
 10
4.148397492942887
 20
4.336384908717732
 30
0.0
 11
4.148397492942887
 21
3.234825261433392
 31
0.0
  0
LINE
  5
187
330
177
100
AcDbEntity
  8
0
 62
     0
 48
0.3
370
    -2
100
AcDbLine
 10
2.273397492942887
 20
3.414825261433392
 30
0.0
 11
2.839647492942887
 21
3.414825261433392
 31
0.0
  0
LINE
  5
188
330
177
100
AcDbEntity
  8
0
 62
     0
 48
0.3
370
    -2
100
AcDbLine
 10
4.023397492942887
 20
3.414825261433392
 30
0.0
 11
3.457147492942887
 21
3.414825261433392
 31
0.0
  0
SOLID
  5
189
330
177
100
AcDbEntity
  8
0
 62
     0
 48
0.3
100
AcDbTrace
 10
2.273397492942887
 20
3.435658594766726
 30
0.0
 11
2.273397492942887
 21
3.393991928100059
 31
0.0
 12
2.148397492942887
 22
3.414825261433392
 32
0.0
 13
2.148397492942887
 23
3.414825261433392
 33
0.0
  0
SOLID
  5
18A
330
177
100
AcDbEntity
  8
0
 62
     0
 48
0.3
100
AcDbTrace
 10
4.023397492942887
 20
3.435658594766726
 30
0.0
 11
4.023397492942887
 21
3.393991928100059
 31
0.0
 12
4.148397492942887
 22
3.414825261433392
 32
0.0
 13
4.148397492942887
 23
3.414825261433392
 33
0.0
  0
MTEXT
  5
18B
330
177
100
AcDbEntity
  8
0
 62
     0
 48
0.3
100
AcDbMText
 10
3.148397492942887
 20
3.414825261433392
 30
0.0
 40
0.125
 41
0.0
 71
     5
 72
     1
  1
\A1;2.000
 73
     1
 44
1.0
  0
POINT
  5
18C
330
177
100
AcDbEntity
  8
Defpoints
 62
     0
 48
0.3
100
AcDbPoint
 10
2.148397492942887
 20
4.398884908717732
 30
0.0
  0
POINT
  5
18D
330
177
100
AcDbEntity
  8
Defpoints
 62
     0
 48
0.3
100
AcDbPoint
 10
4.148397492942887
 20
4.398884908717732
 30
0.0
  0
POINT
  5
18E
330
177
100
AcDbEntity
  8
Defpoints
 62
     0
 48
0.3
100
AcDbPoint
 10
4.148397492942887
 20
3.414825261433392
 30
0.0
  0
ENDBLK
  5
183
330
177
100
AcDbEntity
  8
0
 48
0.3
100
AcDbBlockEnd
  0
BLOCK
  5
19D
330
191
100
AcDbEntity
  8
0
 48
0.3
100
AcDbBlockBegin
  2
*D5
 70
     1
 10
0.0
 20
0.0
 30
0.0
  3
*D5
  1

  0
LINE
  5
1A0
330
191
100
AcDbEntity
  8
0
 62
     0
 48
0.3
370
    -2
100
AcDbLine
 10
3.210848464773095
 20
4.486384908717733
 30
0.0
 11
5.816937190937836
 21
4.486384908717733
 31
0.0
  0
LINE
  5
1A1
330
191
100
AcDbEntity
  8
0
 62
     0
 48
0.3
370
    -2
100
AcDbLine
 10
4.710848464773096
 20
4.711384908717732
 30
0.0
 11
5.816937190937835
 21
4.711384908717732
 31
0.0
  0
LINE
  5
1A2
330
191
100
AcDbEntity
  8
0
 62
     0
 48
0.3
370
    -2
100
AcDbLine
 10
5.636937190937835
 20
4.361384908717733
 30
0.0
 11
5.636937190937835
 21
4.236384908717733
 31
0.0
  0
LINE
  5
1A3
330
191
100
AcDbEntity
  8
0
 62
     0
 48
0.3
370
    -2
100
AcDbLine
 10
5.636937190937835
 20
4.836384908717732
 30
0.0
 11
5.636937190937835
 21
4.961384908717732
 31
0.0
  0
LINE
  5
1A4
330
191
100
AcDbEntity
  8
0
 62
     0
 48
0.3
370
    -2
100
AcDbLine
 10
5.636937190937835
 20
4.961384908717732
 30
0.0
 11
5.761937190937835
 21
4.961384908717732
 31
0.0
  0
SOLID
  5
1A5
330
191
100
AcDbEntity
  8
0
 62
     0
 48
0.3
100
AcDbTrace
 10
5.616103857604502
 20
4.361384908717733
 30
0.0
 11
5.657770524271168
 21
4.361384908717733
 31
0.0
 12
5.636937190937835
 22
4.486384908717733
 32
0.0
 13
5.636937190937835
 23
4.486384908717733
 33
0.0
  0
SOLID
  5
1A6
330
191
100
AcDbEntity
  8
0
 62
     0
 48
0.3
100
AcDbTrace
 10
5.616103857604502
 20
4.836384908717732
 30
0.0
 11
5.657770524271168
 21
4.836384908717732
 31
0.0
 12
5.636937190937835
 22
4.711384908717732
 32
0.0
 13
5.636937190937835
 23
4.711384908717732
 33
0.0
  0
MTEXT
  5
1A7
330
191
100
AcDbEntity
  8
0
 62
     0
 48
0.3
100
AcDbMText
 10
6.091520524271167
 20
4.961384908717733
 30
0.0
 40
0.125
 41
0.0
 71
     5
 72
     1
  1
\A1;0.225
 73
     1
 44
1.0
  0
POINT
  5
1A8
330
191
100
AcDbEntity
  8
Defpoints
 62
     0
 48
0.3
100
AcDbPoint
 10
3.148348464773095
 20
4.486384908717733
 30
0.0
  0
POINT
  5
1A9
330
191
100
AcDbEntity
  8
Defpoints
 62
     0
 48
0.3
100
AcDbPoint
 10
4.648348464773096
 20
4.711384908717732
 30
0.0
  0
POINT
  5
1AA
330
191
100
AcDbEntity
  8
Defpoints
 62
     0
 48
0.3
100
AcDbPoint
 10
5.636937190937835
 20
4.711384908717732
 30
0.0
  0
ENDBLK
  5
19E
330
191
100
AcDbEntity
  8
0
 48
0.3
100
AcDbBlockEnd
  0
BLOCK
  5
1B9
330
1AD
100
AcDbEntity
  8
0
 48
0.3
100
AcDbBlockBegin
  2
*D6
 70
     1
 10
0.0
 20
0.0
 30
0.0
  3
*D6
  1

  0
LINE
  5
1BC
330
1AD
100
AcDbEntity
  8
0
 62
     0
 48
0.3
370
    -2
100
AcDbLine
 10
4.210897492942887
 20
4.398884908717732
 30
0.0
 11
6.208863405374985
 21
4.398884908717731
 31
0.0
  0
LINE
  5
1BD
330
1AD
100
AcDbEntity
  8
0
 62
     0
 48
0.3
370
    -2
100
AcDbLine
 10
4.710848464773096
 20
4.211384908717732
 30
0.0
 11
6.208863405374984
 21
4.211384908717731
 31
0.0
  0
LINE
  5
1BE
330
1AD
100
AcDbEntity
  8
0
 62
     0
 48
0.3
370
    -2
100
AcDbLine
 10
6.028863405374984
 20
4.523884908717731
 30
0.0
 11
6.028863405374984
 21
4.648884908717731
 31
0.0
  0
LINE
  5
1BF
330
1AD
100
AcDbEntity
  8
0
 62
     0
 48
0.3
370
    -2
100
AcDbLine
 10
6.028863405374984
 20
4.086384908717731
 30
0.0
 11
6.028863405374984
 21
3.961384908717732
 31
0.0
  0
LINE
  5
1C0
330
1AD
100
AcDbEntity
  8
0
 62
     0
 48
0.3
370
    -2
100
AcDbLine
 10
6.028863405374984
 20
3.961384908717732
 30
0.0
 11
5.903863405374984
 21
3.961384908717732
 31
0.0
  0
SOLID
  5
1C1
330
1AD
100
AcDbEntity
  8
0
 62
     0
 48
0.3
100
AcDbTrace
 10
6.008030072041651
 20
4.523884908717731
 30
0.0
 11
6.049696738708317
 21
4.523884908717731
 31
0.0
 12
6.028863405374984
 22
4.398884908717731
 32
0.0
 13
6.028863405374984
 23
4.398884908717731
 33
0.0
  0
SOLID
  5
1C2
330
1AD
100
AcDbEntity
  8
0
 62
     0
 48
0.3
100
AcDbTrace
 10
6.008030072041651
 20
4.086384908717731
 30
0.0
 11
6.049696738708317
 21
4.086384908717731
 31
0.0
 12
6.028863405374984
 22
4.211384908717731
 32
0.0
 13
6.028863405374984
 23
4.211384908717731
 33
0.0
  0
MTEXT
  5
1C3
330
1AD
100
AcDbEntity
  8
0
 62
     0
 48
0.3
100
AcDbMText
 10
5.595113405374983
 20
3.961384908717733
 30
0.0
 40
0.125
 41
0.0
 71
     5
 72
     1
  1
\A1;0.188
 73
     1
 44
1.0
  0
POINT
  5
1C4
330
1AD
100
AcDbEntity
  8
Defpoints
 62
     0
 48
0.3
100
AcDbPoint
 10
4.148397492942887
 20
4.398884908717732
 30
0.0
  0
POINT
  5
1C5
330
1AD
100
AcDbEntity
  8
Defpoints
 62
     0
 48
0.3
100
AcDbPoint
 10
4.648348464773096
 20
4.211384908717732
 30
0.0
  0
POINT
  5
1C6
330
1AD
100
AcDbEntity
  8
Defpoints
 62
     0
 48
0.3
100
AcDbPoint
 10
6.028863405374984
 20
4.211384908717731
 30
0.0
  0
ENDBLK
  5
1BA
330
1AD
100
AcDbEntity
  8
0
 48
0.3
100
AcDbBlockEnd
  0
BLOCK
  5
1D4
330
1C9
100
AcDbEntity
  8
0
 48
0.3
100
AcDbBlockBegin
  2
*D7
 70
     1
 10
0.0
 20
0.0
 30
0.0
  3
*D7
  1

  0
LINE
  5
1D7
330
1C9
100
AcDbEntity
  8
0
 62
     0
 48
0.3
370
    -2
100
AcDbLine
 10
1.835848464773095
 20
2.324181412943246
 30
0.0
 11
-0.016514871068644
 21
2.324181412943247
 31
0.0
  0
LINE
  5
1D8
330
1C9
100
AcDbEntity
  8
0
 62
     0
 48
0.3
370
    -2
100
AcDbLine
 10
1.585848464773095
 20
1.324181412943247
 30
0.0
 11
-0.0165148710686442
 21
1.324181412943248
 31
0.0
  0
LINE
  5
1D9
330
1C9
100
AcDbEntity
  8
0
 62
     0
 48
0.3
370
    -2
100
AcDbLine
 10
0.163485128931356
 20
2.199181412943247
 30
0.0
 11
0.1634851289313559
 21
1.976681412943247
 31
0.0
  0
LINE
  5
1DA
330
1C9
100
AcDbEntity
  8
0
 62
     0
 48
0.3
370
    -2
100
AcDbLine
 10
0.1634851289313558
 20
1.449181412943248
 30
0.0
 11
0.1634851289313559
 21
1.671681412943247
 31
0.0
  0
SOLID
  5
1DB
330
1C9
100
AcDbEntity
  8
0
 62
     0
 48
0.3
100
AcDbTrace
 10
0.1426517955980227
 20
2.199181412943247
 30
0.0
 11
0.1843184622646893
 21
2.199181412943247
 31
0.0
 12
0.163485128931356
 22
2.324181412943247
 32
0.0
 13
0.163485128931356
 23
2.324181412943247
 33
0.0
  0
SOLID
  5
1DC
330
1C9
100
AcDbEntity
  8
0
 62
     0
 48
0.3
100
AcDbTrace
 10
0.1426517955980225
 20
1.449181412943248
 30
0.0
 11
0.1843184622646892
 21
1.449181412943248
 31
0.0
 12
0.1634851289313558
 22
1.324181412943248
 32
0.0
 13
0.1634851289313558
 23
1.324181412943248
 33
0.0
  0
MTEXT
  5
1DD
330
1C9
100
AcDbEntity
  8
0
 62
     0
 48
0.3
100
AcDbMText
 10
0.1634851289313556
 20
1.824181412943247
 30
0.0
 40
0.125
 41
0.0
 71
     5
 72
     1
  1
\A1;1.000
 73
     1
 44
1.0
  0
POINT
  5
1DE
330
1C9
100
AcDbEntity
  8
Defpoints
 62
     0
 48
0.3
100
AcDbPoint
 10
1.898348464773095
 20
2.324181412943246
 30
0.0
  0
POINT
  5
1DF
330
1C9
100
AcDbEntity
  8
Defpoints
 62
     0
 48
0.3
100
AcDbPoint
 10
1.648348464773095
 20
1.324181412943247
 30
0.0
  0
POINT
  5
1E0
330
1C9
100
AcDbEntity
  8
Defpoints
 62
     0
 48
0.3
100
AcDbPoint
 10
0.1634851289313558
 20
1.324181412943248
 30
0.0
  0
ENDBLK
  5
1D5
330
1C9
100
AcDbEntity
  8
0
 48
0.3
100
AcDbBlockEnd
  0
BLOCK
  5
1EE
330
1E3
100
AcDbEntity
  8
0
 48
0.3
100
AcDbBlockBegin
  2
*D8
 70
     1
 10
0.0
 20
0.0
 30
0.0
  3
*D8
  1

  0
LINE
  5
1F1
330
1E3
100
AcDbEntity
  8
0
 62
     0
 48
0.3
370
    -2
100
AcDbLine
 10
1.585848464773095
 20
1.699181412943247
 30
0.0
 11
0.915999187956309
 21
1.699181412943248
 31
0.0
  0
LINE
  5
1F2
330
1E3
100
AcDbEntity
  8
0
 62
     0
 48
0.3
370
    -2
100
AcDbLine
 10
1.585848464773095
 20
1.324181412943247
 30
0.0
 11
0.915999187956309
 21
1.324181412943248
 31
0.0
  0
LINE
  5
1F3
330
1E3
100
AcDbEntity
  8
0
 62
     0
 48
0.3
370
    -2
100
AcDbLine
 10
1.095999187956309
 20
1.824181412943248
 30
0.0
 11
1.095999187956309
 21
1.949181412943248
 31
0.0
  0
LINE
  5
1F4
330
1E3
100
AcDbEntity
  8
0
 62
     0
 48
0.3
370
    -2
100
AcDbLine
 10
1.095999187956308
 20
1.199181412943248
 30
0.0
 11
1.095999187956308
 21
1.074181412943248
 31
0.0
  0
SOLID
  5
1F5
330
1E3
100
AcDbEntity
  8
0
 62
     0
 48
0.3
100
AcDbTrace
 10
1.075165854622975
 20
1.824181412943248
 30
0.0
 11
1.116832521289642
 21
1.824181412943248
 31
0.0
 12
1.095999187956309
 22
1.699181412943248
 32
0.0
 13
1.095999187956309
 23
1.699181412943248
 33
0.0
  0
SOLID
  5
1F6
330
1E3
100
AcDbEntity
  8
0
 62
     0
 48
0.3
100
AcDbTrace
 10
1.075165854622975
 20
1.199181412943248
 30
0.0
 11
1.116832521289642
 21
1.199181412943248
 31
0.0
 12
1.095999187956308
 22
1.324181412943248
 32
0.0
 13
1.095999187956308
 23
1.324181412943248
 33
0.0
  0
MTEXT
  5
1F7
330
1E3
100
AcDbEntity
  8
0
 62
     0
 48
0.3
100
AcDbMText
 10
1.095999187956308
 20
1.511681412943248
 30
0.0
 40
0.125
 41
0.0
 71
     5
 72
     1
  1
\A1;0.375
 73
     1
 44
1.0
  0
POINT
  5
1F8
330
1E3
100
AcDbEntity
  8
Defpoints
 62
     0
 48
0.3
100
AcDbPoint
 10
1.648348464773095
 20
1.699181412943247
 30
0.0
  0
POINT
  5
1F9
330
1E3
100
AcDbEntity
  8
Defpoints
 62
     0
 48
0.3
100
AcDbPoint
 10
1.648348464773095
 20
1.324181412943247
 30
0.0
  0
POINT
  5
1FA
330
1E3
100
AcDbEntity
  8
Defpoints
 62
     0
 48
0.3
100
AcDbPoint
 10
1.095999187956308
 20
1.324181412943248
 30
0.0
  0
ENDBLK
  5
1EF
330
1E3
100
AcDbEntity
  8
0
 48
0.3
100
AcDbBlockEnd
  0
BLOCK
  5
208
330
1FD
100
AcDbEntity
  8
0
 48
0.3
100
AcDbBlockBegin
  2
*D9
 70
     1
 10
0.0
 20
0.0
 30
0.0
  3
*D9
  1

  0
LINE
  5
20B
330
1FD
100
AcDbEntity
  8
0
 62
     0
 48
0.3
370
    -2
100
AcDbLine
 10
1.648348464773095
 20
1.261681412943247
 30
0.0
 11
1.648348464773095
 21
0.3047813162324109
 31
0.0
  0
LINE
  5
20C
330
1FD
100
AcDbEntity
  8
0
 62
     0
 48
0.3
370
    -2
100
AcDbLine
 10
4.648348464773095
 20
1.261681412943247
 30
0.0
 11
4.648348464773095
 21
0.3047813162324109
 31
0.0
  0
LINE
  5
20D
330
1FD
100
AcDbEntity
  8
0
 62
     0
 48
0.3
370
    -2
100
AcDbLine
 10
1.773348464773095
 20
0.4847813162324109
 30
0.0
 11
2.839598464773095
 21
0.4847813162324109
 31
0.0
  0
LINE
  5
20E
330
1FD
100
AcDbEntity
  8
0
 62
     0
 48
0.3
370
    -2
100
AcDbLine
 10
4.523348464773095
 20
0.4847813162324109
 30
0.0
 11
3.457098464773094
 21
0.4847813162324109
 31
0.0
  0
SOLID
  5
20F
330
1FD
100
AcDbEntity
  8
0
 62
     0
 48
0.3
100
AcDbTrace
 10
1.773348464773095
 20
0.5056146495657443
 30
0.0
 11
1.773348464773095
 21
0.4639479828990776
 31
0.0
 12
1.648348464773095
 22
0.4847813162324109
 32
0.0
 13
1.648348464773095
 23
0.4847813162324109
 33
0.0
  0
SOLID
  5
210
330
1FD
100
AcDbEntity
  8
0
 62
     0
 48
0.3
100
AcDbTrace
 10
4.523348464773095
 20
0.5056146495657443
 30
0.0
 11
4.523348464773095
 21
0.4639479828990776
 31
0.0
 12
4.648348464773095
 22
0.4847813162324109
 32
0.0
 13
4.648348464773095
 23
0.4847813162324109
 33
0.0
  0
MTEXT
  5
211
330
1FD
100
AcDbEntity
  8
0
 62
     0
 48
0.3
100
AcDbMText
 10
3.148348464773095
 20
0.4847813162324109
 30
0.0
 40
0.125
 41
0.0
 71
     5
 72
     1
  1
\A1;3.000
 73
     1
 44
1.0
  0
POINT
  5
212
330
1FD
100
AcDbEntity
  8
Defpoints
 62
     0
 48
0.3
100
AcDbPoint
 10
1.648348464773095
 20
1.324181412943247
 30
0.0
  0
POINT
  5
213
330
1FD
100
AcDbEntity
  8
Defpoints
 62
     0
 48
0.3
100
AcDbPoint
 10
4.648348464773095
 20
1.324181412943247
 30
0.0
  0
POINT
  5
214
330
1FD
100
AcDbEntity
  8
Defpoints
 62
     0
 48
0.3
100
AcDbPoint
 10
4.648348464773095
 20
0.4847813162324109
 30
0.0
  0
ENDBLK
  5
209
330
1FD
100
AcDbEntity
  8
0
 48
0.3
100
AcDbBlockEnd
  0
BLOCK
  5
21E
330
217
100
AcDbEntity
  8
0
 48
0.3
100
AcDbBlockBegin
  2
*D10
 70
     1
 10
0.0
 20
0.0
 30
0.0
  3
*D10
  1

  0
LINE
  5
221
330
217
100
AcDbEntity
  8
0
 62
     0
 48
0.3
370
    -2
100
AcDbLine
 10
3.545526981651846
 20
0.9708715540198296
 30
0.0
 11
3.420526981651846
 21
0.9708715540198294
 31
0.0
  0
LINE
  5
222
330
217
100
AcDbEntity
  8
0
 62
     0
 48
0.3
370
    -2
100
AcDbLine
 10
3.420526981651846
 20
0.9708715540198294
 30
0.0
 11
2.919494788972773
 21
1.621252103306133
 31
0.0
  0
MTEXT
  5
223
330
217
100
AcDbEntity
  8
0
 62
     0
 48
0.3
100
AcDbMText
 10
3.916776981651846
 20
0.9708715540198294
 30
0.0
 40
0.125
 41
0.0
 71
     5
 72
     1
  1
\A1;R0.500
 73
     1
 44
1.0
  0
SOLID
  5
224
330
217
100
AcDbEntity
  8
0
 62
     0
 48
0.3
100
AcDbTrace
 10
2.935998716215156
 20
1.633966196406151
 30
0.0
 11
2.902990861730391
 21
1.608538010206115
 31
0.0
 12
2.843210230372666
 22
1.720275666760428
 32
0.0
 13
2.843210230372666
 23
1.720275666760428
 33
0.0
  0
POINT
  5
225
330
217
100
AcDbEntity
  8
Defpoints
 62
     0
 48
0.3
100
AcDbPoint
 10
2.843210230372666
 20
1.720275666760428
 30
0.0
  0
POINT
  5
226
330
217
100
AcDbEntity
  8
Defpoints
 62
     0
 48
0.3
100
AcDbPoint
 10
3.148348464773095
 20
1.324181412943246
 30
0.0
  0
ENDBLK
  5
21F
330
217
100
AcDbEntity
  8
0
 48
0.3
100
AcDbBlockEnd
  0
BLOCK
  5
248
330
23F
100
AcDbEntity
  8
0
 48
0.3
100
AcDbBlockBegin
  2
*D11
 70
     1
 10
0.0
 20
0.0
 30
0.0
  3
*D11
  1

  0
LINE
  5
28F
330
23F
100
AcDbEntity
  8
0
 62
     0
 48
0.3
370
    -2
100
AcDbLine
 10
3.65356939118467
 20
5.157519747635293
 30
0.0
 11
3.52856939118467
 21
5.157519747635293
 31
0.0
  0
LINE
  5
290
330
23F
100
AcDbEntity
  8
0
 62
     0
 48
0.3
370
    -2
100
AcDbLine
 10
3.52856939118467
 20
5.157519747635293
 30
0.0
 11
3.289571595856914
 21
4.735660413424638
 31
0.0
  0
MTEXT
  5
291
330
23F
100
AcDbEntity
  8
0
 62
     0
 48
0.3
100
AcDbMText
 10
4.045652724518003
 20
5.157519747635293
 30
0.0
 40
0.125
 41
0.0
 71
     5
 72
     1
  1
\A1;\U+22050.323
 73
     1
 44
1.0
  0
SOLID
  5
292
330
23F
100
AcDbEntity
  8
0
 62
     0
 48
0.3
100
AcDbTrace
 10
3.27144510482238
 20
4.745929692880995
 30
0.0
 11
3.307698086891448
 21
4.725391133968281
 31
0.0
 12
3.227955919118773
 22
4.626901467217437
 32
0.0
 13
3.227955919118773
 23
4.626901467217437
 33
0.0
  0
LINE
  5
293
330
23F
100
AcDbEntity
  8
0
 62
     0
 48
0.3
370
    -2
100
AcDbLine
 10
3.058348464773095
 20
4.486384908717733
 30
0.0
 11
3.238348464773094
 21
4.486384908717733
 31
0.0
  0
LINE
  5
294
330
23F
100
AcDbEntity
  8
0
 62
     0
 48
0.3
370
    -2
100
AcDbLine
 10
3.148348464773095
 20
4.396384908717733
 30
0.0
 11
3.148348464773095
 21
4.576384908717733
 31
0.0
  0
POINT
  5
295
330
23F
100
AcDbEntity
  8
Defpoints
 62
     0
 48
0.3
100
AcDbPoint
 10
3.227955919118773
 20
4.626901467217437
 30
0.0
  0
POINT
  5
296
330
23F
100
AcDbEntity
  8
Defpoints
 62
     0
 48
0.3
100
AcDbPoint
 10
3.068741010427417
 20
4.345868350218029
 30
0.0
  0
ENDBLK
  5
249
330
23F
100
AcDbEntity
  8
0
 48
0.3
100
AcDbBlockEnd
  0
BLOCK
  5
25E
330
257
100
AcDbEntity
  8
0
 48
0.3
100
AcDbBlockBegin
  2
*D12
 70
     1
 10
0.0
 20
0.0
 30
0.0
  3
*D12
  1

  0
LINE
  5
261
330
257
100
AcDbEntity
  8
0
 62
     0
 48
0.3
370
    -2
100
AcDbLine
 10
4.977756903975789
 20
2.093116085564966
 30
0.0
 11
4.85275690397579
 21
2.093116085564966
 31
0.0
  0
LINE
  5
262
330
257
100
AcDbEntity
  8
0
 62
     0
 48
0.3
370
    -2
100
AcDbLine
 10
4.85275690397579
 20
2.093116085564966
 30
0.0
 11
4.546144245171753
 21
1.877214076632387
 31
0.0
  0
MTEXT
  5
263
330
257
100
AcDbEntity
  8
0
 62
     0
 48
0.3
100
AcDbMText
 10
5.359423570642457
 20
2.093116085564966
 30
0.0
 40
0.125
 41
0.0
 71
     5
 72
     1
  1
\A1;R0.250
 73
     1
 44
1.0
  0
SOLID
  5
264
330
257
100
AcDbEntity
  8
0
 62
     0
 48
0.3
100
AcDbTrace
 10
4.534149689119943
 20
1.894248113232611
 30
0.0
 11
4.558138801223563
 21
1.860180040032163
 31
0.0
 12
4.443940025570409
 22
1.805246740321528
 32
0.0
 13
4.443940025570409
 23
1.805246740321528
 33
0.0
  0
POINT
  5
265
330
257
100
AcDbEntity
  8
Defpoints
 62
     0
 48
0.3
100
AcDbPoint
 10
4.443940025570409
 20
1.805246740321528
 30
0.0
  0
POINT
  5
266
330
257
100
AcDbEntity
  8
Defpoints
 62
     0
 48
0.3
100
AcDbPoint
 10
4.648348464773095
 20
1.949181412943245
 30
0.0
  0
ENDBLK
  5
25F
330
257
100
AcDbEntity
  8
0
 48
0.3
100
AcDbBlockEnd
  0
BLOCK
  5
274
330
269
100
AcDbEntity
  8
0
 48
0.3
100
AcDbBlockBegin
  2
*D13
 70
     1
 10
0.0
 20
0.0
 30
0.0
  3
*D13
  1

  0
LINE
  5
277
330
269
100
AcDbEntity
  8
0
 62
     0
 48
0.3
370
    -2
100
AcDbLine
 10
1.898348464773095
 20
2.386681412943246
 30
0.0
 11
1.898348464773095
 21
2.872323211191314
 31
0.0
  0
LINE
  5
278
330
269
100
AcDbEntity
  8
0
 62
     0
 48
0.3
370
    -2
100
AcDbLine
 10
4.398348464773095
 20
2.386681412943246
 30
0.0
 11
4.398348464773095
 21
2.872323211191314
 31
0.0
  0
LINE
  5
279
330
269
100
AcDbEntity
  8
0
 62
     0
 48
0.3
370
    -2
100
AcDbLine
 10
2.023348464773095
 20
2.692323211191315
 30
0.0
 11
2.829181798106428
 21
2.692323211191315
 31
0.0
  0
LINE
  5
27A
330
269
100
AcDbEntity
  8
0
 62
     0
 48
0.3
370
    -2
100
AcDbLine
 10
4.273348464773095
 20
2.692323211191315
 30
0.0
 11
3.467515131439761
 21
2.692323211191315
 31
0.0
  0
SOLID
  5
27B
330
269
100
AcDbEntity
  8
0
 62
     0
 48
0.3
100
AcDbTrace
 10
2.023348464773095
 20
2.713156544524648
 30
0.0
 11
2.023348464773095
 21
2.671489877857981
 31
0.0
 12
1.898348464773095
 22
2.692323211191315
 32
0.0
 13
1.898348464773095
 23
2.692323211191315
 33
0.0
  0
SOLID
  5
27C
330
269
100
AcDbEntity
  8
0
 62
     0
 48
0.3
100
AcDbTrace
 10
4.273348464773095
 20
2.713156544524648
 30
0.0
 11
4.273348464773095
 21
2.671489877857981
 31
0.0
 12
4.398348464773095
 22
2.692323211191315
 32
0.0
 13
4.398348464773095
 23
2.692323211191315
 33
0.0
  0
MTEXT
  5
27D
330
269
100
AcDbEntity
  8
0
 62
     0
 48
0.3
100
AcDbMText
 10
3.148348464773095
 20
2.692323211191315
 30
0.0
 40
0.125
 41
0.0
 71
     5
 72
     1
  1
\A1;2.500
 73
     1
 44
1.0
  0
POINT
  5
27E
330
269
100
AcDbEntity
  8
Defpoints
 62
     0
 48
0.3
100
AcDbPoint
 10
1.898348464773095
 20
2.324181412943246
 30
0.0
  0
POINT
  5
27F
330
269
100
AcDbEntity
  8
Defpoints
 62
     0
 48
0.3
100
AcDbPoint
 10
4.398348464773095
 20
2.324181412943246
 30
0.0
  0
POINT
  5
280
330
269
100
AcDbEntity
  8
Defpoints
 62
     0
 48
0.3
100
AcDbPoint
 10
4.398348464773095
 20
2.692323211191315
 30
0.0
  0
ENDBLK
  5
275
330
269
100
AcDbEntity
  8
0
 48
0.3
100
AcDbBlockEnd
  0
BLOCK
  5
2B0
330
2A5
100
AcDbEntity
  8
0
 48
0.3
100
AcDbBlockBegin
  2
*D14
 70
     1
 10
0.0
 20
0.0
 30
0.0
  3
*D14
  1

  0
LINE
  5
2B3
330
2A5
100
AcDbEntity
  8
0
 62
     0
 48
0.3
370
    -2
100
AcDbLine
 10
4.338897492942887
 20
2.324181412943246
 30
0.0
 11
6.466875594541698
 21
2.324181412943246
 31
0.0
  0
LINE
  5
2B4
330
2A5
100
AcDbEntity
  8
0
 62
     0
 48
0.3
370
    -2
100
AcDbLine
 10
4.338897492942887
 20
1.574181412943247
 30
0.0
 11
6.466875594541697
 21
1.574181412943247
 31
0.0
  0
LINE
  5
2B5
330
2A5
100
AcDbEntity
  8
0
 62
     0
 48
0.3
370
    -2
100
AcDbLine
 10
6.286875594541698
 20
2.199181412943246
 30
0.0
 11
6.286875594541698
 21
2.101681412943246
 31
0.0
  0
LINE
  5
2B6
330
2A5
100
AcDbEntity
  8
0
 62
     0
 48
0.3
370
    -2
100
AcDbLine
 10
6.286875594541697
 20
1.699181412943247
 30
0.0
 11
6.286875594541697
 21
1.796681412943246
 31
0.0
  0
SOLID
  5
2B7
330
2A5
100
AcDbEntity
  8
0
 62
     0
 48
0.3
100
AcDbTrace
 10
6.266042261208365
 20
2.199181412943246
 30
0.0
 11
6.307708927875031
 21
2.199181412943246
 31
0.0
 12
6.286875594541698
 22
2.324181412943246
 32
0.0
 13
6.286875594541698
 23
2.324181412943246
 33
0.0
  0
SOLID
  5
2B8
330
2A5
100
AcDbEntity
  8
0
 62
     0
 48
0.3
100
AcDbTrace
 10
6.266042261208364
 20
1.699181412943247
 30
0.0
 11
6.30770892787503
 21
1.699181412943247
 31
0.0
 12
6.286875594541697
 22
1.574181412943247
 32
0.0
 13
6.286875594541697
 23
1.574181412943247
 33
0.0
  0
MTEXT
  5
2B9
330
2A5
100
AcDbEntity
  8
0
 62
     0
 48
0.3
100
AcDbMText
 10
6.286875594541697
 20
1.949181412943247
 30
0.0
 40
0.125
 41
0.0
 71
     5
 72
     1
  1
\A1;0.750
 73
     1
 44
1.0
  0
POINT
  5
2BA
330
2A5
100
AcDbEntity
  8
Defpoints
 62
     0
 48
0.3
100
AcDbPoint
 10
4.276397492942887
 20
2.324181412943246
 30
0.0
  0
POINT
  5
2BB
330
2A5
100
AcDbEntity
  8
Defpoints
 62
     0
 48
0.3
100
AcDbPoint
 10
4.276397492942887
 20
1.574181412943247
 30
0.0
  0
POINT
  5
2BC
330
2A5
100
AcDbEntity
  8
Defpoints
 62
     0
 48
0.3
100
AcDbPoint
 10
6.286875594541697
 20
1.574181412943247
 30
0.0
  0
ENDBLK
  5
2B1
330
2A5
100
AcDbEntity
  8
0
 48
0.3
100
AcDbBlockEnd
  0
ENDSEC
  0
SECTION
  2
ENTITIES
  0
VIEWPORT
  5
77
330
58
100
AcDbEntity
 67
     1
  8
0
100
AcDbViewport
 10
4.216994099331778
 20
2.381194664062478
 30
0.0
 40
18.11188202572125
 41
7.977852797043887
 68
     1
 69
     1
 12
4.216994099331778
 22
2.381194664062478
 13
0.0
 23
0.0
 14
0.5
 24
0.5
 15
0.5
 25
0.5
 16
0.0
 26
0.0
 36
1.0
 17
0.0
 27
0.0
 37
0.0
 42
50.0
 43
0.0
 44
0.0
 45
7.977852797043887
 50
0.0
 51
0.0
 72
   100
 90
    32800
  1

281
     0
 71
     1
 74
     0
110
0.0
120
0.0
130
0.0
111
1.0
121
0.0
131
0.0
112
0.0
122
1.0
132
0.0
 79
     0
146
0.0
  0
LWPOLYLINE
  5
86
330
58
100
AcDbEntity
 67
     1
  8
0
100
AcDbPolyline
 90
        4
 70
     1
 43
0.0
 10
-1.439262267973589
 20
6.396855050259421
 10
8.966538218833356
 20
6.396855050259421
 10
8.966538218833356
 20
-1.41285528304607
 10
-1.439262267973589
 20
-1.41285528304607
  0
LINE
  5
8A
330
58
100
AcDbEntity
 67
     1
  8
0
100
AcDbLine
 10
8.966538218833356
 20
-1.41285528304607
 30
0.0
 11
8.966538218833356
 21
-0.4128552830460706
 31
0.0
  0
LINE
  5
8B
330
58
100
AcDbEntity
 67
     1
  8
0
100
AcDbLine
 10
8.966538218833356
 20
-0.4128552830460706
 30
0.0
 11
6.466538218833356
 21
-0.4128552830460703
 31
0.0
  0
LINE
  5
8C
330
58
100
AcDbEntity
 67
     1
  8
0
100
AcDbLine
 10
6.466538218833356
 20
-0.4128552830460703
 30
0.0
 11
4.966538218833356
 21
-0.4128552830460701
 31
0.0
  0
LINE
  5
8D
330
58
100
AcDbEntity
 67
     1
  8
0
100
AcDbLine
 10
4.966538218833356
 20
-0.4128552830460701
 30
0.0
 11
4.966538218833356
 21
-1.41285528304607
 31
0.0
  0
LINE
  5
8E
330
58
100
AcDbEntity
 67
     1
  8
0
100
AcDbLine
 10
6.466538218833356
 20
-0.4128552830460703
 30
0.0
 11
6.466538218833356
 21
-1.40425062323316
 31
0.0
  0
MTEXT
  5
8F
330
58
100
AcDbEntity
 67
     1
  8
0
100
AcDbMText
 10
5.02064872125895
 20
-0.5532836662080878
 30
0.0
 40
0.1
 41
1.5
 71
     1
 72
     5
  1
  Tolerances\P.XXXX = +/- .001\P.XXX  = +/- .005\P.XX   = +/- .015\PMat: Aluminum
 73
     1
 44
1.0
  0
MTEXT
  5
AA
330
58
100
AcDbEntity
 67
     1
  8
0
 48
0.3
100
AcDbMText
 10
6.688767870543038
 20
-0.5779304272488833
 30
0.0
 40
0.1
 41
2.5
 71
     1
 72
     5
  1
G0704 Power Drawbar 2\PBase Legs\PDaniel E. Kemp\P{\fArial|b0|i0|c0|p32;\H1.625x;©\fMS Shell Dlg|b0|i0|c0|p32;\H0.6538x; 12-08-}2011
 73
     1
 44
1.0
  0
MTEXT
  5
AC
330
58
100
AcDbEntity
 67
     1
  8
0
 48
0.3
100
AcDbMText
 10
-0.8330378939457148
 20
-0.9104262006358538
 30
0.0
 40
0.1625
 41
9.997099999999999
 71
     1
 72
     5
  1
{\fArial|b0|i0|c0|p32;© Daniel E. Kemp 2011}
 73
     1
 44
1.0
  0
LINE
  5
D9
102
{ACAD_REACTORS
330
1E1
330
281
102
}
330
58
100
AcDbEntity
 67
     1
  8
0
 48
0.3
100
AcDbLine
 10
1.898348464773095
 20
2.324181412943246
 30
0.0
 11
4.398348464773095
 21
2.324181412943246
 31
0.0
  0
ARC
  5
DD
102
{ACAD_REACTORS
330
1FB
102
}
330
58
100
AcDbEntity
 67
     1
  8
0
 48
0.3
100
AcDbCircle
 10
1.648348464773095
 20
1.949181412943247
 30
0.0
 40
0.25
100
AcDbArc
 50
270.0
 51
0.0
  0
LINE
  5
DF
330
58
100
AcDbEntity
 67
     1
  8
0
 48
0.3
100
AcDbLine
 10
1.648348464773095
 20
1.324181412943247
 30
0.0
 11
1.648348464773095
 21
1.699181412943247
 31
0.0
  0
LINE
  5
E0
330
58
100
AcDbEntity
 67
     1
  8
0
 48
0.3
100
AcDbLine
 10
1.648348464773095
 20
1.699181412943247
 30
0.0
 11
1.648348464773095
 21
1.699181412943247
 31
0.0
  0
LINE
  5
E2
330
58
100
AcDbEntity
 67
     1
  8
0
 48
0.3
100
AcDbLine
 10
1.898348464773095
 20
2.324181412943246
 30
0.0
 11
1.898348464773095
 21
1.949181412943247
 31
0.0
  0
CIRCLE
  5
E5
102
{ACAD_REACTORS
330
15B
330
175
330
18F
102
}
330
58
100
AcDbEntity
 67
     1
  8
0
 48
0.3
100
AcDbCircle
 10
2.148397492942887
 20
4.398884908717732
 30
0.0
 40
0.125
  0
ARC
  5
E9
102
{ACAD_REACTORS
330
267
102
}
330
58
100
AcDbEntity
 67
     1
  8
0
 48
0.3
100
AcDbCircle
 10
4.648348464773096
 20
1.949181412943247
 30
0.0
 40
0.25
100
AcDbArc
 50
180.0
 51
270.0000000000001
  0
LINE
  5
EA
330
58
100
AcDbEntity
 67
     1
  8
0
 48
0.3
100
AcDbLine
 10
4.398348464773095
 20
2.324181412943246
 30
0.0
 11
4.398348464773096
 21
1.949181412943247
 31
0.0
  0
LINE
  5
EB
330
58
100
AcDbEntity
 67
     1
  8
0
 48
0.3
100
AcDbLine
 10
4.648348464773095
 20
1.324181412943247
 30
0.0
 11
4.648348464773095
 21
1.699181412943247
 31
0.0
  0
LINE
  5
ED
330
58
100
AcDbEntity
 67
     1
  8
0
 48
0.3
100
AcDbLine
 10
4.648348464773096
 20
1.699181412943247
 30
0.0
 11
4.648348464773095
 21
1.699181412943247
 31
0.0
  0
CIRCLE
  5
F0
102
{ACAD_REACTORS
330
18F
330
1C7
102
}
330
58
100
AcDbEntity
 67
     1
  8
0
 48
0.3
100
AcDbCircle
 10
4.148397492942887
 20
4.398884908717732
 30
0.0
 40
0.125
  0
LINE
  5
F1
330
58
100
AcDbEntity
 67
     1
  8
0
  6
threads
 48
0.3
100
AcDbLine
 10
2.020397492942887
 20
2.324181412943246
 30
0.0
 11
2.020397492942887
 21
1.574181412943247
 31
0.0
  0
LINE
  5
F2
330
58
100
AcDbEntity
 67
     1
  8
0
  6
threads
 48
0.3
100
AcDbLine
 10
2.276397492942887
 20
2.324181412943246
 30
0.0
 11
2.276397492942887
 21
1.574181412943247
 31
0.0
  0
LINE
  5
F3
330
58
100
AcDbEntity
 67
     1
  8
0
  6
threads
 48
0.3
100
AcDbLine
 10
4.020397492942887
 20
2.324181412943246
 30
0.0
 11
4.020397492942887
 21
1.574181412943247
 31
0.0
  0
LINE
  5
F4
102
{ACAD_REACTORS
330
2BD
102
}
330
58
100
AcDbEntity
 67
     1
  8
0
  6
threads
 48
0.3
100
AcDbLine
 10
4.276397492942887
 20
2.324181412943246
 30
0.0
 11
4.276397492942887
 21
1.574181412943247
 31
0.0
  0
LINE
  5
F8
330
58
100
AcDbEntity
 67
     1
  8
0
 48
0.3
100
AcDbLine
 10
1.648348464773095
 20
4.211384908717732
 30
0.0
 11
1.648348464773095
 21
4.711384908717732
 31
0.0
  0
LINE
  5
F9
102
{ACAD_REACTORS
330
127
330
1AB
102
}
330
58
100
AcDbEntity
 67
     1
  8
0
 48
0.3
100
AcDbLine
 10
1.648348464773095
 20
4.711384908717732
 30
0.0
 11
4.648348464773096
 21
4.711384908717732
 31
0.0
  0
LINE
  5
FA
330
58
100
AcDbEntity
 67
     1
  8
0
 48
0.3
100
AcDbLine
 10
4.648348464773096
 20
4.711384908717732
 30
0.0
 11
4.648348464773096
 21
4.211384908717732
 31
0.0
  0
LINE
  5
FB
102
{ACAD_REACTORS
330
127
330
15B
330
1C7
102
}
330
58
100
AcDbEntity
 67
     1
  8
0
 48
0.3
100
AcDbLine
 10
1.648348464773095
 20
4.211384908717732
 30
0.0
 11
4.648348464773096
 21
4.211384908717732
 31
0.0
  0
LINE
  5
FC
330
58
100
AcDbEntity
 67
     1
  8
0
 48
0.3
100
AcDbLine
 10
1.898348464773095
 20
4.211384908717732
 30
0.0
 11
1.898348464773095
 21
4.711384908717732
 31
0.0
  0
LINE
  5
FD
330
58
100
AcDbEntity
 67
     1
  8
0
 48
0.3
100
AcDbLine
 10
4.398348464773086
 20
4.211384908717732
 30
0.0
 11
4.398348464773086
 21
4.711384908717732
 31
0.0
  0
CIRCLE
  5
FF
102
{ACAD_REACTORS
330
175
330
1AB
330
253
102
}
330
58
100
AcDbEntity
 67
     1
  8
0
 48
0.3
100
AcDbCircle
 10
3.148348464773095
 20
4.486384908717733
 30
0.0
 40
0.1615
  0
LINE
  5
101
330
58
100
AcDbEntity
 67
     1
  8
0
  6
HIDDENX2
 48
0.3
100
AcDbLine
 10
2.990348464773095
 20
2.324181412943246
 30
0.0
 11
2.990348464773095
 21
1.798561007782654
 31
0.0
  0
LINE
  5
103
330
58
100
AcDbEntity
 67
     1
  8
0
  6
HIDDENX2
 48
0.3
100
AcDbLine
 10
3.306348464773095
 20
2.324181412943246
 30
0.0
 11
3.306348464773095
 21
1.798561007782654
 31
0.0
  0
ARC
  5
105
102
{ACAD_REACTORS
330
227
102
}
330
58
100
AcDbEntity
 67
     1
  8
0
 48
0.3
100
AcDbCircle
 10
3.148348464773095
 20
1.324181412943247
 30
0.0
 40
0.5
100
AcDbArc
 50
0.0
 51
179.9999999999999
  0
LINE
  5
109
102
{ACAD_REACTORS
330
1E1
330
1FB
330
215
102
}
330
58
100
AcDbEntity
 67
     1
  8
0
 48
0.3
100
AcDbLine
 10
1.648348464773095
 20
1.324181412943247
 30
0.0
 11
2.648348464773095
 21
1.324181412943247
 31
0.0
  0
LINE
  5
10A
102
{ACAD_REACTORS
330
215
102
}
330
58
100
AcDbEntity
 67
     1
  8
0
 48
0.3
100
AcDbLine
 10
3.648348464773095
 20
1.324181412943247
 30
0.0
 11
4.648348464773095
 21
1.324181412943247
 31
0.0
  0
DIMENSION
  5
10B
102
{ACAD_XDICTIONARY
360
11B
102
}
102
{ACAD_REACTORS
330
127
102
}
330
58
100
AcDbEntity
 67
     1
  8
0
 48
0.3
100
AcDbDimension
  2
*D1
 10
-0.025720624420373
 20
4.211384908717732
 30
0.0
 11
-0.4594706244203736
 21
4.086384908717732
 31
0.0
 70
    32
 71
     5
 42
0.5
  3
Standard
100
AcDbAlignedDimension
 13
1.648348464773095
 23
4.711384908717732
 33
0.0
 14
1.648348464773095
 24
4.211384908717732
 34
0.0
 50
90.0
100
AcDbRotatedDimension
  0
DIMENSION
  5
142
102
{ACAD_XDICTIONARY
360
150
102
}
102
{ACAD_REACTORS
330
15B
102
}
330
58
100
AcDbEntity
 67
     1
  8
0
 48
0.3
100
AcDbDimension
  2
*D2
 10
1.648348464773095
 20
3.752387924189296
 30
0.0
 11
1.214598464773095
 21
3.752387924189296
 31
0.0
 70
    32
 71
     5
 42
0.5000490281697925
  3
Standard
100
AcDbAlignedDimension
 13
2.148397492942887
 23
4.398884908717732
 33
0.0
 14
1.648348464773095
 24
4.211384908717732
 34
0.0
100
AcDbRotatedDimension
  0
DIMENSION
  5
15C
102
{ACAD_XDICTIONARY
360
16A
102
}
102
{ACAD_REACTORS
330
175
102
}
330
58
100
AcDbEntity
 67
     1
  8
0
 48
0.3
100
AcDbDimension
  2
*D3
 10
3.148348464773095
 20
3.765890442665757
 30
0.0
 11
2.648372978857991
 21
3.765890442665757
 31
0.0
 70
    32
 71
     5
 42
0.9999509718302084
  3
Standard
100
AcDbAlignedDimension
 13
2.148397492942887
 23
4.398884908717732
 33
0.0
 14
3.148348464773095
 24
4.486384908717733
 34
0.0
100
AcDbRotatedDimension
  0
DIMENSION
  5
176
102
{ACAD_XDICTIONARY
360
184
102
}
102
{ACAD_REACTORS
330
18F
102
}
330
58
100
AcDbEntity
 67
     1
  8
0
 48
0.3
100
AcDbDimension
  2
*D4
 10
4.148397492942887
 20
3.414825261433392
 30
0.0
 11
3.148397492942887
 21
3.414825261433392
 31
0.0
 70
    32
 71
     5
 42
2.0
  3
Standard
100
AcDbAlignedDimension
 13
2.148397492942887
 23
4.398884908717732
 33
0.0
 14
4.148397492942887
 24
4.398884908717732
 34
0.0
100
AcDbRotatedDimension
  0
DIMENSION
  5
190
102
{ACAD_XDICTIONARY
360
19F
102
}
102
{ACAD_REACTORS
330
1AB
102
}
330
58
100
AcDbEntity
 67
     1
  8
0
 48
0.3
100
AcDbDimension
  2
*D5
 10
5.636937190937835
 20
4.711384908717732
 30
0.0
 11
6.091520524271167
 21
4.961384908717733
 31
0.0
 70
    32
 71
     5
 42
0.2249999999999996
  3
Standard
100
AcDbAlignedDimension
 13
3.148348464773095
 23
4.486384908717733
 33
0.0
 14
4.648348464773096
 24
4.711384908717732
 34
0.0
 50
90.0
100
AcDbRotatedDimension
  0
DIMENSION
  5
1AC
102
{ACAD_XDICTIONARY
360
1BB
102
}
102
{ACAD_REACTORS
330
1C7
102
}
330
58
100
AcDbEntity
 67
     1
  8
0
 48
0.3
100
AcDbDimension
  2
*D6
 10
6.028863405374984
 20
4.211384908717731
 30
0.0
 11
5.595113405374983
 21
3.961384908717733
 31
0.0
 70
    32
 71
     5
 42
0.1875
  3
Standard
100
AcDbAlignedDimension
 13
4.148397492942887
 23
4.398884908717732
 33
0.0
 14
4.648348464773096
 24
4.211384908717732
 34
0.0
 50
90.0
100
AcDbRotatedDimension
  0
DIMENSION
  5
1C8
102
{ACAD_XDICTIONARY
360
1D6
102
}
102
{ACAD_REACTORS
330
1E1
102
}
330
58
100
AcDbEntity
 67
     1
  8
0
 48
0.3
100
AcDbDimension
  2
*D7
 10
0.1634851289313558
 20
1.324181412943248
 30
0.0
 11
0.1634851289313556
 21
1.824181412943247
 31
0.0
 70
    32
 71
     5
 42
0.9999999999999991
  3
Standard
100
AcDbAlignedDimension
 13
1.898348464773095
 23
2.324181412943246
 33
0.0
 14
1.648348464773095
 24
1.324181412943247
 34
0.0
 50
90.0
100
AcDbRotatedDimension
  0
DIMENSION
  5
1E2
102
{ACAD_XDICTIONARY
360
1F0
102
}
102
{ACAD_REACTORS
330
1FB
102
}
330
58
100
AcDbEntity
 67
     1
  8
0
 48
0.3
100
AcDbDimension
  2
*D8
 10
1.095999187956308
 20
1.324181412943248
 30
0.0
 11
1.095999187956308
 21
1.511681412943248
 31
0.0
 70
    32
 71
     5
 42
0.375
  3
Standard
100
AcDbAlignedDimension
 13
1.648348464773095
 23
1.699181412943247
 33
0.0
 14
1.648348464773095
 24
1.324181412943247
 34
0.0
 50
90.0
100
AcDbRotatedDimension
  0
DIMENSION
  5
1FC
102
{ACAD_XDICTIONARY
360
20A
102
}
102
{ACAD_REACTORS
330
215
102
}
330
58
100
AcDbEntity
 67
     1
  8
0
 48
0.3
100
AcDbDimension
  2
*D9
 10
4.648348464773095
 20
0.4847813162324109
 30
0.0
 11
3.148348464773095
 21
0.4847813162324109
 31
0.0
 70
    32
 71
     5
 42
3.0
  3
Standard
100
AcDbAlignedDimension
 13
1.648348464773095
 23
1.324181412943247
 33
0.0
 14
4.648348464773095
 24
1.324181412943247
 34
0.0
100
AcDbRotatedDimension
  0
DIMENSION
  5
216
102
{ACAD_XDICTIONARY
360
220
102
}
102
{ACAD_REACTORS
330
227
102
}
330
58
100
AcDbEntity
 67
     1
  8
0
 48
0.3
100
AcDbDimension
  2
*D10
 10
3.148348464773095
 20
1.324181412943246
 30
0.0
 11
3.420526981651846
 21
0.9708715540198294
 31
0.0
 70
   164
 71
     5
 42
0.5000000000000016
  3
Standard
100
AcDbRadialDimension
 15
2.843210230372666
 25
1.720275666760428
 35
0.0
 40
0.0
1001
ACAD
1000
DSTYLE
1002
{
1070
   279
1070
     1
1070
   288
1070
     1
1002
}
  0
DIMENSION
  5
23E
102
{ACAD_XDICTIONARY
360
24A
102
}
102
{ACAD_REACTORS
330
253
102
}
330
58
100
AcDbEntity
 67
     1
  8
0
 48
0.3
100
AcDbDimension
  2
*D11
 10
3.068741010427417
 20
4.345868350218029
 30
0.0
 11
4.045652724518003
 21
5.157519747635293
 31
0.0
 70
   163
 71
     5
 42
0.3230000000000004
  3
Standard
100
AcDbDiametricDimension
 15
3.227955919118773
 25
4.626901467217437
 35
0.0
 40
0.0
1001
ACAD
1000
DSTYLE
1002
{
1070
   288
1070
     1
1002
}
  0
LEADER
  5
254
330
58
100
AcDbEntity
 67
     1
  8
0
 48
0.3
100
AcDbLeader
  3
Standard
 73
     0
 40
0.125
 41
0.6458333333333334
 76
     3
 10
2.148397492942887
 20
4.523884908717732
 30
0.0
 10
1.758144149810625
 20
5.19802726032816
 30
0.0
 10
1.568938435188869
 20
5.19802726032816
 30
0.0
340
255
213
0.0
223
0.0625
233
0.0
1001
ACAD
1000
DSTYLE
1002
{
1070
   147
1040
0.09
1070
    77
1070
     0
1002
}
  0
MTEXT
  5
255
102
{ACAD_REACTORS
330
254
102
}
330
58
100
AcDbEntity
 67
     1
  8
0
 48
0.3
100
AcDbMText
 10
1.478938435188869
 20
5.13552726032816
 30
0.0
 40
0.125
 41
0.0
 71
     9
 72
     1
  1
\A1;1/4-20
 73
     1
 44
1.0
  0
DIMENSION
  5
256
102
{ACAD_XDICTIONARY
360
260
102
}
102
{ACAD_REACTORS
330
267
102
}
330
58
100
AcDbEntity
 67
     1
  8
0
 48
0.3
100
AcDbDimension
  2
*D12
 10
4.648348464773095
 20
1.949181412943245
 30
0.0
 11
4.85275690397579
 21
2.093116085564966
 31
0.0
 70
   164
 71
     5
 42
0.2499999999999991
  3
Standard
100
AcDbRadialDimension
 15
4.443940025570409
 25
1.805246740321528
 35
0.0
 40
0.0
1001
ACAD
1000
DSTYLE
1002
{
1070
   279
1070
     1
1070
   288
1070
     1
1002
}
  0
DIMENSION
  5
268
102
{ACAD_XDICTIONARY
360
276
102
}
102
{ACAD_REACTORS
330
281
102
}
330
58
100
AcDbEntity
 67
     1
  8
0
 48
0.3
100
AcDbDimension
  2
*D13
 10
4.398348464773095
 20
2.692323211191315
 30
0.0
 11
3.148348464773095
 21
2.692323211191315
 31
0.0
 70
    32
 71
     5
 42
2.5
  3
Standard
100
AcDbAlignedDimension
 13
1.898348464773095
 23
2.324181412943246
 33
0.0
 14
4.398348464773095
 24
2.324181412943246
 34
0.0
100
AcDbRotatedDimension
  0
LINE
  5
29D
330
58
100
AcDbEntity
 67
     1
  8
0
  6
HIDDENX2
 48
0.3
100
AcDbLine
 10
2.276397492942887
 20
1.574181412943247
 30
0.0
 11
2.020397492942887
 21
1.574181412943247
 31
0.0
  0
LINE
  5
29F
330
58
100
AcDbEntity
 67
     1
  8
0
  6
HIDDENX2
 48
0.3
100
AcDbLine
 10
4.020397492942887
 20
1.574181412943247
 30
0.0
 11
4.276397492942887
 21
1.574181412943247
 31
0.0
  0
DIMENSION
  5
2A4
102
{ACAD_XDICTIONARY
360
2B2
102
}
102
{ACAD_REACTORS
330
2BD
102
}
330
58
100
AcDbEntity
 67
     1
  8
0
 48
0.3
100
AcDbDimension
  2
*D14
 10
6.286875594541697
 20
1.574181412943247
 30
0.0
 11
6.286875594541697
 21
1.949181412943247
 31
0.0
 70
    32
 71
     5
 42
0.7499999999999992
  3
Standard
100
AcDbAlignedDimension
 13
4.276397492942887
 23
2.324181412943246
 33
0.0
 14
4.276397492942887
 24
1.574181412943247
 34
0.0
 50
90.0
100
AcDbRotatedDimension
  0
ENDSEC
  0
SECTION
  2
OBJECTS
  0
DICTIONARY
  5
C
330
0
100
AcDbDictionary
281
     1
  3
ACAD_GROUP
350
D
  3
ACAD_LAYOUT
350
1A
  3
ACAD_MLINESTYLE
350
17
  3
ACAD_PLOTSETTINGS
350
19
  3
ACAD_PLOTSTYLENAME
350
E
  3
AcDbVariableDictionary
350
66
  0
DICTIONARY
  5
11B
330
10B
100
AcDbDictionary
280
     1
281
     1
  3
ACAD_DIMASSOC
360
127
  0
DICTIONARY
  5
150
330
142
100
AcDbDictionary
280
     1
281
     1
  3
ACAD_DIMASSOC
360
15B
  0
DICTIONARY
  5
16A
330
15C
100
AcDbDictionary
280
     1
281
     1
  3
ACAD_DIMASSOC
360
175
  0
DICTIONARY
  5
184
330
176
100
AcDbDictionary
280
     1
281
     1
  3
ACAD_DIMASSOC
360
18F
  0
DICTIONARY
  5
19F
330
190
100
AcDbDictionary
280
     1
281
     1
  3
ACAD_DIMASSOC
360
1AB
  0
DICTIONARY
  5
1BB
330
1AC
100
AcDbDictionary
280
     1
281
     1
  3
ACAD_DIMASSOC
360
1C7
  0
DICTIONARY
  5
1D6
330
1C8
100
AcDbDictionary
280
     1
281
     1
  3
ACAD_DIMASSOC
360
1E1
  0
DICTIONARY
  5
1F0
330
1E2
100
AcDbDictionary
280
     1
281
     1
  3
ACAD_DIMASSOC
360
1FB
  0
DICTIONARY
  5
20A
330
1FC
100
AcDbDictionary
280
     1
281
     1
  3
ACAD_DIMASSOC
360
215
  0
DICTIONARY
  5
220
330
216
100
AcDbDictionary
280
     1
281
     1
  3
ACAD_DIMASSOC
360
227
  0
DICTIONARY
  5
24A
330
23E
100
AcDbDictionary
280
     1
281
     1
  3
ACAD_DIMASSOC
360
253
  0
DICTIONARY
  5
260
330
256
100
AcDbDictionary
280
     1
281
     1
  3
ACAD_DIMASSOC
360
267
  0
DICTIONARY
  5
276
330
268
100
AcDbDictionary
280
     1
281
     1
  3
ACAD_DIMASSOC
360
281
  0
DICTIONARY
  5
2B2
330
2A4
100
AcDbDictionary
280
     1
281
     1
  3
ACAD_DIMASSOC
360
2BD
  0
DICTIONARY
  5
D
102
{ACAD_REACTORS
330
C
102
}
330
C
100
AcDbDictionary
281
     1
  0
DICTIONARY
  5
1A
102
{ACAD_REACTORS
330
C
102
}
330
C
100
AcDbDictionary
281
     1
  3
Layout1
350
59
  3
Layout2
350
5E
  3
Model
350
22
  0
DICTIONARY
  5
17
102
{ACAD_REACTORS
330
C
102
}
330
C
100
AcDbDictionary
281
     1
  3
Standard
350
18
  0
DICTIONARY
  5
19
102
{ACAD_REACTORS
330
C
102
}
330
C
100
AcDbDictionary
281
     1
  0
ACDBDICTIONARYWDFLT
  5
E
102
{ACAD_REACTORS
330
C
102
}
330
C
100
AcDbDictionary
281
     1
  3
Normal
350
F
100
AcDbDictionaryWithDefault
340
F
  0
DICTIONARY
  5
66
102
{ACAD_REACTORS
330
C
102
}
330
C
100
AcDbDictionary
281
     1
  3
DIMASSOC
350
67
  3
HIDETEXT
350
6B
  0
DIMASSOC
  5
127
102
{ACAD_REACTORS
330
11B
102
}
330
11B
100
AcDbDimAssoc
330
10B
 90
        3
 70
     0
 71
     0
  1
AcDbOsnapPointRef
 72
    13
331
F9
 73
     2
 91
        0
 40
0.0
 10
1.648348464773095
 20
4.711384908717732
 30
0.0
 75
     0
  1
AcDbOsnapPointRef
 72
    13
331
FB
 73
     2
 91
        0
 40
0.0
 10
1.648348464773095
 20
4.211384908717732
 30
0.0
 75
     0
  0
DIMASSOC
  5
15B
102
{ACAD_REACTORS
330
150
102
}
330
150
100
AcDbDimAssoc
330
142
 90
        3
 70
     0
 71
     0
  1
AcDbOsnapPointRef
 72
     3
331
E5
 73
     2
 91
        0
 40
0.0
 10
2.148397492942887
 20
4.398884908717732
 30
0.0
 75
     0
  1
AcDbOsnapPointRef
 72
    13
331
FB
 73
     2
 91
        0
 40
0.0
 10
1.648348464773095
 20
4.211384908717732
 30
0.0
 75
     0
  0
DIMASSOC
  5
175
102
{ACAD_REACTORS
330
16A
102
}
330
16A
100
AcDbDimAssoc
330
15C
 90
        3
 70
     0
 71
     0
  1
AcDbOsnapPointRef
 72
     3
331
E5
 73
     2
 91
        0
 40
0.0
 10
2.148397492942887
 20
4.398884908717732
 30
0.0
 75
     0
  1
AcDbOsnapPointRef
 72
     3
331
FF
 73
     2
 91
        0
 40
0.0
 10
3.148348464773095
 20
4.486384908717733
 30
0.0
 75
     0
  0
DIMASSOC
  5
18F
102
{ACAD_REACTORS
330
184
102
}
330
184
100
AcDbDimAssoc
330
176
 90
        3
 70
     0
 71
     0
  1
AcDbOsnapPointRef
 72
     3
331
E5
 73
     2
 91
        0
 40
0.0
 10
2.148397492942887
 20
4.398884908717732
 30
0.0
 75
     0
  1
AcDbOsnapPointRef
 72
     3
331
F0
 73
     2
 91
        0
 40
0.0
 10
4.148397492942887
 20
4.398884908717732
 30
0.0
 75
     0
  0
DIMASSOC
  5
1AB
102
{ACAD_REACTORS
330
19F
102
}
330
19F
100
AcDbDimAssoc
330
190
 90
        3
 70
     0
 71
     0
  1
AcDbOsnapPointRef
 72
     3
331
FF
 73
     2
 91
        0
 40
0.0
 10
3.148348464773095
 20
4.486384908717733
 30
0.0
 75
     0
  1
AcDbOsnapPointRef
 72
     1
331
F9
 73
     2
 91
        0
 40
1.0
 10
4.648348464773096
 20
4.711384908717732
 30
0.0
 75
     0
  0
DIMASSOC
  5
1C7
102
{ACAD_REACTORS
330
1BB
102
}
330
1BB
100
AcDbDimAssoc
330
1AC
 90
        3
 70
     0
 71
     0
  1
AcDbOsnapPointRef
 72
     3
331
F0
 73
     2
 91
        0
 40
0.0
 10
4.148397492942887
 20
4.398884908717732
 30
0.0
 75
     0
  1
AcDbOsnapPointRef
 72
     1
331
FB
 73
     2
 91
        0
 40
1.0
 10
4.648348464773096
 20
4.211384908717732
 30
0.0
 75
     0
  0
DIMASSOC
  5
1E1
102
{ACAD_REACTORS
330
1D6
102
}
330
1D6
100
AcDbDimAssoc
330
1C8
 90
        3
 70
     0
 71
     0
  1
AcDbOsnapPointRef
 72
    13
331
D9
 73
     2
 91
        0
 40
0.0
 10
1.898348464773095
 20
2.324181412943246
 30
0.0
 75
     0
  1
AcDbOsnapPointRef
 72
    13
331
109
 73
     2
 91
        0
 40
0.0
 10
1.648348464773095
 20
1.324181412943247
 30
0.0
 75
     0
  0
DIMASSOC
  5
1FB
102
{ACAD_REACTORS
330
1F0
102
}
330
1F0
100
AcDbDimAssoc
330
1E2
 90
        3
 70
     0
 71
     0
  1
AcDbOsnapPointRef
 72
    13
331
DD
 73
     2
 91
        0
 40
4.712388980384689
 10
1.648348464773095
 20
1.699181412943247
 30
0.0
 75
     0
  1
AcDbOsnapPointRef
 72
    13
331
109
 73
     2
 91
        0
 40
0.0
 10
1.648348464773095
 20
1.324181412943247
 30
0.0
 75
     0
  0
DIMASSOC
  5
215
102
{ACAD_REACTORS
330
20A
102
}
330
20A
100
AcDbDimAssoc
330
1FC
 90
        3
 70
     0
 71
     0
  1
AcDbOsnapPointRef
 72
    13
331
109
 73
     2
 91
        0
 40
0.0
 10
1.648348464773095
 20
1.324181412943247
 30
0.0
 75
     0
  1
AcDbOsnapPointRef
 72
     1
331
10A
 73
     2
 91
        0
 40
1.0
 10
4.648348464773095
 20
1.324181412943247
 30
0.0
 75
     0
  0
DIMASSOC
  5
227
102
{ACAD_REACTORS
330
220
102
}
330
220
100
AcDbDimAssoc
330
216
 90
        2
 70
     0
 71
     0
  1
AcDbOsnapPointRef
 72
     3
331
105
 73
     2
 91
        0
 40
0.0
 10
0.0
 20
0.0
 30
0.0
 75
     0
  0
DIMASSOC
  5
253
102
{ACAD_REACTORS
330
24A
102
}
330
24A
100
AcDbDimAssoc
330
23E
 90
        2
 70
     0
 71
     0
  1
AcDbOsnapPointRef
 72
     3
331
FF
 73
     2
 91
        0
 40
0.0
 10
3.148348464773095
 20
4.486384908717733
 30
0.0
 75
     0
  0
DIMASSOC
  5
267
102
{ACAD_REACTORS
330
260
102
}
330
260
100
AcDbDimAssoc
330
256
 90
        2
 70
     0
 71
     0
  1
AcDbOsnapPointRef
 72
     3
331
E9
 73
     2
 91
        0
 40
0.0
 10
0.0
 20
0.0
 30
0.0
 75
     0
  0
DIMASSOC
  5
281
102
{ACAD_REACTORS
330
276
102
}
330
276
100
AcDbDimAssoc
330
268
 90
        3
 70
     0
 71
     0
  1
AcDbOsnapPointRef
 72
    13
331
D9
 73
     2
 91
        0
 40
0.0
 10
1.898348464773095
 20
2.324181412943246
 30
0.0
 75
     0
  1
AcDbOsnapPointRef
 72
     1
331
D9
 73
     2
 91
        0
 40
1.0
 10
4.398348464773095
 20
2.324181412943246
 30
0.0
 75
     0
  0
DIMASSOC
  5
2BD
102
{ACAD_REACTORS
330
2B2
102
}
330
2B2
100
AcDbDimAssoc
330
2A4
 90
        3
 70
     0
 71
     0
  1
AcDbOsnapPointRef
 72
    13
331
F4
 73
     2
 91
        0
 40
0.0
 10
4.276397492942887
 20
2.324181412943246
 30
0.0
 75
     0
  1
AcDbOsnapPointRef
 72
     1
331
F4
 73
     2
 91
        0
 40
1.0
 10
4.276397492942887
 20
1.574181412943247
 30
0.0
 75
     0
  0
LAYOUT
  5
59
102
{ACAD_REACTORS
330
1A
102
}
330
1A
100
AcDbPlotSettings
  1

  2
none_device
  4
Letter_(8.50_x_11.00_Inches)
  6

 40
6.349999904632568
 41
6.349999904632568
 42
6.350006103515625
 43
6.350006103515625
 44
215.8999938964843
 45
279.3999938964843
 46
38.3032
 47
38.15079999999999
 48
0.0
 49
0.0
140
0.0
141
0.0
142
1.0
143
1.0
 70
   688
 72
     0
 73
     1
 74
     5
  7

 75
    16
147
1.0
148
0.0
149
0.0
100
AcDbLayout
  1
Layout1
 70
     1
 71
     1
 10
-1.75200024029589
 20
-1.757999996245376
 11
9.247999519408217
 21
6.741999763458731
 12
0.0
 22
0.0
 32
0.0
 14
-1.439262267973589
 24
-1.41285528304607
 34
0.0
 15
8.966538218833356
 25
6.396855050259421
 35
0.0
146
0.0
 13
0.0
 23
0.0
 33
0.0
 16
1.0
 26
0.0
 36
0.0
 17
0.0
 27
1.0
 37
0.0
 76
     0
330
58
331
77
  0
LAYOUT
  5
5E
102
{ACAD_REACTORS
330
1A
102
}
330
1A
100
AcDbPlotSettings
  1

  2
None
  4

  6

 40
0.0
 41
0.0
 42
0.0
 43
0.0
 44
0.0
 45
0.0
 46
0.0
 47
0.0
 48
0.0
 49
0.0
140
0.0
141
0.0
142
1.0
143
1.0
 70
   688
 72
     0
 73
     0
 74
     5
  7

 75
    16
147
1.0
148
0.0
149
0.0
100
AcDbLayout
  1
Layout2
 70
     1
 71
     2
 10
0.0
 20
0.0
 11
12.0
 21
9.0
 12
0.0
 22
0.0
 32
0.0
 14
0.0
 24
0.0
 34
0.0
 15
0.0
 25
0.0
 35
0.0
146
0.0
 13
0.0
 23
0.0
 33
0.0
 16
1.0
 26
0.0
 36
0.0
 17
0.0
 27
1.0
 37
0.0
 76
     0
330
5D
  0
LAYOUT
  5
22
102
{ACAD_REACTORS
330
1A
102
}
330
1A
100
AcDbPlotSettings
  1

  2
none_device
  4
ANSI_A_(8.50_x_11.00_Inches)
  6

 40
6.349999904632568
 41
19.04999923706054
 42
6.350006103515625
 43
19.04998779296875
 44
215.8999938964843
 45
279.3999938964843
 46
0.0
 47
0.0
 48
0.0
 49
0.0
140
0.0
141
0.0
142
1.0
143
2.584895464708373
 70
 11952
 72
     0
 73
     1
 74
     0
  7

 75
     0
147
0.3868628397755418
148
0.0
149
0.0
100
AcDbLayout
  1
Model
 70
     1
 71
     0
 10
0.0
 20
0.0
 11
12.0
 21
9.0
 12
0.0
 22
0.0
 32
0.0
 14
0.0
 24
0.0
 34
0.0
 15
0.0
 25
0.0
 35
0.0
146
0.0
 13
0.0
 23
0.0
 33
0.0
 16
1.0
 26
0.0
 36
0.0
 17
0.0
 27
1.0
 37
0.0
 76
     0
330
1F
  0
MLINESTYLE
  5
18
102
{ACAD_REACTORS
330
17
102
}
330
17
100
AcDbMlineStyle
  2
STANDARD
 70
     0
  3

 62
   256
 51
90.0
 52
90.0
 71
     2
 49
0.5
 62
   256
  6
BYLAYER
 49
-0.5
 62
   256
  6
BYLAYER
  0
ACDBPLACEHOLDER
  5
F
102
{ACAD_REACTORS
330
E
102
}
330
E
  0
DICTIONARYVAR
  5
67
102
{ACAD_REACTORS
330
66
102
}
330
66
100
DictionaryVariables
280
     0
  1
2
  0
DICTIONARYVAR
  5
6B
102
{ACAD_REACTORS
330
66
102
}
330
66
100
DictionaryVariables
280
     0
  1
1
  0
ENDSEC
  0
EOF
