  0
SECTION
  2
HEADER
  9
$ACADVER
  1
AC1015
  9
$ACADMAINTVER
 70
    13
  9
$DWGCODEPAGE
  3
ANSI_1252
  9
$INSBASE
 10
0.0
 20
0.0
 30
0.0
  9
$EXTMIN
 10
1.000000000000000E+20
 20
1.000000000000000E+20
 30
1.000000000000000E+20
  9
$EXTMAX
 10
-1.000000000000000E+20
 20
-1.000000000000000E+20
 30
-1.000000000000000E+20
  9
$LIMMIN
 10
0.0
 20
0.0
  9
$LIMMAX
 10
12.0
 20
9.0
  9
$ORTHOMODE
 70
     0
  9
$REGENMODE
 70
     1
  9
$FILLMODE
 70
     1
  9
$QTEXTMODE
 70
     0
  9
$MIRRTEXT
 70
     1
  9
$LTSCALE
 40
0.3
  9
$ATTMODE
 70
     1
  9
$TEXTSIZE
 40
0.2
  9
$TRACEWID
 40
0.05
  9
$TEXTSTYLE
  7
Standard
  9
$CLAYER
  8
0
  9
$CELTYPE
  6
ByLayer
  9
$CECOLOR
 62
   256
  9
$CELTSCALE
 40
0.3
  9
$DISPSILH
 70
     0
  9
$DIMSCALE
 40
1.0
  9
$DIMASZ
 40
0.125
  9
$DIMEXO
 40
0.0625
  9
$DIMDLI
 40
0.38
  9
$DIMRND
 40
0.0
  9
$DIMDLE
 40
0.0
  9
$DIMEXE
 40
0.18
  9
$DIMTP
 40
0.0
  9
$DIMTM
 40
0.0
  9
$DIMTXT
 40
0.125
  9
$DIMCEN
 40
0.09
  9
$DIMTSZ
 40
0.0
  9
$DIMTOL
 70
     0
  9
$DIMLIM
 70
     0
  9
$DIMTIH
 70
     1
  9
$DIMTOH
 70
     1
  9
$DIMSE1
 70
     0
  9
$DIMSE2
 70
     0
  9
$DIMTAD
 70
     0
  9
$DIMZIN
 70
     0
  9
$DIMBLK
  1

  9
$DIMASO
 70
     1
  9
$DIMSHO
 70
     1
  9
$DIMPOST
  1

  9
$DIMAPOST
  1

  9
$DIMALT
 70
     0
  9
$DIMALTD
 70
     2
  9
$DIMALTF
 40
25.4
  9
$DIMLFAC
 40
1.0
  9
$DIMTOFL
 70
     0
  9
$DIMTVP
 40
0.0
  9
$DIMTIX
 70
     0
  9
$DIMSOXD
 70
     0
  9
$DIMSAH
 70
     0
  9
$DIMBLK1
  1

  9
$DIMBLK2
  1

  9
$DIMSTYLE
  2
Standard
  9
$DIMCLRD
 70
     0
  9
$DIMCLRE
 70
     0
  9
$DIMCLRT
 70
     0
  9
$DIMTFAC
 40
1.0
  9
$DIMGAP
 40
0.09
  9
$DIMJUST
 70
     0
  9
$DIMSD1
 70
     0
  9
$DIMSD2
 70
     0
  9
$DIMTOLJ
 70
     1
  9
$DIMTZIN
 70
     0
  9
$DIMALTZ
 70
     0
  9
$DIMALTTZ
 70
     0
  9
$DIMUPT
 70
     0
  9
$DIMDEC
 70
     3
  9
$DIMTDEC
 70
     3
  9
$DIMALTU
 70
     2
  9
$DIMALTTD
 70
     2
  9
$DIMTXSTY
  7
Standard
  9
$DIMAUNIT
 70
     0
  9
$DIMADEC
 70
     0
  9
$DIMALTRND
 40
0.0
  9
$DIMAZIN
 70
     0
  9
$DIMDSEP
 70
    46
  9
$DIMATFIT
 70
     3
  9
$DIMFRAC
 70
     0
  9
$DIMLDRBLK
  1

  9
$DIMLUNIT
 70
     2
  9
$DIMLWD
 70
    -2
  9
$DIMLWE
 70
    -2
  9
$DIMTMOVE
 70
     0
  9
$LUNITS
 70
     2
  9
$LUPREC
 70
     4
  9
$SKETCHINC
 40
0.1
  9
$FILLETRAD
 40
0.5
  9
$AUNITS
 70
     0
  9
$AUPREC
 70
     0
  9
$MENU
  1
.
  9
$ELEVATION
 40
0.0
  9
$PELEVATION
 40
0.0
  9
$THICKNESS
 40
0.0
  9
$LIMCHECK
 70
     0
  9
$CHAMFERA
 40
0.5
  9
$CHAMFERB
 40
0.5
  9
$CHAMFERC
 40
1.0
  9
$CHAMFERD
 40
0.0
  9
$SKPOLY
 70
     0
  9
$TDCREATE
 40
2454412.579853507
  9
$TDUCREATE
 40
2454412.788186840
  9
$TDUPDATE
 40
2455925.762617187
  9
$TDUUPDATE
 40
2455925.970950521
  9
$TDINDWG
 40
0.3932731250
  9
$TDUSRTIMER
 40
0.3932731250
  9
$USRTIMER
 70
     1
  9
$ANGBASE
 50
0.0
  9
$ANGDIR
 70
     0
  9
$PDMODE
 70
     0
  9
$PDSIZE
 40
0.0
  9
$PLINEWID
 40
0.0
  9
$SPLFRAME
 70
     0
  9
$SPLINETYPE
 70
     6
  9
$SPLINESEGS
 70
     8
  9
$HANDSEED
  5
165
  9
$SURFTAB1
 70
     6
  9
$SURFTAB2
 70
     6
  9
$SURFTYPE
 70
     6
  9
$SURFU
 70
     6
  9
$SURFV
 70
     6
  9
$UCSBASE
  2

  9
$UCSNAME
  2

  9
$UCSORG
 10
0.0
 20
0.0
 30
0.0
  9
$UCSXDIR
 10
1.0
 20
0.0
 30
0.0
  9
$UCSYDIR
 10
0.0
 20
1.0
 30
0.0
  9
$UCSORTHOREF
  2

  9
$UCSORTHOVIEW
 70
     0
  9
$UCSORGTOP
 10
0.0
 20
0.0
 30
0.0
  9
$UCSORGBOTTOM
 10
0.0
 20
0.0
 30
0.0
  9
$UCSORGLEFT
 10
0.0
 20
0.0
 30
0.0
  9
$UCSORGRIGHT
 10
0.0
 20
0.0
 30
0.0
  9
$UCSORGFRONT
 10
0.0
 20
0.0
 30
0.0
  9
$UCSORGBACK
 10
0.0
 20
0.0
 30
0.0
  9
$PUCSBASE
  2

  9
$PUCSNAME
  2

  9
$PUCSORG
 10
0.0
 20
0.0
 30
0.0
  9
$PUCSXDIR
 10
1.0
 20
0.0
 30
0.0
  9
$PUCSYDIR
 10
0.0
 20
1.0
 30
0.0
  9
$PUCSORTHOREF
  2

  9
$PUCSORTHOVIEW
 70
     0
  9
$PUCSORGTOP
 10
0.0
 20
0.0
 30
0.0
  9
$PUCSORGBOTTOM
 10
0.0
 20
0.0
 30
0.0
  9
$PUCSORGLEFT
 10
0.0
 20
0.0
 30
0.0
  9
$PUCSORGRIGHT
 10
0.0
 20
0.0
 30
0.0
  9
$PUCSORGFRONT
 10
0.0
 20
0.0
 30
0.0
  9
$PUCSORGBACK
 10
0.0
 20
0.0
 30
0.0
  9
$USERI1
 70
     0
  9
$USERI2
 70
     0
  9
$USERI3
 70
     0
  9
$USERI4
 70
     0
  9
$USERI5
 70
     0
  9
$USERR1
 40
0.0
  9
$USERR2
 40
0.0
  9
$USERR3
 40
0.0
  9
$USERR4
 40
0.0
  9
$USERR5
 40
0.0
  9
$WORLDVIEW
 70
     1
  9
$SHADEDGE
 70
     3
  9
$SHADEDIF
 70
    70
  9
$TILEMODE
 70
     0
  9
$MAXACTVP
 70
    64
  9
$PINSBASE
 10
0.0
 20
0.0
 30
0.0
  9
$PLIMCHECK
 70
     0
  9
$PEXTMIN
 10
-1.439262267973589
 20
-1.41285528304607
 30
0.0
  9
$PEXTMAX
 10
11.1257359585602
 20
6.396855050259421
 30
0.0
  9
$PLIMMIN
 10
-1.75200024029589
 20
-1.757999996245376
  9
$PLIMMAX
 10
9.247999519408217
 20
6.741999763458731
  9
$UNITMODE
 70
     0
  9
$VISRETAIN
 70
     1
  9
$PLINEGEN
 70
     0
  9
$PSLTSCALE
 70
     1
  9
$TREEDEPTH
 70
  3020
  9
$CMLSTYLE
  2
Standard
  9
$CMLJUST
 70
     0
  9
$CMLSCALE
 40
1.0
  9
$PROXYGRAPHICS
 70
     1
  9
$MEASUREMENT
 70
     0
  9
$CELWEIGHT
370
    -1
  9
$ENDCAPS
280
     0
  9
$JOINSTYLE
280
     0
  9
$LWDISPLAY
290
     0
  9
$INSUNITS
 70
     1
  9
$HYPERLINKBASE
  1

  9
$STYLESHEET
  1

  9
$XEDIT
290
     1
  9
$CEPSNTYPE
380
     0
  9
$PSTYLEMODE
290
     1
  9
$FINGERPRINTGUID
  2
{FDEAD576-A652-11D2-9A35-0060089B3A3F}
  9
$VERSIONGUID
  2
{3D8EA9FE-62DE-4A0B-BD74-2E11C2B447D1}
  9
$EXTNAMES
290
     1
  9
$PSVPSCALE
 40
0.0
  9
$OLESTARTUP
290
     0
  0
ENDSEC
  0
SECTION
  2
CLASSES
  0
CLASS
  1
ACDBDICTIONARYWDFLT
  2
AcDbDictionaryWithDefault
  3
AutoCAD 2000
 90
        0
280
     0
281
     0
  0
CLASS
  1
ACDBPLACEHOLDER
  2
AcDbPlaceHolder
  3
AutoCAD 2000
 90
        0
280
     0
281
     0
  0
CLASS
  1
LAYOUT
  2
AcDbLayout
  3
AutoCAD 2000
 90
        0
280
     0
281
     0
  0
CLASS
  1
DICTIONARYVAR
  2
AcDbDictionaryVar
  3
AutoCAD 2000
 90
        0
280
     0
281
     0
  0
CLASS
  1
DIMASSOC
  2
AcDbDimAssoc
  3
"AcDbDimAssoc|Product Desc:     AcDim ARX App For Dimension|Company:          Autodesk, Inc.|WEB Address:      www.autodesk.com"
 90
        0
280
     0
281
     0
  0
ENDSEC
  0
SECTION
  2
TABLES
  0
TABLE
  2
VPORT
  5
8
330
0
100
AcDbSymbolTable
 70
     1
  0
VPORT
  5
74
330
8
100
AcDbSymbolTableRecord
100
AcDbViewportTableRecord
  2
*Active
 70
     0
 10
0.0
 20
0.0
 11
1.0
 21
1.0
 12
20.48748698095427
 22
9.784138269231398
 13
0.0
 23
0.0
 14
0.5
 24
0.5
 15
0.5
 25
0.5
 16
0.0
 26
0.0
 36
1.0
 17
0.0
 27
0.0
 37
0.0
 40
19.56827653846279
 41
2.093949044585987
 42
50.0
 43
0.0
 44
0.0
 50
0.0
 51
0.0
 71
     0
 72
   100
 73
     1
 74
     3
 75
     0
 76
     0
 77
     0
 78
     0
281
     0
 65
     1
110
0.0
120
0.0
130
0.0
111
1.0
121
0.0
131
0.0
112
0.0
122
1.0
132
0.0
 79
     0
146
0.0
  0
ENDTAB
  0
TABLE
  2
LTYPE
  5
5
330
0
100
AcDbSymbolTable
 70
     3
  0
LTYPE
  5
14
330
5
100
AcDbSymbolTableRecord
100
AcDbLinetypeTableRecord
  2
ByBlock
 70
     0
  3

 72
    65
 73
     0
 40
0.0
  0
LTYPE
  5
15
330
5
100
AcDbSymbolTableRecord
100
AcDbLinetypeTableRecord
  2
ByLayer
 70
     0
  3

 72
    65
 73
     0
 40
0.0
  0
LTYPE
  5
16
330
5
100
AcDbSymbolTableRecord
100
AcDbLinetypeTableRecord
  2
Continuous
 70
     0
  3
Solid line
 72
    65
 73
     0
 40
0.0
  0
LTYPE
  5
92
330
5
100
AcDbSymbolTableRecord
100
AcDbLinetypeTableRecord
  2
HIDDENX2
 70
     0
  3
Hidden (2x) ____ ____ ____ ____ ____ ____ ____
 72
    65
 73
     2
 40
0.75
 49
0.5
 74
     0
 49
-0.25
 74
     0
  0
LTYPE
  5
93
330
5
100
AcDbSymbolTableRecord
100
AcDbLinetypeTableRecord
  2
threads
 70
     0
  3
Zig zag /\/\/\/\/\/\/\/\/\/\/\/\/\/\/\/\/\/\/\/
 72
    65
 73
     4
 40
0.8001000000000001
 49
0.0001
 74
     0
 49
-0.2
 74
     4
 75
   131
340
91
 46
0.2
 50
0.0
 44
-0.2
 45
0.0
 49
-0.4
 74
     4
 75
   131
340
91
 46
0.2
 50
180.0
 44
0.2
 45
0.0
 49
-0.2
 74
     0
  0
ENDTAB
  0
TABLE
  2
LAYER
  5
2
330
0
100
AcDbSymbolTable
 70
     2
  0
LAYER
  5
10
330
2
100
AcDbSymbolTableRecord
100
AcDbLayerTableRecord
  2
0
 70
     0
 62
     7
  6
Continuous
370
    -3
390
F
  0
LAYER
  5
C2
330
2
100
AcDbSymbolTableRecord
100
AcDbLayerTableRecord
  2
Defpoints
 70
     0
 62
     7
  6
Continuous
290
     0
370
    -3
390
F
  0
ENDTAB
  0
TABLE
  2
STYLE
  5
3
330
0
100
AcDbSymbolTable
 70
     2
  0
STYLE
  5
11
330
3
100
AcDbSymbolTableRecord
100
AcDbTextStyleTableRecord
  2
Standard
 70
     0
 40
0.0
 41
1.0
 50
0.0
 71
     0
 42
0.2
  3
txt
  4

  0
STYLE
  5
91
330
3
100
AcDbSymbolTableRecord
100
AcDbTextStyleTableRecord
  2

 70
     1
 40
0.0
 41
1.0
 50
0.0
 71
     0
 42
0.2
  3
ltypeshp.shx
  4

  0
ENDTAB
  0
TABLE
  2
VIEW
  5
6
330
0
100
AcDbSymbolTable
 70
     0
  0
ENDTAB
  0
TABLE
  2
UCS
  5
7
330
0
100
AcDbSymbolTable
 70
     0
  0
ENDTAB
  0
TABLE
  2
APPID
  5
9
330
0
100
AcDbSymbolTable
 70
     1
  0
APPID
  5
12
330
9
100
AcDbSymbolTableRecord
100
AcDbRegAppTableRecord
  2
ACAD
 70
     0
  0
ENDTAB
  0
TABLE
  2
DIMSTYLE
  5
A
330
0
100
AcDbSymbolTable
 70
     1
100
AcDbDimStyleTable
 71
     1
340
27
  0
DIMSTYLE
105
27
102
{ACAD_REACTORS
330
DE
330
112
330
12C
102
}
330
A
100
AcDbSymbolTableRecord
100
AcDbDimStyleTableRecord
  2
Standard
 70
     0
 41
0.125
140
0.125
271
     3
272
     3
340
11
  0
ENDTAB
  0
TABLE
  2
BLOCK_RECORD
  5
1
330
0
100
AcDbSymbolTable
 70
     6
  0
BLOCK_RECORD
  5
1F
330
1
100
AcDbSymbolTableRecord
100
AcDbBlockTableRecord
  2
*Model_Space
340
22
  0
BLOCK_RECORD
  5
58
330
1
100
AcDbSymbolTableRecord
100
AcDbBlockTableRecord
  2
*Paper_Space
340
59
  0
BLOCK_RECORD
  5
5D
330
1
100
AcDbSymbolTableRecord
100
AcDbBlockTableRecord
  2
*Paper_Space0
340
5E
  0
BLOCK_RECORD
  5
C3
330
1
100
AcDbSymbolTableRecord
100
AcDbBlockTableRecord
  2
*D1
340
0
  0
BLOCK_RECORD
  5
DF
330
1
100
AcDbSymbolTableRecord
100
AcDbBlockTableRecord
  2
*D2
340
0
  0
BLOCK_RECORD
  5
113
330
1
100
AcDbSymbolTableRecord
100
AcDbBlockTableRecord
  2
*D3
340
0
  0
BLOCK_RECORD
  5
12D
330
1
100
AcDbSymbolTableRecord
100
AcDbBlockTableRecord
  2
*D4
340
0
  0
ENDTAB
  0
ENDSEC
  0
SECTION
  2
BLOCKS
  0
BLOCK
  5
20
330
1F
100
AcDbEntity
  8
0
100
AcDbBlockBegin
  2
*Model_Space
 70
     0
 10
0.0
 20
0.0
 30
0.0
  3
*Model_Space
  1

  0
ENDBLK
  5
21
330
1F
100
AcDbEntity
  8
0
100
AcDbBlockEnd
  0
BLOCK
  5
5A
330
58
100
AcDbEntity
 67
     1
  8
0
100
AcDbBlockBegin
  2
*Paper_Space
 70
     0
 10
0.0
 20
0.0
 30
0.0
  3
*Paper_Space
  1

  0
ENDBLK
  5
5B
330
58
100
AcDbEntity
 67
     1
  8
0
100
AcDbBlockEnd
  0
BLOCK
  5
5F
330
5D
100
AcDbEntity
  8
0
100
AcDbBlockBegin
  2
*Paper_Space0
 70
     0
 10
0.0
 20
0.0
 30
0.0
  3
*Paper_Space0
  1

  0
ENDBLK
  5
60
330
5D
100
AcDbEntity
  8
0
100
AcDbBlockEnd
  0
BLOCK
  5
CE
330
C3
100
AcDbEntity
  8
0
 48
0.3
100
AcDbBlockBegin
  2
*D1
 70
     1
 10
0.0
 20
0.0
 30
0.0
  3
*D1
  1

  0
LINE
  5
D1
330
C3
100
AcDbEntity
  8
0
 62
     0
 48
0.3
370
    -2
100
AcDbLine
 10
7.455336739535047
 20
4.125434839979721
 30
0.0
 11
8.42298952051499
 21
4.125434839979721
 31
0.0
  0
LINE
  5
D2
330
C3
100
AcDbEntity
  8
0
 62
     0
 48
0.3
370
    -2
100
AcDbLine
 10
7.455336739535046
 20
3.375434839979721
 30
0.0
 11
8.422989520514988
 21
3.375434839979721
 31
0.0
  0
LINE
  5
D3
330
C3
100
AcDbEntity
  8
0
 62
     0
 48
0.3
370
    -2
100
AcDbLine
 10
8.24298952051499
 20
4.000434839979721
 30
0.0
 11
8.242989520514989
 21
3.902934839979721
 31
0.0
  0
LINE
  5
D4
330
C3
100
AcDbEntity
  8
0
 62
     0
 48
0.3
370
    -2
100
AcDbLine
 10
8.242989520514989
 20
3.500434839979721
 30
0.0
 11
8.242989520514989
 21
3.597934839979721
 31
0.0
  0
SOLID
  5
D5
330
C3
100
AcDbEntity
  8
0
 62
     0
 48
0.3
100
AcDbTrace
 10
8.222156187181656
 20
4.000434839979721
 30
0.0
 11
8.263822853848324
 21
4.000434839979721
 31
0.0
 12
8.24298952051499
 22
4.125434839979721
 32
0.0
 13
8.24298952051499
 23
4.125434839979721
 33
0.0
  0
SOLID
  5
D6
330
C3
100
AcDbEntity
  8
0
 62
     0
 48
0.3
100
AcDbTrace
 10
8.222156187181655
 20
3.500434839979721
 30
0.0
 11
8.263822853848322
 21
3.500434839979721
 31
0.0
 12
8.242989520514989
 22
3.375434839979721
 32
0.0
 13
8.242989520514989
 23
3.375434839979721
 33
0.0
  0
MTEXT
  5
D7
330
C3
100
AcDbEntity
  8
0
 62
     0
 48
0.3
100
AcDbMText
 10
8.242989520514989
 20
3.750434839979722
 30
0.0
 40
0.125
 41
0.0
 71
     5
 72
     1
  1
\A1;0.750
 73
     1
 44
1.0
  0
POINT
  5
D8
330
C3
100
AcDbEntity
  8
Defpoints
 62
     0
 48
0.3
100
AcDbPoint
 10
7.392836739535047
 20
4.125434839979721
 30
0.0
  0
POINT
  5
D9
330
C3
100
AcDbEntity
  8
Defpoints
 62
     0
 48
0.3
100
AcDbPoint
 10
7.392836739535046
 20
3.375434839979721
 30
0.0
  0
POINT
  5
DA
330
C3
100
AcDbEntity
  8
Defpoints
 62
     0
 48
0.3
100
AcDbPoint
 10
8.242989520514989
 20
3.375434839979721
 30
0.0
  0
ENDBLK
  5
CF
330
C3
100
AcDbEntity
  8
0
 48
0.3
100
AcDbBlockEnd
  0
BLOCK
  5
EA
330
DF
100
AcDbEntity
  8
0
 48
0.3
100
AcDbBlockBegin
  2
*D2
 70
     1
 10
0.0
 20
0.0
 30
0.0
  3
*D2
  1

  0
LINE
  5
F8
330
DF
100
AcDbEntity
  8
0
 62
     0
 48
0.3
370
    -2
100
AcDbLine
 10
1.766844655524593
 20
3.469184839979721
 30
0.0
 11
1.766844655524593
 21
2.343158776743958
 31
0.0
  0
LINE
  5
F9
330
DF
100
AcDbEntity
  8
0
 62
     0
 48
0.3
370
    -2
100
AcDbLine
 10
5.935522788263711
 20
3.469184839979721
 30
0.0
 11
5.935522788263711
 21
2.343158776743958
 31
0.0
  0
LINE
  5
FA
330
DF
100
AcDbEntity
  8
0
 62
     0
 48
0.3
370
    -2
100
AcDbLine
 10
1.891844655524593
 20
2.523158776743958
 30
0.0
 11
3.615350388560819
 21
2.523158776743958
 31
0.0
  0
LINE
  5
FB
330
DF
100
AcDbEntity
  8
0
 62
     0
 48
0.3
370
    -2
100
AcDbLine
 10
5.810522788263711
 20
2.523158776743958
 30
0.0
 11
4.087017055227486
 21
2.523158776743958
 31
0.0
  0
SOLID
  5
FC
330
DF
100
AcDbEntity
  8
0
 62
     0
 48
0.3
100
AcDbTrace
 10
1.891844655524593
 20
2.543992110077291
 30
0.0
 11
1.891844655524593
 21
2.502325443410625
 31
0.0
 12
1.766844655524593
 22
2.523158776743958
 32
0.0
 13
1.766844655524593
 23
2.523158776743958
 33
0.0
  0
SOLID
  5
FD
330
DF
100
AcDbEntity
  8
0
 62
     0
 48
0.3
100
AcDbTrace
 10
5.810522788263711
 20
2.543992110077291
 30
0.0
 11
5.810522788263711
 21
2.502325443410625
 31
0.0
 12
5.935522788263711
 22
2.523158776743958
 32
0.0
 13
5.935522788263711
 23
2.523158776743958
 33
0.0
  0
MTEXT
  5
FE
330
DF
100
AcDbEntity
  8
0
 62
     0
 48
0.3
100
AcDbMText
 10
3.851183721894152
 20
2.523158776743958
 30
0.0
 40
0.125
 41
0.0
 71
     5
 72
     1
  1
\A1;10.0
 73
     1
 44
1.0
  0
POINT
  5
FF
330
DF
100
AcDbEntity
  8
Defpoints
 62
     0
 48
0.3
100
AcDbPoint
 10
1.766844655524593
 20
3.531684839979721
 30
0.0
  0
POINT
  5
100
330
DF
100
AcDbEntity
  8
Defpoints
 62
     0
 48
0.3
100
AcDbPoint
 10
5.935522788263711
 20
3.531684839979721
 30
0.0
  0
POINT
  5
101
330
DF
100
AcDbEntity
  8
Defpoints
 62
     0
 48
0.3
100
AcDbPoint
 10
5.935522788263711
 20
2.523158776743958
 30
0.0
  0
ENDBLK
  5
EB
330
DF
100
AcDbEntity
  8
0
 48
0.3
100
AcDbBlockEnd
  0
BLOCK
  5
11E
330
113
100
AcDbEntity
  8
0
 48
0.3
100
AcDbBlockBegin
  2
*D3
 70
     1
 10
0.0
 20
0.0
 30
0.0
  3
*D3
  1

  0
LINE
  5
121
330
113
100
AcDbEntity
  8
0
 62
     0
 48
0.3
370
    -2
100
AcDbLine
 10
5.56052278826371
 20
4.187934839979721
 30
0.0
 11
5.56052278826371
 21
4.816348947989418
 31
0.0
  0
LINE
  5
122
330
113
100
AcDbEntity
  8
0
 62
     0
 48
0.3
370
    -2
100
AcDbLine
 10
5.93552278826371
 20
4.125434839979721
 30
0.0
 11
5.93552278826371
 21
4.816348947989418
 31
0.0
  0
LINE
  5
123
330
113
100
AcDbEntity
  8
0
 62
     0
 48
0.3
370
    -2
100
AcDbLine
 10
5.43552278826371
 20
4.636348947989418
 30
0.0
 11
5.31052278826371
 21
4.636348947989418
 31
0.0
  0
LINE
  5
124
330
113
100
AcDbEntity
  8
0
 62
     0
 48
0.3
370
    -2
100
AcDbLine
 10
6.06052278826371
 20
4.636348947989418
 30
0.0
 11
6.185522788263709
 21
4.636348947989418
 31
0.0
  0
SOLID
  5
125
330
113
100
AcDbEntity
  8
0
 62
     0
 48
0.3
100
AcDbTrace
 10
5.43552278826371
 20
4.657182281322751
 30
0.0
 11
5.43552278826371
 21
4.615515614656085
 31
0.0
 12
5.56052278826371
 22
4.636348947989418
 32
0.0
 13
5.56052278826371
 23
4.636348947989418
 33
0.0
  0
SOLID
  5
126
330
113
100
AcDbEntity
  8
0
 62
     0
 48
0.3
100
AcDbTrace
 10
6.06052278826371
 20
4.657182281322751
 30
0.0
 11
6.06052278826371
 21
4.615515614656085
 31
0.0
 12
5.93552278826371
 22
4.636348947989418
 32
0.0
 13
5.93552278826371
 23
4.636348947989418
 33
0.0
  0
MTEXT
  5
127
330
113
100
AcDbEntity
  8
0
 62
     0
 48
0.3
100
AcDbMText
 10
6.515106121597042
 20
4.636348947989418
 30
0.0
 40
0.125
 41
0.0
 71
     5
 72
     1
  1
\A1;0.375
 73
     1
 44
1.0
  0
POINT
  5
128
330
113
100
AcDbEntity
  8
Defpoints
 62
     0
 48
0.3
100
AcDbPoint
 10
5.56052278826371
 20
4.125434839979721
 30
0.0
  0
POINT
  5
129
330
113
100
AcDbEntity
  8
Defpoints
 62
     0
 48
0.3
100
AcDbPoint
 10
5.93552278826371
 20
4.062934839979721
 30
0.0
  0
POINT
  5
12A
330
113
100
AcDbEntity
  8
Defpoints
 62
     0
 48
0.3
100
AcDbPoint
 10
5.93552278826371
 20
4.636348947989418
 30
0.0
  0
ENDBLK
  5
11F
330
113
100
AcDbEntity
  8
0
 48
0.3
100
AcDbBlockEnd
  0
BLOCK
  5
138
330
12D
100
AcDbEntity
  8
0
 48
0.3
100
AcDbBlockBegin
  2
*D4
 70
     1
 10
0.0
 20
0.0
 30
0.0
  3
*D4
  1

  0
LINE
  5
13B
330
12D
100
AcDbEntity
  8
0
 62
     0
 48
0.3
370
    -2
100
AcDbLine
 10
7.455336739535046
 20
3.375434839979721
 30
0.0
 11
8.205890874665669
 21
3.375434839979721
 31
0.0
  0
LINE
  5
13C
330
12D
100
AcDbEntity
  8
0
 62
     0
 48
0.3
370
    -2
100
AcDbLine
 10
7.455336739535047
 20
4.125434839979721
 30
0.0
 11
8.205890874665671
 21
4.125434839979721
 31
0.0
  0
LINE
  5
13D
330
12D
100
AcDbEntity
  8
0
 62
     0
 48
0.3
370
    -2
100
AcDbLine
 10
8.02589087466567
 20
3.500434839979721
 30
0.0
 11
8.02589087466567
 21
3.597934839979721
 31
0.0
  0
LINE
  5
13E
330
12D
100
AcDbEntity
  8
0
 62
     0
 48
0.3
370
    -2
100
AcDbLine
 10
8.025890874665671
 20
4.000434839979721
 30
0.0
 11
8.02589087466567
 21
3.902934839979721
 31
0.0
  0
SOLID
  5
13F
330
12D
100
AcDbEntity
  8
0
 62
     0
 48
0.3
100
AcDbTrace
 10
8.005057541332336
 20
3.500434839979721
 30
0.0
 11
8.046724207999004
 21
3.500434839979721
 31
0.0
 12
8.02589087466567
 22
3.375434839979721
 32
0.0
 13
8.02589087466567
 23
3.375434839979721
 33
0.0
  0
SOLID
  5
140
330
12D
100
AcDbEntity
  8
0
 62
     0
 48
0.3
100
AcDbTrace
 10
8.005057541332337
 20
4.000434839979721
 30
0.0
 11
8.046724207999005
 21
4.000434839979721
 31
0.0
 12
8.025890874665671
 22
4.125434839979721
 32
0.0
 13
8.025890874665671
 23
4.125434839979721
 33
0.0
  0
MTEXT
  5
141
330
12D
100
AcDbEntity
  8
0
 62
     0
 48
0.3
100
AcDbMText
 10
8.02589087466567
 20
3.750434839979722
 30
0.0
 40
0.125
 41
0.0
 71
     5
 72
     1
  1
\A1;0.750
 73
     1
 44
1.0
  0
POINT
  5
142
330
12D
100
AcDbEntity
  8
Defpoints
 62
     0
 48
0.3
100
AcDbPoint
 10
7.392836739535046
 20
3.375434839979721
 30
0.0
  0
POINT
  5
143
330
12D
100
AcDbEntity
  8
Defpoints
 62
     0
 48
0.3
100
AcDbPoint
 10
7.392836739535047
 20
4.125434839979721
 30
0.0
  0
POINT
  5
144
330
12D
100
AcDbEntity
  8
Defpoints
 62
     0
 48
0.3
100
AcDbPoint
 10
8.025890874665671
 20
4.125434839979721
 30
0.0
  0
ENDBLK
  5
139
330
12D
100
AcDbEntity
  8
0
 48
0.3
100
AcDbBlockEnd
  0
ENDSEC
  0
SECTION
  2
ENTITIES
  0
VIEWPORT
  5
77
330
58
100
AcDbEntity
 67
     1
  8
0
100
AcDbViewport
 10
3.864249519936738
 20
2.465027605510554
 30
0.0
 40
19.00822155520834
 41
8.372669018365581
 68
     1
 69
     1
 12
3.864249519936738
 22
2.465027605510554
 13
0.0
 23
0.0
 14
0.5
 24
0.5
 15
0.5
 25
0.5
 16
0.0
 26
0.0
 36
1.0
 17
0.0
 27
0.0
 37
0.0
 42
50.0
 43
0.0
 44
0.0
 45
8.372669018365581
 50
0.0
 51
0.0
 72
   100
 90
    32800
  1

281
     0
 71
     1
 74
     0
110
0.0
120
0.0
130
0.0
111
1.0
121
0.0
131
0.0
112
0.0
122
1.0
132
0.0
 79
     0
146
0.0
  0
LWPOLYLINE
  5
86
330
58
100
AcDbEntity
 67
     1
  8
0
100
AcDbPolyline
 90
        4
 70
     1
 43
0.0
 10
-1.439262267973589
 20
6.396855050259421
 10
8.966538218833356
 20
6.396855050259421
 10
8.966538218833356
 20
-1.41285528304607
 10
-1.439262267973589
 20
-1.41285528304607
  0
LINE
  5
8A
330
58
100
AcDbEntity
 67
     1
  8
0
100
AcDbLine
 10
8.966538218833356
 20
-1.41285528304607
 30
0.0
 11
8.966538218833356
 21
-0.4128552830460706
 31
0.0
  0
LINE
  5
8B
330
58
100
AcDbEntity
 67
     1
  8
0
100
AcDbLine
 10
8.966538218833356
 20
-0.4128552830460706
 30
0.0
 11
6.466538218833356
 21
-0.4128552830460703
 31
0.0
  0
LINE
  5
8C
330
58
100
AcDbEntity
 67
     1
  8
0
100
AcDbLine
 10
6.466538218833356
 20
-0.4128552830460703
 30
0.0
 11
4.966538218833356
 21
-0.4128552830460701
 31
0.0
  0
LINE
  5
8D
330
58
100
AcDbEntity
 67
     1
  8
0
100
AcDbLine
 10
4.966538218833356
 20
-0.4128552830460701
 30
0.0
 11
4.966538218833356
 21
-1.41285528304607
 31
0.0
  0
LINE
  5
8E
330
58
100
AcDbEntity
 67
     1
  8
0
100
AcDbLine
 10
6.466538218833356
 20
-0.4128552830460703
 30
0.0
 11
6.466538218833356
 21
-1.40425062323316
 31
0.0
  0
MTEXT
  5
8F
330
58
100
AcDbEntity
 67
     1
  8
0
100
AcDbMText
 10
5.02064872125895
 20
-0.5532836662080878
 30
0.0
 40
0.1
 41
1.5
 71
     1
 72
     5
  1
  Tolerances\P.XXXX = +/- .001\P.XXX  = +/- .005\P.XX   = +/- .015\PMat: Steel
 73
     1
 44
1.0
  0
MTEXT
  5
AA
330
58
100
AcDbEntity
 67
     1
  8
0
 48
0.3
100
AcDbMText
 10
6.688767870543038
 20
-0.5779304272488833
 30
0.0
 40
0.1
 41
2.5
 71
     1
 72
     5
  1
G0704 PDB 2\PDrawbar and Topnut\PDaniel E. Kemp\P{\fArial|b0|i0|c0|p32;\H1.625x;©\fMS Shell Dlg|b0|i0|c0|p32;\H0.6538x; 12-29-}2011
 73
     1
 44
1.0
  0
MTEXT
  5
AC
330
58
100
AcDbEntity
 67
     1
  8
0
 48
0.3
100
AcDbMText
 10
-0.8330378939457148
 20
-0.9104262006358538
 30
0.0
 40
0.1625
 41
9.997099999999999
 71
     1
 72
     5
  1
{\fArial|b0|i0|c0|p32;© Daniel E. Kemp 2011}
 73
     1
 44
1.0
  0
CIRCLE
  5
B7
330
58
100
AcDbEntity
 67
     1
  8
0
 48
0.3
100
AcDbCircle
 10
0.5414486463182158
 20
3.750434839979721
 30
0.0
 40
0.21875
  0
LINE
  5
B9
330
58
100
AcDbEntity
 67
     1
  8
0
  6
threads
 48
0.3
100
AcDbLine
 10
1.766844655524593
 20
3.969184839979721
 30
0.0
 11
3.591113069735065
 21
3.969184839979721
 31
0.0
  0
LINE
  5
BB
102
{ACAD_REACTORS
330
F7
330
164
102
}
330
58
100
AcDbEntity
 67
     1
  8
0
  6
threads
 48
0.3
100
AcDbLine
 10
1.766844655524593
 20
3.531684839979721
 30
0.0
 11
3.591113069735065
 21
3.531684839979721
 31
0.0
  0
LINE
  5
BC
330
58
100
AcDbEntity
 67
     1
  8
0
 48
0.3
100
AcDbLine
 10
1.766844655524593
 20
3.969184839979721
 30
0.0
 11
1.766844655524593
 21
3.531684839979721
 31
0.0
  0
LINE
  5
BD
330
58
100
AcDbEntity
 67
     1
  8
0
 48
0.3
100
AcDbLine
 10
5.93552278826371
 20
3.969184839979721
 30
0.0
 11
5.935522788263711
 21
3.531684839979721
 31
0.0
  0
CIRCLE
  5
BF
330
58
100
AcDbEntity
 67
     1
  8
0
 48
0.3
100
AcDbCircle
 10
7.176330388588937
 20
3.750434839979721
 30
0.0
 40
0.21875
  0
LWPOLYLINE
  5
C0
102
{ACAD_REACTORS
330
145
330
160
102
}
330
58
100
AcDbEntity
 67
     1
  8
0
 48
0.3
100
AcDbPolyline
 90
        6
 70
     1
 43
0.0
 10
6.959824037642827
 20
4.125434839979721
 10
6.743317686696717
 20
3.750434839979721
 10
6.959824037642826
 20
3.375434839979721
 10
7.392836739535046
 20
3.375434839979721
 10
7.609343090481156
 20
3.750434839979721
 10
7.392836739535047
 20
4.125434839979721
  0
LEADER
  5
DC
330
58
100
AcDbEntity
 67
     1
  8
0
 48
0.3
100
AcDbLeader
  3
Standard
 73
     0
 40
0.125
 41
0.7708333333333334
 76
     3
 10
0.5414486463182158
 20
3.969184839979721
 30
0.0
 10
0.341004356663305
 20
4.436726336956059
 30
0.0
 10
0.166855934511716
 20
4.436726336956059
 30
0.0
340
DD
213
0.0
223
0.0625
233
0.0
1001
ACAD
1000
DSTYLE
1002
{
1070
   147
1040
0.09
1070
    77
1070
     0
1002
}
  0
MTEXT
  5
DD
102
{ACAD_REACTORS
330
DC
102
}
330
58
100
AcDbEntity
 67
     1
  8
0
 48
0.3
100
AcDbMText
 10
0.076855934511716
 20
4.374226336956059
 30
0.0
 40
0.125
 41
0.0
 71
     9
 72
     1
  1
\A1;7/16-20
 73
     1
 44
1.0
  0
DIMENSION
  5
DE
102
{ACAD_XDICTIONARY
360
EC
102
}
102
{ACAD_REACTORS
330
F7
102
}
330
58
100
AcDbEntity
 67
     1
  8
0
 48
0.3
100
AcDbDimension
  2
*D2
 10
5.935522788263711
 20
2.523158776743958
 30
0.0
 11
3.851183721894152
 21
2.523158776743958
 31
0.0
 70
    32
  1
10.0
 71
     5
 42
4.168678132739118
  3
Standard
100
AcDbAlignedDimension
 13
1.766844655524593
 23
3.531684839979721
 33
0.0
 14
5.935522788263711
 24
3.531684839979721
 34
0.0
100
AcDbRotatedDimension
  0
LINE
  5
104
102
{ACAD_REACTORS
330
12B
102
}
330
58
100
AcDbEntity
 67
     1
  8
0
 48
0.3
100
AcDbLine
 10
5.56052278826371
 20
4.125434839979721
 30
0.0
 11
5.56052278826371
 21
3.375434839979722
 31
0.0
  0
CIRCLE
  5
107
330
58
100
AcDbEntity
 67
     1
  8
0
 48
0.3
100
AcDbCircle
 10
7.176330388588937
 20
3.750434839979721
 30
0.0
 40
0.3125
  0
LINE
  5
109
330
58
100
AcDbEntity
 67
     1
  8
0
 48
0.3
100
AcDbLine
 10
5.83552278826371
 20
4.125434839979721
 30
0.0
 11
5.83552278826371
 21
3.375434839979722
 31
0.0
  0
LINE
  5
10B
330
58
100
AcDbEntity
 67
     1
  8
0
 48
0.3
100
AcDbLine
 10
5.93552278826371
 20
4.062934839979721
 30
0.0
 11
5.83552278826371
 21
4.125434839979721
 31
0.0
  0
LINE
  5
10D
330
58
100
AcDbEntity
 67
     1
  8
0
 48
0.3
100
AcDbLine
 10
5.935522788263711
 20
3.437934839979721
 30
0.0
 11
5.83552278826371
 21
3.375434839979722
 31
0.0
  0
LINE
  5
10E
102
{ACAD_REACTORS
330
12B
102
}
330
58
100
AcDbEntity
 67
     1
  8
0
 48
0.3
100
AcDbLine
 10
5.93552278826371
 20
4.062934839979721
 30
0.0
 11
5.935522788263711
 21
3.437934839979721
 31
0.0
  0
LINE
  5
10F
330
58
100
AcDbEntity
 67
     1
  8
0
 48
0.3
100
AcDbLine
 10
5.83552278826371
 20
4.125434839979721
 30
0.0
 11
5.56052278826371
 21
4.125434839979721
 31
0.0
  0
LINE
  5
110
330
58
100
AcDbEntity
 67
     1
  8
0
 48
0.3
100
AcDbLine
 10
5.83552278826371
 20
3.375434839979722
 30
0.0
 11
5.56052278826371
 21
3.375434839979722
 31
0.0
  0
LINE
  5
111
330
58
100
AcDbEntity
 67
     1
  8
0
 48
0.3
100
AcDbLine
 10
5.83552278826371
 20
3.750434839979721
 30
0.0
 11
5.56052278826371
 21
3.750434839979721
 31
0.0
  0
DIMENSION
  5
112
102
{ACAD_XDICTIONARY
360
120
102
}
102
{ACAD_REACTORS
330
12B
102
}
330
58
100
AcDbEntity
 67
     1
  8
0
 48
0.3
100
AcDbDimension
  2
*D3
 10
5.93552278826371
 20
4.636348947989418
 30
0.0
 11
6.515106121597042
 21
4.636348947989418
 31
0.0
 70
    32
 71
     5
 42
0.375
  3
Standard
100
AcDbAlignedDimension
 13
5.56052278826371
 23
4.125434839979721
 33
0.0
 14
5.93552278826371
 24
4.062934839979721
 34
0.0
100
AcDbRotatedDimension
  0
DIMENSION
  5
12C
102
{ACAD_XDICTIONARY
360
13A
102
}
102
{ACAD_REACTORS
330
145
102
}
330
58
100
AcDbEntity
 67
     1
  8
0
 48
0.3
100
AcDbDimension
  2
*D4
 10
8.025890874665671
 20
4.125434839979721
 30
0.0
 11
8.02589087466567
 21
3.750434839979722
 31
0.0
 70
    32
 71
     5
 42
0.75
  3
Standard
100
AcDbAlignedDimension
 13
7.392836739535046
 23
3.375434839979721
 33
0.0
 14
7.392836739535047
 24
4.125434839979721
 34
0.0
 50
90.0
100
AcDbRotatedDimension
  0
LINE
  5
146
330
58
100
AcDbEntity
 67
     1
  8
0
 48
0.3
100
AcDbLine
 10
3.591113069735065
 20
4.320143742633515
 30
0.0
 11
3.591113069735065
 21
3.969184839979721
 31
0.0
  0
LINE
  5
147
330
58
100
AcDbEntity
 67
     1
  8
0
 48
0.3
100
AcDbLine
 10
3.591113069735065
 20
3.969184839979721
 30
0.0
 11
3.456115493518012
 21
3.825686366597068
 31
0.0
  0
LINE
  5
148
330
58
100
AcDbEntity
 67
     1
  8
0
 48
0.3
100
AcDbLine
 10
3.456115493518012
 20
3.825686366597068
 30
0.0
 11
3.717110773622756
 21
3.645883680698187
 31
0.0
  0
LINE
  5
149
330
58
100
AcDbEntity
 67
     1
  8
0
 48
0.3
100
AcDbLine
 10
3.591113069735065
 20
3.531684839979721
 30
0.0
 11
3.717110773622756
 21
3.645883680698187
 31
0.0
  0
LINE
  5
14A
330
58
100
AcDbEntity
 67
     1
  8
0
 48
0.3
100
AcDbLine
 10
3.591113069735065
 20
3.531684839979721
 30
0.0
 11
3.591113069735065
 21
3.313248726044925
 31
0.0
  0
LINE
  5
154
330
58
100
AcDbEntity
 67
     1
  8
0
 48
0.3
100
AcDbLine
 10
3.86242021987789
 20
4.320143742633515
 30
0.0
 11
3.86242021987789
 21
3.969184839979721
 31
0.0
  0
LINE
  5
155
330
58
100
AcDbEntity
 67
     1
  8
0
 48
0.3
100
AcDbLine
 10
3.86242021987789
 20
3.969184839979721
 30
0.0
 11
3.727422643660837
 21
3.825686366597068
 31
0.0
  0
LINE
  5
156
330
58
100
AcDbEntity
 67
     1
  8
0
 48
0.3
100
AcDbLine
 10
3.727422643660837
 20
3.825686366597068
 30
0.0
 11
3.988417923765581
 21
3.645883680698187
 31
0.0
  0
LINE
  5
157
330
58
100
AcDbEntity
 67
     1
  8
0
 48
0.3
100
AcDbLine
 10
3.86242021987789
 20
3.531684839979721
 30
0.0
 11
3.988417923765581
 21
3.645883680698187
 31
0.0
  0
LINE
  5
158
330
58
100
AcDbEntity
 67
     1
  8
0
 48
0.3
100
AcDbLine
 10
3.86242021987789
 20
3.531684839979721
 30
0.0
 11
3.86242021987789
 21
3.313248726044925
 31
0.0
  0
LINE
  5
15A
330
58
100
AcDbEntity
 67
     1
  8
0
  6
threads
 48
0.3
100
AcDbLine
 10
3.86242021987789
 20
3.969184839979721
 30
0.0
 11
5.93552278826371
 21
3.969184839979721
 31
0.0
  0
LINE
  5
15C
102
{ACAD_REACTORS
330
F7
102
}
330
58
100
AcDbEntity
 67
     1
  8
0
  6
threads
 48
0.3
100
AcDbLine
 10
3.86242021987789
 20
3.53168483997972
 30
0.0
 11
5.935522788263711
 21
3.531684839979721
 31
0.0
  0
LEADER
  5
15D
102
{ACAD_XDICTIONARY
360
15F
102
}
102
{ACAD_REACTORS
330
160
102
}
330
58
100
AcDbEntity
 67
     1
  8
0
 48
0.3
100
AcDbLeader
  3
Standard
 73
     0
 40
1.208333333333333
 41
2.25
 76
     3
 10
6.959824037642826
 20
3.375434839979721
 30
0.0
 10
6.335156809364058
 20
2.110116772278033
 30
0.0
 10
6.577402625226866
 20
2.110116772278033
 30
0.0
340
15E
213
0.0
223
-0.0625
233
0.0
1001
ACAD
1000
DSTYLE
1002
{
1070
   147
1040
0.09
1070
    77
1070
     0
1002
}
  0
MTEXT
  5
15E
102
{ACAD_REACTORS
330
15D
102
}
330
58
100
AcDbEntity
 67
     1
  8
0
 48
0.3
100
AcDbMText
 10
6.667402625226866
 20
2.172616772278033
 30
0.0
 40
0.125
 41
0.0
 71
     1
 72
     1
  1
An automotive\Pwheel lugnut makes\Pa good source for \Pthe drawbar topnut.\PFace to length.\PLoctite in place.
 73
     1
 44
1.0
  0
LEADER
  5
161
102
{ACAD_XDICTIONARY
360
163
102
}
102
{ACAD_REACTORS
330
164
102
}
330
58
100
AcDbEntity
 67
     1
  8
0
 48
0.3
100
AcDbLeader
  3
Standard
 73
     0
 75
     1
 40
0.3333333333333333
 41
2.145833333333333
 76
     4
 10
1.766844655524593
 20
3.531684839979721
 30
0.0
 10
1.21569527112814
 20
2.190778336859832
 30
0.0
 10
1.146898609188383
 20
2.128278336859832
 30
0.0
 10
1.021898609188383
 20
2.128278336859832
 30
0.0
340
162
1001
ACAD
1000
DSTYLE
1002
{
1070
   147
1040
0.09
1070
    77
1070
     0
1002
}
  0
MTEXT
  5
162
102
{ACAD_REACTORS
330
161
102
}
330
58
100
AcDbEntity
 67
     1
  8
0
 48
0.3
100
AcDbMText
 10
0.9318986091883834
 20
2.128278336859832
 30
0.0
 40
0.125
 41
0.0
 71
     6
 72
     1
  1
Good grade 7/16-20\Pthreaded rod
 73
     1
 44
1.0
  0
ENDSEC
  0
SECTION
  2
OBJECTS
  0
DICTIONARY
  5
C
330
0
100
AcDbDictionary
281
     1
  3
ACAD_GROUP
350
D
  3
ACAD_LAYOUT
350
1A
  3
ACAD_MLINESTYLE
350
17
  3
ACAD_PLOTSETTINGS
350
19
  3
ACAD_PLOTSTYLENAME
350
E
  3
AcDbVariableDictionary
350
66
  0
DICTIONARY
  5
EC
330
DE
100
AcDbDictionary
280
     1
281
     1
  3
ACAD_DIMASSOC
360
F7
  0
DICTIONARY
  5
120
330
112
100
AcDbDictionary
280
     1
281
     1
  3
ACAD_DIMASSOC
360
12B
  0
DICTIONARY
  5
13A
330
12C
100
AcDbDictionary
280
     1
281
     1
  3
ACAD_DIMASSOC
360
145
  0
DICTIONARY
  5
15F
330
15D
100
AcDbDictionary
280
     1
281
     1
  3
ACAD_DIMASSOC
360
160
  0
DICTIONARY
  5
163
330
161
100
AcDbDictionary
280
     1
281
     1
  3
ACAD_DIMASSOC
360
164
  0
DICTIONARY
  5
D
102
{ACAD_REACTORS
330
C
102
}
330
C
100
AcDbDictionary
281
     1
  0
DICTIONARY
  5
1A
102
{ACAD_REACTORS
330
C
102
}
330
C
100
AcDbDictionary
281
     1
  3
Layout1
350
59
  3
Layout2
350
5E
  3
Model
350
22
  0
DICTIONARY
  5
17
102
{ACAD_REACTORS
330
C
102
}
330
C
100
AcDbDictionary
281
     1
  3
Standard
350
18
  0
DICTIONARY
  5
19
102
{ACAD_REACTORS
330
C
102
}
330
C
100
AcDbDictionary
281
     1
  0
ACDBDICTIONARYWDFLT
  5
E
102
{ACAD_REACTORS
330
C
102
}
330
C
100
AcDbDictionary
281
     1
  3
Normal
350
F
100
AcDbDictionaryWithDefault
340
F
  0
DICTIONARY
  5
66
102
{ACAD_REACTORS
330
C
102
}
330
C
100
AcDbDictionary
281
     1
  3
DIMASSOC
350
67
  3
HIDETEXT
350
6B
  0
DIMASSOC
  5
F7
102
{ACAD_REACTORS
330
EC
102
}
330
EC
100
AcDbDimAssoc
330
DE
 90
        3
 70
     0
 71
     0
  1
AcDbOsnapPointRef
 72
    13
331
BB
 73
     2
 91
        0
 40
0.0
 10
1.766844655524593
 20
3.531684839979721
 30
0.0
 75
     0
  1
AcDbOsnapPointRef
 72
     1
331
15C
 73
     2
 91
        0
 40
1.0
 10
5.935522788263711
 20
3.531684839979721
 30
0.0
 75
     0
  0
DIMASSOC
  5
12B
102
{ACAD_REACTORS
330
120
102
}
330
120
100
AcDbDimAssoc
330
112
 90
        3
 70
     0
 71
     0
  1
AcDbOsnapPointRef
 72
    13
331
104
 73
     2
 91
        0
 40
0.0
 10
5.56052278826371
 20
4.125434839979721
 30
0.0
 75
     0
  1
AcDbOsnapPointRef
 72
    13
331
10E
 73
     2
 91
        0
 40
0.0
 10
5.93552278826371
 20
4.062934839979721
 30
0.0
 75
     0
  0
DIMASSOC
  5
145
102
{ACAD_REACTORS
330
13A
102
}
330
13A
100
AcDbDimAssoc
330
12C
 90
        3
 70
     0
 71
     0
  1
AcDbOsnapPointRef
 72
     1
331
C0
 73
     2
 91
        3
 40
1.0
 10
7.392836739535046
 20
3.375434839979721
 30
0.0
 75
     0
  1
AcDbOsnapPointRef
 72
     1
331
C0
 73
     2
 91
        5
 40
1.0
 10
7.392836739535047
 20
4.125434839979721
 30
0.0
 75
     0
  0
DIMASSOC
  5
160
102
{ACAD_REACTORS
330
15F
102
}
330
15F
100
AcDbDimAssoc
330
15D
 90
        1
 70
     0
 71
     0
  1
AcDbOsnapPointRef
 72
     1
331
C0
 73
     2
 91
        2
 40
1.0
 10
6.959824037642826
 20
3.375434839979721
 30
0.0
 75
     0
  0
DIMASSOC
  5
164
102
{ACAD_REACTORS
330
163
102
}
330
163
100
AcDbDimAssoc
330
161
 90
        1
 70
     0
 71
     0
  1
AcDbOsnapPointRef
 72
    13
331
BB
 73
     2
 91
        0
 40
0.0
 10
1.766844655524593
 20
3.531684839979721
 30
0.0
 75
     0
  0
LAYOUT
  5
59
102
{ACAD_REACTORS
330
1A
102
}
330
1A
100
AcDbPlotSettings
  1

  2
none_device
  4
Letter_(8.50_x_11.00_Inches)
  6

 40
6.349999904632568
 41
6.349999904632568
 42
6.350006103515625
 43
6.350006103515625
 44
215.8999938964843
 45
279.3999938964843
 46
38.3032
 47
38.15079999999999
 48
0.0
 49
0.0
140
0.0
141
0.0
142
1.0
143
1.0
 70
   688
 72
     0
 73
     1
 74
     5
  7

 75
    16
147
1.0
148
0.0
149
0.0
100
AcDbLayout
  1
Layout1
 70
     1
 71
     1
 10
-1.75200024029589
 20
-1.757999996245376
 11
9.247999519408217
 21
6.741999763458731
 12
0.0
 22
0.0
 32
0.0
 14
-1.439262267973589
 24
-1.41285528304607
 34
0.0
 15
11.1257359585602
 25
6.396855050259421
 35
0.0
146
0.0
 13
0.0
 23
0.0
 33
0.0
 16
1.0
 26
0.0
 36
0.0
 17
0.0
 27
1.0
 37
0.0
 76
     0
330
58
331
77
  0
LAYOUT
  5
5E
102
{ACAD_REACTORS
330
1A
102
}
330
1A
100
AcDbPlotSettings
  1

  2
None
  4

  6

 40
0.0
 41
0.0
 42
0.0
 43
0.0
 44
0.0
 45
0.0
 46
0.0
 47
0.0
 48
0.0
 49
0.0
140
0.0
141
0.0
142
1.0
143
1.0
 70
   688
 72
     0
 73
     0
 74
     5
  7

 75
    16
147
1.0
148
0.0
149
0.0
100
AcDbLayout
  1
Layout2
 70
     1
 71
     2
 10
0.0
 20
0.0
 11
12.0
 21
9.0
 12
0.0
 22
0.0
 32
0.0
 14
0.0
 24
0.0
 34
0.0
 15
0.0
 25
0.0
 35
0.0
146
0.0
 13
0.0
 23
0.0
 33
0.0
 16
1.0
 26
0.0
 36
0.0
 17
0.0
 27
1.0
 37
0.0
 76
     0
330
5D
  0
LAYOUT
  5
22
102
{ACAD_REACTORS
330
1A
102
}
330
1A
100
AcDbPlotSettings
  1

  2
none_device
  4
ANSI_A_(8.50_x_11.00_Inches)
  6

 40
6.349999904632568
 41
19.04999923706054
 42
6.350006103515625
 43
19.04998779296875
 44
215.8999938964843
 45
279.3999938964843
 46
0.0
 47
0.0
 48
0.0
 49
0.0
140
0.0
141
0.0
142
1.0
143
2.584895464708373
 70
 11952
 72
     0
 73
     1
 74
     0
  7

 75
     0
147
0.3868628397755418
148
0.0
149
0.0
100
AcDbLayout
  1
Model
 70
     1
 71
     0
 10
0.0
 20
0.0
 11
12.0
 21
9.0
 12
0.0
 22
0.0
 32
0.0
 14
0.0
 24
0.0
 34
0.0
 15
0.0
 25
0.0
 35
0.0
146
0.0
 13
0.0
 23
0.0
 33
0.0
 16
1.0
 26
0.0
 36
0.0
 17
0.0
 27
1.0
 37
0.0
 76
     0
330
1F
  0
MLINESTYLE
  5
18
102
{ACAD_REACTORS
330
17
102
}
330
17
100
AcDbMlineStyle
  2
STANDARD
 70
     0
  3

 62
   256
 51
90.0
 52
90.0
 71
     2
 49
0.5
 62
   256
  6
BYLAYER
 49
-0.5
 62
   256
  6
BYLAYER
  0
ACDBPLACEHOLDER
  5
F
102
{ACAD_REACTORS
330
E
102
}
330
E
  0
DICTIONARYVAR
  5
67
102
{ACAD_REACTORS
330
66
102
}
330
66
100
DictionaryVariables
280
     0
  1
2
  0
DICTIONARYVAR
  5
6B
102
{ACAD_REACTORS
330
66
102
}
330
66
100
DictionaryVariables
280
     0
  1
1
  0
ENDSEC
  0
EOF
