  0
SECTION
  2
HEADER
  9
$ACADVER
  1
AC1015
  9
$ACADMAINTVER
 70
    13
  9
$DWGCODEPAGE
  3
ANSI_1252
  9
$INSBASE
 10
0.0
 20
0.0
 30
0.0
  9
$EXTMIN
 10
1.000000000000000E+20
 20
1.000000000000000E+20
 30
1.000000000000000E+20
  9
$EXTMAX
 10
-1.000000000000000E+20
 20
-1.000000000000000E+20
 30
-1.000000000000000E+20
  9
$LIMMIN
 10
0.0
 20
0.0
  9
$LIMMAX
 10
12.0
 20
9.0
  9
$ORTHOMODE
 70
     0
  9
$REGENMODE
 70
     1
  9
$FILLMODE
 70
     1
  9
$QTEXTMODE
 70
     0
  9
$MIRRTEXT
 70
     1
  9
$LTSCALE
 40
0.3
  9
$ATTMODE
 70
     1
  9
$TEXTSIZE
 40
0.2
  9
$TRACEWID
 40
0.05
  9
$TEXTSTYLE
  7
Standard
  9
$CLAYER
  8
0
  9
$CELTYPE
  6
ByLayer
  9
$CECOLOR
 62
   256
  9
$CELTSCALE
 40
0.3
  9
$DISPSILH
 70
     0
  9
$DIMSCALE
 40
1.0
  9
$DIMASZ
 40
0.125
  9
$DIMEXO
 40
0.0625
  9
$DIMDLI
 40
0.38
  9
$DIMRND
 40
0.0
  9
$DIMDLE
 40
0.0
  9
$DIMEXE
 40
0.18
  9
$DIMTP
 40
0.0
  9
$DIMTM
 40
0.0
  9
$DIMTXT
 40
0.125
  9
$DIMCEN
 40
0.09
  9
$DIMTSZ
 40
0.0
  9
$DIMTOL
 70
     0
  9
$DIMLIM
 70
     0
  9
$DIMTIH
 70
     1
  9
$DIMTOH
 70
     1
  9
$DIMSE1
 70
     0
  9
$DIMSE2
 70
     0
  9
$DIMTAD
 70
     0
  9
$DIMZIN
 70
     0
  9
$DIMBLK
  1

  9
$DIMASO
 70
     1
  9
$DIMSHO
 70
     1
  9
$DIMPOST
  1

  9
$DIMAPOST
  1

  9
$DIMALT
 70
     0
  9
$DIMALTD
 70
     2
  9
$DIMALTF
 40
25.4
  9
$DIMLFAC
 40
1.0
  9
$DIMTOFL
 70
     0
  9
$DIMTVP
 40
0.0
  9
$DIMTIX
 70
     0
  9
$DIMSOXD
 70
     0
  9
$DIMSAH
 70
     0
  9
$DIMBLK1
  1

  9
$DIMBLK2
  1

  9
$DIMSTYLE
  2
Standard
  9
$DIMCLRD
 70
     0
  9
$DIMCLRE
 70
     0
  9
$DIMCLRT
 70
     0
  9
$DIMTFAC
 40
1.0
  9
$DIMGAP
 40
0.09
  9
$DIMJUST
 70
     0
  9
$DIMSD1
 70
     0
  9
$DIMSD2
 70
     0
  9
$DIMTOLJ
 70
     1
  9
$DIMTZIN
 70
     0
  9
$DIMALTZ
 70
     0
  9
$DIMALTTZ
 70
     0
  9
$DIMUPT
 70
     0
  9
$DIMDEC
 70
     3
  9
$DIMTDEC
 70
     3
  9
$DIMALTU
 70
     2
  9
$DIMALTTD
 70
     2
  9
$DIMTXSTY
  7
Standard
  9
$DIMAUNIT
 70
     0
  9
$DIMADEC
 70
     0
  9
$DIMALTRND
 40
0.0
  9
$DIMAZIN
 70
     0
  9
$DIMDSEP
 70
    46
  9
$DIMATFIT
 70
     3
  9
$DIMFRAC
 70
     0
  9
$DIMLDRBLK
  1

  9
$DIMLUNIT
 70
     2
  9
$DIMLWD
 70
    -2
  9
$DIMLWE
 70
    -2
  9
$DIMTMOVE
 70
     0
  9
$LUNITS
 70
     2
  9
$LUPREC
 70
     4
  9
$SKETCHINC
 40
0.1
  9
$FILLETRAD
 40
0.125
  9
$AUNITS
 70
     0
  9
$AUPREC
 70
     0
  9
$MENU
  1
.
  9
$ELEVATION
 40
0.0
  9
$PELEVATION
 40
0.0
  9
$THICKNESS
 40
0.0
  9
$LIMCHECK
 70
     0
  9
$CHAMFERA
 40
0.5
  9
$CHAMFERB
 40
0.5
  9
$CHAMFERC
 40
1.0
  9
$CHAMFERD
 40
0.0
  9
$SKPOLY
 70
     0
  9
$TDCREATE
 40
2454412.579853507
  9
$TDUCREATE
 40
2454412.788186840
  9
$TDUPDATE
 40
2455925.744631250
  9
$TDUUPDATE
 40
2455925.952964583
  9
$TDINDWG
 40
0.4188897454
  9
$TDUSRTIMER
 40
0.4188897454
  9
$USRTIMER
 70
     1
  9
$ANGBASE
 50
0.0
  9
$ANGDIR
 70
     0
  9
$PDMODE
 70
     0
  9
$PDSIZE
 40
0.0
  9
$PLINEWID
 40
0.0
  9
$SPLFRAME
 70
     0
  9
$SPLINETYPE
 70
     6
  9
$SPLINESEGS
 70
     8
  9
$HANDSEED
  5
34C
  9
$SURFTAB1
 70
     6
  9
$SURFTAB2
 70
     6
  9
$SURFTYPE
 70
     6
  9
$SURFU
 70
     6
  9
$SURFV
 70
     6
  9
$UCSBASE
  2

  9
$UCSNAME
  2

  9
$UCSORG
 10
0.0
 20
0.0
 30
0.0
  9
$UCSXDIR
 10
1.0
 20
0.0
 30
0.0
  9
$UCSYDIR
 10
0.0
 20
1.0
 30
0.0
  9
$UCSORTHOREF
  2

  9
$UCSORTHOVIEW
 70
     0
  9
$UCSORGTOP
 10
0.0
 20
0.0
 30
0.0
  9
$UCSORGBOTTOM
 10
0.0
 20
0.0
 30
0.0
  9
$UCSORGLEFT
 10
0.0
 20
0.0
 30
0.0
  9
$UCSORGRIGHT
 10
0.0
 20
0.0
 30
0.0
  9
$UCSORGFRONT
 10
0.0
 20
0.0
 30
0.0
  9
$UCSORGBACK
 10
0.0
 20
0.0
 30
0.0
  9
$PUCSBASE
  2

  9
$PUCSNAME
  2

  9
$PUCSORG
 10
0.0
 20
0.0
 30
0.0
  9
$PUCSXDIR
 10
1.0
 20
0.0
 30
0.0
  9
$PUCSYDIR
 10
0.0
 20
1.0
 30
0.0
  9
$PUCSORTHOREF
  2

  9
$PUCSORTHOVIEW
 70
     0
  9
$PUCSORGTOP
 10
0.0
 20
0.0
 30
0.0
  9
$PUCSORGBOTTOM
 10
0.0
 20
0.0
 30
0.0
  9
$PUCSORGLEFT
 10
0.0
 20
0.0
 30
0.0
  9
$PUCSORGRIGHT
 10
0.0
 20
0.0
 30
0.0
  9
$PUCSORGFRONT
 10
0.0
 20
0.0
 30
0.0
  9
$PUCSORGBACK
 10
0.0
 20
0.0
 30
0.0
  9
$USERI1
 70
     0
  9
$USERI2
 70
     0
  9
$USERI3
 70
     0
  9
$USERI4
 70
     0
  9
$USERI5
 70
     0
  9
$USERR1
 40
0.0
  9
$USERR2
 40
0.0
  9
$USERR3
 40
0.0
  9
$USERR4
 40
0.0
  9
$USERR5
 40
0.0
  9
$WORLDVIEW
 70
     1
  9
$SHADEDGE
 70
     3
  9
$SHADEDIF
 70
    70
  9
$TILEMODE
 70
     0
  9
$MAXACTVP
 70
    64
  9
$PINSBASE
 10
0.0
 20
0.0
 30
0.0
  9
$PLIMCHECK
 70
     0
  9
$PEXTMIN
 10
-1.439262267973589
 20
-1.41285528304607
 30
0.0
  9
$PEXTMAX
 10
8.966538218833356
 20
6.396855050259421
 30
0.0
  9
$PLIMMIN
 10
-1.647916538508858
 20
-1.657916660534115
  9
$PLIMMAX
 10
9.35208322119525
 20
6.842083099169992
  9
$UNITMODE
 70
     0
  9
$VISRETAIN
 70
     1
  9
$PLINEGEN
 70
     0
  9
$PSLTSCALE
 70
     1
  9
$TREEDEPTH
 70
  3020
  9
$CMLSTYLE
  2
Standard
  9
$CMLJUST
 70
     0
  9
$CMLSCALE
 40
1.0
  9
$PROXYGRAPHICS
 70
     1
  9
$MEASUREMENT
 70
     0
  9
$CELWEIGHT
370
    -1
  9
$ENDCAPS
280
     0
  9
$JOINSTYLE
280
     0
  9
$LWDISPLAY
290
     0
  9
$INSUNITS
 70
     1
  9
$HYPERLINKBASE
  1

  9
$STYLESHEET
  1

  9
$XEDIT
290
     1
  9
$CEPSNTYPE
380
     0
  9
$PSTYLEMODE
290
     1
  9
$FINGERPRINTGUID
  2
{FDEAD576-A652-11D2-9A35-0060089B3A3F}
  9
$VERSIONGUID
  2
{B5E0DD8F-4C03-4C0D-8B02-28060B1133A6}
  9
$EXTNAMES
290
     1
  9
$PSVPSCALE
 40
0.0
  9
$OLESTARTUP
290
     0
  0
ENDSEC
  0
SECTION
  2
CLASSES
  0
CLASS
  1
ACDBDICTIONARYWDFLT
  2
AcDbDictionaryWithDefault
  3
AutoCAD 2000
 90
        0
280
     0
281
     0
  0
CLASS
  1
ACDBPLACEHOLDER
  2
AcDbPlaceHolder
  3
AutoCAD 2000
 90
        0
280
     0
281
     0
  0
CLASS
  1
LAYOUT
  2
AcDbLayout
  3
AutoCAD 2000
 90
        0
280
     0
281
     0
  0
CLASS
  1
DICTIONARYVAR
  2
AcDbDictionaryVar
  3
AutoCAD 2000
 90
        0
280
     0
281
     0
  0
CLASS
  1
DIMASSOC
  2
AcDbDimAssoc
  3
"AcDbDimAssoc|Product Desc:     AcDim ARX App For Dimension|Company:          Autodesk, Inc.|WEB Address:      www.autodesk.com"
 90
        0
280
     0
281
     0
  0
ENDSEC
  0
SECTION
  2
TABLES
  0
TABLE
  2
VPORT
  5
8
330
0
100
AcDbSymbolTable
 70
     1
  0
VPORT
  5
74
330
8
100
AcDbSymbolTableRecord
100
AcDbViewportTableRecord
  2
*Active
 70
     0
 10
0.0
 20
0.0
 11
1.0
 21
1.0
 12
20.48748698095427
 22
9.784138269231398
 13
0.0
 23
0.0
 14
0.5
 24
0.5
 15
0.5
 25
0.5
 16
0.0
 26
0.0
 36
1.0
 17
0.0
 27
0.0
 37
0.0
 40
19.56827653846279
 41
2.093949044585987
 42
50.0
 43
0.0
 44
0.0
 50
0.0
 51
0.0
 71
     0
 72
   100
 73
     1
 74
     3
 75
     0
 76
     0
 77
     0
 78
     0
281
     0
 65
     1
110
0.0
120
0.0
130
0.0
111
1.0
121
0.0
131
0.0
112
0.0
122
1.0
132
0.0
 79
     0
146
0.0
  0
ENDTAB
  0
TABLE
  2
LTYPE
  5
5
330
0
100
AcDbSymbolTable
 70
     3
  0
LTYPE
  5
14
330
5
100
AcDbSymbolTableRecord
100
AcDbLinetypeTableRecord
  2
ByBlock
 70
     0
  3

 72
    65
 73
     0
 40
0.0
  0
LTYPE
  5
15
330
5
100
AcDbSymbolTableRecord
100
AcDbLinetypeTableRecord
  2
ByLayer
 70
     0
  3

 72
    65
 73
     0
 40
0.0
  0
LTYPE
  5
16
330
5
100
AcDbSymbolTableRecord
100
AcDbLinetypeTableRecord
  2
Continuous
 70
     0
  3
Solid line
 72
    65
 73
     0
 40
0.0
  0
LTYPE
  5
92
330
5
100
AcDbSymbolTableRecord
100
AcDbLinetypeTableRecord
  2
HIDDENX2
 70
     0
  3
Hidden (2x) ____ ____ ____ ____ ____ ____ ____
 72
    65
 73
     2
 40
0.75
 49
0.5
 74
     0
 49
-0.25
 74
     0
  0
LTYPE
  5
93
330
5
100
AcDbSymbolTableRecord
100
AcDbLinetypeTableRecord
  2
threads
 70
     0
  3
Zig zag /\/\/\/\/\/\/\/\/\/\/\/\/\/\/\/\/\/\/\/
 72
    65
 73
     4
 40
0.8001000000000001
 49
0.0001
 74
     0
 49
-0.2
 74
     4
 75
   131
340
91
 46
0.2
 50
0.0
 44
-0.2
 45
0.0
 49
-0.4
 74
     4
 75
   131
340
91
 46
0.2
 50
180.0
 44
0.2
 45
0.0
 49
-0.2
 74
     0
  0
ENDTAB
  0
TABLE
  2
LAYER
  5
2
330
0
100
AcDbSymbolTable
 70
     2
  0
LAYER
  5
10
330
2
100
AcDbSymbolTableRecord
100
AcDbLayerTableRecord
  2
0
 70
     0
 62
     7
  6
Continuous
370
    -3
390
F
  0
LAYER
  5
102
330
2
100
AcDbSymbolTableRecord
100
AcDbLayerTableRecord
  2
Defpoints
 70
     0
 62
     7
  6
Continuous
290
     0
370
    -3
390
F
  0
ENDTAB
  0
TABLE
  2
STYLE
  5
3
330
0
100
AcDbSymbolTable
 70
     2
  0
STYLE
  5
11
330
3
100
AcDbSymbolTableRecord
100
AcDbTextStyleTableRecord
  2
Standard
 70
     0
 40
0.0
 41
1.0
 50
0.0
 71
     0
 42
0.2
  3
txt
  4

  0
STYLE
  5
91
330
3
100
AcDbSymbolTableRecord
100
AcDbTextStyleTableRecord
  2

 70
     1
 40
0.0
 41
1.0
 50
0.0
 71
     0
 42
0.2
  3
ltypeshp.shx
  4

  0
ENDTAB
  0
TABLE
  2
VIEW
  5
6
330
0
100
AcDbSymbolTable
 70
     0
  0
ENDTAB
  0
TABLE
  2
UCS
  5
7
330
0
100
AcDbSymbolTable
 70
     0
  0
ENDTAB
  0
TABLE
  2
APPID
  5
9
330
0
100
AcDbSymbolTable
 70
     1
  0
APPID
  5
12
330
9
100
AcDbSymbolTableRecord
100
AcDbRegAppTableRecord
  2
ACAD
 70
     0
  0
ENDTAB
  0
TABLE
  2
DIMSTYLE
  5
A
330
0
100
AcDbSymbolTable
 70
     1
100
AcDbDimStyleTable
 71
     1
340
27
  0
DIMSTYLE
105
27
102
{ACAD_REACTORS
330
101
330
11C
330
136
330
150
330
16C
330
186
330
1AA
330
1C4
330
1DA
330
1F0
330
20C
330
226
330
240
330
25A
330
274
330
28A
330
2AE
330
2CA
330
2E4
330
2FE
330
318
102
}
330
A
100
AcDbSymbolTableRecord
100
AcDbDimStyleTableRecord
  2
Standard
 70
     0
 41
0.125
140
0.125
271
     3
272
     3
340
11
  0
ENDTAB
  0
TABLE
  2
BLOCK_RECORD
  5
1
330
0
100
AcDbSymbolTable
 70
    22
  0
BLOCK_RECORD
  5
1F
330
1
100
AcDbSymbolTableRecord
100
AcDbBlockTableRecord
  2
*Model_Space
340
22
  0
BLOCK_RECORD
  5
58
330
1
100
AcDbSymbolTableRecord
100
AcDbBlockTableRecord
  2
*Paper_Space
340
59
  0
BLOCK_RECORD
  5
5D
330
1
100
AcDbSymbolTableRecord
100
AcDbBlockTableRecord
  2
*Paper_Space0
340
5E
  0
BLOCK_RECORD
  5
103
330
1
100
AcDbSymbolTableRecord
100
AcDbBlockTableRecord
  2
*D1
340
0
  0
BLOCK_RECORD
  5
11D
330
1
100
AcDbSymbolTableRecord
100
AcDbBlockTableRecord
  2
*D2
340
0
  0
BLOCK_RECORD
  5
137
330
1
100
AcDbSymbolTableRecord
100
AcDbBlockTableRecord
  2
*D3
340
0
  0
BLOCK_RECORD
  5
151
330
1
100
AcDbSymbolTableRecord
100
AcDbBlockTableRecord
  2
*D4
340
0
  0
BLOCK_RECORD
  5
16D
330
1
100
AcDbSymbolTableRecord
100
AcDbBlockTableRecord
  2
*D5
340
0
  0
BLOCK_RECORD
  5
187
330
1
100
AcDbSymbolTableRecord
100
AcDbBlockTableRecord
  2
*D6
340
0
  0
BLOCK_RECORD
  5
1AB
330
1
100
AcDbSymbolTableRecord
100
AcDbBlockTableRecord
  2
*D7
340
0
  0
BLOCK_RECORD
  5
1C5
330
1
100
AcDbSymbolTableRecord
100
AcDbBlockTableRecord
  2
*D8
340
0
  0
BLOCK_RECORD
  5
1DB
330
1
100
AcDbSymbolTableRecord
100
AcDbBlockTableRecord
  2
*D9
340
0
  0
BLOCK_RECORD
  5
1F1
330
1
100
AcDbSymbolTableRecord
100
AcDbBlockTableRecord
  2
*D10
340
0
  0
BLOCK_RECORD
  5
20D
330
1
100
AcDbSymbolTableRecord
100
AcDbBlockTableRecord
  2
*D11
340
0
  0
BLOCK_RECORD
  5
227
330
1
100
AcDbSymbolTableRecord
100
AcDbBlockTableRecord
  2
*D12
340
0
  0
BLOCK_RECORD
  5
241
330
1
100
AcDbSymbolTableRecord
100
AcDbBlockTableRecord
  2
*D13
340
0
  0
BLOCK_RECORD
  5
25B
330
1
100
AcDbSymbolTableRecord
100
AcDbBlockTableRecord
  2
*D14
340
0
  0
BLOCK_RECORD
  5
275
330
1
100
AcDbSymbolTableRecord
100
AcDbBlockTableRecord
  2
*D15
340
0
  0
BLOCK_RECORD
  5
28B
330
1
100
AcDbSymbolTableRecord
100
AcDbBlockTableRecord
  2
*D16
340
0
  0
BLOCK_RECORD
  5
2AF
330
1
100
AcDbSymbolTableRecord
100
AcDbBlockTableRecord
  2
*D17
340
0
  0
BLOCK_RECORD
  5
2CB
330
1
100
AcDbSymbolTableRecord
100
AcDbBlockTableRecord
  2
*D18
340
0
  0
BLOCK_RECORD
  5
2E5
330
1
100
AcDbSymbolTableRecord
100
AcDbBlockTableRecord
  2
*D19
340
0
  0
BLOCK_RECORD
  5
2FF
330
1
100
AcDbSymbolTableRecord
100
AcDbBlockTableRecord
  2
*D20
340
0
  0
BLOCK_RECORD
  5
319
330
1
100
AcDbSymbolTableRecord
100
AcDbBlockTableRecord
  2
*D21
340
0
  0
ENDTAB
  0
ENDSEC
  0
SECTION
  2
BLOCKS
  0
BLOCK
  5
20
330
1F
100
AcDbEntity
  8
0
100
AcDbBlockBegin
  2
*Model_Space
 70
     0
 10
0.0
 20
0.0
 30
0.0
  3
*Model_Space
  1

  0
ENDBLK
  5
21
330
1F
100
AcDbEntity
  8
0
100
AcDbBlockEnd
  0
BLOCK
  5
5A
330
58
100
AcDbEntity
 67
     1
  8
0
100
AcDbBlockBegin
  2
*Paper_Space
 70
     0
 10
0.0
 20
0.0
 30
0.0
  3
*Paper_Space
  1

  0
ENDBLK
  5
5B
330
58
100
AcDbEntity
 67
     1
  8
0
100
AcDbBlockEnd
  0
BLOCK
  5
5F
330
5D
100
AcDbEntity
  8
0
100
AcDbBlockBegin
  2
*Paper_Space0
 70
     0
 10
0.0
 20
0.0
 30
0.0
  3
*Paper_Space0
  1

  0
ENDBLK
  5
60
330
5D
100
AcDbEntity
  8
0
100
AcDbBlockEnd
  0
BLOCK
  5
10E
330
103
100
AcDbEntity
  8
0
 48
0.3
100
AcDbBlockBegin
  2
*D1
 70
     1
 10
0.0
 20
0.0
 30
0.0
  3
*D1
  1

  0
LINE
  5
111
330
103
100
AcDbEntity
  8
0
 62
     0
 48
0.3
370
    -2
100
AcDbLine
 10
7.092084436521801
 20
5.077025159541888
 30
0.0
 11
8.1217652552023
 21
5.077025159541888
 31
0.0
  0
LINE
  5
112
330
103
100
AcDbEntity
  8
0
 62
     0
 48
0.3
370
    -2
100
AcDbLine
 10
7.092084436521801
 20
2.577025159541888
 30
0.0
 11
8.121765255202298
 21
2.577025159541888
 31
0.0
  0
LINE
  5
113
330
103
100
AcDbEntity
  8
0
 62
     0
 48
0.3
370
    -2
100
AcDbLine
 10
7.941765255202298
 20
4.952025159541888
 30
0.0
 11
7.941765255202298
 21
3.979525159541888
 31
0.0
  0
LINE
  5
114
330
103
100
AcDbEntity
  8
0
 62
     0
 48
0.3
370
    -2
100
AcDbLine
 10
7.941765255202298
 20
2.702025159541888
 30
0.0
 11
7.941765255202298
 21
3.674525159541889
 31
0.0
  0
SOLID
  5
115
330
103
100
AcDbEntity
  8
0
 62
     0
 48
0.3
100
AcDbTrace
 10
7.920931921868965
 20
4.952025159541888
 30
0.0
 11
7.962598588535631
 21
4.952025159541888
 31
0.0
 12
7.941765255202298
 22
5.077025159541888
 32
0.0
 13
7.941765255202298
 23
5.077025159541888
 33
0.0
  0
SOLID
  5
116
330
103
100
AcDbEntity
  8
0
 62
     0
 48
0.3
100
AcDbTrace
 10
7.920931921868965
 20
2.702025159541888
 30
0.0
 11
7.962598588535631
 21
2.702025159541888
 31
0.0
 12
7.941765255202298
 22
2.577025159541888
 32
0.0
 13
7.941765255202298
 23
2.577025159541888
 33
0.0
  0
MTEXT
  5
117
330
103
100
AcDbEntity
  8
0
 62
     0
 48
0.3
100
AcDbMText
 10
7.941765255202297
 20
3.82702515954189
 30
0.0
 40
0.125
 41
0.0
 71
     5
 72
     1
  1
\A1;2.500
 73
     1
 44
1.0
  0
POINT
  5
118
330
103
100
AcDbEntity
  8
Defpoints
 62
     0
 48
0.3
100
AcDbPoint
 10
7.029584436521801
 20
5.077025159541888
 30
0.0
  0
POINT
  5
119
330
103
100
AcDbEntity
  8
Defpoints
 62
     0
 48
0.3
100
AcDbPoint
 10
7.029584436521801
 20
2.577025159541888
 30
0.0
  0
POINT
  5
11A
330
103
100
AcDbEntity
  8
Defpoints
 62
     0
 48
0.3
100
AcDbPoint
 10
7.941765255202298
 20
2.577025159541888
 30
0.0
  0
ENDBLK
  5
10F
330
103
100
AcDbEntity
  8
0
 48
0.3
100
AcDbBlockEnd
  0
BLOCK
  5
128
330
11D
100
AcDbEntity
  8
0
 48
0.3
100
AcDbBlockBegin
  2
*D2
 70
     1
 10
0.0
 20
0.0
 30
0.0
  3
*D2
  1

  0
LINE
  5
12B
330
11D
100
AcDbEntity
  8
0
 62
     0
 48
0.3
370
    -2
100
AcDbLine
 10
6.529584436521801
 20
2.514525159541888
 30
0.0
 11
6.529584436521801
 21
1.88809481768094
 31
0.0
  0
LINE
  5
12C
330
11D
100
AcDbEntity
  8
0
 62
     0
 48
0.3
370
    -2
100
AcDbLine
 10
7.029584436521801
 20
2.514525159541888
 30
0.0
 11
7.029584436521801
 21
1.88809481768094
 31
0.0
  0
LINE
  5
12D
330
11D
100
AcDbEntity
  8
0
 62
     0
 48
0.3
370
    -2
100
AcDbLine
 10
6.654584436521801
 20
2.06809481768094
 30
0.0
 11
6.904584436521801
 21
2.06809481768094
 31
0.0
  0
LINE
  5
12E
330
11D
100
AcDbEntity
  8
0
 62
     0
 48
0.3
370
    -2
100
AcDbLine
 10
7.029584436521801
 20
2.06809481768094
 30
0.0
 11
7.154584436521801
 21
2.06809481768094
 31
0.0
  0
SOLID
  5
12F
330
11D
100
AcDbEntity
  8
0
 62
     0
 48
0.3
100
AcDbTrace
 10
6.654584436521801
 20
2.088928151014273
 30
0.0
 11
6.654584436521801
 21
2.047261484347606
 31
0.0
 12
6.529584436521801
 22
2.06809481768094
 32
0.0
 13
6.529584436521801
 23
2.06809481768094
 33
0.0
  0
SOLID
  5
130
330
11D
100
AcDbEntity
  8
0
 62
     0
 48
0.3
100
AcDbTrace
 10
6.904584436521801
 20
2.088928151014273
 30
0.0
 11
6.904584436521801
 21
2.047261484347606
 31
0.0
 12
7.029584436521801
 22
2.06809481768094
 32
0.0
 13
7.029584436521801
 23
2.06809481768094
 33
0.0
  0
MTEXT
  5
131
330
11D
100
AcDbEntity
  8
0
 62
     0
 48
0.3
100
AcDbMText
 10
7.463334436521801
 20
2.06809481768094
 30
0.0
 40
0.125
 41
0.0
 71
     5
 72
     1
  1
\A1;0.500
 73
     1
 44
1.0
  0
POINT
  5
132
330
11D
100
AcDbEntity
  8
Defpoints
 62
     0
 48
0.3
100
AcDbPoint
 10
6.529584436521801
 20
2.577025159541888
 30
0.0
  0
POINT
  5
133
330
11D
100
AcDbEntity
  8
Defpoints
 62
     0
 48
0.3
100
AcDbPoint
 10
7.029584436521801
 20
2.577025159541888
 30
0.0
  0
POINT
  5
134
330
11D
100
AcDbEntity
  8
Defpoints
 62
     0
 48
0.3
100
AcDbPoint
 10
7.029584436521801
 20
2.06809481768094
 30
0.0
  0
ENDBLK
  5
129
330
11D
100
AcDbEntity
  8
0
 48
0.3
100
AcDbBlockEnd
  0
BLOCK
  5
142
330
137
100
AcDbEntity
  8
0
 48
0.3
100
AcDbBlockBegin
  2
*D3
 70
     1
 10
0.0
 20
0.0
 30
0.0
  3
*D3
  1

  0
LINE
  5
145
330
137
100
AcDbEntity
  8
0
 62
     0
 48
0.3
370
    -2
100
AcDbLine
 10
0.7686429715325298
 20
0.7913374544188731
 30
0.0
 11
0.7686429715325298
 21
-0.1206495150145702
 31
0.0
  0
LINE
  5
146
330
137
100
AcDbEntity
  8
0
 62
     0
 48
0.3
370
    -2
100
AcDbLine
 10
5.268642971532526
 20
0.7913374544188726
 30
0.0
 11
5.268642971532526
 21
-0.1206495150145701
 31
0.0
  0
LINE
  5
147
330
137
100
AcDbEntity
  8
0
 62
     0
 48
0.3
370
    -2
100
AcDbLine
 10
0.8936429715325298
 20
0.0593504849854298
 30
0.0
 11
2.699476304865861
 21
0.0593504849854298
 31
0.0
  0
LINE
  5
148
330
137
100
AcDbEntity
  8
0
 62
     0
 48
0.3
370
    -2
100
AcDbLine
 10
5.143642971532526
 20
0.0593504849854298
 30
0.0
 11
3.337809638199194
 21
0.0593504849854298
 31
0.0
  0
SOLID
  5
149
330
137
100
AcDbEntity
  8
0
 62
     0
 48
0.3
100
AcDbTrace
 10
0.8936429715325298
 20
0.0801838183187632
 30
0.0
 11
0.8936429715325298
 21
0.0385171516520965
 31
0.0
 12
0.7686429715325298
 22
0.0593504849854298
 32
0.0
 13
0.7686429715325298
 23
0.0593504849854298
 33
0.0
  0
SOLID
  5
14A
330
137
100
AcDbEntity
  8
0
 62
     0
 48
0.3
100
AcDbTrace
 10
5.143642971532526
 20
0.0801838183187632
 30
0.0
 11
5.143642971532526
 21
0.0385171516520965
 31
0.0
 12
5.268642971532526
 22
0.0593504849854298
 32
0.0
 13
5.268642971532526
 23
0.0593504849854298
 33
0.0
  0
MTEXT
  5
14B
330
137
100
AcDbEntity
  8
0
 62
     0
 48
0.3
100
AcDbMText
 10
3.018642971532528
 20
0.0593504849854298
 30
0.0
 40
0.125
 41
0.0
 71
     5
 72
     1
  1
\A1;4.500
 73
     1
 44
1.0
  0
POINT
  5
14C
330
137
100
AcDbEntity
  8
Defpoints
 62
     0
 48
0.3
100
AcDbPoint
 10
0.7686429715325298
 20
0.853837454418873
 30
0.0
  0
POINT
  5
14D
330
137
100
AcDbEntity
  8
Defpoints
 62
     0
 48
0.3
100
AcDbPoint
 10
5.268642971532526
 20
0.8538374544188725
 30
0.0
  0
POINT
  5
14E
330
137
100
AcDbEntity
  8
Defpoints
 62
     0
 48
0.3
100
AcDbPoint
 10
5.268642971532526
 20
0.0593504849854298
 30
0.0
  0
ENDBLK
  5
143
330
137
100
AcDbEntity
  8
0
 48
0.3
100
AcDbBlockEnd
  0
BLOCK
  5
15D
330
151
100
AcDbEntity
  8
0
 48
0.3
100
AcDbBlockBegin
  2
*D4
 70
     1
 10
0.0
 20
0.0
 30
0.0
  3
*D4
  1

  0
LINE
  5
160
330
151
100
AcDbEntity
  8
0
 62
     0
 48
0.3
370
    -2
100
AcDbLine
 10
0.8936429715325298
 20
4.827025159541888
 30
0.0
 11
-0.3265091841114656
 21
4.827025159541888
 31
0.0
  0
LINE
  5
161
330
151
100
AcDbEntity
  8
0
 62
     0
 48
0.3
370
    -2
100
AcDbLine
 10
0.7061429715325306
 20
5.077025159541888
 30
0.0
 11
-0.3265091841114657
 21
5.077025159541888
 31
0.0
  0
LINE
  5
162
330
151
100
AcDbEntity
  8
0
 62
     0
 48
0.3
370
    -2
100
AcDbLine
 10
-0.1465091841114657
 20
4.702025159541888
 30
0.0
 11
-0.1465091841114657
 21
4.577025159541888
 31
0.0
  0
LINE
  5
163
330
151
100
AcDbEntity
  8
0
 62
     0
 48
0.3
370
    -2
100
AcDbLine
 10
-0.1465091841114655
 20
5.202025159541888
 30
0.0
 11
-0.1465091841114655
 21
5.327025159541888
 31
0.0
  0
LINE
  5
164
330
151
100
AcDbEntity
  8
0
 62
     0
 48
0.3
370
    -2
100
AcDbLine
 10
-0.1465091841114655
 20
5.327025159541888
 30
0.0
 11
-0.0215091841114655
 21
5.327025159541888
 31
0.0
  0
SOLID
  5
165
330
151
100
AcDbEntity
  8
0
 62
     0
 48
0.3
100
AcDbTrace
 10
-0.167342517444799
 20
4.702025159541888
 30
0.0
 11
-0.1256758507781323
 21
4.702025159541888
 31
0.0
 12
-0.1465091841114656
 22
4.827025159541888
 32
0.0
 13
-0.1465091841114656
 23
4.827025159541888
 33
0.0
  0
SOLID
  5
166
330
151
100
AcDbEntity
  8
0
 62
     0
 48
0.3
100
AcDbTrace
 10
-0.1673425174447989
 20
5.202025159541888
 30
0.0
 11
-0.1256758507781322
 21
5.202025159541888
 31
0.0
 12
-0.1465091841114656
 22
5.077025159541888
 32
0.0
 13
-0.1465091841114656
 23
5.077025159541888
 33
0.0
  0
MTEXT
  5
167
330
151
100
AcDbEntity
  8
0
 62
     0
 48
0.3
100
AcDbMText
 10
0.2976574825552003
 20
5.327025159541888
 30
0.0
 40
0.125
 41
0.0
 71
     5
 72
     1
  1
\A1;0.250
 73
     1
 44
1.0
  0
POINT
  5
168
330
151
100
AcDbEntity
  8
Defpoints
 62
     0
 48
0.3
100
AcDbPoint
 10
0.9561429715325298
 20
4.827025159541888
 30
0.0
  0
POINT
  5
169
330
151
100
AcDbEntity
  8
Defpoints
 62
     0
 48
0.3
100
AcDbPoint
 10
0.7686429715325306
 20
5.077025159541888
 30
0.0
  0
POINT
  5
16A
330
151
100
AcDbEntity
  8
Defpoints
 62
     0
 48
0.3
100
AcDbPoint
 10
-0.1465091841114656
 20
5.077025159541888
 30
0.0
  0
ENDBLK
  5
15E
330
151
100
AcDbEntity
  8
0
 48
0.3
100
AcDbBlockEnd
  0
BLOCK
  5
178
330
16D
100
AcDbEntity
  8
0
 48
0.3
100
AcDbBlockBegin
  2
*D5
 70
     1
 10
0.0
 20
0.0
 30
0.0
  3
*D5
  1

  0
LINE
  5
17B
330
16D
100
AcDbEntity
  8
0
 62
     0
 48
0.3
370
    -2
100
AcDbLine
 10
0.8936429715325298
 20
4.827025159541888
 30
0.0
 11
-0.3418569427162835
 21
4.827025159541888
 31
0.0
  0
LINE
  5
17C
330
16D
100
AcDbEntity
  8
0
 62
     0
 48
0.3
370
    -2
100
AcDbLine
 10
0.8936429715325298
 20
2.827025159541888
 30
0.0
 11
-0.3418569427162839
 21
2.827025159541888
 31
0.0
  0
LINE
  5
17D
330
16D
100
AcDbEntity
  8
0
 62
     0
 48
0.3
370
    -2
100
AcDbLine
 10
-0.1618569427162836
 20
4.702025159541888
 30
0.0
 11
-0.1618569427162837
 21
3.979525159541887
 31
0.0
  0
LINE
  5
17E
330
16D
100
AcDbEntity
  8
0
 62
     0
 48
0.3
370
    -2
100
AcDbLine
 10
-0.161856942716284
 20
2.952025159541888
 30
0.0
 11
-0.1618569427162838
 21
3.674525159541888
 31
0.0
  0
SOLID
  5
17F
330
16D
100
AcDbEntity
  8
0
 62
     0
 48
0.3
100
AcDbTrace
 10
-0.1826902760496169
 20
4.702025159541888
 30
0.0
 11
-0.1410236093829502
 21
4.702025159541888
 31
0.0
 12
-0.1618569427162836
 22
4.827025159541888
 32
0.0
 13
-0.1618569427162836
 23
4.827025159541888
 33
0.0
  0
SOLID
  5
180
330
16D
100
AcDbEntity
  8
0
 62
     0
 48
0.3
100
AcDbTrace
 10
-0.1826902760496173
 20
2.952025159541888
 30
0.0
 11
-0.1410236093829506
 21
2.952025159541888
 31
0.0
 12
-0.161856942716284
 22
2.827025159541888
 32
0.0
 13
-0.161856942716284
 23
2.827025159541888
 33
0.0
  0
MTEXT
  5
181
330
16D
100
AcDbEntity
  8
0
 62
     0
 48
0.3
100
AcDbMText
 10
-0.1618569427162844
 20
3.827025159541888
 30
0.0
 40
0.125
 41
0.0
 71
     5
 72
     1
  1
\A1;2.000
 73
     1
 44
1.0
  0
POINT
  5
182
330
16D
100
AcDbEntity
  8
Defpoints
 62
     0
 48
0.3
100
AcDbPoint
 10
0.9561429715325298
 20
4.827025159541888
 30
0.0
  0
POINT
  5
183
330
16D
100
AcDbEntity
  8
Defpoints
 62
     0
 48
0.3
100
AcDbPoint
 10
0.9561429715325298
 20
2.827025159541888
 30
0.0
  0
POINT
  5
184
330
16D
100
AcDbEntity
  8
Defpoints
 62
     0
 48
0.3
100
AcDbPoint
 10
-0.161856942716284
 20
2.827025159541888
 30
0.0
  0
ENDBLK
  5
179
330
16D
100
AcDbEntity
  8
0
 48
0.3
100
AcDbBlockEnd
  0
BLOCK
  5
192
330
187
100
AcDbEntity
  8
0
 48
0.3
100
AcDbBlockBegin
  2
*D6
 70
     1
 10
0.0
 20
0.0
 30
0.0
  3
*D6
  1

  0
LINE
  5
1A0
330
187
100
AcDbEntity
  8
0
 62
     0
 48
0.3
370
    -2
100
AcDbLine
 10
0.9811429715325289
 20
3.827025159541888
 30
0.0
 11
0.2106627543568042
 21
3.827025159541888
 31
0.0
  0
LINE
  5
1A1
330
187
100
AcDbEntity
  8
0
 62
     0
 48
0.3
370
    -2
100
AcDbLine
 10
0.7061429715325298
 20
2.577025159541888
 30
0.0
 11
0.2106627543568039
 21
2.577025159541888
 31
0.0
  0
LINE
  5
1A2
330
187
100
AcDbEntity
  8
0
 62
     0
 48
0.3
370
    -2
100
AcDbLine
 10
0.3906627543568042
 20
3.702025159541888
 30
0.0
 11
0.390662754356804
 21
3.354525159541888
 31
0.0
  0
LINE
  5
1A3
330
187
100
AcDbEntity
  8
0
 62
     0
 48
0.3
370
    -2
100
AcDbLine
 10
0.3906627543568039
 20
2.702025159541888
 30
0.0
 11
0.390662754356804
 21
3.049525159541889
 31
0.0
  0
SOLID
  5
1A4
330
187
100
AcDbEntity
  8
0
 62
     0
 48
0.3
100
AcDbTrace
 10
0.3698294210234708
 20
3.702025159541888
 30
0.0
 11
0.4114960876901375
 21
3.702025159541888
 31
0.0
 12
0.3906627543568042
 22
3.827025159541888
 32
0.0
 13
0.3906627543568042
 23
3.827025159541888
 33
0.0
  0
SOLID
  5
1A5
330
187
100
AcDbEntity
  8
0
 62
     0
 48
0.3
100
AcDbTrace
 10
0.3698294210234706
 20
2.702025159541888
 30
0.0
 11
0.4114960876901373
 21
2.702025159541888
 31
0.0
 12
0.3906627543568039
 22
2.577025159541888
 32
0.0
 13
0.3906627543568039
 23
2.577025159541888
 33
0.0
  0
MTEXT
  5
1A6
330
187
100
AcDbEntity
  8
0
 62
     0
 48
0.3
100
AcDbMText
 10
0.3906627543568035
 20
3.202025159541888
 30
0.0
 40
0.125
 41
0.0
 71
     5
 72
     1
  1
\A1;1.250
 73
     1
 44
1.0
  0
POINT
  5
1A7
330
187
100
AcDbEntity
  8
Defpoints
 62
     0
 48
0.3
100
AcDbPoint
 10
1.043642971532528
 20
3.827025159541888
 30
0.0
  0
POINT
  5
1A8
330
187
100
AcDbEntity
  8
Defpoints
 62
     0
 48
0.3
100
AcDbPoint
 10
0.7686429715325298
 20
2.577025159541888
 30
0.0
  0
POINT
  5
1A9
330
187
100
AcDbEntity
  8
Defpoints
 62
     0
 48
0.3
100
AcDbPoint
 10
0.3906627543568039
 20
2.577025159541888
 30
0.0
  0
ENDBLK
  5
193
330
187
100
AcDbEntity
  8
0
 48
0.3
100
AcDbBlockEnd
  0
BLOCK
  5
1B6
330
1AB
100
AcDbEntity
  8
0
 48
0.3
100
AcDbBlockBegin
  2
*D7
 70
     1
 10
0.0
 20
0.0
 30
0.0
  3
*D7
  1

  0
LINE
  5
1B9
330
1AB
100
AcDbEntity
  8
0
 62
     0
 48
0.3
370
    -2
100
AcDbLine
 10
3.081142971532528
 20
3.827025159541888
 30
0.0
 11
4.315518487569917
 21
3.827025159541888
 31
0.0
  0
LINE
  5
1BA
330
1AB
100
AcDbEntity
  8
0
 62
     0
 48
0.3
370
    -2
100
AcDbLine
 10
3.081142971532528
 20
2.577025159541888
 30
0.0
 11
4.315518487569917
 21
2.577025159541888
 31
0.0
  0
LINE
  5
1BB
330
1AB
100
AcDbEntity
  8
0
 62
     0
 48
0.3
370
    -2
100
AcDbLine
 10
4.135518487569918
 20
3.702025159541888
 30
0.0
 11
4.135518487569918
 21
3.354525159541887
 31
0.0
  0
LINE
  5
1BC
330
1AB
100
AcDbEntity
  8
0
 62
     0
 48
0.3
370
    -2
100
AcDbLine
 10
4.135518487569918
 20
2.702025159541888
 30
0.0
 11
4.135518487569918
 21
3.049525159541888
 31
0.0
  0
SOLID
  5
1BD
330
1AB
100
AcDbEntity
  8
0
 62
     0
 48
0.3
100
AcDbTrace
 10
4.114685154236584
 20
3.702025159541888
 30
0.0
 11
4.156351820903251
 21
3.702025159541888
 31
0.0
 12
4.135518487569918
 22
3.827025159541888
 32
0.0
 13
4.135518487569918
 23
3.827025159541888
 33
0.0
  0
SOLID
  5
1BE
330
1AB
100
AcDbEntity
  8
0
 62
     0
 48
0.3
100
AcDbTrace
 10
4.114685154236584
 20
2.702025159541888
 30
0.0
 11
4.156351820903251
 21
2.702025159541888
 31
0.0
 12
4.135518487569918
 22
2.577025159541888
 32
0.0
 13
4.135518487569918
 23
2.577025159541888
 33
0.0
  0
MTEXT
  5
1BF
330
1AB
100
AcDbEntity
  8
0
 62
     0
 48
0.3
100
AcDbMText
 10
4.135518487569917
 20
3.202025159541888
 30
0.0
 40
0.125
 41
0.0
 71
     5
 72
     1
  1
\A1;1.250
 73
     1
 44
1.0
  0
POINT
  5
1C0
330
1AB
100
AcDbEntity
  8
Defpoints
 62
     0
 48
0.3
100
AcDbPoint
 10
3.018642971532528
 20
3.827025159541888
 30
0.0
  0
POINT
  5
1C1
330
1AB
100
AcDbEntity
  8
Defpoints
 62
     0
 48
0.3
100
AcDbPoint
 10
3.018642971532528
 20
2.577025159541888
 30
0.0
  0
POINT
  5
1C2
330
1AB
100
AcDbEntity
  8
Defpoints
 62
     0
 48
0.3
100
AcDbPoint
 10
4.135518487569918
 20
2.577025159541888
 30
0.0
  0
ENDBLK
  5
1B7
330
1AB
100
AcDbEntity
  8
0
 48
0.3
100
AcDbBlockEnd
  0
BLOCK
  5
1CE
330
1C5
100
AcDbEntity
  8
0
 48
0.3
100
AcDbBlockBegin
  2
*D8
 70
     1
 10
0.0
 20
0.0
 30
0.0
  3
*D8
  1

  0
LINE
  5
1D1
330
1C5
100
AcDbEntity
  8
0
 62
     0
 48
0.3
370
    -2
100
AcDbLine
 10
2.184133896777811
 20
2.328771572279766
 30
0.0
 11
2.309133896777812
 21
2.328771572279766
 31
0.0
  0
LINE
  5
1D2
330
1C5
100
AcDbEntity
  8
0
 62
     0
 48
0.3
370
    -2
100
AcDbLine
 10
2.309133896777812
 20
2.328771572279766
 30
0.0
 11
2.783246966139527
 21
3.329944964155854
 31
0.0
  0
MTEXT
  5
1D3
330
1C5
100
AcDbEntity
  8
0
 62
     0
 48
0.3
100
AcDbMText
 10
1.792050563444478
 20
2.328771572279766
 30
0.0
 40
0.125
 41
0.0
 71
     5
 72
     1
  1
\A1;R0.425
 73
     1
 44
1.0
  0
SOLID
  5
1D4
330
1C5
100
AcDbEntity
  8
0
 62
     0
 48
0.3
100
AcDbTrace
 10
2.764418170859753
 20
3.33886147951165
 30
0.0
 11
2.802075761419301
 21
3.321028448800059
 31
0.0
 12
2.8367460582743
 22
3.442917735834499
 32
0.0
 13
2.8367460582743
 23
3.442917735834499
 33
0.0
  0
LINE
  5
1D5
330
1C5
100
AcDbEntity
  8
0
 62
     0
 48
0.3
370
    -2
100
AcDbLine
 10
2.928642971532527
 20
3.827025159541887
 30
0.0
 11
3.108642971532527
 21
3.827025159541887
 31
0.0
  0
LINE
  5
1D6
330
1C5
100
AcDbEntity
  8
0
 62
     0
 48
0.3
370
    -2
100
AcDbLine
 10
3.018642971532528
 20
3.737025159541888
 30
0.0
 11
3.018642971532527
 21
3.917025159541887
 31
0.0
  0
POINT
  5
1D7
330
1C5
100
AcDbEntity
  8
Defpoints
 62
     0
 48
0.3
100
AcDbPoint
 10
2.8367460582743
 20
3.442917735834499
 30
0.0
  0
POINT
  5
1D8
330
1C5
100
AcDbEntity
  8
Defpoints
 62
     0
 48
0.3
100
AcDbPoint
 10
3.018642971532528
 20
3.827025159541887
 30
0.0
  0
ENDBLK
  5
1CF
330
1C5
100
AcDbEntity
  8
0
 48
0.3
100
AcDbBlockEnd
  0
BLOCK
  5
1E4
330
1DB
100
AcDbEntity
  8
0
 48
0.3
100
AcDbBlockBegin
  2
*D9
 70
     1
 10
0.0
 20
0.0
 30
0.0
  3
*D9
  1

  0
LINE
  5
1E7
330
1DB
100
AcDbEntity
  8
0
 62
     0
 48
0.3
370
    -2
100
AcDbLine
 10
3.569868846863584
 20
2.144764457671257
 30
0.0
 11
3.444868846863583
 21
2.144764457671257
 31
0.0
  0
LINE
  5
1E8
330
1DB
100
AcDbEntity
  8
0
 62
     0
 48
0.3
370
    -2
100
AcDbLine
 10
3.444868846863583
 20
2.144764457671257
 30
0.0
 11
3.208986385167211
 21
3.075763297814636
 31
0.0
  0
MTEXT
  5
1E9
330
1DB
100
AcDbEntity
  8
0
 62
     0
 48
0.3
100
AcDbMText
 10
3.95153551353025
 20
2.144764457671257
 30
0.0
 40
0.125
 41
0.0
 71
     5
 72
     1
  1
\A1;R0.650
 73
     1
 44
1.0
  0
SOLID
  5
1EA
330
1DB
100
AcDbEntity
  8
0
 62
     0
 48
0.3
100
AcDbTrace
 10
3.229181596503965
 20
3.080880056245676
 30
0.0
 11
3.188791173830457
 21
3.070646539383596
 31
0.0
 12
3.178285834580972
 22
3.19693456583516
 32
0.0
 13
3.178285834580972
 23
3.19693456583516
 33
0.0
  0
LINE
  5
1EB
330
1DB
100
AcDbEntity
  8
0
 62
     0
 48
0.3
370
    -2
100
AcDbLine
 10
2.928642971532525
 20
3.82702515954189
 30
0.0
 11
3.108642971532526
 21
3.82702515954189
 31
0.0
  0
LINE
  5
1EC
330
1DB
100
AcDbEntity
  8
0
 62
     0
 48
0.3
370
    -2
100
AcDbLine
 10
3.018642971532526
 20
3.737025159541889
 30
0.0
 11
3.018642971532526
 21
3.917025159541889
 31
0.0
  0
POINT
  5
1ED
330
1DB
100
AcDbEntity
  8
Defpoints
 62
     0
 48
0.3
100
AcDbPoint
 10
3.178285834580972
 20
3.19693456583516
 30
0.0
  0
POINT
  5
1EE
330
1DB
100
AcDbEntity
  8
Defpoints
 62
     0
 48
0.3
100
AcDbPoint
 10
3.018642971532525
 20
3.82702515954189
 30
0.0
  0
ENDBLK
  5
1E5
330
1DB
100
AcDbEntity
  8
0
 48
0.3
100
AcDbBlockEnd
  0
BLOCK
  5
1FD
330
1F1
100
AcDbEntity
  8
0
 48
0.3
100
AcDbBlockBegin
  2
*D10
 70
     1
 10
0.0
 20
0.0
 30
0.0
  3
*D10
  1

  0
LINE
  5
200
330
1F1
100
AcDbEntity
  8
0
 62
     0
 48
0.3
370
    -2
100
AcDbLine
 10
2.306142971532528
 20
1.166337454418872
 30
0.0
 11
-0.1576837232685768
 21
1.166337454418873
 31
0.0
  0
LINE
  5
201
330
1F1
100
AcDbEntity
  8
0
 62
     0
 48
0.3
370
    -2
100
AcDbLine
 10
2.306142971532528
 20
1.353837454418872
 30
0.0
 11
-0.1576837232685767
 21
1.353837454418873
 31
0.0
  0
LINE
  5
202
330
1F1
100
AcDbEntity
  8
0
 62
     0
 48
0.3
370
    -2
100
AcDbLine
 10
0.0223162767314235
 20
1.041337454418873
 30
0.0
 11
0.0223162767314235
 21
0.9163374544188734
 31
0.0
  0
LINE
  5
203
330
1F1
100
AcDbEntity
  8
0
 62
     0
 48
0.3
370
    -2
100
AcDbLine
 10
0.0223162767314236
 20
1.478837454418873
 30
0.0
 11
0.0223162767314236
 21
1.603837454418873
 31
0.0
  0
LINE
  5
204
330
1F1
100
AcDbEntity
  8
0
 62
     0
 48
0.3
370
    -2
100
AcDbLine
 10
0.0223162767314236
 20
1.603837454418873
 30
0.0
 11
0.1473162767314236
 21
1.603837454418873
 31
0.0
  0
SOLID
  5
205
330
1F1
100
AcDbEntity
  8
0
 62
     0
 48
0.3
100
AcDbTrace
 10
0.0014829433980902
 20
1.041337454418873
 30
0.0
 11
0.0431496100647568
 21
1.041337454418873
 31
0.0
 12
0.0223162767314235
 22
1.166337454418873
 32
0.0
 13
0.0223162767314235
 23
1.166337454418873
 33
0.0
  0
SOLID
  5
206
330
1F1
100
AcDbEntity
  8
0
 62
     0
 48
0.3
100
AcDbTrace
 10
0.0014829433980903
 20
1.478837454418873
 30
0.0
 11
0.0431496100647569
 21
1.478837454418873
 31
0.0
 12
0.0223162767314236
 22
1.353837454418873
 32
0.0
 13
0.0223162767314236
 23
1.353837454418873
 33
0.0
  0
MTEXT
  5
207
330
1F1
100
AcDbEntity
  8
0
 62
     0
 48
0.3
100
AcDbMText
 10
0.4560662767314234
 20
1.603837454418873
 30
0.0
 40
0.125
 41
0.0
 71
     5
 72
     1
  1
\A1;0.188
 73
     1
 44
1.0
  0
POINT
  5
208
330
1F1
100
AcDbEntity
  8
Defpoints
 62
     0
 48
0.3
100
AcDbPoint
 10
2.368642971532528
 20
1.166337454418872
 30
0.0
  0
POINT
  5
209
330
1F1
100
AcDbEntity
  8
Defpoints
 62
     0
 48
0.3
100
AcDbPoint
 10
2.368642971532528
 20
1.353837454418872
 30
0.0
  0
POINT
  5
20A
330
1F1
100
AcDbEntity
  8
Defpoints
 62
     0
 48
0.3
100
AcDbPoint
 10
0.0223162767314236
 20
1.353837454418873
 30
0.0
  0
ENDBLK
  5
1FE
330
1F1
100
AcDbEntity
  8
0
 48
0.3
100
AcDbBlockEnd
  0
BLOCK
  5
218
330
20D
100
AcDbEntity
  8
0
 48
0.3
100
AcDbBlockBegin
  2
*D11
 70
     1
 10
0.0
 20
0.0
 30
0.0
  3
*D11
  1

  0
LINE
  5
21B
330
20D
100
AcDbEntity
  8
0
 62
     0
 48
0.3
370
    -2
100
AcDbLine
 10
0.9561429715325298
 20
2.764525159541888
 30
0.0
 11
0.9561429715325296
 21
1.688753775074367
 31
0.0
  0
LINE
  5
21C
330
20D
100
AcDbEntity
  8
0
 62
     0
 48
0.3
370
    -2
100
AcDbLine
 10
5.081142971532528
 20
2.764525159541888
 30
0.0
 11
5.081142971532528
 21
1.688753775074367
 31
0.0
  0
LINE
  5
21D
330
20D
100
AcDbEntity
  8
0
 62
     0
 48
0.3
370
    -2
100
AcDbLine
 10
1.081142971532529
 20
1.868753775074367
 30
0.0
 11
2.699476304865862
 21
1.868753775074367
 31
0.0
  0
LINE
  5
21E
330
20D
100
AcDbEntity
  8
0
 62
     0
 48
0.3
370
    -2
100
AcDbLine
 10
4.956142971532528
 20
1.868753775074367
 30
0.0
 11
3.337809638199196
 21
1.868753775074367
 31
0.0
  0
SOLID
  5
21F
330
20D
100
AcDbEntity
  8
0
 62
     0
 48
0.3
100
AcDbTrace
 10
1.081142971532529
 20
1.8895871084077
 30
0.0
 11
1.081142971532529
 21
1.847920441741034
 31
0.0
 12
0.9561429715325296
 22
1.868753775074367
 32
0.0
 13
0.9561429715325296
 23
1.868753775074367
 33
0.0
  0
SOLID
  5
220
330
20D
100
AcDbEntity
  8
0
 62
     0
 48
0.3
100
AcDbTrace
 10
4.956142971532528
 20
1.8895871084077
 30
0.0
 11
4.956142971532528
 21
1.847920441741034
 31
0.0
 12
5.081142971532528
 22
1.868753775074367
 32
0.0
 13
5.081142971532528
 23
1.868753775074367
 33
0.0
  0
MTEXT
  5
221
330
20D
100
AcDbEntity
  8
0
 62
     0
 48
0.3
100
AcDbMText
 10
3.018642971532529
 20
1.868753775074367
 30
0.0
 40
0.125
 41
0.0
 71
     5
 72
     1
  1
\A1;4.125
 73
     1
 44
1.0
  0
POINT
  5
222
330
20D
100
AcDbEntity
  8
Defpoints
 62
     0
 48
0.3
100
AcDbPoint
 10
0.9561429715325298
 20
2.827025159541888
 30
0.0
  0
POINT
  5
223
330
20D
100
AcDbEntity
  8
Defpoints
 62
     0
 48
0.3
100
AcDbPoint
 10
5.081142971532528
 20
2.827025159541888
 30
0.0
  0
POINT
  5
224
330
20D
100
AcDbEntity
  8
Defpoints
 62
     0
 48
0.3
100
AcDbPoint
 10
5.081142971532528
 20
1.868753775074367
 30
0.0
  0
ENDBLK
  5
219
330
20D
100
AcDbEntity
  8
0
 48
0.3
100
AcDbBlockEnd
  0
BLOCK
  5
232
330
227
100
AcDbEntity
  8
0
 48
0.3
100
AcDbBlockBegin
  2
*D12
 70
     1
 10
0.0
 20
0.0
 30
0.0
  3
*D12
  1

  0
LINE
  5
235
330
227
100
AcDbEntity
  8
0
 62
     0
 48
0.3
370
    -2
100
AcDbLine
 10
5.081142971532528
 20
2.764525159541888
 30
0.0
 11
5.081142971532528
 21
2.056768004291381
 31
0.0
  0
LINE
  5
236
330
227
100
AcDbEntity
  8
0
 62
     0
 48
0.3
370
    -2
100
AcDbLine
 10
5.268642971532528
 20
2.514525159541888
 30
0.0
 11
5.268642971532528
 21
2.056768004291381
 31
0.0
  0
LINE
  5
237
330
227
100
AcDbEntity
  8
0
 62
     0
 48
0.3
370
    -2
100
AcDbLine
 10
4.956142971532528
 20
2.236768004291381
 30
0.0
 11
4.831142971532528
 21
2.236768004291381
 31
0.0
  0
LINE
  5
238
330
227
100
AcDbEntity
  8
0
 62
     0
 48
0.3
370
    -2
100
AcDbLine
 10
5.393642971532528
 20
2.236768004291381
 30
0.0
 11
5.518642971532528
 21
2.236768004291381
 31
0.0
  0
SOLID
  5
239
330
227
100
AcDbEntity
  8
0
 62
     0
 48
0.3
100
AcDbTrace
 10
4.956142971532528
 20
2.257601337624714
 30
0.0
 11
4.956142971532528
 21
2.215934670958047
 31
0.0
 12
5.081142971532528
 22
2.236768004291381
 32
0.0
 13
5.081142971532528
 23
2.236768004291381
 33
0.0
  0
SOLID
  5
23A
330
227
100
AcDbEntity
  8
0
 62
     0
 48
0.3
100
AcDbTrace
 10
5.393642971532528
 20
2.257601337624714
 30
0.0
 11
5.393642971532528
 21
2.215934670958047
 31
0.0
 12
5.268642971532528
 22
2.236768004291381
 32
0.0
 13
5.268642971532528
 23
2.236768004291381
 33
0.0
  0
MTEXT
  5
23B
330
227
100
AcDbEntity
  8
0
 62
     0
 48
0.3
100
AcDbMText
 10
5.827392971532528
 20
2.236768004291381
 30
0.0
 40
0.125
 41
0.0
 71
     5
 72
     1
  1
\A1;0.188
 73
     1
 44
1.0
  0
POINT
  5
23C
330
227
100
AcDbEntity
  8
Defpoints
 62
     0
 48
0.3
100
AcDbPoint
 10
5.081142971532528
 20
2.827025159541888
 30
0.0
  0
POINT
  5
23D
330
227
100
AcDbEntity
  8
Defpoints
 62
     0
 48
0.3
100
AcDbPoint
 10
5.268642971532528
 20
2.577025159541888
 30
0.0
  0
POINT
  5
23E
330
227
100
AcDbEntity
  8
Defpoints
 62
     0
 48
0.3
100
AcDbPoint
 10
5.268642971532528
 20
2.236768004291381
 30
0.0
  0
ENDBLK
  5
233
330
227
100
AcDbEntity
  8
0
 48
0.3
100
AcDbBlockEnd
  0
BLOCK
  5
24C
330
241
100
AcDbEntity
  8
0
 48
0.3
100
AcDbBlockBegin
  2
*D13
 70
     1
 10
0.0
 20
0.0
 30
0.0
  3
*D13
  1

  0
LINE
  5
24F
330
241
100
AcDbEntity
  8
0
 62
     0
 48
0.3
370
    -2
100
AcDbLine
 10
1.043642971532528
 20
3.889525159541888
 30
0.0
 11
1.043642971532529
 21
5.72889608861276
 31
0.0
  0
LINE
  5
250
330
241
100
AcDbEntity
  8
0
 62
     0
 48
0.3
370
    -2
100
AcDbLine
 10
4.993642971532528
 20
3.889525159541888
 30
0.0
 11
4.993642971532528
 21
5.72889608861276
 31
0.0
  0
LINE
  5
251
330
241
100
AcDbEntity
  8
0
 62
     0
 48
0.3
370
    -2
100
AcDbLine
 10
1.168642971532528
 20
5.54889608861276
 30
0.0
 11
2.689059638199195
 21
5.54889608861276
 31
0.0
  0
LINE
  5
252
330
241
100
AcDbEntity
  8
0
 62
     0
 48
0.3
370
    -2
100
AcDbLine
 10
4.868642971532528
 20
5.54889608861276
 30
0.0
 11
3.348226304865862
 21
5.54889608861276
 31
0.0
  0
SOLID
  5
253
330
241
100
AcDbEntity
  8
0
 62
     0
 48
0.3
100
AcDbTrace
 10
1.168642971532528
 20
5.569729421946093
 30
0.0
 11
1.168642971532528
 21
5.528062755279427
 31
0.0
 12
1.043642971532528
 22
5.54889608861276
 32
0.0
 13
1.043642971532528
 23
5.54889608861276
 33
0.0
  0
SOLID
  5
254
330
241
100
AcDbEntity
  8
0
 62
     0
 48
0.3
100
AcDbTrace
 10
4.868642971532528
 20
5.569729421946093
 30
0.0
 11
4.868642971532528
 21
5.528062755279427
 31
0.0
 12
4.993642971532528
 22
5.54889608861276
 32
0.0
 13
4.993642971532528
 23
5.54889608861276
 33
0.0
  0
MTEXT
  5
255
330
241
100
AcDbEntity
  8
0
 62
     0
 48
0.3
100
AcDbMText
 10
3.018642971532528
 20
5.54889608861276
 30
0.0
 40
0.125
 41
0.0
 71
     5
 72
     1
  1
\A1;3.950
 73
     1
 44
1.0
  0
POINT
  5
256
330
241
100
AcDbEntity
  8
Defpoints
 62
     0
 48
0.3
100
AcDbPoint
 10
1.043642971532528
 20
3.827025159541888
 30
0.0
  0
POINT
  5
257
330
241
100
AcDbEntity
  8
Defpoints
 62
     0
 48
0.3
100
AcDbPoint
 10
4.993642971532528
 20
3.827025159541888
 30
0.0
  0
POINT
  5
258
330
241
100
AcDbEntity
  8
Defpoints
 62
     0
 48
0.3
100
AcDbPoint
 10
4.993642971532528
 20
5.54889608861276
 30
0.0
  0
ENDBLK
  5
24D
330
241
100
AcDbEntity
  8
0
 48
0.3
100
AcDbBlockEnd
  0
BLOCK
  5
266
330
25B
100
AcDbEntity
  8
0
 48
0.3
100
AcDbBlockBegin
  2
*D14
 70
     1
 10
0.0
 20
0.0
 30
0.0
  3
*D14
  1

  0
LINE
  5
269
330
25B
100
AcDbEntity
  8
0
 62
     0
 48
0.3
370
    -2
100
AcDbLine
 10
4.993642971532528
 20
3.889525159541888
 30
0.0
 11
4.993642971532528
 21
5.498887190010062
 31
0.0
  0
LINE
  5
26A
330
25B
100
AcDbEntity
  8
0
 62
     0
 48
0.3
370
    -2
100
AcDbLine
 10
5.268642971532529
 20
3.889525159541888
 30
0.0
 11
5.268642971532529
 21
5.498887190010062
 31
0.0
  0
LINE
  5
26B
330
25B
100
AcDbEntity
  8
0
 62
     0
 48
0.3
370
    -2
100
AcDbLine
 10
4.868642971532528
 20
5.318887190010062
 30
0.0
 11
4.743642971532528
 21
5.318887190010062
 31
0.0
  0
LINE
  5
26C
330
25B
100
AcDbEntity
  8
0
 62
     0
 48
0.3
370
    -2
100
AcDbLine
 10
5.393642971532529
 20
5.318887190010062
 30
0.0
 11
5.518642971532528
 21
5.318887190010062
 31
0.0
  0
SOLID
  5
26D
330
25B
100
AcDbEntity
  8
0
 62
     0
 48
0.3
100
AcDbTrace
 10
4.868642971532528
 20
5.339720523343395
 30
0.0
 11
4.868642971532528
 21
5.298053856676729
 31
0.0
 12
4.993642971532528
 22
5.318887190010062
 32
0.0
 13
4.993642971532528
 23
5.318887190010062
 33
0.0
  0
SOLID
  5
26E
330
25B
100
AcDbEntity
  8
0
 62
     0
 48
0.3
100
AcDbTrace
 10
5.393642971532529
 20
5.339720523343395
 30
0.0
 11
5.393642971532529
 21
5.298053856676729
 31
0.0
 12
5.268642971532529
 22
5.318887190010062
 32
0.0
 13
5.268642971532529
 23
5.318887190010062
 33
0.0
  0
MTEXT
  5
26F
330
25B
100
AcDbEntity
  8
0
 62
     0
 48
0.3
100
AcDbMText
 10
5.848226304865862
 20
5.318887190010062
 30
0.0
 40
0.125
 41
0.0
 71
     5
 72
     1
  1
\A1;0.275
 73
     1
 44
1.0
  0
POINT
  5
270
330
25B
100
AcDbEntity
  8
Defpoints
 62
     0
 48
0.3
100
AcDbPoint
 10
4.993642971532528
 20
3.827025159541888
 30
0.0
  0
POINT
  5
271
330
25B
100
AcDbEntity
  8
Defpoints
 62
     0
 48
0.3
100
AcDbPoint
 10
5.268642971532529
 20
3.827025159541888
 30
0.0
  0
POINT
  5
272
330
25B
100
AcDbEntity
  8
Defpoints
 62
     0
 48
0.3
100
AcDbPoint
 10
5.268642971532529
 20
5.318887190010062
 30
0.0
  0
ENDBLK
  5
267
330
25B
100
AcDbEntity
  8
0
 48
0.3
100
AcDbBlockEnd
  0
BLOCK
  5
27E
330
275
100
AcDbEntity
  8
0
 48
0.3
100
AcDbBlockBegin
  2
*D15
 70
     1
 10
0.0
 20
0.0
 30
0.0
  3
*D15
  1

  0
LINE
  5
281
330
275
100
AcDbEntity
  8
0
 62
     0
 48
0.3
370
    -2
100
AcDbLine
 10
5.598950273457841
 20
4.42607093483896
 30
0.0
 11
5.473950273457839
 21
4.42607093483896
 31
0.0
  0
LINE
  5
282
330
275
100
AcDbEntity
  8
0
 62
     0
 48
0.3
370
    -2
100
AcDbLine
 10
5.473950273457839
 20
4.42607093483896
 30
0.0
 11
5.258195507870407
 21
4.646300508826153
 31
0.0
  0
MTEXT
  5
283
330
275
100
AcDbEntity
  8
0
 62
     0
 48
0.3
100
AcDbMText
 10
5.991033606791175
 20
4.42607093483896
 30
0.0
 40
0.125
 41
0.0
 71
     5
 72
     1
  1
\A1;\U+22050.256
 73
     1
 44
1.0
  0
SOLID
  5
284
330
275
100
AcDbEntity
  8
0
 62
     0
 48
0.3
100
AcDbTrace
 10
5.273077313759383
 20
4.660879933755161
 30
0.0
 11
5.24331370198143
 21
4.631721083897144
 31
0.0
 12
5.170718958296355
 22
4.735591344160013
 32
0.0
 13
5.170718958296355
 23
4.735591344160013
 33
0.0
  0
LINE
  5
285
330
275
100
AcDbEntity
  8
0
 62
     0
 48
0.3
370
    -2
100
AcDbLine
 10
4.991142971532526
 20
4.827025159541886
 30
0.0
 11
5.171142971532526
 21
4.827025159541885
 31
0.0
  0
LINE
  5
286
330
275
100
AcDbEntity
  8
0
 62
     0
 48
0.3
370
    -2
100
AcDbLine
 10
5.081142971532526
 20
4.737025159541886
 30
0.0
 11
5.081142971532526
 21
4.917025159541886
 31
0.0
  0
POINT
  5
287
330
275
100
AcDbEntity
  8
Defpoints
 62
     0
 48
0.3
100
AcDbPoint
 10
5.170718958296355
 20
4.735591344160013
 30
0.0
  0
POINT
  5
288
330
275
100
AcDbEntity
  8
Defpoints
 62
     0
 48
0.3
100
AcDbPoint
 10
4.991566984768698
 20
4.918458974923758
 30
0.0
  0
ENDBLK
  5
27F
330
275
100
AcDbEntity
  8
0
 48
0.3
100
AcDbBlockEnd
  0
BLOCK
  5
294
330
28B
100
AcDbEntity
  8
0
 48
0.3
100
AcDbBlockBegin
  2
*D16
 70
     1
 10
0.0
 20
0.0
 30
0.0
  3
*D16
  1

  0
LINE
  5
33B
330
28B
100
AcDbEntity
  8
0
 62
     0
 48
0.3
370
    -2
100
AcDbLine
 10
5.650644910677833
 20
3.358678169141115
 30
0.0
 11
5.525644910677833
 21
3.358678169141115
 31
0.0
  0
LINE
  5
33C
330
28B
100
AcDbEntity
  8
0
 62
     0
 48
0.3
370
    -2
100
AcDbLine
 10
5.525644910677833
 20
3.358678169141115
 30
0.0
 11
5.20868524676665
 21
3.637713063092315
 31
0.0
  0
MTEXT
  5
33D
330
28B
100
AcDbEntity
  8
0
 62
     0
 48
0.3
100
AcDbMText
 10
6.042728244011167
 20
3.358678169141115
 30
0.0
 40
0.125
 41
0.0
 71
     5
 72
     1
  1
\A1;\U+22050.323
 73
     1
 44
1.0
  0
SOLID
  5
33E
330
28B
100
AcDbEntity
  8
0
 62
     0
 48
0.3
100
AcDbTrace
 10
5.222451396886601
 20
3.653350226794621
 30
0.0
 11
5.1949190966467
 21
3.622075899390008
 31
0.0
 12
5.114862264552811
 22
3.720309963812024
 32
0.0
 13
5.114862264552811
 23
3.720309963812024
 33
0.0
  0
LINE
  5
33F
330
28B
100
AcDbEntity
  8
0
 62
     0
 48
0.3
370
    -2
100
AcDbLine
 10
4.903642971532528
 20
3.827025159541887
 30
0.0
 11
5.083642971532528
 21
3.827025159541888
 31
0.0
  0
LINE
  5
340
330
28B
100
AcDbEntity
  8
0
 62
     0
 48
0.3
370
    -2
100
AcDbLine
 10
4.993642971532528
 20
3.737025159541888
 30
0.0
 11
4.993642971532528
 21
3.917025159541888
 31
0.0
  0
POINT
  5
341
330
28B
100
AcDbEntity
  8
Defpoints
 62
     0
 48
0.3
100
AcDbPoint
 10
5.114862264552811
 20
3.720309963812024
 30
0.0
  0
POINT
  5
342
330
28B
100
AcDbEntity
  8
Defpoints
 62
     0
 48
0.3
100
AcDbPoint
 10
4.872423678512246
 20
3.933740355271751
 30
0.0
  0
ENDBLK
  5
295
330
28B
100
AcDbEntity
  8
0
 48
0.3
100
AcDbBlockEnd
  0
BLOCK
  5
2BB
330
2AF
100
AcDbEntity
  8
0
 48
0.3
100
AcDbBlockBegin
  2
*D17
 70
     1
 10
0.0
 20
0.0
 30
0.0
  3
*D17
  1

  0
LINE
  5
2BE
330
2AF
100
AcDbEntity
  8
0
 62
     0
 48
0.3
370
    -2
100
AcDbLine
 10
3.456142971532528
 20
1.103837454418872
 30
0.0
 11
4.497398871003596
 21
1.103837454418872
 31
0.0
  0
LINE
  5
2BF
330
2AF
100
AcDbEntity
  8
0
 62
     0
 48
0.3
370
    -2
100
AcDbLine
 10
3.456142971532528
 20
0.8538374544188728
 30
0.0
 11
4.497398871003596
 21
0.8538374544188725
 31
0.0
  0
LINE
  5
2C0
330
2AF
100
AcDbEntity
  8
0
 62
     0
 48
0.3
370
    -2
100
AcDbLine
 10
4.317398871003597
 20
1.228837454418872
 30
0.0
 11
4.317398871003597
 21
1.353837454418872
 31
0.0
  0
LINE
  5
2C1
330
2AF
100
AcDbEntity
  8
0
 62
     0
 48
0.3
370
    -2
100
AcDbLine
 10
4.317398871003597
 20
0.7288374544188726
 30
0.0
 11
4.317398871003597
 21
0.6038374544188726
 31
0.0
  0
LINE
  5
2C2
330
2AF
100
AcDbEntity
  8
0
 62
     0
 48
0.3
370
    -2
100
AcDbLine
 10
4.317398871003597
 20
0.6038374544188726
 30
0.0
 11
4.192398871003597
 21
0.6038374544188727
 31
0.0
  0
SOLID
  5
2C3
330
2AF
100
AcDbEntity
  8
0
 62
     0
 48
0.3
100
AcDbTrace
 10
4.296565537670264
 20
1.228837454418872
 30
0.0
 11
4.33823220433693
 21
1.228837454418872
 31
0.0
 12
4.317398871003597
 22
1.103837454418872
 32
0.0
 13
4.317398871003597
 23
1.103837454418872
 33
0.0
  0
SOLID
  5
2C4
330
2AF
100
AcDbEntity
  8
0
 62
     0
 48
0.3
100
AcDbTrace
 10
4.296565537670264
 20
0.7288374544188726
 30
0.0
 11
4.33823220433693
 21
0.7288374544188726
 31
0.0
 12
4.317398871003597
 22
0.8538374544188725
 32
0.0
 13
4.317398871003597
 23
0.8538374544188725
 33
0.0
  0
MTEXT
  5
2C5
330
2AF
100
AcDbEntity
  8
0
 62
     0
 48
0.3
100
AcDbMText
 10
3.87323220433693
 20
0.6038374544188733
 30
0.0
 40
0.125
 41
0.0
 71
     5
 72
     1
  1
\A1;0.250
 73
     1
 44
1.0
  0
POINT
  5
2C6
330
2AF
100
AcDbEntity
  8
Defpoints
 62
     0
 48
0.3
100
AcDbPoint
 10
3.393642971532528
 20
1.103837454418872
 30
0.0
  0
POINT
  5
2C7
330
2AF
100
AcDbEntity
  8
Defpoints
 62
     0
 48
0.3
100
AcDbPoint
 10
3.393642971532528
 20
0.8538374544188728
 30
0.0
  0
POINT
  5
2C8
330
2AF
100
AcDbEntity
  8
Defpoints
 62
     0
 48
0.3
100
AcDbPoint
 10
4.317398871003597
 20
0.8538374544188725
 30
0.0
  0
ENDBLK
  5
2BC
330
2AF
100
AcDbEntity
  8
0
 48
0.3
100
AcDbBlockEnd
  0
BLOCK
  5
2D6
330
2CB
100
AcDbEntity
  8
0
 48
0.3
100
AcDbBlockBegin
  2
*D18
 70
     1
 10
0.0
 20
0.0
 30
0.0
  3
*D18
  1

  0
LINE
  5
2D9
330
2CB
100
AcDbEntity
  8
0
 62
     0
 48
0.3
370
    -2
100
AcDbLine
 10
3.518642971532528
 20
0.7913374544188727
 30
0.0
 11
3.518642971532528
 21
0.161886525443325
 31
0.0
  0
LINE
  5
2DA
330
2CB
100
AcDbEntity
  8
0
 62
     0
 48
0.3
370
    -2
100
AcDbLine
 10
5.268642971532526
 20
0.7913374544188726
 30
0.0
 11
5.268642971532526
 21
0.161886525443325
 31
0.0
  0
LINE
  5
2DB
330
2CB
100
AcDbEntity
  8
0
 62
     0
 48
0.3
370
    -2
100
AcDbLine
 10
3.643642971532528
 20
0.341886525443325
 30
0.0
 11
4.084892971532527
 21
0.341886525443325
 31
0.0
  0
LINE
  5
2DC
330
2CB
100
AcDbEntity
  8
0
 62
     0
 48
0.3
370
    -2
100
AcDbLine
 10
5.143642971532526
 20
0.341886525443325
 30
0.0
 11
4.702392971532526
 21
0.341886525443325
 31
0.0
  0
SOLID
  5
2DD
330
2CB
100
AcDbEntity
  8
0
 62
     0
 48
0.3
100
AcDbTrace
 10
3.643642971532528
 20
0.3627198587766583
 30
0.0
 11
3.643642971532528
 21
0.3210531921099917
 31
0.0
 12
3.518642971532528
 22
0.341886525443325
 32
0.0
 13
3.518642971532528
 23
0.341886525443325
 33
0.0
  0
SOLID
  5
2DE
330
2CB
100
AcDbEntity
  8
0
 62
     0
 48
0.3
100
AcDbTrace
 10
5.143642971532526
 20
0.3627198587766583
 30
0.0
 11
5.143642971532526
 21
0.3210531921099917
 31
0.0
 12
5.268642971532526
 22
0.341886525443325
 32
0.0
 13
5.268642971532526
 23
0.341886525443325
 33
0.0
  0
MTEXT
  5
2DF
330
2CB
100
AcDbEntity
  8
0
 62
     0
 48
0.3
100
AcDbMText
 10
4.393642971532527
 20
0.341886525443325
 30
0.0
 40
0.125
 41
0.0
 71
     5
 72
     1
  1
\A1;1.750
 73
     1
 44
1.0
  0
POINT
  5
2E0
330
2CB
100
AcDbEntity
  8
Defpoints
 62
     0
 48
0.3
100
AcDbPoint
 10
3.518642971532528
 20
0.8538374544188727
 30
0.0
  0
POINT
  5
2E1
330
2CB
100
AcDbEntity
  8
Defpoints
 62
     0
 48
0.3
100
AcDbPoint
 10
5.268642971532526
 20
0.8538374544188725
 30
0.0
  0
POINT
  5
2E2
330
2CB
100
AcDbEntity
  8
Defpoints
 62
     0
 48
0.3
100
AcDbPoint
 10
5.268642971532526
 20
0.341886525443325
 30
0.0
  0
ENDBLK
  5
2D7
330
2CB
100
AcDbEntity
  8
0
 48
0.3
100
AcDbBlockEnd
  0
BLOCK
  5
2F0
330
2E5
100
AcDbEntity
  8
0
 48
0.3
100
AcDbBlockBegin
  2
*D19
 70
     1
 10
0.0
 20
0.0
 30
0.0
  3
*D19
  1

  0
LINE
  5
2F3
330
2E5
100
AcDbEntity
  8
0
 62
     0
 48
0.3
370
    -2
100
AcDbLine
 10
3.518642971532528
 20
0.7913374544188728
 30
0.0
 11
3.518642971532528
 21
0.1483689283764381
 31
0.0
  0
LINE
  5
2F4
330
2E5
100
AcDbEntity
  8
0
 62
     0
 48
0.3
370
    -2
100
AcDbLine
 10
2.768642971532528
 20
0.7913374544188728
 30
0.0
 11
2.768642971532528
 21
0.1483689283764381
 31
0.0
  0
LINE
  5
2F5
330
2E5
100
AcDbEntity
  8
0
 62
     0
 48
0.3
370
    -2
100
AcDbLine
 10
3.643642971532528
 20
0.3283689283764382
 30
0.0
 11
3.768642971532528
 21
0.3283689283764382
 31
0.0
  0
LINE
  5
2F6
330
2E5
100
AcDbEntity
  8
0
 62
     0
 48
0.3
370
    -2
100
AcDbLine
 10
2.643642971532528
 20
0.3283689283764382
 30
0.0
 11
2.518642971532528
 21
0.3283689283764382
 31
0.0
  0
SOLID
  5
2F7
330
2E5
100
AcDbEntity
  8
0
 62
     0
 48
0.3
100
AcDbTrace
 10
3.643642971532528
 20
0.3492022617097715
 30
0.0
 11
3.643642971532528
 21
0.3075355950431049
 31
0.0
 12
3.518642971532528
 22
0.3283689283764382
 32
0.0
 13
3.518642971532528
 23
0.3283689283764382
 33
0.0
  0
SOLID
  5
2F8
330
2E5
100
AcDbEntity
  8
0
 62
     0
 48
0.3
100
AcDbTrace
 10
2.643642971532528
 20
0.3492022617097715
 30
0.0
 11
2.643642971532528
 21
0.3075355950431049
 31
0.0
 12
2.768642971532528
 22
0.3283689283764382
 32
0.0
 13
2.768642971532528
 23
0.3283689283764382
 33
0.0
  0
MTEXT
  5
2F9
330
2E5
100
AcDbEntity
  8
0
 62
     0
 48
0.3
100
AcDbMText
 10
3.143642971532528
 20
0.3283689283764382
 30
0.0
 40
0.125
 41
0.0
 71
     5
 72
     1
  1
\A1;0.750
 73
     1
 44
1.0
  0
POINT
  5
2FA
330
2E5
100
AcDbEntity
  8
Defpoints
 62
     0
 48
0.3
100
AcDbPoint
 10
3.518642971532528
 20
0.8538374544188728
 30
0.0
  0
POINT
  5
2FB
330
2E5
100
AcDbEntity
  8
Defpoints
 62
     0
 48
0.3
100
AcDbPoint
 10
2.768642971532528
 20
0.8538374544188728
 30
0.0
  0
POINT
  5
2FC
330
2E5
100
AcDbEntity
  8
Defpoints
 62
     0
 48
0.3
100
AcDbPoint
 10
2.768642971532528
 20
0.3283689283764382
 30
0.0
  0
ENDBLK
  5
2F1
330
2E5
100
AcDbEntity
  8
0
 48
0.3
100
AcDbBlockEnd
  0
BLOCK
  5
30A
330
2FF
100
AcDbEntity
  8
0
 48
0.3
100
AcDbBlockBegin
  2
*D20
 70
     1
 10
0.0
 20
0.0
 30
0.0
  3
*D20
  1

  0
LINE
  5
30D
330
2FF
100
AcDbEntity
  8
0
 62
     0
 48
0.3
370
    -2
100
AcDbLine
 10
3.581142971532528
 20
2.952025159541888
 30
0.0
 11
3.969585662584293
 21
2.952025159541888
 31
0.0
  0
LINE
  5
30E
330
2FF
100
AcDbEntity
  8
0
 62
     0
 48
0.3
370
    -2
100
AcDbLine
 10
3.581142971532528
 20
2.577025159541888
 30
0.0
 11
3.969585662584293
 21
2.577025159541888
 31
0.0
  0
LINE
  5
30F
330
2FF
100
AcDbEntity
  8
0
 62
     0
 48
0.3
370
    -2
100
AcDbLine
 10
3.789585662584294
 20
3.077025159541888
 30
0.0
 11
3.789585662584294
 21
3.202025159541888
 31
0.0
  0
LINE
  5
310
330
2FF
100
AcDbEntity
  8
0
 62
     0
 48
0.3
370
    -2
100
AcDbLine
 10
3.789585662584293
 20
2.452025159541888
 30
0.0
 11
3.789585662584293
 21
2.327025159541888
 31
0.0
  0
SOLID
  5
311
330
2FF
100
AcDbEntity
  8
0
 62
     0
 48
0.3
100
AcDbTrace
 10
3.76875232925096
 20
3.077025159541888
 30
0.0
 11
3.810418995917627
 21
3.077025159541888
 31
0.0
 12
3.789585662584293
 22
2.952025159541888
 32
0.0
 13
3.789585662584293
 23
2.952025159541888
 33
0.0
  0
SOLID
  5
312
330
2FF
100
AcDbEntity
  8
0
 62
     0
 48
0.3
100
AcDbTrace
 10
3.76875232925096
 20
2.452025159541888
 30
0.0
 11
3.810418995917627
 21
2.452025159541888
 31
0.0
 12
3.789585662584293
 22
2.577025159541888
 32
0.0
 13
3.789585662584293
 23
2.577025159541888
 33
0.0
  0
MTEXT
  5
313
330
2FF
100
AcDbEntity
  8
0
 62
     0
 48
0.3
100
AcDbMText
 10
3.789585662584293
 20
2.764525159541889
 30
0.0
 40
0.125
 41
0.0
 71
     5
 72
     1
  1
\A1;0.375
 73
     1
 44
1.0
  0
POINT
  5
314
330
2FF
100
AcDbEntity
  8
Defpoints
 62
     0
 48
0.3
100
AcDbPoint
 10
3.518642971532528
 20
2.952025159541888
 30
0.0
  0
POINT
  5
315
330
2FF
100
AcDbEntity
  8
Defpoints
 62
     0
 48
0.3
100
AcDbPoint
 10
3.518642971532528
 20
2.577025159541888
 30
0.0
  0
POINT
  5
316
330
2FF
100
AcDbEntity
  8
Defpoints
 62
     0
 48
0.3
100
AcDbPoint
 10
3.789585662584293
 20
2.577025159541888
 30
0.0
  0
ENDBLK
  5
30B
330
2FF
100
AcDbEntity
  8
0
 48
0.3
100
AcDbBlockEnd
  0
BLOCK
  5
322
330
319
100
AcDbEntity
  8
0
 48
0.3
100
AcDbBlockBegin
  2
*D21
 70
     1
 10
0.0
 20
0.0
 30
0.0
  3
*D21
  1

  0
LINE
  5
325
330
319
100
AcDbEntity
  8
0
 62
     0
 48
0.3
370
    -2
100
AcDbLine
 10
2.39242048468577
 20
1.517917721523797
 30
0.0
 11
2.517420484685773
 21
1.517917721523797
 31
0.0
  0
LINE
  5
326
330
319
100
AcDbEntity
  8
0
 62
     0
 48
0.3
370
    -2
100
AcDbLine
 10
2.517420484685773
 20
1.517917721523797
 30
0.0
 11
2.750566885681501
 21
1.183847780152844
 31
0.0
  0
MTEXT
  5
327
330
319
100
AcDbEntity
  8
0
 62
     0
 48
0.3
100
AcDbMText
 10
2.02117048468577
 20
1.517917721523797
 30
0.0
 40
0.125
 41
0.0
 71
     5
 72
     1
  1
\A1;R0.125
 73
     1
 44
1.0
  0
SOLID
  5
328
330
319
100
AcDbEntity
  8
0
 62
     0
 48
0.3
100
AcDbTrace
 10
2.767651079492665
 20
1.195770787307096
 30
0.0
 11
2.733482691870336
 21
1.171924772998592
 31
0.0
 12
2.822104928607014
 22
1.081342617285857
 32
0.0
 13
2.822104928607014
 23
1.081342617285857
 33
0.0
  0
LINE
  5
329
330
319
100
AcDbEntity
  8
0
 62
     0
 48
0.3
370
    -2
100
AcDbLine
 10
2.803642971532527
 20
0.9788374544188727
 30
0.0
 11
2.983642971532526
 21
0.9788374544188723
 31
0.0
  0
LINE
  5
32A
330
319
100
AcDbEntity
  8
0
 62
     0
 48
0.3
370
    -2
100
AcDbLine
 10
2.893642971532527
 20
0.8888374544188724
 30
0.0
 11
2.893642971532527
 21
1.068837454418872
 31
0.0
  0
POINT
  5
32B
330
319
100
AcDbEntity
  8
Defpoints
 62
     0
 48
0.3
100
AcDbPoint
 10
2.822104928607014
 20
1.081342617285857
 30
0.0
  0
POINT
  5
32C
330
319
100
AcDbEntity
  8
Defpoints
 62
     0
 48
0.3
100
AcDbPoint
 10
2.893642971532527
 20
0.9788374544188725
 30
0.0
  0
ENDBLK
  5
323
330
319
100
AcDbEntity
  8
0
 48
0.3
100
AcDbBlockEnd
  0
ENDSEC
  0
SECTION
  2
ENTITIES
  0
VIEWPORT
  5
77
330
58
100
AcDbEntity
 67
     1
  8
0
100
AcDbViewport
 10
3.852083341343195
 20
2.592083219317938
 30
0.0
 40
20.4165399633628
 41
8.992999745766947
 68
     1
 69
     1
 12
3.852083341343195
 22
2.592083219317938
 13
0.0
 23
0.0
 14
0.5
 24
0.5
 15
0.5
 25
0.5
 16
0.0
 26
0.0
 36
1.0
 17
0.0
 27
0.0
 37
0.0
 42
50.0
 43
0.0
 44
0.0
 45
8.992999745766947
 50
0.0
 51
0.0
 72
   100
 90
    32800
  1

281
     0
 71
     1
 74
     0
110
0.0
120
0.0
130
0.0
111
1.0
121
0.0
131
0.0
112
0.0
122
1.0
132
0.0
 79
     0
146
0.0
  0
LWPOLYLINE
  5
86
330
58
100
AcDbEntity
 67
     1
  8
0
100
AcDbPolyline
 90
        4
 70
     1
 43
0.0
 10
-1.439262267973589
 20
6.396855050259421
 10
8.966538218833356
 20
6.396855050259421
 10
8.966538218833356
 20
-1.41285528304607
 10
-1.439262267973589
 20
-1.41285528304607
  0
LINE
  5
8A
330
58
100
AcDbEntity
 67
     1
  8
0
100
AcDbLine
 10
8.966538218833356
 20
-1.41285528304607
 30
0.0
 11
8.966538218833356
 21
-0.4128552830460706
 31
0.0
  0
LINE
  5
8B
330
58
100
AcDbEntity
 67
     1
  8
0
100
AcDbLine
 10
8.966538218833356
 20
-0.4128552830460706
 30
0.0
 11
6.466538218833356
 21
-0.4128552830460703
 31
0.0
  0
LINE
  5
8C
330
58
100
AcDbEntity
 67
     1
  8
0
100
AcDbLine
 10
6.466538218833356
 20
-0.4128552830460703
 30
0.0
 11
4.966538218833356
 21
-0.4128552830460701
 31
0.0
  0
LINE
  5
8D
330
58
100
AcDbEntity
 67
     1
  8
0
100
AcDbLine
 10
4.966538218833356
 20
-0.4128552830460701
 30
0.0
 11
4.966538218833356
 21
-1.41285528304607
 31
0.0
  0
LINE
  5
8E
330
58
100
AcDbEntity
 67
     1
  8
0
100
AcDbLine
 10
6.466538218833356
 20
-0.4128552830460703
 30
0.0
 11
6.466538218833356
 21
-1.40425062323316
 31
0.0
  0
MTEXT
  5
8F
330
58
100
AcDbEntity
 67
     1
  8
0
100
AcDbMText
 10
5.02064872125895
 20
-0.5532836662080878
 30
0.0
 40
0.1
 41
1.5
 71
     1
 72
     5
  1
  Tolerances\P.XXXX = +/- .001\P.XXX  = +/- .005\P.XX   = +/- .015\PMat: Steel
 73
     1
 44
1.0
  0
MTEXT
  5
AA
330
58
100
AcDbEntity
 67
     1
  8
0
 48
0.3
100
AcDbMText
 10
6.688767870543038
 20
-0.5779304272488833
 30
0.0
 40
0.1
 41
2.5
 71
     1
 72
     5
  1
G0704 Power Drawbar 2\PLifting Plate\PDaniel E. Kemp\P{\fArial|b0|i0|c0|p32;\H1.625x;©\fMS Shell Dlg|b0|i0|c0|p32;\H0.6538x; 12-08-}2011
 73
     1
 44
1.0
  0
MTEXT
  5
AC
330
58
100
AcDbEntity
 67
     1
  8
0
 48
0.3
100
AcDbMText
 10
-0.8330378939457148
 20
-0.9104262006358538
 30
0.0
 40
0.1625
 41
9.997099999999999
 71
     1
 72
     5
  1
{\fArial|b0|i0|c0|p32;© Daniel E. Kemp 2011}
 73
     1
 44
1.0
  0
CIRCLE
  5
C2
102
{ACAD_REACTORS
330
16B
330
185
102
}
330
58
100
AcDbEntity
 67
     1
  8
0
 48
0.3
100
AcDbCircle
 10
0.9561429715325298
 20
4.827025159541888
 30
0.0
 40
0.128
  0
CIRCLE
  5
C3
102
{ACAD_REACTORS
330
185
330
225
102
}
330
58
100
AcDbEntity
 67
     1
  8
0
 48
0.3
100
AcDbCircle
 10
0.9561429715325298
 20
2.827025159541888
 30
0.0
 40
0.128
  0
CIRCLE
  5
C5
102
{ACAD_REACTORS
330
289
102
}
330
58
100
AcDbEntity
 67
     1
  8
0
 48
0.3
100
AcDbCircle
 10
5.081142971532528
 20
4.827025159541888
 30
0.0
 40
0.128
  0
CIRCLE
  5
C6
102
{ACAD_REACTORS
330
225
330
23F
102
}
330
58
100
AcDbEntity
 67
     1
  8
0
 48
0.3
100
AcDbCircle
 10
5.081142971532528
 20
2.827025159541888
 30
0.0
 40
0.128
  0
LINE
  5
CF
330
58
100
AcDbEntity
 67
     1
  8
0
 48
0.3
100
AcDbLine
 10
0.7686429715325306
 20
5.077025159541888
 30
0.0
 11
0.7686429715325298
 21
2.577025159541888
 31
0.0
  0
LINE
  5
D0
102
{ACAD_REACTORS
330
23F
102
}
330
58
100
AcDbEntity
 67
     1
  8
0
 48
0.3
100
AcDbLine
 10
5.26864297153253
 20
5.077025159541888
 30
0.0
 11
5.268642971532528
 21
2.577025159541888
 31
0.0
  0
LINE
  5
D1
102
{ACAD_REACTORS
330
16B
102
}
330
58
100
AcDbEntity
 67
     1
  8
0
 48
0.3
100
AcDbLine
 10
0.7686429715325306
 20
5.077025159541888
 30
0.0
 11
2.593642971532529
 21
5.077025159541888
 31
0.0
  0
LINE
  5
D2
102
{ACAD_REACTORS
330
19F
102
}
330
58
100
AcDbEntity
 67
     1
  8
0
 48
0.3
100
AcDbLine
 10
0.7686429715325298
 20
2.577025159541888
 30
0.0
 11
5.268642971532528
 21
2.577025159541888
 31
0.0
  0
CIRCLE
  5
D5
102
{ACAD_REACTORS
330
19F
330
259
102
}
330
58
100
AcDbEntity
 67
     1
  8
0
 48
0.3
100
AcDbCircle
 10
1.043642971532528
 20
3.827025159541888
 30
0.0
 40
0.1615
  0
CIRCLE
  5
D6
102
{ACAD_REACTORS
330
259
330
273
330
29F
102
}
330
58
100
AcDbEntity
 67
     1
  8
0
 48
0.3
100
AcDbCircle
 10
4.993642971532528
 20
3.827025159541888
 30
0.0
 40
0.1615
  0
ARC
  5
D9
102
{ACAD_REACTORS
330
1D9
102
}
330
58
100
AcDbEntity
 67
     1
  8
0
 48
0.3
100
AcDbCircle
 10
3.018642971532528
 20
3.827025159541888
 30
0.0
 40
0.425
100
AcDbArc
 50
180.0
 51
0.0
  0
ARC
  5
DA
102
{ACAD_REACTORS
330
1C3
330
1EF
102
}
330
58
100
AcDbEntity
 67
     1
  8
0
 48
0.3
100
AcDbCircle
 10
3.018642971532528
 20
3.827025159541888
 30
0.0
 40
0.65
100
AcDbArc
 50
180.0
 51
0.0
  0
LINE
  5
DB
330
58
100
AcDbEntity
 67
     1
  8
0
 48
0.3
100
AcDbLine
 10
3.443642971532528
 20
3.827025159541888
 30
0.0
 11
3.443642971532528
 21
5.077025159541888
 31
0.0
  0
LINE
  5
DC
330
58
100
AcDbEntity
 67
     1
  8
0
 48
0.3
100
AcDbLine
 10
2.593642971532529
 20
3.827025159541888
 30
0.0
 11
2.593642971532529
 21
5.077025159541888
 31
0.0
  0
LINE
  5
DD
330
58
100
AcDbEntity
 67
     1
  8
0
 48
0.3
100
AcDbLine
 10
2.368642971532529
 20
3.827025159541888
 30
0.0
 11
2.368642971532529
 21
5.077025159541888
 31
0.0
  0
LINE
  5
DE
330
58
100
AcDbEntity
 67
     1
  8
0
 48
0.3
100
AcDbLine
 10
3.668642971532528
 20
3.827025159541888
 30
0.0
 11
3.668642971532528
 21
5.077025159541888
 31
0.0
  0
LINE
  5
E2
330
58
100
AcDbEntity
 67
     1
  8
0
 48
0.3
100
AcDbLine
 10
3.443642971532529
 20
5.077025159541888
 30
0.0
 11
5.26864297153253
 21
5.077025159541888
 31
0.0
  0
LINE
  5
E3
330
58
100
AcDbEntity
 67
     1
  8
0
 48
0.3
100
AcDbLine
 10
0.7686429715325295
 20
1.353837454418872
 30
0.0
 11
5.268642971532526
 21
1.353837454418872
 31
0.0
  0
LINE
  5
E4
330
58
100
AcDbEntity
 67
     1
  8
0
 48
0.3
100
AcDbLine
 10
5.268642971532526
 20
1.353837454418872
 30
0.0
 11
5.268642971532526
 21
0.8538374544188725
 31
0.0
  0
LINE
  5
E5
102
{ACAD_REACTORS
330
14F
330
2C9
330
2E3
102
}
330
58
100
AcDbEntity
 67
     1
  8
0
 48
0.3
100
AcDbLine
 10
5.268642971532526
 20
0.8538374544188725
 30
0.0
 11
0.7686429715325298
 21
0.853837454418873
 31
0.0
  0
LINE
  5
E6
330
58
100
AcDbEntity
 67
     1
  8
0
 48
0.3
100
AcDbLine
 10
0.7686429715325298
 20
0.853837454418873
 30
0.0
 11
0.7686429715325298
 21
1.353837454418872
 31
0.0
  0
LINE
  5
E7
330
58
100
AcDbEntity
 67
     1
  8
0
 48
0.3
100
AcDbLine
 10
6.529584436521801
 20
5.077025159541888
 30
0.0
 11
7.029584436521801
 21
5.077025159541888
 31
0.0
  0
LINE
  5
E9
102
{ACAD_REACTORS
330
11B
330
135
102
}
330
58
100
AcDbEntity
 67
     1
  8
0
 48
0.3
100
AcDbLine
 10
7.029584436521801
 20
5.077025159541888
 30
0.0
 11
7.029584436521801
 21
2.577025159541888
 31
0.0
  0
LINE
  5
EA
330
58
100
AcDbEntity
 67
     1
  8
0
 48
0.3
100
AcDbLine
 10
7.029584436521801
 20
2.577025159541888
 30
0.0
 11
6.529584436521801
 21
2.577025159541888
 31
0.0
  0
LINE
  5
EB
102
{ACAD_REACTORS
330
135
102
}
330
58
100
AcDbEntity
 67
     1
  8
0
 48
0.3
100
AcDbLine
 10
6.529584436521801
 20
2.577025159541888
 30
0.0
 11
6.529584436521801
 21
5.077025159541888
 31
0.0
  0
LINE
  5
ED
330
58
100
AcDbEntity
 67
     1
  8
0
  6
HIDDENX2
 48
0.3
100
AcDbLine
 10
6.529584436521801
 20
4.955025159541888
 30
0.0
 11
7.029584436521801
 21
4.955025159541888
 31
0.0
  0
LINE
  5
EF
330
58
100
AcDbEntity
 67
     1
  8
0
  6
HIDDENX2
 48
0.3
100
AcDbLine
 10
6.529584436521801
 20
4.699025159541887
 30
0.0
 11
7.029584436521801
 21
4.699025159541887
 31
0.0
  0
LINE
  5
F1
330
58
100
AcDbEntity
 67
     1
  8
0
  6
HIDDENX2
 48
0.3
100
AcDbLine
 10
6.529584436521801
 20
3.985025159541887
 30
0.0
 11
7.029584436521801
 21
3.985025159541887
 31
0.0
  0
LINE
  5
F3
330
58
100
AcDbEntity
 67
     1
  8
0
  6
HIDDENX2
 48
0.3
100
AcDbLine
 10
6.529584436521801
 20
3.669025159541888
 30
0.0
 11
7.029584436521801
 21
3.669025159541888
 31
0.0
  0
LINE
  5
F5
330
58
100
AcDbEntity
 67
     1
  8
0
  6
HIDDENX2
 48
0.3
100
AcDbLine
 10
6.529584436521801
 20
2.955025159541888
 30
0.0
 11
7.029584436521801
 21
2.955025159541888
 31
0.0
  0
LINE
  5
F7
330
58
100
AcDbEntity
 67
     1
  8
0
  6
HIDDENX2
 48
0.3
100
AcDbLine
 10
6.529584436521801
 20
2.699025159541887
 30
0.0
 11
7.029584436521801
 21
2.699025159541887
 31
0.0
  0
LINE
  5
F9
102
{ACAD_REACTORS
330
20B
102
}
330
58
100
AcDbEntity
 67
     1
  8
0
  6
HIDDENX2
 48
0.3
100
AcDbLine
 10
2.368642971532528
 20
1.353837454418872
 30
0.0
 11
2.368642971532528
 21
1.166337454418872
 31
0.0
  0
LINE
  5
FB
330
58
100
AcDbEntity
 67
     1
  8
0
  6
HIDDENX2
 48
0.3
100
AcDbLine
 10
3.668642971532528
 20
1.353837454418872
 30
0.0
 11
3.668642971532528
 21
1.166337454418872
 31
0.0
  0
LINE
  5
FC
102
{ACAD_REACTORS
330
20B
102
}
330
58
100
AcDbEntity
 67
     1
  8
0
  6
HIDDENX2
 48
0.3
100
AcDbLine
 10
3.668642971532528
 20
1.166337454418872
 30
0.0
 11
2.368642971532528
 21
1.166337454418872
 31
0.0
  0
LINE
  5
FE
330
58
100
AcDbEntity
 67
     1
  8
0
  6
HIDDENX2
 48
0.3
100
AcDbLine
 10
2.593642971532528
 20
1.166337454418872
 30
0.0
 11
2.593642971532529
 21
0.8538374544188728
 31
0.0
  0
LINE
  5
100
330
58
100
AcDbEntity
 67
     1
  8
0
  6
HIDDENX2
 48
0.3
100
AcDbLine
 10
3.443642971532528
 20
1.166337454418872
 30
0.0
 11
3.443642971532527
 21
0.8538374544188727
 31
0.0
  0
DIMENSION
  5
101
102
{ACAD_XDICTIONARY
360
110
102
}
102
{ACAD_REACTORS
330
11B
102
}
330
58
100
AcDbEntity
 67
     1
  8
0
 48
0.3
100
AcDbDimension
  2
*D1
 10
7.941765255202298
 20
2.577025159541888
 30
0.0
 11
7.941765255202297
 21
3.82702515954189
 31
0.0
 70
    32
 71
     5
 42
2.5
  3
Standard
100
AcDbAlignedDimension
 13
7.029584436521801
 23
5.077025159541888
 33
0.0
 14
7.029584436521801
 24
2.577025159541888
 34
0.0
 50
90.0
100
AcDbRotatedDimension
  0
DIMENSION
  5
11C
102
{ACAD_XDICTIONARY
360
12A
102
}
102
{ACAD_REACTORS
330
135
102
}
330
58
100
AcDbEntity
 67
     1
  8
0
 48
0.3
100
AcDbDimension
  2
*D2
 10
7.029584436521801
 20
2.06809481768094
 30
0.0
 11
7.463334436521801
 21
2.06809481768094
 31
0.0
 70
    32
 71
     5
 42
0.5
  3
Standard
100
AcDbAlignedDimension
 13
6.529584436521801
 23
2.577025159541888
 33
0.0
 14
7.029584436521801
 24
2.577025159541888
 34
0.0
100
AcDbRotatedDimension
  0
DIMENSION
  5
136
102
{ACAD_XDICTIONARY
360
144
102
}
102
{ACAD_REACTORS
330
14F
102
}
330
58
100
AcDbEntity
 67
     1
  8
0
 48
0.3
100
AcDbDimension
  2
*D3
 10
5.268642971532526
 20
0.0593504849854298
 30
0.0
 11
3.018642971532528
 21
0.0593504849854298
 31
0.0
 70
    32
 71
     5
 42
4.499999999999996
  3
Standard
100
AcDbAlignedDimension
 13
0.7686429715325298
 23
0.853837454418873
 33
0.0
 14
5.268642971532526
 24
0.8538374544188725
 34
0.0
100
AcDbRotatedDimension
  0
DIMENSION
  5
150
102
{ACAD_XDICTIONARY
360
15F
102
}
102
{ACAD_REACTORS
330
16B
102
}
330
58
100
AcDbEntity
 67
     1
  8
0
 48
0.3
100
AcDbDimension
  2
*D4
 10
-0.1465091841114656
 20
5.077025159541888
 30
0.0
 11
0.2976574825552003
 21
5.327025159541888
 31
0.0
 70
    32
 71
     5
 42
0.2500000000000009
  3
Standard
100
AcDbAlignedDimension
 13
0.9561429715325298
 23
4.827025159541888
 33
0.0
 14
0.7686429715325306
 24
5.077025159541888
 34
0.0
 50
90.0
100
AcDbRotatedDimension
  0
DIMENSION
  5
16C
102
{ACAD_XDICTIONARY
360
17A
102
}
102
{ACAD_REACTORS
330
185
102
}
330
58
100
AcDbEntity
 67
     1
  8
0
 48
0.3
100
AcDbDimension
  2
*D5
 10
-0.161856942716284
 20
2.827025159541888
 30
0.0
 11
-0.1618569427162844
 21
3.827025159541888
 31
0.0
 70
    32
 71
     5
 42
2.0
  3
Standard
100
AcDbAlignedDimension
 13
0.9561429715325298
 23
4.827025159541888
 33
0.0
 14
0.9561429715325298
 24
2.827025159541888
 34
0.0
 50
90.0
100
AcDbRotatedDimension
  0
DIMENSION
  5
186
102
{ACAD_XDICTIONARY
360
194
102
}
102
{ACAD_REACTORS
330
19F
102
}
330
58
100
AcDbEntity
 67
     1
  8
0
 48
0.3
100
AcDbDimension
  2
*D6
 10
0.3906627543568039
 20
2.577025159541888
 30
0.0
 11
0.3906627543568035
 21
3.202025159541888
 31
0.0
 70
   160
 71
     5
 42
1.25
  3
Standard
100
AcDbAlignedDimension
 13
1.043642971532528
 23
3.827025159541888
 33
0.0
 14
0.7686429715325298
 24
2.577025159541888
 34
0.0
 50
90.0
100
AcDbRotatedDimension
  0
DIMENSION
  5
1AA
102
{ACAD_XDICTIONARY
360
1B8
102
}
102
{ACAD_REACTORS
330
1C3
102
}
330
58
100
AcDbEntity
 67
     1
  8
0
 48
0.3
100
AcDbDimension
  2
*D7
 10
4.135518487569918
 20
2.577025159541888
 30
0.0
 11
4.135518487569917
 21
3.202025159541888
 31
0.0
 70
    32
 71
     5
 42
1.249999999999999
  3
Standard
100
AcDbAlignedDimension
 13
3.018642971532528
 23
3.827025159541888
 33
0.0
 14
3.018642971532528
 24
2.577025159541888
 34
0.0
 50
90.0
100
AcDbRotatedDimension
  0
DIMENSION
  5
1C4
102
{ACAD_XDICTIONARY
360
1D0
102
}
102
{ACAD_REACTORS
330
1D9
102
}
330
58
100
AcDbEntity
 67
     1
  8
0
 48
0.3
100
AcDbDimension
  2
*D8
 10
3.018642971532528
 20
3.827025159541887
 30
0.0
 11
1.792050563444478
 21
2.328771572279766
 31
0.0
 70
   164
 71
     5
 42
0.4249999999999981
  3
Standard
100
AcDbRadialDimension
 15
2.8367460582743
 25
3.442917735834499
 35
0.0
 40
0.0
1001
ACAD
1000
DSTYLE
1002
{
1070
   288
1070
     1
1002
}
  0
DIMENSION
  5
1DA
102
{ACAD_XDICTIONARY
360
1E6
102
}
102
{ACAD_REACTORS
330
1EF
102
}
330
58
100
AcDbEntity
 67
     1
  8
0
 48
0.3
100
AcDbDimension
  2
*D9
 10
3.018642971532525
 20
3.82702515954189
 30
0.0
 11
3.95153551353025
 21
2.144764457671257
 31
0.0
 70
   164
 71
     5
 42
0.6500000000000031
  3
Standard
100
AcDbRadialDimension
 15
3.178285834580972
 25
3.19693456583516
 35
0.0
 40
0.0
1001
ACAD
1000
DSTYLE
1002
{
1070
   288
1070
     1
1002
}
  0
DIMENSION
  5
1F0
102
{ACAD_XDICTIONARY
360
1FF
102
}
102
{ACAD_REACTORS
330
20B
102
}
330
58
100
AcDbEntity
 67
     1
  8
0
 48
0.3
100
AcDbDimension
  2
*D10
 10
0.0223162767314236
 20
1.353837454418873
 30
0.0
 11
0.4560662767314234
 21
1.603837454418873
 31
0.0
 70
    32
 71
     5
 42
0.1875
  3
Standard
100
AcDbAlignedDimension
 13
2.368642971532528
 23
1.166337454418872
 33
0.0
 14
2.368642971532528
 24
1.353837454418872
 34
0.0
 50
90.0
100
AcDbRotatedDimension
  0
DIMENSION
  5
20C
102
{ACAD_XDICTIONARY
360
21A
102
}
102
{ACAD_REACTORS
330
225
102
}
330
58
100
AcDbEntity
 67
     1
  8
0
 48
0.3
100
AcDbDimension
  2
*D11
 10
5.081142971532528
 20
1.868753775074367
 30
0.0
 11
3.018642971532529
 21
1.868753775074367
 31
0.0
 70
    32
 71
     5
 42
4.124999999999999
  3
Standard
100
AcDbAlignedDimension
 13
0.9561429715325298
 23
2.827025159541888
 33
0.0
 14
5.081142971532528
 24
2.827025159541888
 34
0.0
100
AcDbRotatedDimension
  0
DIMENSION
  5
226
102
{ACAD_XDICTIONARY
360
234
102
}
102
{ACAD_REACTORS
330
23F
102
}
330
58
100
AcDbEntity
 67
     1
  8
0
 48
0.3
100
AcDbDimension
  2
*D12
 10
5.268642971532528
 20
2.236768004291381
 30
0.0
 11
5.827392971532528
 21
2.236768004291381
 31
0.0
 70
    32
 71
     5
 42
0.1875
  3
Standard
100
AcDbAlignedDimension
 13
5.081142971532528
 23
2.827025159541888
 33
0.0
 14
5.268642971532528
 24
2.577025159541888
 34
0.0
100
AcDbRotatedDimension
  0
DIMENSION
  5
240
102
{ACAD_XDICTIONARY
360
24E
102
}
102
{ACAD_REACTORS
330
259
102
}
330
58
100
AcDbEntity
 67
     1
  8
0
 48
0.3
100
AcDbDimension
  2
*D13
 10
4.993642971532528
 20
5.54889608861276
 30
0.0
 11
3.018642971532528
 21
5.54889608861276
 31
0.0
 70
    32
 71
     5
 42
3.949999999999999
  3
Standard
100
AcDbAlignedDimension
 13
1.043642971532528
 23
3.827025159541888
 33
0.0
 14
4.993642971532528
 24
3.827025159541888
 34
0.0
100
AcDbRotatedDimension
  0
DIMENSION
  5
25A
102
{ACAD_XDICTIONARY
360
268
102
}
102
{ACAD_REACTORS
330
273
102
}
330
58
100
AcDbEntity
 67
     1
  8
0
 48
0.3
100
AcDbDimension
  2
*D14
 10
5.268642971532529
 20
5.318887190010062
 30
0.0
 11
5.848226304865862
 21
5.318887190010062
 31
0.0
 70
    32
 71
     5
 42
0.2750000000000012
  3
Standard
100
AcDbAlignedDimension
 13
4.993642971532528
 23
3.827025159541888
 33
0.0
 14
5.268642971532529
 24
3.827025159541888
 34
0.0
100
AcDbRotatedDimension
  0
DIMENSION
  5
274
102
{ACAD_XDICTIONARY
360
280
102
}
102
{ACAD_REACTORS
330
289
102
}
330
58
100
AcDbEntity
 67
     1
  8
0
 48
0.3
100
AcDbDimension
  2
*D15
 10
4.991566984768698
 20
4.918458974923758
 30
0.0
 11
5.991033606791175
 21
4.42607093483896
 31
0.0
 70
   163
 71
     5
 42
0.2560000000000002
  3
Standard
100
AcDbDiametricDimension
 15
5.170718958296355
 25
4.735591344160013
 35
0.0
 40
0.0
1001
ACAD
1000
DSTYLE
1002
{
1070
   288
1070
     1
1002
}
  0
DIMENSION
  5
28A
102
{ACAD_XDICTIONARY
360
296
102
}
102
{ACAD_REACTORS
330
29F
102
}
330
58
100
AcDbEntity
 67
     1
  8
0
 48
0.3
100
AcDbDimension
  2
*D16
 10
4.872423678512246
 20
3.933740355271751
 30
0.0
 11
6.042728244011167
 21
3.358678169141115
 31
0.0
 70
   163
 71
     5
 42
0.3230000000000008
  3
Standard
100
AcDbDiametricDimension
 15
5.114862264552811
 25
3.720309963812024
 35
0.0
 40
0.0
1001
ACAD
1000
DSTYLE
1002
{
1070
   288
1070
     1
1002
}
  0
LINE
  5
2A5
102
{ACAD_REACTORS
330
317
102
}
330
58
100
AcDbEntity
 67
     1
  8
0
 48
0.3
100
AcDbLine
 10
5.268642971532528
 20
2.577025159541888
 30
0.0
 11
3.518642971532528
 21
2.577025159541888
 31
0.0
  0
LINE
  5
2A6
102
{ACAD_REACTORS
330
317
102
}
330
58
100
AcDbEntity
 67
     1
  8
0
  6
HIDDENX2
 48
0.3
100
AcDbLine
 10
3.518642971532528
 20
2.577025159541888
 30
0.0
 11
3.518642971532528
 21
2.952025159541888
 31
0.0
  0
LINE
  5
2A7
330
58
100
AcDbEntity
 67
     1
  8
0
  6
HIDDENX2
 48
0.3
100
AcDbLine
 10
3.518642971532528
 20
2.952025159541888
 30
0.0
 11
2.768642971532528
 21
2.952025159541888
 31
0.0
  0
LINE
  5
2A8
330
58
100
AcDbEntity
 67
     1
  8
0
  6
HIDDENX2
 48
0.3
100
AcDbLine
 10
2.768642971532528
 20
2.952025159541888
 30
0.0
 11
2.768642971532528
 21
2.577025159541888
 31
0.0
  0
LINE
  5
2A9
102
{ACAD_REACTORS
330
2E3
102
}
330
58
100
AcDbEntity
 67
     1
  8
0
 48
0.3
100
AcDbLine
 10
3.518642971532528
 20
0.8538374544188727
 30
0.0
 11
3.518642971532528
 21
0.9788374544188727
 31
0.0
  0
LINE
  5
2AA
102
{ACAD_REACTORS
330
2C9
102
}
330
58
100
AcDbEntity
 67
     1
  8
0
 48
0.3
100
AcDbLine
 10
3.393642971532528
 20
1.103837454418872
 30
0.0
 11
2.893642971532528
 21
1.103837454418872
 31
0.0
  0
LINE
  5
2AB
102
{ACAD_REACTORS
330
2FD
330
34B
102
}
330
58
100
AcDbEntity
 67
     1
  8
0
 48
0.3
100
AcDbLine
 10
2.768642971532528
 20
0.9788374544188727
 30
0.0
 11
2.768642971532528
 21
0.8538374544188728
 31
0.0
  0
ARC
  5
2AC
102
{ACAD_REACTORS
330
32D
102
}
330
58
100
AcDbEntity
 67
     1
  8
0
 48
0.3
100
AcDbCircle
 10
2.893642971532528
 20
0.9788374544188727
 30
0.0
 40
0.125
100
AcDbArc
 50
90.0
 51
180.0
  0
ARC
  5
2AD
102
{ACAD_REACTORS
330
2C9
102
}
330
58
100
AcDbEntity
 67
     1
  8
0
 48
0.3
100
AcDbCircle
 10
3.393642971532528
 20
0.9788374544188727
 30
0.0
 40
0.125
100
AcDbArc
 50
0.0
 51
90.0
  0
DIMENSION
  5
2AE
102
{ACAD_XDICTIONARY
360
2BD
102
}
102
{ACAD_REACTORS
330
2C9
102
}
330
58
100
AcDbEntity
 67
     1
  8
0
 48
0.3
100
AcDbDimension
  2
*D17
 10
4.317398871003597
 20
0.8538374544188725
 30
0.0
 11
3.87323220433693
 21
0.6038374544188733
 31
0.0
 70
    32
 71
     5
 42
0.2499999999999998
  3
Standard
100
AcDbAlignedDimension
 13
3.393642971532528
 23
1.103837454418872
 33
0.0
 14
3.393642971532528
 24
0.8538374544188728
 34
0.0
 50
90.0
100
AcDbRotatedDimension
  0
DIMENSION
  5
2CA
102
{ACAD_XDICTIONARY
360
2D8
102
}
102
{ACAD_REACTORS
330
2E3
102
}
330
58
100
AcDbEntity
 67
     1
  8
0
 48
0.3
100
AcDbDimension
  2
*D18
 10
5.268642971532526
 20
0.341886525443325
 30
0.0
 11
4.393642971532527
 21
0.341886525443325
 31
0.0
 70
    32
 71
     5
 42
1.749999999999997
  3
Standard
100
AcDbAlignedDimension
 13
3.518642971532528
 23
0.8538374544188727
 33
0.0
 14
5.268642971532526
 24
0.8538374544188725
 34
0.0
100
AcDbRotatedDimension
  0
DIMENSION
  5
2E4
102
{ACAD_XDICTIONARY
360
2F2
102
}
102
{ACAD_REACTORS
330
2FD
102
}
330
58
100
AcDbEntity
 67
     1
  8
0
 48
0.3
100
AcDbDimension
  2
*D19
 10
2.768642971532528
 20
0.3283689283764382
 30
0.0
 11
3.143642971532528
 21
0.3283689283764382
 31
0.0
 70
    32
 71
     5
 42
0.75
  3
Standard
100
AcDbAlignedDimension
 13
3.518642971532528
 23
0.8538374544188728
 33
0.0
 14
2.768642971532528
 24
0.8538374544188728
 34
0.0
100
AcDbRotatedDimension
  0
DIMENSION
  5
2FE
102
{ACAD_XDICTIONARY
360
30C
102
}
102
{ACAD_REACTORS
330
317
102
}
330
58
100
AcDbEntity
 67
     1
  8
0
 48
0.3
100
AcDbDimension
  2
*D20
 10
3.789585662584293
 20
2.577025159541888
 30
0.0
 11
3.789585662584293
 21
2.764525159541889
 31
0.0
 70
    32
 71
     5
 42
0.375
  3
Standard
100
AcDbAlignedDimension
 13
3.518642971532528
 23
2.952025159541888
 33
0.0
 14
3.518642971532528
 24
2.577025159541888
 34
0.0
 50
90.0
100
AcDbRotatedDimension
  0
DIMENSION
  5
318
102
{ACAD_XDICTIONARY
360
324
102
}
102
{ACAD_REACTORS
330
32D
102
}
330
58
100
AcDbEntity
 67
     1
  8
0
 48
0.3
100
AcDbDimension
  2
*D21
 10
2.893642971532527
 20
0.9788374544188725
 30
0.0
 11
2.02117048468577
 21
1.517917721523797
 31
0.0
 70
   164
 71
     5
 42
0.1249999999999987
  3
Standard
100
AcDbRadialDimension
 15
2.822104928607014
 25
1.081342617285857
 35
0.0
 40
0.0
1001
ACAD
1000
DSTYLE
1002
{
1070
   288
1070
     1
1002
}
  0
LEADER
  5
348
102
{ACAD_XDICTIONARY
360
34A
102
}
102
{ACAD_REACTORS
330
34B
102
}
330
58
100
AcDbEntity
 67
     1
  8
0
 48
0.3
100
AcDbLeader
  3
Standard
 73
     0
 40
0.5416666666666668
 41
2.4375
 76
     3
 10
2.768642971532528
 20
0.8538374544188728
 30
0.0
 10
1.943995481638488
 20
-0.3362731492167583
 30
0.0
 10
2.221535523587689
 20
-0.3362731492167583
 30
0.0
340
349
213
0.0
223
-0.0625
233
0.0
1001
ACAD
1000
DSTYLE
1002
{
1070
   147
1040
0.09
1070
    77
1070
     0
1002
}
  0
MTEXT
  5
349
102
{ACAD_REACTORS
330
348
102
}
330
58
100
AcDbEntity
 67
     1
  8
0
 48
0.3
100
AcDbMText
 10
2.311535523587689
 20
-0.2737731492167583
 30
0.0
 40
0.125
 41
0.0
 71
     1
 72
     1
  1
This notch is for \Ptach pickup clearance \Pif used
 73
     1
 44
1.0
  0
ENDSEC
  0
SECTION
  2
OBJECTS
  0
DICTIONARY
  5
C
330
0
100
AcDbDictionary
281
     1
  3
ACAD_GROUP
350
D
  3
ACAD_LAYOUT
350
1A
  3
ACAD_MLINESTYLE
350
17
  3
ACAD_PLOTSETTINGS
350
19
  3
ACAD_PLOTSTYLENAME
350
E
  3
AcDbVariableDictionary
350
66
  0
DICTIONARY
  5
110
330
101
100
AcDbDictionary
280
     1
281
     1
  3
ACAD_DIMASSOC
360
11B
  0
DICTIONARY
  5
12A
330
11C
100
AcDbDictionary
280
     1
281
     1
  3
ACAD_DIMASSOC
360
135
  0
DICTIONARY
  5
144
330
136
100
AcDbDictionary
280
     1
281
     1
  3
ACAD_DIMASSOC
360
14F
  0
DICTIONARY
  5
15F
330
150
100
AcDbDictionary
280
     1
281
     1
  3
ACAD_DIMASSOC
360
16B
  0
DICTIONARY
  5
17A
330
16C
100
AcDbDictionary
280
     1
281
     1
  3
ACAD_DIMASSOC
360
185
  0
DICTIONARY
  5
194
330
186
100
AcDbDictionary
280
     1
281
     1
  3
ACAD_DIMASSOC
360
19F
  0
DICTIONARY
  5
1B8
330
1AA
100
AcDbDictionary
280
     1
281
     1
  3
ACAD_DIMASSOC
360
1C3
  0
DICTIONARY
  5
1D0
330
1C4
100
AcDbDictionary
280
     1
281
     1
  3
ACAD_DIMASSOC
360
1D9
  0
DICTIONARY
  5
1E6
330
1DA
100
AcDbDictionary
280
     1
281
     1
  3
ACAD_DIMASSOC
360
1EF
  0
DICTIONARY
  5
1FF
330
1F0
100
AcDbDictionary
280
     1
281
     1
  3
ACAD_DIMASSOC
360
20B
  0
DICTIONARY
  5
21A
330
20C
100
AcDbDictionary
280
     1
281
     1
  3
ACAD_DIMASSOC
360
225
  0
DICTIONARY
  5
234
330
226
100
AcDbDictionary
280
     1
281
     1
  3
ACAD_DIMASSOC
360
23F
  0
DICTIONARY
  5
24E
330
240
100
AcDbDictionary
280
     1
281
     1
  3
ACAD_DIMASSOC
360
259
  0
DICTIONARY
  5
268
330
25A
100
AcDbDictionary
280
     1
281
     1
  3
ACAD_DIMASSOC
360
273
  0
DICTIONARY
  5
280
330
274
100
AcDbDictionary
280
     1
281
     1
  3
ACAD_DIMASSOC
360
289
  0
DICTIONARY
  5
296
330
28A
100
AcDbDictionary
280
     1
281
     1
  3
ACAD_DIMASSOC
360
29F
  0
DICTIONARY
  5
2BD
330
2AE
100
AcDbDictionary
280
     1
281
     1
  3
ACAD_DIMASSOC
360
2C9
  0
DICTIONARY
  5
2D8
330
2CA
100
AcDbDictionary
280
     1
281
     1
  3
ACAD_DIMASSOC
360
2E3
  0
DICTIONARY
  5
2F2
330
2E4
100
AcDbDictionary
280
     1
281
     1
  3
ACAD_DIMASSOC
360
2FD
  0
DICTIONARY
  5
30C
330
2FE
100
AcDbDictionary
280
     1
281
     1
  3
ACAD_DIMASSOC
360
317
  0
DICTIONARY
  5
324
330
318
100
AcDbDictionary
280
     1
281
     1
  3
ACAD_DIMASSOC
360
32D
  0
DICTIONARY
  5
34A
330
348
100
AcDbDictionary
280
     1
281
     1
  3
ACAD_DIMASSOC
360
34B
  0
DICTIONARY
  5
D
102
{ACAD_REACTORS
330
C
102
}
330
C
100
AcDbDictionary
281
     1
  0
DICTIONARY
  5
1A
102
{ACAD_REACTORS
330
C
102
}
330
C
100
AcDbDictionary
281
     1
  3
Layout1
350
59
  3
Layout2
350
5E
  3
Model
350
22
  0
DICTIONARY
  5
17
102
{ACAD_REACTORS
330
C
102
}
330
C
100
AcDbDictionary
281
     1
  3
Standard
350
18
  0
DICTIONARY
  5
19
102
{ACAD_REACTORS
330
C
102
}
330
C
100
AcDbDictionary
281
     1
  0
ACDBDICTIONARYWDFLT
  5
E
102
{ACAD_REACTORS
330
C
102
}
330
C
100
AcDbDictionary
281
     1
  3
Normal
350
F
100
AcDbDictionaryWithDefault
340
F
  0
DICTIONARY
  5
66
102
{ACAD_REACTORS
330
C
102
}
330
C
100
AcDbDictionary
281
     1
  3
DIMASSOC
350
67
  3
HIDETEXT
350
6B
  0
DIMASSOC
  5
11B
102
{ACAD_REACTORS
330
110
102
}
330
110
100
AcDbDimAssoc
330
101
 90
        3
 70
     0
 71
     0
  1
AcDbOsnapPointRef
 72
    13
331
E9
 73
     2
 91
        0
 40
0.0
 10
7.029584436521801
 20
5.077025159541888
 30
0.0
 75
     0
  1
AcDbOsnapPointRef
 72
     1
331
E9
 73
     2
 91
        0
 40
1.0
 10
7.029584436521801
 20
2.577025159541888
 30
0.0
 75
     0
  0
DIMASSOC
  5
135
102
{ACAD_REACTORS
330
12A
102
}
330
12A
100
AcDbDimAssoc
330
11C
 90
        3
 70
     0
 71
     0
  1
AcDbOsnapPointRef
 72
    13
331
EB
 73
     2
 91
        0
 40
0.0
 10
6.529584436521801
 20
2.577025159541888
 30
0.0
 75
     0
  1
AcDbOsnapPointRef
 72
     1
331
E9
 73
     2
 91
        0
 40
1.0
 10
7.029584436521801
 20
2.577025159541888
 30
0.0
 75
     0
  0
DIMASSOC
  5
14F
102
{ACAD_REACTORS
330
144
102
}
330
144
100
AcDbDimAssoc
330
136
 90
        3
 70
     0
 71
     0
  1
AcDbOsnapPointRef
 72
     1
331
E5
 73
     2
 91
        0
 40
1.0
 10
0.7686429715325298
 20
0.853837454418873
 30
0.0
 75
     0
  1
AcDbOsnapPointRef
 72
    13
331
E5
 73
     2
 91
        0
 40
0.0
 10
5.268642971532526
 20
0.8538374544188725
 30
0.0
 75
     0
  0
DIMASSOC
  5
16B
102
{ACAD_REACTORS
330
15F
102
}
330
15F
100
AcDbDimAssoc
330
150
 90
        3
 70
     0
 71
     0
  1
AcDbOsnapPointRef
 72
     3
331
C2
 73
     2
 91
        0
 40
0.0
 10
0.9561429715325298
 20
4.827025159541888
 30
0.0
 75
     0
  1
AcDbOsnapPointRef
 72
    13
331
D1
 73
     2
 91
        0
 40
0.0
 10
0.7686429715325306
 20
5.077025159541888
 30
0.0
 75
     0
  0
DIMASSOC
  5
185
102
{ACAD_REACTORS
330
17A
102
}
330
17A
100
AcDbDimAssoc
330
16C
 90
        3
 70
     0
 71
     0
  1
AcDbOsnapPointRef
 72
     3
331
C2
 73
     2
 91
        0
 40
0.0
 10
0.9561429715325298
 20
4.827025159541888
 30
0.0
 75
     0
  1
AcDbOsnapPointRef
 72
     3
331
C3
 73
     2
 91
        0
 40
0.0
 10
0.9561429715325298
 20
2.827025159541888
 30
0.0
 75
     0
  0
DIMASSOC
  5
19F
102
{ACAD_REACTORS
330
194
102
}
330
194
100
AcDbDimAssoc
330
186
 90
        3
 70
     0
 71
     0
  1
AcDbOsnapPointRef
 72
     3
331
D5
 73
     2
 91
        0
 40
0.0
 10
1.043642971532528
 20
3.827025159541888
 30
0.0
 75
     0
  1
AcDbOsnapPointRef
 72
    13
331
D2
 73
     2
 91
        0
 40
0.0
 10
0.7686429715325298
 20
2.577025159541888
 30
0.0
 75
     0
  0
DIMASSOC
  5
1C3
102
{ACAD_REACTORS
330
1B8
102
}
330
1B8
100
AcDbDimAssoc
330
1AA
 90
        1
 70
     0
 71
     0
  1
AcDbOsnapPointRef
 72
     3
331
DA
 73
     2
 91
        0
 40
3.141592653589793
 10
3.018642971532528
 20
3.827025159541888
 30
0.0
 75
     0
  0
DIMASSOC
  5
1D9
102
{ACAD_REACTORS
330
1D0
102
}
330
1D0
100
AcDbDimAssoc
330
1C4
 90
        2
 70
     0
 71
     0
  1
AcDbOsnapPointRef
 72
     3
331
D9
 73
     2
 91
        0
 40
0.0
 10
0.0
 20
0.0
 30
0.0
 75
     0
  0
DIMASSOC
  5
1EF
102
{ACAD_REACTORS
330
1E6
102
}
330
1E6
100
AcDbDimAssoc
330
1DA
 90
        2
 70
     0
 71
     0
  1
AcDbOsnapPointRef
 72
     3
331
DA
 73
     2
 91
        0
 40
0.0
 10
0.0
 20
0.0
 30
0.0
 75
     0
  0
DIMASSOC
  5
20B
102
{ACAD_REACTORS
330
1FF
102
}
330
1FF
100
AcDbDimAssoc
330
1F0
 90
        3
 70
     0
 71
     0
  1
AcDbOsnapPointRef
 72
     1
331
FC
 73
     2
 91
        0
 40
1.0
 10
2.368642971532528
 20
1.166337454418872
 30
0.0
 75
     0
  1
AcDbOsnapPointRef
 72
    13
331
F9
 73
     2
 91
        0
 40
0.0
 10
2.368642971532528
 20
1.353837454418872
 30
0.0
 75
     0
  0
DIMASSOC
  5
225
102
{ACAD_REACTORS
330
21A
102
}
330
21A
100
AcDbDimAssoc
330
20C
 90
        3
 70
     0
 71
     0
  1
AcDbOsnapPointRef
 72
     3
331
C3
 73
     2
 91
        0
 40
0.0
 10
0.9561429715325298
 20
2.827025159541888
 30
0.0
 75
     0
  1
AcDbOsnapPointRef
 72
     3
331
C6
 73
     2
 91
        0
 40
0.0
 10
5.081142971532528
 20
2.827025159541888
 30
0.0
 75
     0
  0
DIMASSOC
  5
23F
102
{ACAD_REACTORS
330
234
102
}
330
234
100
AcDbDimAssoc
330
226
 90
        3
 70
     0
 71
     0
  1
AcDbOsnapPointRef
 72
     3
331
C6
 73
     2
 91
        0
 40
0.0
 10
5.081142971532528
 20
2.827025159541888
 30
0.0
 75
     0
  1
AcDbOsnapPointRef
 72
     1
331
D0
 73
     2
 91
        0
 40
1.0
 10
5.268642971532528
 20
2.577025159541888
 30
0.0
 75
     0
  0
DIMASSOC
  5
259
102
{ACAD_REACTORS
330
24E
102
}
330
24E
100
AcDbDimAssoc
330
240
 90
        3
 70
     0
 71
     0
  1
AcDbOsnapPointRef
 72
     3
331
D5
 73
     2
 91
        0
 40
0.0
 10
1.043642971532528
 20
3.827025159541888
 30
0.0
 75
     0
  1
AcDbOsnapPointRef
 72
     3
331
D6
 73
     2
 91
        0
 40
0.0
 10
4.993642971532528
 20
3.827025159541888
 30
0.0
 75
     0
  0
DIMASSOC
  5
273
102
{ACAD_REACTORS
330
268
102
}
330
268
100
AcDbDimAssoc
330
25A
 90
        1
 70
     0
 71
     0
  1
AcDbOsnapPointRef
 72
     3
331
D6
 73
     2
 91
        0
 40
0.0
 10
4.993642971532528
 20
3.827025159541888
 30
0.0
 75
     0
  0
DIMASSOC
  5
289
102
{ACAD_REACTORS
330
280
102
}
330
280
100
AcDbDimAssoc
330
274
 90
        2
 70
     0
 71
     0
  1
AcDbOsnapPointRef
 72
     3
331
C5
 73
     2
 91
        0
 40
0.0
 10
0.0
 20
0.0
 30
0.0
 75
     0
  0
DIMASSOC
  5
29F
102
{ACAD_REACTORS
330
296
102
}
330
296
100
AcDbDimAssoc
330
28A
 90
        2
 70
     0
 71
     0
  1
AcDbOsnapPointRef
 72
     3
331
D6
 73
     2
 91
        0
 40
0.0
 10
4.993642971532528
 20
3.827025159541888
 30
0.0
 75
     0
  0
DIMASSOC
  5
2C9
102
{ACAD_REACTORS
330
2BD
102
}
330
2BD
100
AcDbDimAssoc
330
2AE
 90
        3
 70
     0
 71
     0
  1
AcDbOsnapPointRef
 72
    13
331
2AA
 73
     2
 91
        0
 40
0.0
 10
3.393642971532528
 20
1.103837454418872
 30
0.0
 75
     0
  1
AcDbOsnapPointRef
 72
     6
331
E5
 73
     2
 91
        0
 40
0.4166666666666665
 10
3.393642971532528
 20
0.8538374544188728
 30
0.0
332
2AD
 74
     2
 92
        0
 75
     0
  0
DIMASSOC
  5
2E3
102
{ACAD_REACTORS
330
2D8
102
}
330
2D8
100
AcDbDimAssoc
330
2CA
 90
        3
 70
     0
 71
     0
  1
AcDbOsnapPointRef
 72
    13
331
2A9
 73
     2
 91
        0
 40
0.0
 10
3.518642971532528
 20
0.8538374544188727
 30
0.0
 75
     0
  1
AcDbOsnapPointRef
 72
    13
331
E5
 73
     2
 91
        0
 40
0.0
 10
5.268642971532526
 20
0.8538374544188725
 30
0.0
 75
     0
  0
DIMASSOC
  5
2FD
102
{ACAD_REACTORS
330
2F2
102
}
330
2F2
100
AcDbDimAssoc
330
2E4
 90
        2
 70
     0
 71
     0
  1
AcDbOsnapPointRef
 72
     1
331
2AB
 73
     2
 91
        0
 40
1.0
 10
2.768642971532528
 20
0.8538374544188728
 30
0.0
 75
     0
  0
DIMASSOC
  5
317
102
{ACAD_REACTORS
330
30C
102
}
330
30C
100
AcDbDimAssoc
330
2FE
 90
        3
 70
     0
 71
     0
  1
AcDbOsnapPointRef
 72
     1
331
2A6
 73
     2
 91
        0
 40
1.0
 10
3.518642971532528
 20
2.952025159541888
 30
0.0
 75
     0
  1
AcDbOsnapPointRef
 72
     1
331
2A5
 73
     2
 91
        0
 40
1.0
 10
3.518642971532528
 20
2.577025159541888
 30
0.0
 75
     0
  0
DIMASSOC
  5
32D
102
{ACAD_REACTORS
330
324
102
}
330
324
100
AcDbDimAssoc
330
318
 90
        2
 70
     0
 71
     0
  1
AcDbOsnapPointRef
 72
     3
331
2AC
 73
     2
 91
        0
 40
0.0
 10
0.0
 20
0.0
 30
0.0
 75
     0
  0
DIMASSOC
  5
34B
102
{ACAD_REACTORS
330
34A
102
}
330
34A
100
AcDbDimAssoc
330
348
 90
        1
 70
     0
 71
     0
  1
AcDbOsnapPointRef
 72
     1
331
2AB
 73
     2
 91
        0
 40
1.0
 10
2.768642971532528
 20
0.8538374544188728
 30
0.0
 75
     0
  0
LAYOUT
  5
59
102
{ACAD_REACTORS
330
1A
102
}
330
1A
100
AcDbPlotSettings
  1

  2
Auto EPSON Stylus Photo R200 Series on USER-04F1803D1C
  4
User256
  6

 40
3.757083177566528
 41
3.757076978683471
 42
3.757080078125
 43
3.757080078125
 44
215.8999938964843
 45
279.3999938964843
 46
38.35399999999999
 47
38.09999999999999
 48
0.0
 49
0.0
140
0.0
141
0.0
142
1.0
143
1.0
 70
   688
 72
     0
 73
     1
 74
     5
  7

 75
    16
147
1.0
148
0.0
149
0.0
100
AcDbLayout
  1
Layout1
 70
     1
 71
     1
 10
-1.647916538508858
 20
-1.657916660534115
 11
9.35208322119525
 21
6.842083099169992
 12
0.0
 22
0.0
 32
0.0
 14
-1.439262267973589
 24
-1.41285528304607
 34
0.0
 15
8.966538218833356
 25
6.396855050259421
 35
0.0
146
0.0
 13
0.0
 23
0.0
 33
0.0
 16
1.0
 26
0.0
 36
0.0
 17
0.0
 27
1.0
 37
0.0
 76
     0
330
58
331
77
  0
LAYOUT
  5
5E
102
{ACAD_REACTORS
330
1A
102
}
330
1A
100
AcDbPlotSettings
  1

  2
None
  4

  6

 40
0.0
 41
0.0
 42
0.0
 43
0.0
 44
0.0
 45
0.0
 46
0.0
 47
0.0
 48
0.0
 49
0.0
140
0.0
141
0.0
142
1.0
143
1.0
 70
   688
 72
     0
 73
     0
 74
     5
  7

 75
    16
147
1.0
148
0.0
149
0.0
100
AcDbLayout
  1
Layout2
 70
     1
 71
     2
 10
0.0
 20
0.0
 11
12.0
 21
9.0
 12
0.0
 22
0.0
 32
0.0
 14
0.0
 24
0.0
 34
0.0
 15
0.0
 25
0.0
 35
0.0
146
0.0
 13
0.0
 23
0.0
 33
0.0
 16
1.0
 26
0.0
 36
0.0
 17
0.0
 27
1.0
 37
0.0
 76
     0
330
5D
  0
LAYOUT
  5
22
102
{ACAD_REACTORS
330
1A
102
}
330
1A
100
AcDbPlotSettings
  1

  2
none_device
  4
ANSI_A_(8.50_x_11.00_Inches)
  6

 40
6.349999904632568
 41
19.04999923706054
 42
6.350006103515625
 43
19.04998779296875
 44
215.8999938964843
 45
279.3999938964843
 46
0.0
 47
0.0
 48
0.0
 49
0.0
140
0.0
141
0.0
142
1.0
143
2.584895464708373
 70
 11952
 72
     0
 73
     1
 74
     0
  7

 75
     0
147
0.3868628397755418
148
0.0
149
0.0
100
AcDbLayout
  1
Model
 70
     1
 71
     0
 10
0.0
 20
0.0
 11
12.0
 21
9.0
 12
0.0
 22
0.0
 32
0.0
 14
0.0
 24
0.0
 34
0.0
 15
0.0
 25
0.0
 35
0.0
146
0.0
 13
0.0
 23
0.0
 33
0.0
 16
1.0
 26
0.0
 36
0.0
 17
0.0
 27
1.0
 37
0.0
 76
     0
330
1F
  0
MLINESTYLE
  5
18
102
{ACAD_REACTORS
330
17
102
}
330
17
100
AcDbMlineStyle
  2
STANDARD
 70
     0
  3

 62
   256
 51
90.0
 52
90.0
 71
     2
 49
0.5
 62
   256
  6
BYLAYER
 49
-0.5
 62
   256
  6
BYLAYER
  0
ACDBPLACEHOLDER
  5
F
102
{ACAD_REACTORS
330
E
102
}
330
E
  0
DICTIONARYVAR
  5
67
102
{ACAD_REACTORS
330
66
102
}
330
66
100
DictionaryVariables
280
     0
  1
2
  0
DICTIONARYVAR
  5
6B
102
{ACAD_REACTORS
330
66
102
}
330
66
100
DictionaryVariables
280
     0
  1
1
  0
ENDSEC
  0
EOF
