  0
SECTION
  2
HEADER
  9
$ACADVER
  1
AC1015
  9
$ACADMAINTVER
 70
    13
  9
$DWGCODEPAGE
  3
ANSI_1252
  9
$INSBASE
 10
0.0
 20
0.0
 30
0.0
  9
$EXTMIN
 10
1.000000000000000E+20
 20
1.000000000000000E+20
 30
1.000000000000000E+20
  9
$EXTMAX
 10
-1.000000000000000E+20
 20
-1.000000000000000E+20
 30
-1.000000000000000E+20
  9
$LIMMIN
 10
0.0
 20
0.0
  9
$LIMMAX
 10
12.0
 20
9.0
  9
$ORTHOMODE
 70
     0
  9
$REGENMODE
 70
     1
  9
$FILLMODE
 70
     1
  9
$QTEXTMODE
 70
     0
  9
$MIRRTEXT
 70
     1
  9
$LTSCALE
 40
0.3
  9
$ATTMODE
 70
     1
  9
$TEXTSIZE
 40
0.2
  9
$TRACEWID
 40
0.05
  9
$TEXTSTYLE
  7
Standard
  9
$CLAYER
  8
0
  9
$CELTYPE
  6
ByLayer
  9
$CECOLOR
 62
   256
  9
$CELTSCALE
 40
0.3
  9
$DISPSILH
 70
     0
  9
$DIMSCALE
 40
1.0
  9
$DIMASZ
 40
0.125
  9
$DIMEXO
 40
0.0625
  9
$DIMDLI
 40
0.38
  9
$DIMRND
 40
0.0
  9
$DIMDLE
 40
0.0
  9
$DIMEXE
 40
0.18
  9
$DIMTP
 40
0.0
  9
$DIMTM
 40
0.0
  9
$DIMTXT
 40
0.125
  9
$DIMCEN
 40
0.09
  9
$DIMTSZ
 40
0.0
  9
$DIMTOL
 70
     0
  9
$DIMLIM
 70
     0
  9
$DIMTIH
 70
     1
  9
$DIMTOH
 70
     1
  9
$DIMSE1
 70
     0
  9
$DIMSE2
 70
     0
  9
$DIMTAD
 70
     0
  9
$DIMZIN
 70
     0
  9
$DIMBLK
  1

  9
$DIMASO
 70
     1
  9
$DIMSHO
 70
     1
  9
$DIMPOST
  1

  9
$DIMAPOST
  1

  9
$DIMALT
 70
     0
  9
$DIMALTD
 70
     2
  9
$DIMALTF
 40
25.4
  9
$DIMLFAC
 40
1.0
  9
$DIMTOFL
 70
     0
  9
$DIMTVP
 40
0.0
  9
$DIMTIX
 70
     0
  9
$DIMSOXD
 70
     0
  9
$DIMSAH
 70
     0
  9
$DIMBLK1
  1

  9
$DIMBLK2
  1

  9
$DIMSTYLE
  2
Standard
  9
$DIMCLRD
 70
     0
  9
$DIMCLRE
 70
     0
  9
$DIMCLRT
 70
     0
  9
$DIMTFAC
 40
1.0
  9
$DIMGAP
 40
0.09
  9
$DIMJUST
 70
     0
  9
$DIMSD1
 70
     0
  9
$DIMSD2
 70
     0
  9
$DIMTOLJ
 70
     1
  9
$DIMTZIN
 70
     0
  9
$DIMALTZ
 70
     0
  9
$DIMALTTZ
 70
     0
  9
$DIMUPT
 70
     0
  9
$DIMDEC
 70
     3
  9
$DIMTDEC
 70
     3
  9
$DIMALTU
 70
     2
  9
$DIMALTTD
 70
     2
  9
$DIMTXSTY
  7
Standard
  9
$DIMAUNIT
 70
     0
  9
$DIMADEC
 70
     0
  9
$DIMALTRND
 40
0.0
  9
$DIMAZIN
 70
     0
  9
$DIMDSEP
 70
    46
  9
$DIMATFIT
 70
     3
  9
$DIMFRAC
 70
     0
  9
$DIMLDRBLK
  1

  9
$DIMLUNIT
 70
     2
  9
$DIMLWD
 70
    -2
  9
$DIMLWE
 70
    -2
  9
$DIMTMOVE
 70
     0
  9
$LUNITS
 70
     2
  9
$LUPREC
 70
     4
  9
$SKETCHINC
 40
0.1
  9
$FILLETRAD
 40
0.5
  9
$AUNITS
 70
     0
  9
$AUPREC
 70
     0
  9
$MENU
  1
.
  9
$ELEVATION
 40
0.0
  9
$PELEVATION
 40
0.0
  9
$THICKNESS
 40
0.0
  9
$LIMCHECK
 70
     0
  9
$CHAMFERA
 40
0.5
  9
$CHAMFERB
 40
0.5
  9
$CHAMFERC
 40
1.0
  9
$CHAMFERD
 40
0.0
  9
$SKPOLY
 70
     0
  9
$TDCREATE
 40
2454412.579853507
  9
$TDUCREATE
 40
2454412.788186840
  9
$TDUPDATE
 40
2455925.745553924
  9
$TDUUPDATE
 40
2455925.953887256
  9
$TDINDWG
 40
0.3887328356
  9
$TDUSRTIMER
 40
0.3887328356
  9
$USRTIMER
 70
     1
  9
$ANGBASE
 50
0.0
  9
$ANGDIR
 70
     0
  9
$PDMODE
 70
     0
  9
$PDSIZE
 40
0.0
  9
$PLINEWID
 40
0.0
  9
$SPLFRAME
 70
     0
  9
$SPLINETYPE
 70
     6
  9
$SPLINESEGS
 70
     8
  9
$HANDSEED
  5
259
  9
$SURFTAB1
 70
     6
  9
$SURFTAB2
 70
     6
  9
$SURFTYPE
 70
     6
  9
$SURFU
 70
     6
  9
$SURFV
 70
     6
  9
$UCSBASE
  2

  9
$UCSNAME
  2

  9
$UCSORG
 10
0.0
 20
0.0
 30
0.0
  9
$UCSXDIR
 10
1.0
 20
0.0
 30
0.0
  9
$UCSYDIR
 10
0.0
 20
1.0
 30
0.0
  9
$UCSORTHOREF
  2

  9
$UCSORTHOVIEW
 70
     0
  9
$UCSORGTOP
 10
0.0
 20
0.0
 30
0.0
  9
$UCSORGBOTTOM
 10
0.0
 20
0.0
 30
0.0
  9
$UCSORGLEFT
 10
0.0
 20
0.0
 30
0.0
  9
$UCSORGRIGHT
 10
0.0
 20
0.0
 30
0.0
  9
$UCSORGFRONT
 10
0.0
 20
0.0
 30
0.0
  9
$UCSORGBACK
 10
0.0
 20
0.0
 30
0.0
  9
$PUCSBASE
  2

  9
$PUCSNAME
  2

  9
$PUCSORG
 10
0.0
 20
0.0
 30
0.0
  9
$PUCSXDIR
 10
1.0
 20
0.0
 30
0.0
  9
$PUCSYDIR
 10
0.0
 20
1.0
 30
0.0
  9
$PUCSORTHOREF
  2

  9
$PUCSORTHOVIEW
 70
     0
  9
$PUCSORGTOP
 10
0.0
 20
0.0
 30
0.0
  9
$PUCSORGBOTTOM
 10
0.0
 20
0.0
 30
0.0
  9
$PUCSORGLEFT
 10
0.0
 20
0.0
 30
0.0
  9
$PUCSORGRIGHT
 10
0.0
 20
0.0
 30
0.0
  9
$PUCSORGFRONT
 10
0.0
 20
0.0
 30
0.0
  9
$PUCSORGBACK
 10
0.0
 20
0.0
 30
0.0
  9
$USERI1
 70
     0
  9
$USERI2
 70
     0
  9
$USERI3
 70
     0
  9
$USERI4
 70
     0
  9
$USERI5
 70
     0
  9
$USERR1
 40
0.0
  9
$USERR2
 40
0.0
  9
$USERR3
 40
0.0
  9
$USERR4
 40
0.0
  9
$USERR5
 40
0.0
  9
$WORLDVIEW
 70
     1
  9
$SHADEDGE
 70
     3
  9
$SHADEDIF
 70
    70
  9
$TILEMODE
 70
     0
  9
$MAXACTVP
 70
    64
  9
$PINSBASE
 10
0.0
 20
0.0
 30
0.0
  9
$PLIMCHECK
 70
     0
  9
$PEXTMIN
 10
-1.439262267973589
 20
-1.41285528304607
 30
0.0
  9
$PEXTMAX
 10
8.966538218833356
 20
6.396855050259421
 30
0.0
  9
$PLIMMIN
 10
-1.75200024029589
 20
-1.757999996245376
  9
$PLIMMAX
 10
9.247999519408217
 20
6.741999763458731
  9
$UNITMODE
 70
     0
  9
$VISRETAIN
 70
     1
  9
$PLINEGEN
 70
     0
  9
$PSLTSCALE
 70
     1
  9
$TREEDEPTH
 70
  3020
  9
$CMLSTYLE
  2
Standard
  9
$CMLJUST
 70
     0
  9
$CMLSCALE
 40
1.0
  9
$PROXYGRAPHICS
 70
     1
  9
$MEASUREMENT
 70
     0
  9
$CELWEIGHT
370
    -1
  9
$ENDCAPS
280
     0
  9
$JOINSTYLE
280
     0
  9
$LWDISPLAY
290
     0
  9
$INSUNITS
 70
     1
  9
$HYPERLINKBASE
  1

  9
$STYLESHEET
  1

  9
$XEDIT
290
     1
  9
$CEPSNTYPE
380
     0
  9
$PSTYLEMODE
290
     1
  9
$FINGERPRINTGUID
  2
{FDEAD576-A652-11D2-9A35-0060089B3A3F}
  9
$VERSIONGUID
  2
{82C07F1C-19D8-4A55-B188-12F66974793A}
  9
$EXTNAMES
290
     1
  9
$PSVPSCALE
 40
0.0
  9
$OLESTARTUP
290
     0
  0
ENDSEC
  0
SECTION
  2
CLASSES
  0
CLASS
  1
ACDBDICTIONARYWDFLT
  2
AcDbDictionaryWithDefault
  3
AutoCAD 2000
 90
        0
280
     0
281
     0
  0
CLASS
  1
ACDBPLACEHOLDER
  2
AcDbPlaceHolder
  3
AutoCAD 2000
 90
        0
280
     0
281
     0
  0
CLASS
  1
LAYOUT
  2
AcDbLayout
  3
AutoCAD 2000
 90
        0
280
     0
281
     0
  0
CLASS
  1
DICTIONARYVAR
  2
AcDbDictionaryVar
  3
AutoCAD 2000
 90
        0
280
     0
281
     0
  0
CLASS
  1
DIMASSOC
  2
AcDbDimAssoc
  3
"AcDbDimAssoc|Product Desc:     AcDim ARX App For Dimension|Company:          Autodesk, Inc.|WEB Address:      www.autodesk.com"
 90
        0
280
     0
281
     0
  0
ENDSEC
  0
SECTION
  2
TABLES
  0
TABLE
  2
VPORT
  5
8
330
0
100
AcDbSymbolTable
 70
     1
  0
VPORT
  5
74
330
8
100
AcDbSymbolTableRecord
100
AcDbViewportTableRecord
  2
*Active
 70
     0
 10
0.0
 20
0.0
 11
1.0
 21
1.0
 12
20.48748698095427
 22
9.784138269231398
 13
0.0
 23
0.0
 14
0.5
 24
0.5
 15
0.5
 25
0.5
 16
0.0
 26
0.0
 36
1.0
 17
0.0
 27
0.0
 37
0.0
 40
19.56827653846279
 41
2.093949044585987
 42
50.0
 43
0.0
 44
0.0
 50
0.0
 51
0.0
 71
     0
 72
   100
 73
     1
 74
     3
 75
     0
 76
     0
 77
     0
 78
     0
281
     0
 65
     1
110
0.0
120
0.0
130
0.0
111
1.0
121
0.0
131
0.0
112
0.0
122
1.0
132
0.0
 79
     0
146
0.0
  0
ENDTAB
  0
TABLE
  2
LTYPE
  5
5
330
0
100
AcDbSymbolTable
 70
     3
  0
LTYPE
  5
14
330
5
100
AcDbSymbolTableRecord
100
AcDbLinetypeTableRecord
  2
ByBlock
 70
     0
  3

 72
    65
 73
     0
 40
0.0
  0
LTYPE
  5
15
330
5
100
AcDbSymbolTableRecord
100
AcDbLinetypeTableRecord
  2
ByLayer
 70
     0
  3

 72
    65
 73
     0
 40
0.0
  0
LTYPE
  5
16
330
5
100
AcDbSymbolTableRecord
100
AcDbLinetypeTableRecord
  2
Continuous
 70
     0
  3
Solid line
 72
    65
 73
     0
 40
0.0
  0
LTYPE
  5
92
330
5
100
AcDbSymbolTableRecord
100
AcDbLinetypeTableRecord
  2
HIDDENX2
 70
     0
  3
Hidden (2x) ____ ____ ____ ____ ____ ____ ____
 72
    65
 73
     2
 40
0.75
 49
0.5
 74
     0
 49
-0.25
 74
     0
  0
LTYPE
  5
93
330
5
100
AcDbSymbolTableRecord
100
AcDbLinetypeTableRecord
  2
threads
 70
     0
  3
Zig zag /\/\/\/\/\/\/\/\/\/\/\/\/\/\/\/\/\/\/\/
 72
    65
 73
     4
 40
0.8001000000000001
 49
0.0001
 74
     0
 49
-0.2
 74
     4
 75
   131
340
91
 46
0.2
 50
0.0
 44
-0.2
 45
0.0
 49
-0.4
 74
     4
 75
   131
340
91
 46
0.2
 50
180.0
 44
0.2
 45
0.0
 49
-0.2
 74
     0
  0
ENDTAB
  0
TABLE
  2
LAYER
  5
2
330
0
100
AcDbSymbolTable
 70
     2
  0
LAYER
  5
10
330
2
100
AcDbSymbolTableRecord
100
AcDbLayerTableRecord
  2
0
 70
     0
 62
     7
  6
Continuous
370
    -3
390
F
  0
LAYER
  5
F2
330
2
100
AcDbSymbolTableRecord
100
AcDbLayerTableRecord
  2
Defpoints
 70
     0
 62
     7
  6
Continuous
290
     0
370
    -3
390
F
  0
ENDTAB
  0
TABLE
  2
STYLE
  5
3
330
0
100
AcDbSymbolTable
 70
     2
  0
STYLE
  5
11
330
3
100
AcDbSymbolTableRecord
100
AcDbTextStyleTableRecord
  2
Standard
 70
     0
 40
0.0
 41
1.0
 50
0.0
 71
     0
 42
0.2
  3
txt
  4

  0
STYLE
  5
91
330
3
100
AcDbSymbolTableRecord
100
AcDbTextStyleTableRecord
  2

 70
     1
 40
0.0
 41
1.0
 50
0.0
 71
     0
 42
0.2
  3
ltypeshp.shx
  4

  0
ENDTAB
  0
TABLE
  2
VIEW
  5
6
330
0
100
AcDbSymbolTable
 70
     0
  0
ENDTAB
  0
TABLE
  2
UCS
  5
7
330
0
100
AcDbSymbolTable
 70
     0
  0
ENDTAB
  0
TABLE
  2
APPID
  5
9
330
0
100
AcDbSymbolTable
 70
     1
  0
APPID
  5
12
330
9
100
AcDbSymbolTableRecord
100
AcDbRegAppTableRecord
  2
ACAD
 70
     0
  0
ENDTAB
  0
TABLE
  2
DIMSTYLE
  5
A
330
0
100
AcDbSymbolTable
 70
     1
100
AcDbDimStyleTable
 71
     1
340
27
  0
DIMSTYLE
105
27
102
{ACAD_REACTORS
330
F1
330
10C
330
126
330
140
330
15A
330
176
330
192
330
1AC
330
1C6
330
1E0
330
1FA
330
216
330
22C
330
23E
102
}
330
A
100
AcDbSymbolTableRecord
100
AcDbDimStyleTableRecord
  2
Standard
 70
     0
 41
0.125
140
0.125
271
     3
272
     3
340
11
  0
ENDTAB
  0
TABLE
  2
BLOCK_RECORD
  5
1
330
0
100
AcDbSymbolTable
 70
    15
  0
BLOCK_RECORD
  5
1F
330
1
100
AcDbSymbolTableRecord
100
AcDbBlockTableRecord
  2
*Model_Space
340
22
  0
BLOCK_RECORD
  5
58
330
1
100
AcDbSymbolTableRecord
100
AcDbBlockTableRecord
  2
*Paper_Space
340
59
  0
BLOCK_RECORD
  5
5D
330
1
100
AcDbSymbolTableRecord
100
AcDbBlockTableRecord
  2
*Paper_Space0
340
5E
  0
BLOCK_RECORD
  5
F3
330
1
100
AcDbSymbolTableRecord
100
AcDbBlockTableRecord
  2
*D1
340
0
  0
BLOCK_RECORD
  5
10D
330
1
100
AcDbSymbolTableRecord
100
AcDbBlockTableRecord
  2
*D2
340
0
  0
BLOCK_RECORD
  5
127
330
1
100
AcDbSymbolTableRecord
100
AcDbBlockTableRecord
  2
*D3
340
0
  0
BLOCK_RECORD
  5
141
330
1
100
AcDbSymbolTableRecord
100
AcDbBlockTableRecord
  2
*D4
340
0
  0
BLOCK_RECORD
  5
15B
330
1
100
AcDbSymbolTableRecord
100
AcDbBlockTableRecord
  2
*D5
340
0
  0
BLOCK_RECORD
  5
177
330
1
100
AcDbSymbolTableRecord
100
AcDbBlockTableRecord
  2
*D6
340
0
  0
BLOCK_RECORD
  5
193
330
1
100
AcDbSymbolTableRecord
100
AcDbBlockTableRecord
  2
*D7
340
0
  0
BLOCK_RECORD
  5
1AD
330
1
100
AcDbSymbolTableRecord
100
AcDbBlockTableRecord
  2
*D8
340
0
  0
BLOCK_RECORD
  5
1C7
330
1
100
AcDbSymbolTableRecord
100
AcDbBlockTableRecord
  2
*D9
340
0
  0
BLOCK_RECORD
  5
1E1
330
1
100
AcDbSymbolTableRecord
100
AcDbBlockTableRecord
  2
*D10
340
0
  0
BLOCK_RECORD
  5
1FB
330
1
100
AcDbSymbolTableRecord
100
AcDbBlockTableRecord
  2
*D11
340
0
  0
BLOCK_RECORD
  5
217
330
1
100
AcDbSymbolTableRecord
100
AcDbBlockTableRecord
  2
*D12
340
0
  0
BLOCK_RECORD
  5
22D
330
1
100
AcDbSymbolTableRecord
100
AcDbBlockTableRecord
  2
*D13
340
0
  0
BLOCK_RECORD
  5
23F
330
1
100
AcDbSymbolTableRecord
100
AcDbBlockTableRecord
  2
*D14
340
0
  0
ENDTAB
  0
ENDSEC
  0
SECTION
  2
BLOCKS
  0
BLOCK
  5
20
330
1F
100
AcDbEntity
  8
0
100
AcDbBlockBegin
  2
*Model_Space
 70
     0
 10
0.0
 20
0.0
 30
0.0
  3
*Model_Space
  1

  0
ENDBLK
  5
21
330
1F
100
AcDbEntity
  8
0
100
AcDbBlockEnd
  0
BLOCK
  5
5A
330
58
100
AcDbEntity
 67
     1
  8
0
100
AcDbBlockBegin
  2
*Paper_Space
 70
     0
 10
0.0
 20
0.0
 30
0.0
  3
*Paper_Space
  1

  0
ENDBLK
  5
5B
330
58
100
AcDbEntity
 67
     1
  8
0
100
AcDbBlockEnd
  0
BLOCK
  5
5F
330
5D
100
AcDbEntity
  8
0
100
AcDbBlockBegin
  2
*Paper_Space0
 70
     0
 10
0.0
 20
0.0
 30
0.0
  3
*Paper_Space0
  1

  0
ENDBLK
  5
60
330
5D
100
AcDbEntity
  8
0
100
AcDbBlockEnd
  0
BLOCK
  5
FE
330
F3
100
AcDbEntity
  8
0
 48
0.3
100
AcDbBlockBegin
  2
*D1
 70
     1
 10
0.0
 20
0.0
 30
0.0
  3
*D1
  1

  0
LINE
  5
101
330
F3
100
AcDbEntity
  8
0
 62
     0
 48
0.3
370
    -2
100
AcDbLine
 10
1.075796271553816
 20
2.588385491574184
 30
0.0
 11
-0.5561432193163399
 21
2.588385491574185
 31
0.0
  0
LINE
  5
102
330
F3
100
AcDbEntity
  8
0
 62
     0
 48
0.3
370
    -2
100
AcDbLine
 10
1.700747243384023
 20
1.213385491574179
 30
0.0
 11
-0.5561432193163403
 21
1.21338549157418
 31
0.0
  0
LINE
  5
103
330
F3
100
AcDbEntity
  8
0
 62
     0
 48
0.3
370
    -2
100
AcDbLine
 10
-0.3761432193163399
 20
2.463385491574185
 30
0.0
 11
-0.37614321931634
 21
2.053385491574182
 31
0.0
  0
LINE
  5
104
330
F3
100
AcDbEntity
  8
0
 62
     0
 48
0.3
370
    -2
100
AcDbLine
 10
-0.3761432193163402
 20
1.338385491574179
 30
0.0
 11
-0.3761432193163401
 21
1.748385491574182
 31
0.0
  0
SOLID
  5
105
330
F3
100
AcDbEntity
  8
0
 62
     0
 48
0.3
100
AcDbTrace
 10
-0.3969765526496732
 20
2.463385491574185
 30
0.0
 11
-0.3553098859830066
 21
2.463385491574185
 31
0.0
 12
-0.3761432193163399
 22
2.588385491574185
 32
0.0
 13
-0.3761432193163399
 23
2.588385491574185
 33
0.0
  0
SOLID
  5
106
330
F3
100
AcDbEntity
  8
0
 62
     0
 48
0.3
100
AcDbTrace
 10
-0.3969765526496735
 20
1.338385491574179
 30
0.0
 11
-0.3553098859830069
 21
1.338385491574179
 31
0.0
 12
-0.3761432193163402
 22
1.213385491574179
 32
0.0
 13
-0.3761432193163402
 23
1.213385491574179
 33
0.0
  0
MTEXT
  5
107
330
F3
100
AcDbEntity
  8
0
 62
     0
 48
0.3
100
AcDbMText
 10
-0.3761432193163404
 20
1.900885491574182
 30
0.0
 40
0.125
 41
0.0
 71
     5
 72
     1
  1
\A1;1.375
 73
     1
 44
1.0
  0
POINT
  5
108
330
F3
100
AcDbEntity
  8
Defpoints
 62
     0
 48
0.3
100
AcDbPoint
 10
1.138296271553816
 20
2.588385491574184
 30
0.0
  0
POINT
  5
109
330
F3
100
AcDbEntity
  8
Defpoints
 62
     0
 48
0.3
100
AcDbPoint
 10
1.763247243384023
 20
1.213385491574179
 30
0.0
  0
POINT
  5
10A
330
F3
100
AcDbEntity
  8
Defpoints
 62
     0
 48
0.3
100
AcDbPoint
 10
-0.3761432193163402
 20
1.213385491574179
 30
0.0
  0
ENDBLK
  5
FF
330
F3
100
AcDbEntity
  8
0
 48
0.3
100
AcDbBlockEnd
  0
BLOCK
  5
118
330
10D
100
AcDbEntity
  8
0
 48
0.3
100
AcDbBlockBegin
  2
*D2
 70
     1
 10
0.0
 20
0.0
 30
0.0
  3
*D2
  1

  0
LINE
  5
11B
330
10D
100
AcDbEntity
  8
0
 62
     0
 48
0.3
370
    -2
100
AcDbLine
 10
1.138296271553816
 20
4.275885491574184
 30
0.0
 11
1.138296271553816
 21
5.51118723098272
 31
0.0
  0
LINE
  5
11C
330
10D
100
AcDbEntity
  8
0
 62
     0
 48
0.3
370
    -2
100
AcDbLine
 10
4.888296271553816
 20
4.275885491574184
 30
0.0
 11
4.888296271553816
 21
5.51118723098272
 31
0.0
  0
LINE
  5
11D
330
10D
100
AcDbEntity
  8
0
 62
     0
 48
0.3
370
    -2
100
AcDbLine
 10
1.263296271553816
 20
5.33118723098272
 30
0.0
 11
2.683712938220482
 21
5.33118723098272
 31
0.0
  0
LINE
  5
11E
330
10D
100
AcDbEntity
  8
0
 62
     0
 48
0.3
370
    -2
100
AcDbLine
 10
4.763296271553816
 20
5.33118723098272
 30
0.0
 11
3.342879604887149
 21
5.33118723098272
 31
0.0
  0
SOLID
  5
11F
330
10D
100
AcDbEntity
  8
0
 62
     0
 48
0.3
100
AcDbTrace
 10
1.263296271553816
 20
5.352020564316053
 30
0.0
 11
1.263296271553816
 21
5.310353897649387
 31
0.0
 12
1.138296271553816
 22
5.33118723098272
 32
0.0
 13
1.138296271553816
 23
5.33118723098272
 33
0.0
  0
SOLID
  5
120
330
10D
100
AcDbEntity
  8
0
 62
     0
 48
0.3
100
AcDbTrace
 10
4.763296271553816
 20
5.352020564316053
 30
0.0
 11
4.763296271553816
 21
5.310353897649387
 31
0.0
 12
4.888296271553816
 22
5.33118723098272
 32
0.0
 13
4.888296271553816
 23
5.33118723098272
 33
0.0
  0
MTEXT
  5
121
330
10D
100
AcDbEntity
  8
0
 62
     0
 48
0.3
100
AcDbMText
 10
3.013296271553816
 20
5.33118723098272
 30
0.0
 40
0.125
 41
0.0
 71
     5
 72
     1
  1
\A1;3.750
 73
     1
 44
1.0
  0
POINT
  5
122
330
10D
100
AcDbEntity
  8
Defpoints
 62
     0
 48
0.3
100
AcDbPoint
 10
1.138296271553816
 20
4.213385491574184
 30
0.0
  0
POINT
  5
123
330
10D
100
AcDbEntity
  8
Defpoints
 62
     0
 48
0.3
100
AcDbPoint
 10
4.888296271553816
 20
4.213385491574184
 30
0.0
  0
POINT
  5
124
330
10D
100
AcDbEntity
  8
Defpoints
 62
     0
 48
0.3
100
AcDbPoint
 10
4.888296271553816
 20
5.33118723098272
 30
0.0
  0
ENDBLK
  5
119
330
10D
100
AcDbEntity
  8
0
 48
0.3
100
AcDbBlockEnd
  0
BLOCK
  5
132
330
127
100
AcDbEntity
  8
0
 48
0.3
100
AcDbBlockBegin
  2
*D3
 70
     1
 10
0.0
 20
0.0
 30
0.0
  3
*D3
  1

  0
LINE
  5
135
330
127
100
AcDbEntity
  8
0
 62
     0
 48
0.3
370
    -2
100
AcDbLine
 10
4.013296271553816
 20
3.963385491574184
 30
0.0
 11
4.013296271553816
 21
4.716841284646736
 31
0.0
  0
LINE
  5
136
330
127
100
AcDbEntity
  8
0
 62
     0
 48
0.3
370
    -2
100
AcDbLine
 10
4.888296271553816
 20
4.275885491574184
 30
0.0
 11
4.888296271553816
 21
4.716841284646736
 31
0.0
  0
LINE
  5
137
330
127
100
AcDbEntity
  8
0
 62
     0
 48
0.3
370
    -2
100
AcDbLine
 10
3.888296271553816
 20
4.536841284646737
 30
0.0
 11
3.763296271553816
 21
4.536841284646737
 31
0.0
  0
LINE
  5
138
330
127
100
AcDbEntity
  8
0
 62
     0
 48
0.3
370
    -2
100
AcDbLine
 10
5.013296271553816
 20
4.536841284646737
 30
0.0
 11
5.138296271553816
 21
4.536841284646737
 31
0.0
  0
SOLID
  5
139
330
127
100
AcDbEntity
  8
0
 62
     0
 48
0.3
100
AcDbTrace
 10
3.888296271553816
 20
4.55767461798007
 30
0.0
 11
3.888296271553816
 21
4.516007951313404
 31
0.0
 12
4.013296271553816
 22
4.536841284646737
 32
0.0
 13
4.013296271553816
 23
4.536841284646737
 33
0.0
  0
SOLID
  5
13A
330
127
100
AcDbEntity
  8
0
 62
     0
 48
0.3
100
AcDbTrace
 10
5.013296271553816
 20
4.55767461798007
 30
0.0
 11
5.013296271553816
 21
4.516007951313404
 31
0.0
 12
4.888296271553816
 22
4.536841284646737
 32
0.0
 13
4.888296271553816
 23
4.536841284646737
 33
0.0
  0
MTEXT
  5
13B
330
127
100
AcDbEntity
  8
0
 62
     0
 48
0.3
100
AcDbMText
 10
4.450796271553816
 20
4.536841284646737
 30
0.0
 40
0.125
 41
0.0
 71
     5
 72
     1
  1
\A1;0.875
 73
     1
 44
1.0
  0
POINT
  5
13C
330
127
100
AcDbEntity
  8
Defpoints
 62
     0
 48
0.3
100
AcDbPoint
 10
4.013296271553816
 20
3.900885491574184
 30
0.0
  0
POINT
  5
13D
330
127
100
AcDbEntity
  8
Defpoints
 62
     0
 48
0.3
100
AcDbPoint
 10
4.888296271553816
 20
4.213385491574184
 30
0.0
  0
POINT
  5
13E
330
127
100
AcDbEntity
  8
Defpoints
 62
     0
 48
0.3
100
AcDbPoint
 10
4.888296271553816
 20
4.536841284646737
 30
0.0
  0
ENDBLK
  5
133
330
127
100
AcDbEntity
  8
0
 48
0.3
100
AcDbBlockEnd
  0
BLOCK
  5
14C
330
141
100
AcDbEntity
  8
0
 48
0.3
100
AcDbBlockBegin
  2
*D4
 70
     1
 10
0.0
 20
0.0
 30
0.0
  3
*D4
  1

  0
LINE
  5
14F
330
141
100
AcDbEntity
  8
0
 62
     0
 48
0.3
370
    -2
100
AcDbLine
 10
4.013296271553816
 20
3.963385491574184
 30
0.0
 11
4.013296271553816
 21
4.716841284646736
 31
0.0
  0
LINE
  5
150
330
141
100
AcDbEntity
  8
0
 62
     0
 48
0.3
370
    -2
100
AcDbLine
 10
2.013296271553816
 20
3.963385491574184
 30
0.0
 11
2.013296271553816
 21
4.716841284646736
 31
0.0
  0
LINE
  5
151
330
141
100
AcDbEntity
  8
0
 62
     0
 48
0.3
370
    -2
100
AcDbLine
 10
3.888296271553816
 20
4.536841284646737
 30
0.0
 11
3.322046271553816
 21
4.536841284646737
 31
0.0
  0
LINE
  5
152
330
141
100
AcDbEntity
  8
0
 62
     0
 48
0.3
370
    -2
100
AcDbLine
 10
2.138296271553816
 20
4.536841284646737
 30
0.0
 11
2.704546271553816
 21
4.536841284646737
 31
0.0
  0
SOLID
  5
153
330
141
100
AcDbEntity
  8
0
 62
     0
 48
0.3
100
AcDbTrace
 10
3.888296271553816
 20
4.55767461798007
 30
0.0
 11
3.888296271553816
 21
4.516007951313404
 31
0.0
 12
4.013296271553816
 22
4.536841284646737
 32
0.0
 13
4.013296271553816
 23
4.536841284646737
 33
0.0
  0
SOLID
  5
154
330
141
100
AcDbEntity
  8
0
 62
     0
 48
0.3
100
AcDbTrace
 10
2.138296271553816
 20
4.55767461798007
 30
0.0
 11
2.138296271553816
 21
4.516007951313404
 31
0.0
 12
2.013296271553816
 22
4.536841284646737
 32
0.0
 13
2.013296271553816
 23
4.536841284646737
 33
0.0
  0
MTEXT
  5
155
330
141
100
AcDbEntity
  8
0
 62
     0
 48
0.3
100
AcDbMText
 10
3.013296271553816
 20
4.536841284646737
 30
0.0
 40
0.125
 41
0.0
 71
     5
 72
     1
  1
\A1;2.000
 73
     1
 44
1.0
  0
POINT
  5
156
330
141
100
AcDbEntity
  8
Defpoints
 62
     0
 48
0.3
100
AcDbPoint
 10
4.013296271553816
 20
3.900885491574184
 30
0.0
  0
POINT
  5
157
330
141
100
AcDbEntity
  8
Defpoints
 62
     0
 48
0.3
100
AcDbPoint
 10
2.013296271553816
 20
3.900885491574184
 30
0.0
  0
POINT
  5
158
330
141
100
AcDbEntity
  8
Defpoints
 62
     0
 48
0.3
100
AcDbPoint
 10
2.013296271553816
 20
4.536841284646737
 30
0.0
  0
ENDBLK
  5
14D
330
141
100
AcDbEntity
  8
0
 48
0.3
100
AcDbBlockEnd
  0
BLOCK
  5
167
330
15B
100
AcDbEntity
  8
0
 48
0.3
100
AcDbBlockBegin
  2
*D5
 70
     1
 10
0.0
 20
0.0
 30
0.0
  3
*D5
  1

  0
LINE
  5
16A
330
15B
100
AcDbEntity
  8
0
 62
     0
 48
0.3
370
    -2
100
AcDbLine
 10
1.075796271553816
 20
4.213385491574184
 30
0.0
 11
0.1638028183410254
 21
4.213385491574184
 31
0.0
  0
LINE
  5
16B
330
15B
100
AcDbEntity
  8
0
 62
     0
 48
0.3
370
    -2
100
AcDbLine
 10
1.075796271553816
 20
3.713385491574184
 30
0.0
 11
0.1638028183410253
 21
3.713385491574185
 31
0.0
  0
LINE
  5
16C
330
15B
100
AcDbEntity
  8
0
 62
     0
 48
0.3
370
    -2
100
AcDbLine
 10
0.3438028183410254
 20
4.088385491574184
 30
0.0
 11
0.3438028183410253
 21
3.838385491574184
 31
0.0
  0
LINE
  5
16D
330
15B
100
AcDbEntity
  8
0
 62
     0
 48
0.3
370
    -2
100
AcDbLine
 10
0.3438028183410253
 20
3.713385491574185
 30
0.0
 11
0.3438028183410253
 21
3.588385491574185
 31
0.0
  0
LINE
  5
16E
330
15B
100
AcDbEntity
  8
0
 62
     0
 48
0.3
370
    -2
100
AcDbLine
 10
0.3438028183410253
 20
3.588385491574185
 30
0.0
 11
0.2188028183410253
 21
3.588385491574185
 31
0.0
  0
SOLID
  5
16F
330
15B
100
AcDbEntity
  8
0
 62
     0
 48
0.3
100
AcDbTrace
 10
0.3229694850076921
 20
4.088385491574184
 30
0.0
 11
0.3646361516743587
 21
4.088385491574184
 31
0.0
 12
0.3438028183410254
 22
4.213385491574184
 32
0.0
 13
0.3438028183410254
 23
4.213385491574184
 33
0.0
  0
SOLID
  5
170
330
15B
100
AcDbEntity
  8
0
 62
     0
 48
0.3
100
AcDbTrace
 10
0.322969485007692
 20
3.838385491574184
 30
0.0
 11
0.3646361516743586
 21
3.838385491574184
 31
0.0
 12
0.3438028183410253
 22
3.713385491574185
 32
0.0
 13
0.3438028183410253
 23
3.713385491574185
 33
0.0
  0
MTEXT
  5
171
330
15B
100
AcDbEntity
  8
0
 62
     0
 48
0.3
100
AcDbMText
 10
-0.0899471816589753
 20
3.588385491574185
 30
0.0
 40
0.125
 41
0.0
 71
     5
 72
     1
  1
\A1;0.500
 73
     1
 44
1.0
  0
POINT
  5
172
330
15B
100
AcDbEntity
  8
Defpoints
 62
     0
 48
0.3
100
AcDbPoint
 10
1.138296271553816
 20
4.213385491574184
 30
0.0
  0
POINT
  5
173
330
15B
100
AcDbEntity
  8
Defpoints
 62
     0
 48
0.3
100
AcDbPoint
 10
1.138296271553816
 20
3.713385491574184
 30
0.0
  0
POINT
  5
174
330
15B
100
AcDbEntity
  8
Defpoints
 62
     0
 48
0.3
100
AcDbPoint
 10
0.3438028183410253
 20
3.713385491574185
 30
0.0
  0
ENDBLK
  5
168
330
15B
100
AcDbEntity
  8
0
 48
0.3
100
AcDbBlockEnd
  0
BLOCK
  5
183
330
177
100
AcDbEntity
  8
0
 48
0.3
100
AcDbBlockBegin
  2
*D6
 70
     1
 10
0.0
 20
0.0
 30
0.0
  3
*D6
  1

  0
LINE
  5
186
330
177
100
AcDbEntity
  8
0
 62
     0
 48
0.3
370
    -2
100
AcDbLine
 10
4.075796271553816
 20
3.900885491574184
 30
0.0
 11
5.98423595499252
 21
3.900885491574184
 31
0.0
  0
LINE
  5
187
330
177
100
AcDbEntity
  8
0
 62
     0
 48
0.3
370
    -2
100
AcDbLine
 10
4.950796271553816
 20
3.713385491574184
 30
0.0
 11
5.98423595499252
 21
3.713385491574184
 31
0.0
  0
LINE
  5
188
330
177
100
AcDbEntity
  8
0
 62
     0
 48
0.3
370
    -2
100
AcDbLine
 10
5.80423595499252
 20
4.025885491574184
 30
0.0
 11
5.80423595499252
 21
4.150885491574184
 31
0.0
  0
LINE
  5
189
330
177
100
AcDbEntity
  8
0
 62
     0
 48
0.3
370
    -2
100
AcDbLine
 10
5.80423595499252
 20
3.588385491574184
 30
0.0
 11
5.80423595499252
 21
3.463385491574184
 31
0.0
  0
LINE
  5
18A
330
177
100
AcDbEntity
  8
0
 62
     0
 48
0.3
370
    -2
100
AcDbLine
 10
5.80423595499252
 20
3.463385491574184
 30
0.0
 11
5.67923595499252
 21
3.463385491574184
 31
0.0
  0
SOLID
  5
18B
330
177
100
AcDbEntity
  8
0
 62
     0
 48
0.3
100
AcDbTrace
 10
5.783402621659187
 20
4.025885491574184
 30
0.0
 11
5.825069288325853
 21
4.025885491574184
 31
0.0
 12
5.80423595499252
 22
3.900885491574184
 32
0.0
 13
5.80423595499252
 23
3.900885491574184
 33
0.0
  0
SOLID
  5
18C
330
177
100
AcDbEntity
  8
0
 62
     0
 48
0.3
100
AcDbTrace
 10
5.783402621659187
 20
3.588385491574184
 30
0.0
 11
5.825069288325853
 21
3.588385491574184
 31
0.0
 12
5.80423595499252
 22
3.713385491574184
 32
0.0
 13
5.80423595499252
 23
3.713385491574184
 33
0.0
  0
MTEXT
  5
18D
330
177
100
AcDbEntity
  8
0
 62
     0
 48
0.3
100
AcDbMText
 10
5.37048595499252
 20
3.463385491574185
 30
0.0
 40
0.125
 41
0.0
 71
     5
 72
     1
  1
\A1;0.188
 73
     1
 44
1.0
  0
POINT
  5
18E
330
177
100
AcDbEntity
  8
Defpoints
 62
     0
 48
0.3
100
AcDbPoint
 10
4.013296271553816
 20
3.900885491574184
 30
0.0
  0
POINT
  5
18F
330
177
100
AcDbEntity
  8
Defpoints
 62
     0
 48
0.3
100
AcDbPoint
 10
4.888296271553816
 20
3.713385491574184
 30
0.0
  0
POINT
  5
190
330
177
100
AcDbEntity
  8
Defpoints
 62
     0
 48
0.3
100
AcDbPoint
 10
5.80423595499252
 20
3.713385491574184
 30
0.0
  0
ENDBLK
  5
184
330
177
100
AcDbEntity
  8
0
 48
0.3
100
AcDbBlockEnd
  0
BLOCK
  5
19E
330
193
100
AcDbEntity
  8
0
 48
0.3
100
AcDbBlockBegin
  2
*D7
 70
     1
 10
0.0
 20
0.0
 30
0.0
  3
*D7
  1

  0
LINE
  5
1A1
330
193
100
AcDbEntity
  8
0
 62
     0
 48
0.3
370
    -2
100
AcDbLine
 10
4.263247243384023
 20
1.150885491574179
 30
0.0
 11
4.263247243384023
 21
0.4300745189660658
 31
0.0
  0
LINE
  5
1A2
330
193
100
AcDbEntity
  8
0
 62
     0
 48
0.3
370
    -2
100
AcDbLine
 10
4.888296271553814
 20
2.147885491574184
 30
0.0
 11
4.888296271553814
 21
0.4300745189660658
 31
0.0
  0
LINE
  5
1A3
330
193
100
AcDbEntity
  8
0
 62
     0
 48
0.3
370
    -2
100
AcDbLine
 10
4.388247243384023
 20
0.6100745189660657
 30
0.0
 11
4.763296271553814
 21
0.6100745189660657
 31
0.0
  0
LINE
  5
1A4
330
193
100
AcDbEntity
  8
0
 62
     0
 48
0.3
370
    -2
100
AcDbLine
 10
4.888296271553814
 20
0.6100745189660657
 30
0.0
 11
5.013296271553814
 21
0.6100745189660657
 31
0.0
  0
SOLID
  5
1A5
330
193
100
AcDbEntity
  8
0
 62
     0
 48
0.3
100
AcDbTrace
 10
4.388247243384023
 20
0.6309078522993991
 30
0.0
 11
4.388247243384023
 21
0.5892411856327323
 31
0.0
 12
4.263247243384023
 22
0.6100745189660657
 32
0.0
 13
4.263247243384023
 23
0.6100745189660657
 33
0.0
  0
SOLID
  5
1A6
330
193
100
AcDbEntity
  8
0
 62
     0
 48
0.3
100
AcDbTrace
 10
4.763296271553814
 20
0.6309078522993991
 30
0.0
 11
4.763296271553814
 21
0.5892411856327323
 31
0.0
 12
4.888296271553814
 22
0.6100745189660657
 32
0.0
 13
4.888296271553814
 23
0.6100745189660657
 33
0.0
  0
MTEXT
  5
1A7
330
193
100
AcDbEntity
  8
0
 62
     0
 48
0.3
100
AcDbMText
 10
5.342879604887148
 20
0.6100745189660657
 30
0.0
 40
0.125
 41
0.0
 71
     5
 72
     1
  1
\A1;0.625
 73
     1
 44
1.0
  0
POINT
  5
1A8
330
193
100
AcDbEntity
  8
Defpoints
 62
     0
 48
0.3
100
AcDbPoint
 10
4.263247243384023
 20
1.213385491574179
 30
0.0
  0
POINT
  5
1A9
330
193
100
AcDbEntity
  8
Defpoints
 62
     0
 48
0.3
100
AcDbPoint
 10
4.888296271553814
 20
2.210385491574184
 30
0.0
  0
POINT
  5
1AA
330
193
100
AcDbEntity
  8
Defpoints
 62
     0
 48
0.3
100
AcDbPoint
 10
4.888296271553814
 20
0.6100745189660657
 30
0.0
  0
ENDBLK
  5
19F
330
193
100
AcDbEntity
  8
0
 48
0.3
100
AcDbBlockEnd
  0
BLOCK
  5
1B8
330
1AD
100
AcDbEntity
  8
0
 48
0.3
100
AcDbBlockBegin
  2
*D8
 70
     1
 10
0.0
 20
0.0
 30
0.0
  3
*D8
  1

  0
LINE
  5
1BB
330
1AD
100
AcDbEntity
  8
0
 62
     0
 48
0.3
370
    -2
100
AcDbLine
 10
4.950796271553814
 20
2.588385491574184
 30
0.0
 11
5.924231221210945
 21
2.588385491574184
 31
0.0
  0
LINE
  5
1BC
330
1AD
100
AcDbEntity
  8
0
 62
     0
 48
0.3
370
    -2
100
AcDbLine
 10
4.950796271553814
 20
2.213385491574184
 30
0.0
 11
5.924231221210945
 21
2.213385491574184
 31
0.0
  0
LINE
  5
1BD
330
1AD
100
AcDbEntity
  8
0
 62
     0
 48
0.3
370
    -2
100
AcDbLine
 10
5.744231221210945
 20
2.713385491574184
 30
0.0
 11
5.744231221210945
 21
2.838385491574184
 31
0.0
  0
LINE
  5
1BE
330
1AD
100
AcDbEntity
  8
0
 62
     0
 48
0.3
370
    -2
100
AcDbLine
 10
5.744231221210945
 20
2.088385491574184
 30
0.0
 11
5.744231221210944
 21
1.963385491574184
 31
0.0
  0
SOLID
  5
1BF
330
1AD
100
AcDbEntity
  8
0
 62
     0
 48
0.3
100
AcDbTrace
 10
5.723397887877612
 20
2.713385491574184
 30
0.0
 11
5.765064554544278
 21
2.713385491574184
 31
0.0
 12
5.744231221210945
 22
2.588385491574184
 32
0.0
 13
5.744231221210945
 23
2.588385491574184
 33
0.0
  0
SOLID
  5
1C0
330
1AD
100
AcDbEntity
  8
0
 62
     0
 48
0.3
100
AcDbTrace
 10
5.723397887877612
 20
2.088385491574184
 30
0.0
 11
5.765064554544278
 21
2.088385491574184
 31
0.0
 12
5.744231221210945
 22
2.213385491574184
 32
0.0
 13
5.744231221210945
 23
2.213385491574184
 33
0.0
  0
MTEXT
  5
1C1
330
1AD
100
AcDbEntity
  8
0
 62
     0
 48
0.3
100
AcDbMText
 10
5.744231221210944
 20
2.400885491574185
 30
0.0
 40
0.125
 41
0.0
 71
     5
 72
     1
  1
\A1;0.375
 73
     1
 44
1.0
  0
POINT
  5
1C2
330
1AD
100
AcDbEntity
  8
Defpoints
 62
     0
 48
0.3
100
AcDbPoint
 10
4.888296271553814
 20
2.588385491574184
 30
0.0
  0
POINT
  5
1C3
330
1AD
100
AcDbEntity
  8
Defpoints
 62
     0
 48
0.3
100
AcDbPoint
 10
4.888296271553814
 20
2.213385491574184
 30
0.0
  0
POINT
  5
1C4
330
1AD
100
AcDbEntity
  8
Defpoints
 62
     0
 48
0.3
100
AcDbPoint
 10
5.744231221210945
 20
2.213385491574184
 30
0.0
  0
ENDBLK
  5
1B9
330
1AD
100
AcDbEntity
  8
0
 48
0.3
100
AcDbBlockEnd
  0
BLOCK
  5
1D2
330
1C7
100
AcDbEntity
  8
0
 48
0.3
100
AcDbBlockBegin
  2
*D9
 70
     1
 10
0.0
 20
0.0
 30
0.0
  3
*D9
  1

  0
LINE
  5
1D5
330
1C7
100
AcDbEntity
  8
0
 62
     0
 48
0.3
370
    -2
100
AcDbLine
 10
3.513247243384023
 20
1.150885491574179
 30
0.0
 11
3.513247243384023
 21
0.4450621742991493
 31
0.0
  0
LINE
  5
1D6
330
1C7
100
AcDbEntity
  8
0
 62
     0
 48
0.3
370
    -2
100
AcDbLine
 10
4.263247243384023
 20
1.150885491574179
 30
0.0
 11
4.263247243384023
 21
0.4450621742991493
 31
0.0
  0
LINE
  5
1D7
330
1C7
100
AcDbEntity
  8
0
 62
     0
 48
0.3
370
    -2
100
AcDbLine
 10
3.388247243384023
 20
0.6250621742991492
 30
0.0
 11
3.263247243384023
 21
0.6250621742991492
 31
0.0
  0
LINE
  5
1D8
330
1C7
100
AcDbEntity
  8
0
 62
     0
 48
0.3
370
    -2
100
AcDbLine
 10
4.388247243384023
 20
0.6250621742991492
 30
0.0
 11
4.513247243384023
 21
0.6250621742991492
 31
0.0
  0
SOLID
  5
1D9
330
1C7
100
AcDbEntity
  8
0
 62
     0
 48
0.3
100
AcDbTrace
 10
3.388247243384023
 20
0.6458955076324826
 30
0.0
 11
3.388247243384023
 21
0.6042288409658158
 31
0.0
 12
3.513247243384023
 22
0.6250621742991492
 32
0.0
 13
3.513247243384023
 23
0.6250621742991492
 33
0.0
  0
SOLID
  5
1DA
330
1C7
100
AcDbEntity
  8
0
 62
     0
 48
0.3
100
AcDbTrace
 10
4.388247243384023
 20
0.6458955076324826
 30
0.0
 11
4.388247243384023
 21
0.6042288409658158
 31
0.0
 12
4.263247243384023
 22
0.6250621742991492
 32
0.0
 13
4.263247243384023
 23
0.6250621742991492
 33
0.0
  0
MTEXT
  5
1DB
330
1C7
100
AcDbEntity
  8
0
 62
     0
 48
0.3
100
AcDbMText
 10
3.888247243384023
 20
0.6250621742991492
 30
0.0
 40
0.125
 41
0.0
 71
     5
 72
     1
  1
\A1;0.750
 73
     1
 44
1.0
  0
POINT
  5
1DC
330
1C7
100
AcDbEntity
  8
Defpoints
 62
     0
 48
0.3
100
AcDbPoint
 10
3.513247243384023
 20
1.213385491574179
 30
0.0
  0
POINT
  5
1DD
330
1C7
100
AcDbEntity
  8
Defpoints
 62
     0
 48
0.3
100
AcDbPoint
 10
4.263247243384023
 20
1.213385491574179
 30
0.0
  0
POINT
  5
1DE
330
1C7
100
AcDbEntity
  8
Defpoints
 62
     0
 48
0.3
100
AcDbPoint
 10
4.263247243384023
 20
0.6250621742991492
 30
0.0
  0
ENDBLK
  5
1D3
330
1C7
100
AcDbEntity
  8
0
 48
0.3
100
AcDbBlockEnd
  0
BLOCK
  5
1EC
330
1E1
100
AcDbEntity
  8
0
 48
0.3
100
AcDbBlockBegin
  2
*D10
 70
     1
 10
0.0
 20
0.0
 30
0.0
  3
*D10
  1

  0
LINE
  5
1EF
330
1E1
100
AcDbEntity
  8
0
 62
     0
 48
0.3
370
    -2
100
AcDbLine
 10
3.513247243384023
 20
1.150885491574179
 30
0.0
 11
3.513247243384023
 21
0.4450621742991493
 31
0.0
  0
LINE
  5
1F0
330
1E1
100
AcDbEntity
  8
0
 62
     0
 48
0.3
370
    -2
100
AcDbLine
 10
2.513247243384023
 20
1.150885491574179
 30
0.0
 11
2.513247243384023
 21
0.4450621742991493
 31
0.0
  0
LINE
  5
1F1
330
1E1
100
AcDbEntity
  8
0
 62
     0
 48
0.3
370
    -2
100
AcDbLine
 10
3.638247243384023
 20
0.6250621742991492
 30
0.0
 11
3.763247243384023
 21
0.6250621742991492
 31
0.0
  0
LINE
  5
1F2
330
1E1
100
AcDbEntity
  8
0
 62
     0
 48
0.3
370
    -2
100
AcDbLine
 10
2.388247243384023
 20
0.6250621742991492
 30
0.0
 11
2.263247243384023
 21
0.6250621742991492
 31
0.0
  0
SOLID
  5
1F3
330
1E1
100
AcDbEntity
  8
0
 62
     0
 48
0.3
100
AcDbTrace
 10
3.638247243384023
 20
0.6458955076324826
 30
0.0
 11
3.638247243384023
 21
0.6042288409658158
 31
0.0
 12
3.513247243384023
 22
0.6250621742991492
 32
0.0
 13
3.513247243384023
 23
0.6250621742991492
 33
0.0
  0
SOLID
  5
1F4
330
1E1
100
AcDbEntity
  8
0
 62
     0
 48
0.3
100
AcDbTrace
 10
2.388247243384023
 20
0.6458955076324826
 30
0.0
 11
2.388247243384023
 21
0.6042288409658158
 31
0.0
 12
2.513247243384023
 22
0.6250621742991492
 32
0.0
 13
2.513247243384023
 23
0.6250621742991492
 33
0.0
  0
MTEXT
  5
1F5
330
1E1
100
AcDbEntity
  8
0
 62
     0
 48
0.3
100
AcDbMText
 10
3.013247243384023
 20
0.6250621742991492
 30
0.0
 40
0.125
 41
0.0
 71
     5
 72
     1
  1
\A1;1.000
 73
     1
 44
1.0
  0
POINT
  5
1F6
330
1E1
100
AcDbEntity
  8
Defpoints
 62
     0
 48
0.3
100
AcDbPoint
 10
3.513247243384023
 20
1.213385491574179
 30
0.0
  0
POINT
  5
1F7
330
1E1
100
AcDbEntity
  8
Defpoints
 62
     0
 48
0.3
100
AcDbPoint
 10
2.513247243384023
 20
1.213385491574179
 30
0.0
  0
POINT
  5
1F8
330
1E1
100
AcDbEntity
  8
Defpoints
 62
     0
 48
0.3
100
AcDbPoint
 10
2.513247243384023
 20
0.6250621742991492
 30
0.0
  0
ENDBLK
  5
1ED
330
1E1
100
AcDbEntity
  8
0
 48
0.3
100
AcDbBlockEnd
  0
BLOCK
  5
207
330
1FB
100
AcDbEntity
  8
0
 48
0.3
100
AcDbBlockBegin
  2
*D11
 70
     1
 10
0.0
 20
0.0
 30
0.0
  3
*D11
  1

  0
LINE
  5
20A
330
1FB
100
AcDbEntity
  8
0
 62
     0
 48
0.3
370
    -2
100
AcDbLine
 10
2.450747243384023
 20
1.213385491574179
 30
0.0
 11
0.2538099577433635
 21
1.21338549157418
 31
0.0
  0
LINE
  5
20B
330
1FB
100
AcDbEntity
  8
0
 62
     0
 48
0.3
370
    -2
100
AcDbLine
 10
2.950747243384023
 20
1.713385491574179
 30
0.0
 11
0.2538099577433636
 21
1.71338549157418
 31
0.0
  0
LINE
  5
20C
330
1FB
100
AcDbEntity
  8
0
 62
     0
 48
0.3
370
    -2
100
AcDbLine
 10
0.4338099577433638
 20
1.33838549157418
 30
0.0
 11
0.4338099577433638
 21
1.58838549157418
 31
0.0
  0
LINE
  5
20D
330
1FB
100
AcDbEntity
  8
0
 62
     0
 48
0.3
370
    -2
100
AcDbLine
 10
0.4338099577433639
 20
1.71338549157418
 30
0.0
 11
0.4338099577433639
 21
1.83838549157418
 31
0.0
  0
LINE
  5
20E
330
1FB
100
AcDbEntity
  8
0
 62
     0
 48
0.3
370
    -2
100
AcDbLine
 10
0.4338099577433639
 20
1.83838549157418
 30
0.0
 11
0.5588099577433639
 21
1.83838549157418
 31
0.0
  0
SOLID
  5
20F
330
1FB
100
AcDbEntity
  8
0
 62
     0
 48
0.3
100
AcDbTrace
 10
0.4129766244100305
 20
1.33838549157418
 30
0.0
 11
0.4546432910766971
 21
1.33838549157418
 31
0.0
 12
0.4338099577433638
 22
1.21338549157418
 32
0.0
 13
0.4338099577433638
 23
1.21338549157418
 33
0.0
  0
SOLID
  5
210
330
1FB
100
AcDbEntity
  8
0
 62
     0
 48
0.3
100
AcDbTrace
 10
0.4129766244100305
 20
1.58838549157418
 30
0.0
 11
0.4546432910766971
 21
1.58838549157418
 31
0.0
 12
0.4338099577433639
 22
1.71338549157418
 32
0.0
 13
0.4338099577433639
 23
1.71338549157418
 33
0.0
  0
MTEXT
  5
211
330
1FB
100
AcDbEntity
  8
0
 62
     0
 48
0.3
100
AcDbMText
 10
0.8675599577433635
 20
1.83838549157418
 30
0.0
 40
0.125
 41
0.0
 71
     5
 72
     1
  1
\A1;0.500
 73
     1
 44
1.0
  0
POINT
  5
212
330
1FB
100
AcDbEntity
  8
Defpoints
 62
     0
 48
0.3
100
AcDbPoint
 10
2.513247243384023
 20
1.213385491574179
 30
0.0
  0
POINT
  5
213
330
1FB
100
AcDbEntity
  8
Defpoints
 62
     0
 48
0.3
100
AcDbPoint
 10
3.013247243384023
 20
1.713385491574179
 30
0.0
  0
POINT
  5
214
330
1FB
100
AcDbEntity
  8
Defpoints
 62
     0
 48
0.3
100
AcDbPoint
 10
0.4338099577433639
 20
1.71338549157418
 30
0.0
  0
ENDBLK
  5
208
330
1FB
100
AcDbEntity
  8
0
 48
0.3
100
AcDbBlockEnd
  0
BLOCK
  5
220
330
217
100
AcDbEntity
  8
0
 48
0.3
100
AcDbBlockBegin
  2
*D12
 70
     1
 10
0.0
 20
0.0
 30
0.0
  3
*D12
  1

  0
LINE
  5
223
330
217
100
AcDbEntity
  8
0
 62
     0
 48
0.3
370
    -2
100
AcDbLine
 10
1.553908745295607
 20
3.292865550108711
 30
0.0
 11
1.678908745295607
 21
3.292865550108711
 31
0.0
  0
LINE
  5
224
330
217
100
AcDbEntity
  8
0
 62
     0
 48
0.3
370
    -2
100
AcDbLine
 10
1.678908745295607
 20
3.292865550108711
 30
0.0
 11
1.891377389812554
 21
3.679199257732386
 31
0.0
  0
MTEXT
  5
225
330
217
100
AcDbEntity
  8
0
 62
     0
 48
0.3
100
AcDbMText
 10
1.161825411962274
 20
3.292865550108711
 30
0.0
 40
0.125
 41
0.0
 71
     5
 72
     1
  1
\A1;\U+22050.256
 73
     1
 44
1.0
  0
SOLID
  5
226
330
217
100
AcDbEntity
  8
0
 62
     0
 48
0.3
100
AcDbTrace
 10
1.873122594535727
 20
3.689238691340856
 30
0.0
 11
1.909632185089382
 21
3.669159824123915
 31
0.0
 12
1.951613991463375
 22
3.788728029393353
 32
0.0
 13
1.951613991463375
 23
3.788728029393353
 33
0.0
  0
LINE
  5
227
330
217
100
AcDbEntity
  8
0
 62
     0
 48
0.3
370
    -2
100
AcDbLine
 10
1.923296271553815
 20
3.900885491574183
 30
0.0
 11
2.103296271553815
 21
3.900885491574184
 31
0.0
  0
LINE
  5
228
330
217
100
AcDbEntity
  8
0
 62
     0
 48
0.3
370
    -2
100
AcDbLine
 10
2.013296271553816
 20
3.810885491574184
 30
0.0
 11
2.013296271553815
 21
3.990885491574183
 31
0.0
  0
POINT
  5
229
330
217
100
AcDbEntity
  8
Defpoints
 62
     0
 48
0.3
100
AcDbPoint
 10
1.951613991463375
 20
3.788728029393353
 30
0.0
  0
POINT
  5
22A
330
217
100
AcDbEntity
  8
Defpoints
 62
     0
 48
0.3
100
AcDbPoint
 10
2.074978551644256
 20
4.013042953755014
 30
0.0
  0
ENDBLK
  5
221
330
217
100
AcDbEntity
  8
0
 48
0.3
100
AcDbBlockEnd
  0
BLOCK
  5
234
330
22D
100
AcDbEntity
  8
0
 48
0.3
100
AcDbBlockBegin
  2
*D13
 70
     1
 10
0.0
 20
0.0
 30
0.0
  3
*D13
  1

  0
LINE
  5
237
330
22D
100
AcDbEntity
  8
0
 62
     0
 48
0.3
370
    -2
100
AcDbLine
 10
5.584208600193574
 20
1.29950685660221
 30
0.0
 11
5.459208600193574
 21
1.29950685660221
 31
0.0
  0
LINE
  5
238
330
22D
100
AcDbEntity
  8
0
 62
     0
 48
0.3
370
    -2
100
AcDbLine
 10
5.459208600193574
 20
1.29950685660221
 30
0.0
 11
4.442148025204855
 21
1.81496848290175
 31
0.0
  0
MTEXT
  5
239
330
22D
100
AcDbEntity
  8
0
 62
     0
 48
0.3
100
AcDbMText
 10
5.976291933526907
 20
1.29950685660221
 30
0.0
 40
0.125
 41
0.0
 71
     5
 72
     1
  1
\A1;R0.624
 73
     1
 44
1.0
  0
SOLID
  5
23A
330
22D
100
AcDbEntity
  8
0
 62
     0
 48
0.3
100
AcDbTrace
 10
4.451566152765291
 20
1.833551449592598
 30
0.0
 11
4.432729897644419
 21
1.796385516210903
 31
0.0
 12
4.330650225059772
 22
1.871477248264367
 32
0.0
 13
4.330650225059772
 23
1.871477248264367
 33
0.0
  0
POINT
  5
23B
330
22D
100
AcDbEntity
  8
Defpoints
 62
     0
 48
0.3
100
AcDbPoint
 10
4.330650225059772
 20
1.871477248264367
 30
0.0
  0
POINT
  5
23C
330
22D
100
AcDbEntity
  8
Defpoints
 62
     0
 48
0.3
100
AcDbPoint
 10
4.887247243384027
 20
1.589385491574184
 30
0.0
  0
ENDBLK
  5
235
330
22D
100
AcDbEntity
  8
0
 48
0.3
100
AcDbBlockEnd
  0
BLOCK
  5
248
330
23F
100
AcDbEntity
  8
0
 48
0.3
100
AcDbBlockBegin
  2
*D14
 70
     1
 10
0.0
 20
0.0
 30
0.0
  3
*D14
  1

  0
LINE
  5
24B
330
23F
100
AcDbEntity
  8
0
 62
     0
 48
0.3
370
    -2
100
AcDbLine
 10
2.543987278721282
 20
2.90318640460726
 30
0.0
 11
2.668987278721282
 21
2.90318640460726
 31
0.0
  0
LINE
  5
24C
330
23F
100
AcDbEntity
  8
0
 62
     0
 48
0.3
370
    -2
100
AcDbLine
 10
2.668987278721282
 20
2.90318640460726
 30
0.0
 11
2.839533619773416
 21
2.313759189342554
 31
0.0
  0
MTEXT
  5
24D
330
23F
100
AcDbEntity
  8
0
 62
     0
 48
0.3
100
AcDbMText
 10
2.172737278721282
 20
2.903186404607261
 30
0.0
 40
0.125
 41
0.0
 71
     5
 72
     1
  1
\A1;R0.500
 73
     1
 44
1.0
  0
SOLID
  5
24E
330
23F
100
AcDbEntity
  8
0
 62
     0
 48
0.3
100
AcDbTrace
 10
2.859546076365695
 20
2.319549643462908
 30
0.0
 11
2.819521163181136
 21
2.307968735222201
 31
0.0
 12
2.874276344495535
 22
2.193684449788879
 32
0.0
 13
2.874276344495535
 23
2.193684449788879
 33
0.0
  0
LINE
  5
24F
330
23F
100
AcDbEntity
  8
0
 62
     0
 48
0.3
370
    -2
100
AcDbLine
 10
2.923247243384015
 20
1.713385491574174
 30
0.0
 11
3.103247243384014
 21
1.713385491574174
 31
0.0
  0
LINE
  5
250
330
23F
100
AcDbEntity
  8
0
 62
     0
 48
0.3
370
    -2
100
AcDbLine
 10
3.013247243384014
 20
1.623385491574174
 30
0.0
 11
3.013247243384014
 21
1.803385491574174
 31
0.0
  0
POINT
  5
251
330
23F
100
AcDbEntity
  8
Defpoints
 62
     0
 48
0.3
100
AcDbPoint
 10
2.874276344495535
 20
2.193684449788879
 30
0.0
  0
POINT
  5
252
330
23F
100
AcDbEntity
  8
Defpoints
 62
     0
 48
0.3
100
AcDbPoint
 10
3.013247243384014
 20
1.713385491574174
 30
0.0
  0
ENDBLK
  5
249
330
23F
100
AcDbEntity
  8
0
 48
0.3
100
AcDbBlockEnd
  0
ENDSEC
  0
SECTION
  2
ENTITIES
  0
VIEWPORT
  5
77
330
58
100
AcDbEntity
 67
     1
  8
0
100
AcDbViewport
 10
4.415151957224058
 20
2.203424727642523
 30
0.0
 40
16.91094065704781
 41
7.448866717985345
 68
     1
 69
     1
 12
4.415151957224058
 22
2.203424727642523
 13
0.0
 23
0.0
 14
0.5
 24
0.5
 15
0.5
 25
0.5
 16
0.0
 26
0.0
 36
1.0
 17
0.0
 27
0.0
 37
0.0
 42
50.0
 43
0.0
 44
0.0
 45
7.448866717985345
 50
0.0
 51
0.0
 72
   100
 90
    32800
  1

281
     0
 71
     1
 74
     0
110
0.0
120
0.0
130
0.0
111
1.0
121
0.0
131
0.0
112
0.0
122
1.0
132
0.0
 79
     0
146
0.0
  0
LWPOLYLINE
  5
86
330
58
100
AcDbEntity
 67
     1
  8
0
100
AcDbPolyline
 90
        4
 70
     1
 43
0.0
 10
-1.439262267973589
 20
6.396855050259421
 10
8.966538218833356
 20
6.396855050259421
 10
8.966538218833356
 20
-1.41285528304607
 10
-1.439262267973589
 20
-1.41285528304607
  0
LINE
  5
8A
330
58
100
AcDbEntity
 67
     1
  8
0
100
AcDbLine
 10
8.966538218833356
 20
-1.41285528304607
 30
0.0
 11
8.966538218833356
 21
-0.4128552830460706
 31
0.0
  0
LINE
  5
8B
330
58
100
AcDbEntity
 67
     1
  8
0
100
AcDbLine
 10
8.966538218833356
 20
-0.4128552830460706
 30
0.0
 11
6.466538218833356
 21
-0.4128552830460703
 31
0.0
  0
LINE
  5
8C
330
58
100
AcDbEntity
 67
     1
  8
0
100
AcDbLine
 10
6.466538218833356
 20
-0.4128552830460703
 30
0.0
 11
4.966538218833356
 21
-0.4128552830460701
 31
0.0
  0
LINE
  5
8D
330
58
100
AcDbEntity
 67
     1
  8
0
100
AcDbLine
 10
4.966538218833356
 20
-0.4128552830460701
 30
0.0
 11
4.966538218833356
 21
-1.41285528304607
 31
0.0
  0
LINE
  5
8E
330
58
100
AcDbEntity
 67
     1
  8
0
100
AcDbLine
 10
6.466538218833356
 20
-0.4128552830460703
 30
0.0
 11
6.466538218833356
 21
-1.40425062323316
 31
0.0
  0
MTEXT
  5
8F
330
58
100
AcDbEntity
 67
     1
  8
0
100
AcDbMText
 10
5.02064872125895
 20
-0.5532836662080878
 30
0.0
 40
0.1
 41
1.5
 71
     1
 72
     5
  1
  Tolerances\P.XXXX = +/- .001\P.XXX  = +/- .005\P.XX   = +/- .015\PMat: Aluminum
 73
     1
 44
1.0
  0
MTEXT
  5
AA
330
58
100
AcDbEntity
 67
     1
  8
0
 48
0.3
100
AcDbMText
 10
6.688767870543038
 20
-0.5779304272488833
 30
0.0
 40
0.1
 41
2.5
 71
     1
 72
     5
  1
G0704 Power Drawbar 2\PSide Support\PDaniel E. Kemp\P{\fArial|b0|i0|c0|p32;\H1.625x;©\fMS Shell Dlg|b0|i0|c0|p32;\H0.6538x; 12-08-}2011
 73
     1
 44
1.0
  0
MTEXT
  5
AC
330
58
100
AcDbEntity
 67
     1
  8
0
 48
0.3
100
AcDbMText
 10
-0.8330378939457148
 20
-0.9104262006358538
 30
0.0
 40
0.1625
 41
9.997099999999999
 71
     1
 72
     5
  1
{\fArial|b0|i0|c0|p32;© Daniel E. Kemp 2011}
 73
     1
 44
1.0
  0
ARC
  5
CD
102
{ACAD_REACTORS
330
215
330
253
102
}
330
58
100
AcDbEntity
 67
     1
  8
0
 48
0.3
100
AcDbCircle
 10
3.013247243384023
 20
1.713385491574179
 30
0.0
 40
0.5
100
AcDbArc
 50
0.0
 51
180.0
  0
LINE
  5
CF
102
{ACAD_REACTORS
330
175
330
191
102
}
330
58
100
AcDbEntity
 67
     1
  8
0
 48
0.3
100
AcDbLine
 10
4.888296271553816
 20
3.713385491574184
 30
0.0
 11
1.138296271553816
 21
3.713385491574184
 31
0.0
  0
ARC
  5
D1
330
58
100
AcDbEntity
 67
     1
  8
0
 48
0.3
100
AcDbCircle
 10
1.139247243384023
 20
1.589385491574184
 30
0.0
 40
0.6240000000000001
100
AcDbArc
 50
0.0
 51
90.0
  0
LINE
  5
D2
330
58
100
AcDbEntity
 67
     1
  8
0
 48
0.3
100
AcDbLine
 10
2.513247243384023
 20
1.713385491574179
 30
0.0
 11
2.513247243384023
 21
1.213385491574179
 31
0.0
  0
LINE
  5
D3
330
58
100
AcDbEntity
 67
     1
  8
0
 48
0.3
100
AcDbLine
 10
1.763247243384023
 20
1.589385491574184
 30
0.0
 11
1.763247243384023
 21
1.213385491574179
 31
0.0
  0
LINE
  5
D4
330
58
100
AcDbEntity
 67
     1
  8
0
 48
0.3
100
AcDbLine
 10
1.138296271553816
 20
2.213385491574184
 30
0.0
 11
1.139247243384023
 21
2.213385491574184
 31
0.0
  0
LINE
  5
D5
330
58
100
AcDbEntity
 67
     1
  8
0
 48
0.3
100
AcDbLine
 10
1.138296271553816
 20
2.588385491574184
 30
0.0
 11
1.138296271553816
 21
2.213385491574184
 31
0.0
  0
LINE
  5
D6
330
58
100
AcDbEntity
 67
     1
  8
0
 48
0.3
100
AcDbLine
 10
1.138296271553816
 20
2.210385491574184
 30
0.0
 11
1.139265585164467
 21
2.210385491574185
 31
0.0
  0
CIRCLE
  5
D7
102
{ACAD_REACTORS
330
159
330
22B
102
}
330
58
100
AcDbEntity
 67
     1
  8
0
 48
0.3
100
AcDbCircle
 10
2.013296271553816
 20
3.900885491574184
 30
0.0
 40
0.128
  0
ARC
  5
D8
102
{ACAD_REACTORS
330
23D
102
}
330
58
100
AcDbEntity
 67
     1
  8
0
 48
0.3
100
AcDbCircle
 10
4.887247243384024
 20
1.589385491574184
 30
0.0
 40
0.6240000000000001
100
AcDbArc
 50
90.0
 51
180.0
  0
LINE
  5
D9
330
58
100
AcDbEntity
 67
     1
  8
0
 48
0.3
100
AcDbLine
 10
3.513247243384023
 20
1.713385491574179
 30
0.0
 11
3.513247243384023
 21
1.213385491574179
 31
0.0
  0
LINE
  5
DA
330
58
100
AcDbEntity
 67
     1
  8
0
 48
0.3
100
AcDbLine
 10
4.263247243384023
 20
1.589385491574184
 30
0.0
 11
4.263247243384023
 21
1.213385491574179
 31
0.0
  0
CIRCLE
  5
DB
102
{ACAD_REACTORS
330
13F
330
159
330
191
102
}
330
58
100
AcDbEntity
 67
     1
  8
0
 48
0.3
100
AcDbCircle
 10
4.013296271553816
 20
3.900885491574184
 30
0.0
 40
0.128
  0
LINE
  5
DC
330
58
100
AcDbEntity
 67
     1
  8
0
 48
0.3
100
AcDbLine
 10
4.888296271553814
 20
2.213385491574184
 30
0.0
 11
4.887247243384024
 21
2.213385491574184
 31
0.0
  0
LINE
  5
DD
102
{ACAD_REACTORS
330
1C5
102
}
330
58
100
AcDbEntity
 67
     1
  8
0
 48
0.3
100
AcDbLine
 10
4.888296271553814
 20
2.588385491574184
 30
0.0
 11
4.888296271553814
 21
2.213385491574184
 31
0.0
  0
LINE
  5
DE
102
{ACAD_REACTORS
330
1AB
102
}
330
58
100
AcDbEntity
 67
     1
  8
0
 48
0.3
100
AcDbLine
 10
4.888247243384022
 20
2.210385491574183
 30
0.0
 11
4.888296271553814
 21
2.210385491574184
 31
0.0
  0
LINE
  5
DF
102
{ACAD_REACTORS
330
10B
330
1C5
102
}
330
58
100
AcDbEntity
 67
     1
  8
0
 48
0.3
100
AcDbLine
 10
1.138296271553816
 20
2.588385491574184
 30
0.0
 11
4.888296271553814
 21
2.588385491574184
 31
0.0
  0
LINE
  5
E0
102
{ACAD_REACTORS
330
10B
330
1F9
330
215
102
}
330
58
100
AcDbEntity
 67
     1
  8
0
 48
0.3
100
AcDbLine
 10
1.763247243384023
 20
1.213385491574179
 30
0.0
 11
2.513247243384023
 21
1.213385491574179
 31
0.0
  0
LINE
  5
E1
102
{ACAD_REACTORS
330
1AB
330
1DF
330
1F9
102
}
330
58
100
AcDbEntity
 67
     1
  8
0
 48
0.3
100
AcDbLine
 10
3.513247243384023
 20
1.213385491574179
 30
0.0
 11
4.263247243384023
 21
1.213385491574179
 31
0.0
  0
LINE
  5
E3
330
58
100
AcDbEntity
 67
     1
  8
0
  6
HIDDENX2
 48
0.3
100
AcDbLine
 10
2.141296271553816
 20
2.588385491574184
 30
0.0
 11
2.141296271553815
 21
1.213385491574179
 31
0.0
  0
LINE
  5
E5
330
58
100
AcDbEntity
 67
     1
  8
0
  6
HIDDENX2
 48
0.3
100
AcDbLine
 10
1.885296271553816
 20
2.588385491574184
 30
0.0
 11
1.885296271553815
 21
1.213385491574179
 31
0.0
  0
LINE
  5
E7
330
58
100
AcDbEntity
 67
     1
  8
0
  6
HIDDENX2
 48
0.3
100
AcDbLine
 10
3.885296271553816
 20
2.588385491574184
 30
0.0
 11
3.885296271553815
 21
1.213385491574179
 31
0.0
  0
LINE
  5
E9
330
58
100
AcDbEntity
 67
     1
  8
0
  6
HIDDENX2
 48
0.3
100
AcDbLine
 10
4.141296271553816
 20
2.588385491574184
 30
0.0
 11
4.141296271553816
 21
1.213385491574179
 31
0.0
  0
LINE
  5
EA
330
58
100
AcDbEntity
 67
     1
  8
0
 48
0.3
100
AcDbLine
 10
1.138296271553816
 20
3.713385491574184
 30
0.0
 11
1.138296271553816
 21
4.213385491574184
 31
0.0
  0
LINE
  5
EB
102
{ACAD_REACTORS
330
125
330
13F
330
175
102
}
330
58
100
AcDbEntity
 67
     1
  8
0
 48
0.3
100
AcDbLine
 10
1.138296271553816
 20
4.213385491574184
 30
0.0
 11
4.888296271553816
 21
4.213385491574184
 31
0.0
  0
LINE
  5
EC
330
58
100
AcDbEntity
 67
     1
  8
0
 48
0.3
100
AcDbLine
 10
4.888296271553816
 20
4.213385491574184
 30
0.0
 11
4.888296271553816
 21
3.713385491574184
 31
0.0
  0
LINE
  5
EE
330
58
100
AcDbEntity
 67
     1
  8
0
  6
HIDDENX2
 48
0.3
100
AcDbLine
 10
2.513247243384023
 20
3.713385491574184
 30
0.0
 11
2.513247243384023
 21
4.213385491574184
 31
0.0
  0
LINE
  5
F0
330
58
100
AcDbEntity
 67
     1
  8
0
  6
HIDDENX2
 48
0.3
100
AcDbLine
 10
3.513247243384023
 20
3.713385491574184
 30
0.0
 11
3.513247243384023
 21
4.213385491574184
 31
0.0
  0
DIMENSION
  5
F1
102
{ACAD_XDICTIONARY
360
100
102
}
102
{ACAD_REACTORS
330
10B
102
}
330
58
100
AcDbEntity
 67
     1
  8
0
 48
0.3
100
AcDbDimension
  2
*D1
 10
-0.3761432193163402
 20
1.213385491574179
 30
0.0
 11
-0.3761432193163404
 21
1.900885491574182
 31
0.0
 70
    32
 71
     5
 42
1.375000000000005
  3
Standard
100
AcDbAlignedDimension
 13
1.138296271553816
 23
2.588385491574184
 33
0.0
 14
1.763247243384023
 24
1.213385491574179
 34
0.0
 50
90.0
100
AcDbRotatedDimension
  0
DIMENSION
  5
10C
102
{ACAD_XDICTIONARY
360
11A
102
}
102
{ACAD_REACTORS
330
125
102
}
330
58
100
AcDbEntity
 67
     1
  8
0
 48
0.3
100
AcDbDimension
  2
*D2
 10
4.888296271553816
 20
5.33118723098272
 30
0.0
 11
3.013296271553816
 21
5.33118723098272
 31
0.0
 70
    32
 71
     5
 42
3.75
  3
Standard
100
AcDbAlignedDimension
 13
1.138296271553816
 23
4.213385491574184
 33
0.0
 14
4.888296271553816
 24
4.213385491574184
 34
0.0
100
AcDbRotatedDimension
  0
DIMENSION
  5
126
102
{ACAD_XDICTIONARY
360
134
102
}
102
{ACAD_REACTORS
330
13F
102
}
330
58
100
AcDbEntity
 67
     1
  8
0
 48
0.3
100
AcDbDimension
  2
*D3
 10
4.888296271553816
 20
4.536841284646737
 30
0.0
 11
4.450796271553816
 21
4.536841284646737
 31
0.0
 70
    32
 71
     5
 42
0.875
  3
Standard
100
AcDbAlignedDimension
 13
4.013296271553816
 23
3.900885491574184
 33
0.0
 14
4.888296271553816
 24
4.213385491574184
 34
0.0
100
AcDbRotatedDimension
  0
DIMENSION
  5
140
102
{ACAD_XDICTIONARY
360
14E
102
}
102
{ACAD_REACTORS
330
159
102
}
330
58
100
AcDbEntity
 67
     1
  8
0
 48
0.3
100
AcDbDimension
  2
*D4
 10
2.013296271553816
 20
4.536841284646737
 30
0.0
 11
3.013296271553816
 21
4.536841284646737
 31
0.0
 70
    32
 71
     5
 42
2.0
  3
Standard
100
AcDbAlignedDimension
 13
4.013296271553816
 23
3.900885491574184
 33
0.0
 14
2.013296271553816
 24
3.900885491574184
 34
0.0
100
AcDbRotatedDimension
  0
DIMENSION
  5
15A
102
{ACAD_XDICTIONARY
360
169
102
}
102
{ACAD_REACTORS
330
175
102
}
330
58
100
AcDbEntity
 67
     1
  8
0
 48
0.3
100
AcDbDimension
  2
*D5
 10
0.3438028183410253
 20
3.713385491574185
 30
0.0
 11
-0.0899471816589753
 21
3.588385491574185
 31
0.0
 70
    32
 71
     5
 42
0.4999999999999996
  3
Standard
100
AcDbAlignedDimension
 13
1.138296271553816
 23
4.213385491574184
 33
0.0
 14
1.138296271553816
 24
3.713385491574184
 34
0.0
 50
90.0
100
AcDbRotatedDimension
  0
DIMENSION
  5
176
102
{ACAD_XDICTIONARY
360
185
102
}
102
{ACAD_REACTORS
330
191
102
}
330
58
100
AcDbEntity
 67
     1
  8
0
 48
0.3
100
AcDbDimension
  2
*D6
 10
5.80423595499252
 20
3.713385491574184
 30
0.0
 11
5.37048595499252
 21
3.463385491574185
 31
0.0
 70
    32
 71
     5
 42
0.1875
  3
Standard
100
AcDbAlignedDimension
 13
4.013296271553816
 23
3.900885491574184
 33
0.0
 14
4.888296271553816
 24
3.713385491574184
 34
0.0
 50
90.0
100
AcDbRotatedDimension
  0
DIMENSION
  5
192
102
{ACAD_XDICTIONARY
360
1A0
102
}
102
{ACAD_REACTORS
330
1AB
102
}
330
58
100
AcDbEntity
 67
     1
  8
0
 48
0.3
100
AcDbDimension
  2
*D7
 10
4.888296271553814
 20
0.6100745189660657
 30
0.0
 11
5.342879604887148
 21
0.6100745189660657
 31
0.0
 70
    32
 71
     5
 42
0.6250490281697907
  3
Standard
100
AcDbAlignedDimension
 13
4.263247243384023
 23
1.213385491574179
 33
0.0
 14
4.888296271553814
 24
2.210385491574184
 34
0.0
100
AcDbRotatedDimension
  0
DIMENSION
  5
1AC
102
{ACAD_XDICTIONARY
360
1BA
102
}
102
{ACAD_REACTORS
330
1C5
102
}
330
58
100
AcDbEntity
 67
     1
  8
0
 48
0.3
100
AcDbDimension
  2
*D8
 10
5.744231221210945
 20
2.213385491574184
 30
0.0
 11
5.744231221210944
 21
2.400885491574185
 31
0.0
 70
    32
 71
     5
 42
0.375
  3
Standard
100
AcDbAlignedDimension
 13
4.888296271553814
 23
2.588385491574184
 33
0.0
 14
4.888296271553814
 24
2.213385491574184
 34
0.0
 50
90.0
100
AcDbRotatedDimension
  0
DIMENSION
  5
1C6
102
{ACAD_XDICTIONARY
360
1D4
102
}
102
{ACAD_REACTORS
330
1DF
102
}
330
58
100
AcDbEntity
 67
     1
  8
0
 48
0.3
100
AcDbDimension
  2
*D9
 10
4.263247243384023
 20
0.6250621742991492
 30
0.0
 11
3.888247243384023
 21
0.6250621742991492
 31
0.0
 70
    32
 71
     5
 42
0.75
  3
Standard
100
AcDbAlignedDimension
 13
3.513247243384023
 23
1.213385491574179
 33
0.0
 14
4.263247243384023
 24
1.213385491574179
 34
0.0
100
AcDbRotatedDimension
  0
DIMENSION
  5
1E0
102
{ACAD_XDICTIONARY
360
1EE
102
}
102
{ACAD_REACTORS
330
1F9
102
}
330
58
100
AcDbEntity
 67
     1
  8
0
 48
0.3
100
AcDbDimension
  2
*D10
 10
2.513247243384023
 20
0.6250621742991492
 30
0.0
 11
3.013247243384023
 21
0.6250621742991492
 31
0.0
 70
    32
 71
     5
  3
Standard
100
AcDbAlignedDimension
 13
3.513247243384023
 23
1.213385491574179
 33
0.0
 14
2.513247243384023
 24
1.213385491574179
 34
0.0
100
AcDbRotatedDimension
  0
DIMENSION
  5
1FA
102
{ACAD_XDICTIONARY
360
209
102
}
102
{ACAD_REACTORS
330
215
102
}
330
58
100
AcDbEntity
 67
     1
  8
0
 48
0.3
100
AcDbDimension
  2
*D11
 10
0.4338099577433639
 20
1.71338549157418
 30
0.0
 11
0.8675599577433635
 21
1.83838549157418
 31
0.0
 70
    32
 71
     5
 42
0.5
  3
Standard
100
AcDbAlignedDimension
 13
2.513247243384023
 23
1.213385491574179
 33
0.0
 14
3.013247243384023
 24
1.713385491574179
 34
0.0
 50
90.0
100
AcDbRotatedDimension
  0
DIMENSION
  5
216
102
{ACAD_XDICTIONARY
360
222
102
}
102
{ACAD_REACTORS
330
22B
102
}
330
58
100
AcDbEntity
 67
     1
  8
0
 48
0.3
100
AcDbDimension
  2
*D12
 10
2.074978551644256
 20
4.013042953755014
 30
0.0
 11
1.161825411962274
 21
3.292865550108711
 31
0.0
 70
   163
 71
     5
 42
0.2560000000000002
  3
Standard
100
AcDbDiametricDimension
 15
1.951613991463375
 25
3.788728029393353
 35
0.0
 40
0.0
1001
ACAD
1000
DSTYLE
1002
{
1070
   288
1070
     1
1002
}
  0
DIMENSION
  5
22C
102
{ACAD_XDICTIONARY
360
236
102
}
102
{ACAD_REACTORS
330
23D
102
}
330
58
100
AcDbEntity
 67
     1
  8
0
 48
0.3
100
AcDbDimension
  2
*D13
 10
4.887247243384027
 20
1.589385491574184
 30
0.0
 11
5.459208600193574
 21
1.29950685660221
 31
0.0
 70
   164
 71
     5
 42
0.6240000000000024
  3
Standard
100
AcDbRadialDimension
 15
4.330650225059772
 25
1.871477248264367
 35
0.0
 40
0.0
1001
ACAD
1000
DSTYLE
1002
{
1070
   279
1070
     1
1070
   288
1070
     1
1002
}
  0
DIMENSION
  5
23E
102
{ACAD_XDICTIONARY
360
24A
102
}
102
{ACAD_REACTORS
330
253
102
}
330
58
100
AcDbEntity
 67
     1
  8
0
 48
0.3
100
AcDbDimension
  2
*D14
 10
3.013247243384014
 20
1.713385491574174
 30
0.0
 11
2.172737278721282
 21
2.903186404607261
 31
0.0
 70
   164
 71
     5
 42
0.5000000000000025
  3
Standard
100
AcDbRadialDimension
 15
2.874276344495535
 25
2.193684449788879
 35
0.0
 40
0.0
1001
ACAD
1000
DSTYLE
1002
{
1070
   288
1070
     1
1002
}
  0
ENDSEC
  0
SECTION
  2
OBJECTS
  0
DICTIONARY
  5
C
330
0
100
AcDbDictionary
281
     1
  3
ACAD_GROUP
350
D
  3
ACAD_LAYOUT
350
1A
  3
ACAD_MLINESTYLE
350
17
  3
ACAD_PLOTSETTINGS
350
19
  3
ACAD_PLOTSTYLENAME
350
E
  3
AcDbVariableDictionary
350
66
  0
DICTIONARY
  5
100
330
F1
100
AcDbDictionary
280
     1
281
     1
  3
ACAD_DIMASSOC
360
10B
  0
DICTIONARY
  5
11A
330
10C
100
AcDbDictionary
280
     1
281
     1
  3
ACAD_DIMASSOC
360
125
  0
DICTIONARY
  5
134
330
126
100
AcDbDictionary
280
     1
281
     1
  3
ACAD_DIMASSOC
360
13F
  0
DICTIONARY
  5
14E
330
140
100
AcDbDictionary
280
     1
281
     1
  3
ACAD_DIMASSOC
360
159
  0
DICTIONARY
  5
169
330
15A
100
AcDbDictionary
280
     1
281
     1
  3
ACAD_DIMASSOC
360
175
  0
DICTIONARY
  5
185
330
176
100
AcDbDictionary
280
     1
281
     1
  3
ACAD_DIMASSOC
360
191
  0
DICTIONARY
  5
1A0
330
192
100
AcDbDictionary
280
     1
281
     1
  3
ACAD_DIMASSOC
360
1AB
  0
DICTIONARY
  5
1BA
330
1AC
100
AcDbDictionary
280
     1
281
     1
  3
ACAD_DIMASSOC
360
1C5
  0
DICTIONARY
  5
1D4
330
1C6
100
AcDbDictionary
280
     1
281
     1
  3
ACAD_DIMASSOC
360
1DF
  0
DICTIONARY
  5
1EE
330
1E0
100
AcDbDictionary
280
     1
281
     1
  3
ACAD_DIMASSOC
360
1F9
  0
DICTIONARY
  5
209
330
1FA
100
AcDbDictionary
280
     1
281
     1
  3
ACAD_DIMASSOC
360
215
  0
DICTIONARY
  5
222
330
216
100
AcDbDictionary
280
     1
281
     1
  3
ACAD_DIMASSOC
360
22B
  0
DICTIONARY
  5
236
330
22C
100
AcDbDictionary
280
     1
281
     1
  3
ACAD_DIMASSOC
360
23D
  0
DICTIONARY
  5
24A
330
23E
100
AcDbDictionary
280
     1
281
     1
  3
ACAD_DIMASSOC
360
253
  0
DICTIONARY
  5
D
102
{ACAD_REACTORS
330
C
102
}
330
C
100
AcDbDictionary
281
     1
  0
DICTIONARY
  5
1A
102
{ACAD_REACTORS
330
C
102
}
330
C
100
AcDbDictionary
281
     1
  3
Layout1
350
59
  3
Layout2
350
5E
  3
Model
350
22
  0
DICTIONARY
  5
17
102
{ACAD_REACTORS
330
C
102
}
330
C
100
AcDbDictionary
281
     1
  3
Standard
350
18
  0
DICTIONARY
  5
19
102
{ACAD_REACTORS
330
C
102
}
330
C
100
AcDbDictionary
281
     1
  0
ACDBDICTIONARYWDFLT
  5
E
102
{ACAD_REACTORS
330
C
102
}
330
C
100
AcDbDictionary
281
     1
  3
Normal
350
F
100
AcDbDictionaryWithDefault
340
F
  0
DICTIONARY
  5
66
102
{ACAD_REACTORS
330
C
102
}
330
C
100
AcDbDictionary
281
     1
  3
DIMASSOC
350
67
  3
HIDETEXT
350
6B
  0
DIMASSOC
  5
10B
102
{ACAD_REACTORS
330
100
102
}
330
100
100
AcDbDimAssoc
330
F1
 90
        3
 70
     0
 71
     0
  1
AcDbOsnapPointRef
 72
    13
331
DF
 73
     2
 91
        0
 40
0.0
 10
1.138296271553816
 20
2.588385491574184
 30
0.0
 75
     0
  1
AcDbOsnapPointRef
 72
    13
331
E0
 73
     2
 91
        0
 40
0.0
 10
1.763247243384023
 20
1.213385491574179
 30
0.0
 75
     0
  0
DIMASSOC
  5
125
102
{ACAD_REACTORS
330
11A
102
}
330
11A
100
AcDbDimAssoc
330
10C
 90
        3
 70
     0
 71
     0
  1
AcDbOsnapPointRef
 72
    13
331
EB
 73
     2
 91
        0
 40
0.0
 10
1.138296271553816
 20
4.213385491574184
 30
0.0
 75
     0
  1
AcDbOsnapPointRef
 72
     1
331
EB
 73
     2
 91
        0
 40
1.0
 10
4.888296271553816
 20
4.213385491574184
 30
0.0
 75
     0
  0
DIMASSOC
  5
13F
102
{ACAD_REACTORS
330
134
102
}
330
134
100
AcDbDimAssoc
330
126
 90
        3
 70
     0
 71
     0
  1
AcDbOsnapPointRef
 72
     3
331
DB
 73
     2
 91
        0
 40
0.0
 10
4.013296271553816
 20
3.900885491574184
 30
0.0
 75
     0
  1
AcDbOsnapPointRef
 72
     1
331
EB
 73
     2
 91
        0
 40
1.0
 10
4.888296271553816
 20
4.213385491574184
 30
0.0
 75
     0
  0
DIMASSOC
  5
159
102
{ACAD_REACTORS
330
14E
102
}
330
14E
100
AcDbDimAssoc
330
140
 90
        3
 70
     0
 71
     0
  1
AcDbOsnapPointRef
 72
     3
331
DB
 73
     2
 91
        0
 40
0.0
 10
4.013296271553816
 20
3.900885491574184
 30
0.0
 75
     0
  1
AcDbOsnapPointRef
 72
     3
331
D7
 73
     2
 91
        0
 40
0.0
 10
2.013296271553816
 20
3.900885491574184
 30
0.0
 75
     0
  0
DIMASSOC
  5
175
102
{ACAD_REACTORS
330
169
102
}
330
169
100
AcDbDimAssoc
330
15A
 90
        3
 70
     0
 71
     0
  1
AcDbOsnapPointRef
 72
    13
331
EB
 73
     2
 91
        0
 40
0.0
 10
1.138296271553816
 20
4.213385491574184
 30
0.0
 75
     0
  1
AcDbOsnapPointRef
 72
     1
331
CF
 73
     2
 91
        0
 40
1.0
 10
1.138296271553816
 20
3.713385491574184
 30
0.0
 75
     0
  0
DIMASSOC
  5
191
102
{ACAD_REACTORS
330
185
102
}
330
185
100
AcDbDimAssoc
330
176
 90
        3
 70
     0
 71
     0
  1
AcDbOsnapPointRef
 72
     3
331
DB
 73
     2
 91
        0
 40
0.0
 10
4.013296271553816
 20
3.900885491574184
 30
0.0
 75
     0
  1
AcDbOsnapPointRef
 72
    13
331
CF
 73
     2
 91
        0
 40
0.0
 10
4.888296271553816
 20
3.713385491574184
 30
0.0
 75
     0
  0
DIMASSOC
  5
1AB
102
{ACAD_REACTORS
330
1A0
102
}
330
1A0
100
AcDbDimAssoc
330
192
 90
        3
 70
     0
 71
     0
  1
AcDbOsnapPointRef
 72
     1
331
E1
 73
     2
 91
        0
 40
1.0
 10
4.263247243384023
 20
1.213385491574179
 30
0.0
 75
     0
  1
AcDbOsnapPointRef
 72
     1
331
DE
 73
     2
 91
        0
 40
1.0
 10
4.888296271553814
 20
2.210385491574184
 30
0.0
 75
     0
  0
DIMASSOC
  5
1C5
102
{ACAD_REACTORS
330
1BA
102
}
330
1BA
100
AcDbDimAssoc
330
1AC
 90
        3
 70
     0
 71
     0
  1
AcDbOsnapPointRef
 72
     1
331
DF
 73
     2
 91
        0
 40
1.0
 10
4.888296271553814
 20
2.588385491574184
 30
0.0
 75
     0
  1
AcDbOsnapPointRef
 72
     1
331
DD
 73
     2
 91
        0
 40
1.0
 10
4.888296271553814
 20
2.213385491574184
 30
0.0
 75
     0
  0
DIMASSOC
  5
1DF
102
{ACAD_REACTORS
330
1D4
102
}
330
1D4
100
AcDbDimAssoc
330
1C6
 90
        3
 70
     0
 71
     0
  1
AcDbOsnapPointRef
 72
    13
331
E1
 73
     2
 91
        0
 40
0.0
 10
3.513247243384023
 20
1.213385491574179
 30
0.0
 75
     0
  1
AcDbOsnapPointRef
 72
     1
331
E1
 73
     2
 91
        0
 40
1.0
 10
4.263247243384023
 20
1.213385491574179
 30
0.0
 75
     0
  0
DIMASSOC
  5
1F9
102
{ACAD_REACTORS
330
1EE
102
}
330
1EE
100
AcDbDimAssoc
330
1E0
 90
        3
 70
     0
 71
     0
  1
AcDbOsnapPointRef
 72
    13
331
E1
 73
     2
 91
        0
 40
0.0
 10
3.513247243384023
 20
1.213385491574179
 30
0.0
 75
     0
  1
AcDbOsnapPointRef
 72
     1
331
E0
 73
     2
 91
        0
 40
1.0
 10
2.513247243384023
 20
1.213385491574179
 30
0.0
 75
     0
  0
DIMASSOC
  5
215
102
{ACAD_REACTORS
330
209
102
}
330
209
100
AcDbDimAssoc
330
1FA
 90
        3
 70
     0
 71
     0
  1
AcDbOsnapPointRef
 72
     1
331
E0
 73
     2
 91
        0
 40
1.0
 10
2.513247243384023
 20
1.213385491574179
 30
0.0
 75
     0
  1
AcDbOsnapPointRef
 72
     3
331
CD
 73
     2
 91
        0
 40
0.0
 10
3.013247243384023
 20
1.713385491574179
 30
0.0
 75
     0
  0
DIMASSOC
  5
22B
102
{ACAD_REACTORS
330
222
102
}
330
222
100
AcDbDimAssoc
330
216
 90
        2
 70
     0
 71
     0
  1
AcDbOsnapPointRef
 72
     3
331
D7
 73
     2
 91
        0
 40
0.0
 10
0.0
 20
0.0
 30
0.0
 75
     0
  0
DIMASSOC
  5
23D
102
{ACAD_REACTORS
330
236
102
}
330
236
100
AcDbDimAssoc
330
22C
 90
        2
 70
     0
 71
     0
  1
AcDbOsnapPointRef
 72
     3
331
D8
 73
     2
 91
        0
 40
0.0
 10
0.0
 20
0.0
 30
0.0
 75
     0
  0
DIMASSOC
  5
253
102
{ACAD_REACTORS
330
24A
102
}
330
24A
100
AcDbDimAssoc
330
23E
 90
        2
 70
     0
 71
     0
  1
AcDbOsnapPointRef
 72
     3
331
CD
 73
     2
 91
        0
 40
0.0
 10
0.0
 20
0.0
 30
0.0
 75
     0
  0
LAYOUT
  5
59
102
{ACAD_REACTORS
330
1A
102
}
330
1A
100
AcDbPlotSettings
  1

  2
none_device
  4
Letter_(8.50_x_11.00_Inches)
  6

 40
6.349999904632568
 41
6.349999904632568
 42
6.350006103515625
 43
6.350006103515625
 44
215.8999938964843
 45
279.3999938964843
 46
38.3032
 47
38.15079999999999
 48
0.0
 49
0.0
140
0.0
141
0.0
142
1.0
143
1.0
 70
   688
 72
     0
 73
     1
 74
     5
  7

 75
    16
147
1.0
148
0.0
149
0.0
100
AcDbLayout
  1
Layout1
 70
     1
 71
     1
 10
-1.75200024029589
 20
-1.757999996245376
 11
9.247999519408217
 21
6.741999763458731
 12
0.0
 22
0.0
 32
0.0
 14
-1.439262267973589
 24
-1.41285528304607
 34
0.0
 15
8.966538218833356
 25
6.396855050259421
 35
0.0
146
0.0
 13
0.0
 23
0.0
 33
0.0
 16
1.0
 26
0.0
 36
0.0
 17
0.0
 27
1.0
 37
0.0
 76
     0
330
58
331
77
  0
LAYOUT
  5
5E
102
{ACAD_REACTORS
330
1A
102
}
330
1A
100
AcDbPlotSettings
  1

  2
None
  4

  6

 40
0.0
 41
0.0
 42
0.0
 43
0.0
 44
0.0
 45
0.0
 46
0.0
 47
0.0
 48
0.0
 49
0.0
140
0.0
141
0.0
142
1.0
143
1.0
 70
   688
 72
     0
 73
     0
 74
     5
  7

 75
    16
147
1.0
148
0.0
149
0.0
100
AcDbLayout
  1
Layout2
 70
     1
 71
     2
 10
0.0
 20
0.0
 11
12.0
 21
9.0
 12
0.0
 22
0.0
 32
0.0
 14
0.0
 24
0.0
 34
0.0
 15
0.0
 25
0.0
 35
0.0
146
0.0
 13
0.0
 23
0.0
 33
0.0
 16
1.0
 26
0.0
 36
0.0
 17
0.0
 27
1.0
 37
0.0
 76
     0
330
5D
  0
LAYOUT
  5
22
102
{ACAD_REACTORS
330
1A
102
}
330
1A
100
AcDbPlotSettings
  1

  2
none_device
  4
ANSI_A_(8.50_x_11.00_Inches)
  6

 40
6.349999904632568
 41
19.04999923706054
 42
6.350006103515625
 43
19.04998779296875
 44
215.8999938964843
 45
279.3999938964843
 46
0.0
 47
0.0
 48
0.0
 49
0.0
140
0.0
141
0.0
142
1.0
143
2.584895464708373
 70
 11952
 72
     0
 73
     1
 74
     0
  7

 75
     0
147
0.3868628397755418
148
0.0
149
0.0
100
AcDbLayout
  1
Model
 70
     1
 71
     0
 10
0.0
 20
0.0
 11
12.0
 21
9.0
 12
0.0
 22
0.0
 32
0.0
 14
0.0
 24
0.0
 34
0.0
 15
0.0
 25
0.0
 35
0.0
146
0.0
 13
0.0
 23
0.0
 33
0.0
 16
1.0
 26
0.0
 36
0.0
 17
0.0
 27
1.0
 37
0.0
 76
     0
330
1F
  0
MLINESTYLE
  5
18
102
{ACAD_REACTORS
330
17
102
}
330
17
100
AcDbMlineStyle
  2
STANDARD
 70
     0
  3

 62
   256
 51
90.0
 52
90.0
 71
     2
 49
0.5
 62
   256
  6
BYLAYER
 49
-0.5
 62
   256
  6
BYLAYER
  0
ACDBPLACEHOLDER
  5
F
102
{ACAD_REACTORS
330
E
102
}
330
E
  0
DICTIONARYVAR
  5
67
102
{ACAD_REACTORS
330
66
102
}
330
66
100
DictionaryVariables
280
     0
  1
2
  0
DICTIONARYVAR
  5
6B
102
{ACAD_REACTORS
330
66
102
}
330
66
100
DictionaryVariables
280
     0
  1
1
  0
ENDSEC
  0
EOF
