  0
SECTION
  2
HEADER
  9
$ACADVER
  1
AC1015
  9
$ACADMAINTVER
 70
    13
  9
$DWGCODEPAGE
  3
ANSI_1252
  9
$INSBASE
 10
0.0
 20
0.0
 30
0.0
  9
$EXTMIN
 10
1.000000000000000E+20
 20
1.000000000000000E+20
 30
1.000000000000000E+20
  9
$EXTMAX
 10
-1.000000000000000E+20
 20
-1.000000000000000E+20
 30
-1.000000000000000E+20
  9
$LIMMIN
 10
0.0
 20
0.0
  9
$LIMMAX
 10
12.0
 20
9.0
  9
$ORTHOMODE
 70
     0
  9
$REGENMODE
 70
     1
  9
$FILLMODE
 70
     1
  9
$QTEXTMODE
 70
     0
  9
$MIRRTEXT
 70
     1
  9
$LTSCALE
 40
0.3
  9
$ATTMODE
 70
     1
  9
$TEXTSIZE
 40
0.2
  9
$TRACEWID
 40
0.05
  9
$TEXTSTYLE
  7
Standard
  9
$CLAYER
  8
0
  9
$CELTYPE
  6
ByLayer
  9
$CECOLOR
 62
   256
  9
$CELTSCALE
 40
0.3
  9
$DISPSILH
 70
     0
  9
$DIMSCALE
 40
1.0
  9
$DIMASZ
 40
0.125
  9
$DIMEXO
 40
0.0625
  9
$DIMDLI
 40
0.38
  9
$DIMRND
 40
0.0
  9
$DIMDLE
 40
0.0
  9
$DIMEXE
 40
0.18
  9
$DIMTP
 40
0.0
  9
$DIMTM
 40
0.0
  9
$DIMTXT
 40
0.125
  9
$DIMCEN
 40
0.09
  9
$DIMTSZ
 40
0.0
  9
$DIMTOL
 70
     0
  9
$DIMLIM
 70
     0
  9
$DIMTIH
 70
     1
  9
$DIMTOH
 70
     1
  9
$DIMSE1
 70
     0
  9
$DIMSE2
 70
     0
  9
$DIMTAD
 70
     0
  9
$DIMZIN
 70
     0
  9
$DIMBLK
  1

  9
$DIMASO
 70
     1
  9
$DIMSHO
 70
     1
  9
$DIMPOST
  1

  9
$DIMAPOST
  1

  9
$DIMALT
 70
     0
  9
$DIMALTD
 70
     2
  9
$DIMALTF
 40
25.4
  9
$DIMLFAC
 40
1.0
  9
$DIMTOFL
 70
     0
  9
$DIMTVP
 40
0.0
  9
$DIMTIX
 70
     0
  9
$DIMSOXD
 70
     0
  9
$DIMSAH
 70
     0
  9
$DIMBLK1
  1

  9
$DIMBLK2
  1

  9
$DIMSTYLE
  2
Standard
  9
$DIMCLRD
 70
     0
  9
$DIMCLRE
 70
     0
  9
$DIMCLRT
 70
     0
  9
$DIMTFAC
 40
1.0
  9
$DIMGAP
 40
0.09
  9
$DIMJUST
 70
     0
  9
$DIMSD1
 70
     0
  9
$DIMSD2
 70
     0
  9
$DIMTOLJ
 70
     1
  9
$DIMTZIN
 70
     0
  9
$DIMALTZ
 70
     0
  9
$DIMALTTZ
 70
     0
  9
$DIMUPT
 70
     0
  9
$DIMDEC
 70
     3
  9
$DIMTDEC
 70
     3
  9
$DIMALTU
 70
     2
  9
$DIMALTTD
 70
     2
  9
$DIMTXSTY
  7
Standard
  9
$DIMAUNIT
 70
     0
  9
$DIMADEC
 70
     0
  9
$DIMALTRND
 40
0.0
  9
$DIMAZIN
 70
     0
  9
$DIMDSEP
 70
    46
  9
$DIMATFIT
 70
     3
  9
$DIMFRAC
 70
     0
  9
$DIMLDRBLK
  1

  9
$DIMLUNIT
 70
     2
  9
$DIMLWD
 70
    -2
  9
$DIMLWE
 70
    -2
  9
$DIMTMOVE
 70
     0
  9
$LUNITS
 70
     2
  9
$LUPREC
 70
     4
  9
$SKETCHINC
 40
0.1
  9
$FILLETRAD
 40
0.5
  9
$AUNITS
 70
     0
  9
$AUPREC
 70
     0
  9
$MENU
  1
.
  9
$ELEVATION
 40
0.0
  9
$PELEVATION
 40
0.0
  9
$THICKNESS
 40
0.0
  9
$LIMCHECK
 70
     0
  9
$CHAMFERA
 40
0.5
  9
$CHAMFERB
 40
0.5
  9
$CHAMFERC
 40
1.0
  9
$CHAMFERD
 40
0.0
  9
$SKPOLY
 70
     0
  9
$TDCREATE
 40
2454412.579853507
  9
$TDUCREATE
 40
2454412.788186840
  9
$TDUPDATE
 40
2455925.749318750
  9
$TDUUPDATE
 40
2455925.957652083
  9
$TDINDWG
 40
0.4164624306
  9
$TDUSRTIMER
 40
0.4164624306
  9
$USRTIMER
 70
     1
  9
$ANGBASE
 50
0.0
  9
$ANGDIR
 70
     0
  9
$PDMODE
 70
     0
  9
$PDSIZE
 40
0.0
  9
$PLINEWID
 40
0.0
  9
$SPLFRAME
 70
     0
  9
$SPLINETYPE
 70
     6
  9
$SPLINESEGS
 70
     8
  9
$HANDSEED
  5
288
  9
$SURFTAB1
 70
     6
  9
$SURFTAB2
 70
     6
  9
$SURFTYPE
 70
     6
  9
$SURFU
 70
     6
  9
$SURFV
 70
     6
  9
$UCSBASE
  2

  9
$UCSNAME
  2

  9
$UCSORG
 10
0.0
 20
0.0
 30
0.0
  9
$UCSXDIR
 10
1.0
 20
0.0
 30
0.0
  9
$UCSYDIR
 10
0.0
 20
1.0
 30
0.0
  9
$UCSORTHOREF
  2

  9
$UCSORTHOVIEW
 70
     0
  9
$UCSORGTOP
 10
0.0
 20
0.0
 30
0.0
  9
$UCSORGBOTTOM
 10
0.0
 20
0.0
 30
0.0
  9
$UCSORGLEFT
 10
0.0
 20
0.0
 30
0.0
  9
$UCSORGRIGHT
 10
0.0
 20
0.0
 30
0.0
  9
$UCSORGFRONT
 10
0.0
 20
0.0
 30
0.0
  9
$UCSORGBACK
 10
0.0
 20
0.0
 30
0.0
  9
$PUCSBASE
  2

  9
$PUCSNAME
  2

  9
$PUCSORG
 10
0.0
 20
0.0
 30
0.0
  9
$PUCSXDIR
 10
1.0
 20
0.0
 30
0.0
  9
$PUCSYDIR
 10
0.0
 20
1.0
 30
0.0
  9
$PUCSORTHOREF
  2

  9
$PUCSORTHOVIEW
 70
     0
  9
$PUCSORGTOP
 10
0.0
 20
0.0
 30
0.0
  9
$PUCSORGBOTTOM
 10
0.0
 20
0.0
 30
0.0
  9
$PUCSORGLEFT
 10
0.0
 20
0.0
 30
0.0
  9
$PUCSORGRIGHT
 10
0.0
 20
0.0
 30
0.0
  9
$PUCSORGFRONT
 10
0.0
 20
0.0
 30
0.0
  9
$PUCSORGBACK
 10
0.0
 20
0.0
 30
0.0
  9
$USERI1
 70
     0
  9
$USERI2
 70
     0
  9
$USERI3
 70
     0
  9
$USERI4
 70
     0
  9
$USERI5
 70
     0
  9
$USERR1
 40
0.0
  9
$USERR2
 40
0.0
  9
$USERR3
 40
0.0
  9
$USERR4
 40
0.0
  9
$USERR5
 40
0.0
  9
$WORLDVIEW
 70
     1
  9
$SHADEDGE
 70
     3
  9
$SHADEDIF
 70
    70
  9
$TILEMODE
 70
     0
  9
$MAXACTVP
 70
    64
  9
$PINSBASE
 10
0.0
 20
0.0
 30
0.0
  9
$PLIMCHECK
 70
     0
  9
$PEXTMIN
 10
-1.439262267973589
 20
-1.41285528304607
 30
0.0
  9
$PEXTMAX
 10
8.966538218833356
 20
6.396855050259421
 30
0.0
  9
$PLIMMIN
 10
-1.75200024029589
 20
-1.757999996245376
  9
$PLIMMAX
 10
9.247999519408217
 20
6.741999763458731
  9
$UNITMODE
 70
     0
  9
$VISRETAIN
 70
     1
  9
$PLINEGEN
 70
     0
  9
$PSLTSCALE
 70
     1
  9
$TREEDEPTH
 70
  3020
  9
$CMLSTYLE
  2
Standard
  9
$CMLJUST
 70
     0
  9
$CMLSCALE
 40
1.0
  9
$PROXYGRAPHICS
 70
     1
  9
$MEASUREMENT
 70
     0
  9
$CELWEIGHT
370
    -1
  9
$ENDCAPS
280
     0
  9
$JOINSTYLE
280
     0
  9
$LWDISPLAY
290
     0
  9
$INSUNITS
 70
     1
  9
$HYPERLINKBASE
  1

  9
$STYLESHEET
  1

  9
$XEDIT
290
     1
  9
$CEPSNTYPE
380
     0
  9
$PSTYLEMODE
290
     1
  9
$FINGERPRINTGUID
  2
{FDEAD576-A652-11D2-9A35-0060089B3A3F}
  9
$VERSIONGUID
  2
{AE7CCCB2-3EBB-42FE-82B5-1803841CEEAE}
  9
$EXTNAMES
290
     1
  9
$PSVPSCALE
 40
0.0
  9
$OLESTARTUP
290
     0
  0
ENDSEC
  0
SECTION
  2
CLASSES
  0
CLASS
  1
ACDBDICTIONARYWDFLT
  2
AcDbDictionaryWithDefault
  3
AutoCAD 2000
 90
        0
280
     0
281
     0
  0
CLASS
  1
ACDBPLACEHOLDER
  2
AcDbPlaceHolder
  3
AutoCAD 2000
 90
        0
280
     0
281
     0
  0
CLASS
  1
LAYOUT
  2
AcDbLayout
  3
AutoCAD 2000
 90
        0
280
     0
281
     0
  0
CLASS
  1
DICTIONARYVAR
  2
AcDbDictionaryVar
  3
AutoCAD 2000
 90
        0
280
     0
281
     0
  0
CLASS
  1
DIMASSOC
  2
AcDbDimAssoc
  3
"AcDbDimAssoc|Product Desc:     AcDim ARX App For Dimension|Company:          Autodesk, Inc.|WEB Address:      www.autodesk.com"
 90
        0
280
     0
281
     0
  0
ENDSEC
  0
SECTION
  2
TABLES
  0
TABLE
  2
VPORT
  5
8
330
0
100
AcDbSymbolTable
 70
     1
  0
VPORT
  5
74
330
8
100
AcDbSymbolTableRecord
100
AcDbViewportTableRecord
  2
*Active
 70
     0
 10
0.0
 20
0.0
 11
1.0
 21
1.0
 12
20.48748698095427
 22
9.784138269231398
 13
0.0
 23
0.0
 14
0.5
 24
0.5
 15
0.5
 25
0.5
 16
0.0
 26
0.0
 36
1.0
 17
0.0
 27
0.0
 37
0.0
 40
19.56827653846279
 41
2.093949044585987
 42
50.0
 43
0.0
 44
0.0
 50
0.0
 51
0.0
 71
     0
 72
   100
 73
     1
 74
     3
 75
     0
 76
     0
 77
     0
 78
     0
281
     0
 65
     1
110
0.0
120
0.0
130
0.0
111
1.0
121
0.0
131
0.0
112
0.0
122
1.0
132
0.0
 79
     0
146
0.0
  0
ENDTAB
  0
TABLE
  2
LTYPE
  5
5
330
0
100
AcDbSymbolTable
 70
     3
  0
LTYPE
  5
14
330
5
100
AcDbSymbolTableRecord
100
AcDbLinetypeTableRecord
  2
ByBlock
 70
     0
  3

 72
    65
 73
     0
 40
0.0
  0
LTYPE
  5
15
330
5
100
AcDbSymbolTableRecord
100
AcDbLinetypeTableRecord
  2
ByLayer
 70
     0
  3

 72
    65
 73
     0
 40
0.0
  0
LTYPE
  5
16
330
5
100
AcDbSymbolTableRecord
100
AcDbLinetypeTableRecord
  2
Continuous
 70
     0
  3
Solid line
 72
    65
 73
     0
 40
0.0
  0
LTYPE
  5
92
330
5
100
AcDbSymbolTableRecord
100
AcDbLinetypeTableRecord
  2
HIDDENX2
 70
     0
  3
Hidden (2x) ____ ____ ____ ____ ____ ____ ____
 72
    65
 73
     2
 40
0.75
 49
0.5
 74
     0
 49
-0.25
 74
     0
  0
LTYPE
  5
93
330
5
100
AcDbSymbolTableRecord
100
AcDbLinetypeTableRecord
  2
threads
 70
     0
  3
Zig zag /\/\/\/\/\/\/\/\/\/\/\/\/\/\/\/\/\/\/\/
 72
    65
 73
     4
 40
0.8001000000000001
 49
0.0001
 74
     0
 49
-0.2
 74
     4
 75
   131
340
91
 46
0.2
 50
0.0
 44
-0.2
 45
0.0
 49
-0.4
 74
     4
 75
   131
340
91
 46
0.2
 50
180.0
 44
0.2
 45
0.0
 49
-0.2
 74
     0
  0
ENDTAB
  0
TABLE
  2
LAYER
  5
2
330
0
100
AcDbSymbolTable
 70
     2
  0
LAYER
  5
10
330
2
100
AcDbSymbolTableRecord
100
AcDbLayerTableRecord
  2
0
 70
     0
 62
     7
  6
Continuous
370
    -3
390
F
  0
LAYER
  5
10E
330
2
100
AcDbSymbolTableRecord
100
AcDbLayerTableRecord
  2
Defpoints
 70
     0
 62
     7
  6
Continuous
290
     0
370
    -3
390
F
  0
ENDTAB
  0
TABLE
  2
STYLE
  5
3
330
0
100
AcDbSymbolTable
 70
     2
  0
STYLE
  5
11
330
3
100
AcDbSymbolTableRecord
100
AcDbTextStyleTableRecord
  2
Standard
 70
     0
 40
0.0
 41
1.0
 50
0.0
 71
     0
 42
0.2
  3
txt
  4

  0
STYLE
  5
91
330
3
100
AcDbSymbolTableRecord
100
AcDbTextStyleTableRecord
  2

 70
     1
 40
0.0
 41
1.0
 50
0.0
 71
     0
 42
0.2
  3
ltypeshp.shx
  4

  0
ENDTAB
  0
TABLE
  2
VIEW
  5
6
330
0
100
AcDbSymbolTable
 70
     0
  0
ENDTAB
  0
TABLE
  2
UCS
  5
7
330
0
100
AcDbSymbolTable
 70
     0
  0
ENDTAB
  0
TABLE
  2
APPID
  5
9
330
0
100
AcDbSymbolTable
 70
     1
  0
APPID
  5
12
330
9
100
AcDbSymbolTableRecord
100
AcDbRegAppTableRecord
  2
ACAD
 70
     0
  0
ENDTAB
  0
TABLE
  2
DIMSTYLE
  5
A
330
0
100
AcDbSymbolTable
 70
     1
100
AcDbDimStyleTable
 71
     1
340
27
  0
DIMSTYLE
105
27
102
{ACAD_REACTORS
330
10D
330
124
330
13A
330
150
330
185
330
1C5
330
1DF
330
24E
330
268
102
}
330
A
100
AcDbSymbolTableRecord
100
AcDbDimStyleTableRecord
  2
Standard
 70
     0
 41
0.125
140
0.125
271
     3
272
     3
340
11
  0
ENDTAB
  0
TABLE
  2
BLOCK_RECORD
  5
1
330
0
100
AcDbSymbolTable
 70
    11
  0
BLOCK_RECORD
  5
1F
330
1
100
AcDbSymbolTableRecord
100
AcDbBlockTableRecord
  2
*Model_Space
340
22
  0
BLOCK_RECORD
  5
58
330
1
100
AcDbSymbolTableRecord
100
AcDbBlockTableRecord
  2
*Paper_Space
340
59
  0
BLOCK_RECORD
  5
5D
330
1
100
AcDbSymbolTableRecord
100
AcDbBlockTableRecord
  2
*Paper_Space0
340
5E
  0
BLOCK_RECORD
  5
10F
330
1
100
AcDbSymbolTableRecord
100
AcDbBlockTableRecord
  2
*D1
340
0
  0
BLOCK_RECORD
  5
125
330
1
100
AcDbSymbolTableRecord
100
AcDbBlockTableRecord
  2
*D2
340
0
  0
BLOCK_RECORD
  5
13B
330
1
100
AcDbSymbolTableRecord
100
AcDbBlockTableRecord
  2
*D3
340
0
  0
BLOCK_RECORD
  5
151
330
1
100
AcDbSymbolTableRecord
100
AcDbBlockTableRecord
  2
*D4
340
0
  0
BLOCK_RECORD
  5
186
330
1
100
AcDbSymbolTableRecord
100
AcDbBlockTableRecord
  2
*D5
340
0
  0
BLOCK_RECORD
  5
1C6
330
1
100
AcDbSymbolTableRecord
100
AcDbBlockTableRecord
  2
*D7
340
0
  0
BLOCK_RECORD
  5
1E0
330
1
100
AcDbSymbolTableRecord
100
AcDbBlockTableRecord
  2
*D8
340
0
  0
BLOCK_RECORD
  5
24F
330
1
100
AcDbSymbolTableRecord
100
AcDbBlockTableRecord
  2
*D9
340
0
  0
BLOCK_RECORD
  5
269
330
1
100
AcDbSymbolTableRecord
100
AcDbBlockTableRecord
  2
*D10
340
0
  0
ENDTAB
  0
ENDSEC
  0
SECTION
  2
BLOCKS
  0
BLOCK
  5
20
330
1F
100
AcDbEntity
  8
0
100
AcDbBlockBegin
  2
*Model_Space
 70
     0
 10
0.0
 20
0.0
 30
0.0
  3
*Model_Space
  1

  0
ENDBLK
  5
21
330
1F
100
AcDbEntity
  8
0
100
AcDbBlockEnd
  0
BLOCK
  5
5A
330
58
100
AcDbEntity
 67
     1
  8
0
100
AcDbBlockBegin
  2
*Paper_Space
 70
     0
 10
0.0
 20
0.0
 30
0.0
  3
*Paper_Space
  1

  0
ENDBLK
  5
5B
330
58
100
AcDbEntity
 67
     1
  8
0
100
AcDbBlockEnd
  0
BLOCK
  5
5F
330
5D
100
AcDbEntity
  8
0
100
AcDbBlockBegin
  2
*Paper_Space0
 70
     0
 10
0.0
 20
0.0
 30
0.0
  3
*Paper_Space0
  1

  0
ENDBLK
  5
60
330
5D
100
AcDbEntity
  8
0
100
AcDbBlockEnd
  0
BLOCK
  5
118
330
10F
100
AcDbEntity
  8
0
 48
0.3
100
AcDbBlockBegin
  2
*D1
 70
     1
 10
0.0
 20
0.0
 30
0.0
  3
*D1
  1

  0
LINE
  5
22E
330
10F
100
AcDbEntity
  8
0
 62
     0
 48
0.3
370
    -2
100
AcDbLine
 10
0.0218705047564698
 20
4.297190834492443
 30
0.0
 11
0.1572871714231376
 21
4.297190834492443
 31
0.0
  0
LINE
  5
22F
330
10F
100
AcDbEntity
  8
0
 62
     0
 48
0.3
370
    -2
100
AcDbLine
 10
0.1572871714231376
 20
4.297190834492443
 30
0.0
 11
0.7929132887851667
 21
3.728422352712496
 31
0.0
  0
MTEXT
  5
230
330
10F
100
AcDbEntity
  8
0
 62
     0
 48
0.3
100
AcDbMText
 10
-0.3285461619101975
 20
4.297190834492443
 30
0.0
 40
0.125
 41
0.0
 71
     5
 72
     1
  1
\A1;\U+22051.190
 73
     1
 44
1.0
  0
SOLID
  5
231
330
10F
100
AcDbEntity
  8
0
 62
     0
 48
0.3
100
AcDbTrace
 10
0.8068055317220503
 20
3.743947601952375
 30
0.0
 11
0.7790210458482826
 21
3.712897103472616
 31
0.0
 12
0.8860647842244437
 22
3.645068895091193
 32
0.0
 13
0.8860647842244437
 23
3.645068895091193
 33
0.0
  0
LINE
  5
232
330
10F
100
AcDbEntity
  8
0
 62
     0
 48
0.3
370
    -2
100
AcDbLine
 10
1.239465902515402
 20
3.248306436813789
 30
0.0
 11
1.419465902515401
 21
3.248306436813789
 31
0.0
  0
LINE
  5
233
330
10F
100
AcDbEntity
  8
0
 62
     0
 48
0.3
370
    -2
100
AcDbLine
 10
1.329465902515401
 20
3.15830643681379
 30
0.0
 11
1.329465902515402
 21
3.33830643681379
 31
0.0
  0
POINT
  5
234
330
10F
100
AcDbEntity
  8
Defpoints
 62
     0
 48
0.3
100
AcDbPoint
 10
0.8860647842244437
 20
3.645068895091193
 30
0.0
  0
POINT
  5
235
330
10F
100
AcDbEntity
  8
Defpoints
 62
     0
 48
0.3
100
AcDbPoint
 10
1.77286702080636
 20
2.851543978536387
 30
0.0
  0
ENDBLK
  5
119
330
10F
100
AcDbEntity
  8
0
 48
0.3
100
AcDbBlockEnd
  0
BLOCK
  5
12E
330
125
100
AcDbEntity
  8
0
 48
0.3
100
AcDbBlockBegin
  2
*D2
 70
     1
 10
0.0
 20
0.0
 30
0.0
  3
*D2
  1

  0
LINE
  5
131
330
125
100
AcDbEntity
  8
0
 62
     0
 48
0.3
370
    -2
100
AcDbLine
 10
1.041287813890874
 20
4.533656537700638
 30
0.0
 11
1.166287813890875
 21
4.533656537700638
 31
0.0
  0
LINE
  5
132
330
125
100
AcDbEntity
  8
0
 62
     0
 48
0.3
370
    -2
100
AcDbLine
 10
1.166287813890875
 20
4.533656537700638
 30
0.0
 11
1.250752517131208
 21
3.868329987141806
 31
0.0
  0
MTEXT
  5
133
330
125
100
AcDbEntity
  8
0
 62
     0
 48
0.3
100
AcDbMText
 10
0.6908711472242083
 20
4.533656537700638
 30
0.0
 40
0.125
 41
0.0
 71
     5
 72
     1
  1
\A1;\U+22051.000
 73
     1
 44
1.0
  0
SOLID
  5
134
330
125
100
AcDbEntity
  8
0
 62
     0
 48
0.3
100
AcDbTrace
 10
1.271419968808808
 20
3.870953766654613
 30
0.0
 11
1.230085065453607
 21
3.865706207629
 31
0.0
 12
1.266495194208046
 22
3.744325277076203
 32
0.0
 13
1.266495194208046
 23
3.744325277076203
 33
0.0
  0
LINE
  5
135
330
125
100
AcDbEntity
  8
0
 62
     0
 48
0.3
370
    -2
100
AcDbLine
 10
1.239465902515401
 20
3.248306436813789
 30
0.0
 11
1.419465902515401
 21
3.248306436813789
 31
0.0
  0
LINE
  5
136
330
125
100
AcDbEntity
  8
0
 62
     0
 48
0.3
370
    -2
100
AcDbLine
 10
1.329465902515401
 20
3.15830643681379
 30
0.0
 11
1.329465902515401
 21
3.338306436813789
 31
0.0
  0
POINT
  5
137
330
125
100
AcDbEntity
  8
Defpoints
 62
     0
 48
0.3
100
AcDbPoint
 10
1.266495194208046
 20
3.744325277076203
 30
0.0
  0
POINT
  5
138
330
125
100
AcDbEntity
  8
Defpoints
 62
     0
 48
0.3
100
AcDbPoint
 10
1.392436610822757
 20
2.752287596551374
 30
0.0
  0
ENDBLK
  5
12F
330
125
100
AcDbEntity
  8
0
 48
0.3
100
AcDbBlockEnd
  0
BLOCK
  5
144
330
13B
100
AcDbEntity
  8
0
 48
0.3
100
AcDbBlockBegin
  2
*D3
 70
     1
 10
0.0
 20
0.0
 30
0.0
  3
*D3
  1

  0
LINE
  5
147
330
13B
100
AcDbEntity
  8
0
 62
     0
 48
0.3
370
    -2
100
AcDbLine
 10
1.951498136156047
 20
4.297190834492443
 30
0.0
 11
1.826498136156047
 21
4.297190834492443
 31
0.0
  0
LINE
  5
148
330
13B
100
AcDbEntity
  8
0
 62
     0
 48
0.3
370
    -2
100
AcDbLine
 10
1.826498136156047
 20
4.297190834492443
 30
0.0
 11
1.543576714793775
 21
3.700143310104906
 31
0.0
  0
MTEXT
  5
149
330
13B
100
AcDbEntity
  8
0
 62
     0
 48
0.3
100
AcDbMText
 10
2.333164802822713
 20
4.297190834492443
 30
0.0
 40
0.125
 41
0.0
 71
     5
 72
     1
  1
\A1;\U+22050.750
 73
     1
 44
1.0
  0
SOLID
  5
14A
330
13B
100
AcDbEntity
  8
0
 62
     0
 48
0.3
100
AcDbTrace
 10
1.524750178406645
 20
3.709064593949839
 30
0.0
 11
1.562403251180905
 21
3.691222026259974
 31
0.0
 12
1.490049011724182
 22
3.587184091782126
 32
0.0
 13
1.490049011724182
 23
3.587184091782126
 33
0.0
  0
LINE
  5
14B
330
13B
100
AcDbEntity
  8
0
 62
     0
 48
0.3
370
    -2
100
AcDbLine
 10
1.239465902515401
 20
3.248306436813788
 30
0.0
 11
1.419465902515401
 21
3.248306436813788
 31
0.0
  0
LINE
  5
14C
330
13B
100
AcDbEntity
  8
0
 62
     0
 48
0.3
370
    -2
100
AcDbLine
 10
1.329465902515401
 20
3.158306436813787
 30
0.0
 11
1.329465902515401
 21
3.338306436813788
 31
0.0
  0
POINT
  5
14D
330
13B
100
AcDbEntity
  8
Defpoints
 62
     0
 48
0.3
100
AcDbPoint
 10
1.490049011724182
 20
3.587184091782126
 30
0.0
  0
POINT
  5
14E
330
13B
100
AcDbEntity
  8
Defpoints
 62
     0
 48
0.3
100
AcDbPoint
 10
1.168882793306621
 20
2.909428781845449
 30
0.0
  0
ENDBLK
  5
145
330
13B
100
AcDbEntity
  8
0
 48
0.3
100
AcDbBlockEnd
  0
BLOCK
  5
15A
330
151
100
AcDbEntity
  8
0
 48
0.3
100
AcDbBlockBegin
  2
*D4
 70
     1
 10
0.0
 20
0.0
 30
0.0
  3
*D4
  1

  0
LINE
  5
15D
330
151
100
AcDbEntity
  8
0
 62
     0
 48
0.3
370
    -2
100
AcDbLine
 10
2.026238927355877
 20
3.849150588468906
 30
0.0
 11
1.901238927355877
 21
3.849150588468906
 31
0.0
  0
LINE
  5
15E
330
151
100
AcDbEntity
  8
0
 62
     0
 48
0.3
370
    -2
100
AcDbLine
 10
1.901238927355877
 20
3.849150588468906
 30
0.0
 11
1.570743516607672
 21
3.501851527355771
 31
0.0
  0
MTEXT
  5
15F
330
151
100
AcDbEntity
  8
0
 62
     0
 48
0.3
100
AcDbMText
 10
2.407905594022544
 20
3.849150588468905
 30
0.0
 40
0.125
 41
0.0
 71
     5
 72
     1
  1
\A1;\U+22050.450
 73
     1
 44
1.0
  0
SOLID
  5
160
330
151
100
AcDbEntity
  8
0
 62
     0
 48
0.3
100
AcDbTrace
 10
1.555651546932554
 20
3.516213290099358
 30
0.0
 11
1.58583548628279
 21
3.487489764612183
 31
0.0
 12
1.484572940146147
 22
3.411299709305064
 32
0.0
 13
1.484572940146147
 23
3.411299709305064
 33
0.0
  0
LINE
  5
161
330
151
100
AcDbEntity
  8
0
 62
     0
 48
0.3
370
    -2
100
AcDbLine
 10
1.239465902515401
 20
3.248306436813789
 30
0.0
 11
1.419465902515402
 21
3.24830643681379
 31
0.0
  0
LINE
  5
162
330
151
100
AcDbEntity
  8
0
 62
     0
 48
0.3
370
    -2
100
AcDbLine
 10
1.329465902515402
 20
3.15830643681379
 30
0.0
 11
1.329465902515402
 21
3.338306436813789
 31
0.0
  0
POINT
  5
163
330
151
100
AcDbEntity
  8
Defpoints
 62
     0
 48
0.3
100
AcDbPoint
 10
1.484572940146147
 20
3.411299709305064
 30
0.0
  0
POINT
  5
164
330
151
100
AcDbEntity
  8
Defpoints
 62
     0
 48
0.3
100
AcDbPoint
 10
1.174358864884656
 20
3.085313164322515
 30
0.0
  0
ENDBLK
  5
15B
330
151
100
AcDbEntity
  8
0
 48
0.3
100
AcDbBlockEnd
  0
BLOCK
  5
191
330
186
100
AcDbEntity
  8
0
 48
0.3
100
AcDbBlockBegin
  2
*D5
 70
     1
 10
0.0
 20
0.0
 30
0.0
  3
*D5
  1

  0
LINE
  5
20D
330
186
100
AcDbEntity
  8
0
 62
     0
 48
0.3
370
    -2
100
AcDbLine
 10
3.740939504113407
 20
3.908306436813789
 30
0.0
 11
3.740939504113407
 21
4.986940352442161
 31
0.0
  0
LINE
  5
20E
330
186
100
AcDbEntity
  8
0
 62
     0
 48
0.3
370
    -2
100
AcDbLine
 10
3.990939504113407
 20
3.908306436813789
 30
0.0
 11
3.990939504113407
 21
4.986940352442161
 31
0.0
  0
LINE
  5
20F
330
186
100
AcDbEntity
  8
0
 62
     0
 48
0.3
370
    -2
100
AcDbLine
 10
3.615939504113407
 20
4.806940352442161
 30
0.0
 11
3.490939504113407
 21
4.806940352442161
 31
0.0
  0
LINE
  5
210
330
186
100
AcDbEntity
  8
0
 62
     0
 48
0.3
370
    -2
100
AcDbLine
 10
4.115939504113407
 20
4.806940352442161
 30
0.0
 11
4.240939504113407
 21
4.806940352442161
 31
0.0
  0
SOLID
  5
211
330
186
100
AcDbEntity
  8
0
 62
     0
 48
0.3
100
AcDbTrace
 10
3.615939504113407
 20
4.827773685775494
 30
0.0
 11
3.615939504113407
 21
4.786107019108828
 31
0.0
 12
3.740939504113407
 22
4.806940352442161
 32
0.0
 13
3.740939504113407
 23
4.806940352442161
 33
0.0
  0
SOLID
  5
212
330
186
100
AcDbEntity
  8
0
 62
     0
 48
0.3
100
AcDbTrace
 10
4.115939504113407
 20
4.827773685775494
 30
0.0
 11
4.115939504113407
 21
4.786107019108828
 31
0.0
 12
3.990939504113407
 22
4.806940352442161
 32
0.0
 13
3.990939504113407
 23
4.806940352442161
 33
0.0
  0
MTEXT
  5
213
330
186
100
AcDbEntity
  8
0
 62
     0
 48
0.3
100
AcDbMText
 10
4.560106170780074
 20
4.806940352442161
 30
0.0
 40
0.125
 41
0.0
 71
     5
 72
     1
  1
\A1;0.250
 73
     1
 44
1.0
  0
POINT
  5
214
330
186
100
AcDbEntity
  8
Defpoints
 62
     0
 48
0.3
100
AcDbPoint
 10
3.740939504113407
 20
3.845806436813789
 30
0.0
  0
POINT
  5
215
330
186
100
AcDbEntity
  8
Defpoints
 62
     0
 48
0.3
100
AcDbPoint
 10
3.990939504113407
 20
3.845806436813789
 30
0.0
  0
POINT
  5
216
330
186
100
AcDbEntity
  8
Defpoints
 62
     0
 48
0.3
100
AcDbPoint
 10
3.990939504113407
 20
4.806940352442161
 30
0.0
  0
ENDBLK
  5
192
330
186
100
AcDbEntity
  8
0
 48
0.3
100
AcDbBlockEnd
  0
BLOCK
  5
1D1
330
1C6
100
AcDbEntity
  8
0
 48
0.3
100
AcDbBlockBegin
  2
*D7
 70
     1
 10
0.0
 20
0.0
 30
0.0
  3
*D7
  1

  0
LINE
  5
240
330
1C6
100
AcDbEntity
  8
0
 62
     0
 48
0.3
370
    -2
100
AcDbLine
 10
3.740939504113407
 20
2.588306436813789
 30
0.0
 11
3.740939504113407
 21
1.802799152729782
 31
0.0
  0
LINE
  5
241
330
1C6
100
AcDbEntity
  8
0
 62
     0
 48
0.3
370
    -2
100
AcDbLine
 10
4.940939504113408
 20
2.685806436813788
 30
0.0
 11
4.940939504113408
 21
1.802799152729782
 31
0.0
  0
LINE
  5
242
330
1C6
100
AcDbEntity
  8
0
 62
     0
 48
0.3
370
    -2
100
AcDbLine
 10
3.865939504113407
 20
1.982799152729782
 30
0.0
 11
4.042606170780074
 21
1.982799152729782
 31
0.0
  0
LINE
  5
243
330
1C6
100
AcDbEntity
  8
0
 62
     0
 48
0.3
370
    -2
100
AcDbLine
 10
4.815939504113408
 20
1.982799152729782
 30
0.0
 11
4.63927283744674
 21
1.982799152729782
 31
0.0
  0
SOLID
  5
244
330
1C6
100
AcDbEntity
  8
0
 62
     0
 48
0.3
100
AcDbTrace
 10
3.865939504113407
 20
2.003632486063116
 30
0.0
 11
3.865939504113407
 21
1.961965819396449
 31
0.0
 12
3.740939504113407
 22
1.982799152729782
 32
0.0
 13
3.740939504113407
 23
1.982799152729782
 33
0.0
  0
SOLID
  5
245
330
1C6
100
AcDbEntity
  8
0
 62
     0
 48
0.3
100
AcDbTrace
 10
4.815939504113408
 20
2.003632486063116
 30
0.0
 11
4.815939504113408
 21
1.961965819396449
 31
0.0
 12
4.940939504113408
 22
1.982799152729782
 32
0.0
 13
4.940939504113408
 23
1.982799152729782
 33
0.0
  0
MTEXT
  5
246
330
1C6
100
AcDbEntity
  8
0
 62
     0
 48
0.3
100
AcDbMText
 10
4.340939504113407
 20
1.982799152729782
 30
0.0
 40
0.125
 41
0.0
 71
     5
 72
     1
  1
\A1;1.200
 73
     1
 44
1.0
  0
POINT
  5
247
330
1C6
100
AcDbEntity
  8
Defpoints
 62
     0
 48
0.3
100
AcDbPoint
 10
3.740939504113407
 20
2.650806436813789
 30
0.0
  0
POINT
  5
248
330
1C6
100
AcDbEntity
  8
Defpoints
 62
     0
 48
0.3
100
AcDbPoint
 10
4.940939504113408
 20
2.748306436813788
 30
0.0
  0
POINT
  5
249
330
1C6
100
AcDbEntity
  8
Defpoints
 62
     0
 48
0.3
100
AcDbPoint
 10
4.940939504113408
 20
1.982799152729782
 30
0.0
  0
ENDBLK
  5
1D2
330
1C6
100
AcDbEntity
  8
0
 48
0.3
100
AcDbBlockEnd
  0
BLOCK
  5
1EB
330
1E0
100
AcDbEntity
  8
0
 48
0.3
100
AcDbBlockBegin
  2
*D8
 70
     1
 10
0.0
 20
0.0
 30
0.0
  3
*D8
  1

  0
LINE
  5
236
330
1E0
100
AcDbEntity
  8
0
 62
     0
 48
0.3
370
    -2
100
AcDbLine
 10
4.690939504113408
 20
3.710806436813788
 30
0.0
 11
4.690939504113408
 21
4.137566925202627
 31
0.0
  0
LINE
  5
237
330
1E0
100
AcDbEntity
  8
0
 62
     0
 48
0.3
370
    -2
100
AcDbLine
 10
4.940939504113408
 20
3.710806436813788
 30
0.0
 11
4.940939504113408
 21
4.137566925202627
 31
0.0
  0
LINE
  5
238
330
1E0
100
AcDbEntity
  8
0
 62
     0
 48
0.3
370
    -2
100
AcDbLine
 10
4.565939504113408
 20
3.957566925202627
 30
0.0
 11
4.440939504113408
 21
3.957566925202627
 31
0.0
  0
LINE
  5
239
330
1E0
100
AcDbEntity
  8
0
 62
     0
 48
0.3
370
    -2
100
AcDbLine
 10
5.065939504113408
 20
3.957566925202627
 30
0.0
 11
5.190939504113408
 21
3.957566925202627
 31
0.0
  0
SOLID
  5
23A
330
1E0
100
AcDbEntity
  8
0
 62
     0
 48
0.3
100
AcDbTrace
 10
4.565939504113408
 20
3.97840025853596
 30
0.0
 11
4.565939504113408
 21
3.936733591869293
 31
0.0
 12
4.690939504113408
 22
3.957566925202627
 32
0.0
 13
4.690939504113408
 23
3.957566925202627
 33
0.0
  0
SOLID
  5
23B
330
1E0
100
AcDbEntity
  8
0
 62
     0
 48
0.3
100
AcDbTrace
 10
5.065939504113408
 20
3.97840025853596
 30
0.0
 11
5.065939504113408
 21
3.936733591869293
 31
0.0
 12
4.940939504113408
 22
3.957566925202627
 32
0.0
 13
4.940939504113408
 23
3.957566925202627
 33
0.0
  0
MTEXT
  5
23C
330
1E0
100
AcDbEntity
  8
0
 62
     0
 48
0.3
100
AcDbMText
 10
5.510106170780074
 20
3.957566925202627
 30
0.0
 40
0.125
 41
0.0
 71
     5
 72
     1
  1
\A1;0.250
 73
     1
 44
1.0
  0
POINT
  5
23D
330
1E0
100
AcDbEntity
  8
Defpoints
 62
     0
 48
0.3
100
AcDbPoint
 10
4.690939504113408
 20
3.648306436813788
 30
0.0
  0
POINT
  5
23E
330
1E0
100
AcDbEntity
  8
Defpoints
 62
     0
 48
0.3
100
AcDbPoint
 10
4.940939504113408
 20
3.648306436813788
 30
0.0
  0
POINT
  5
23F
330
1E0
100
AcDbEntity
  8
Defpoints
 62
     0
 48
0.3
100
AcDbPoint
 10
4.940939504113408
 20
3.957566925202627
 30
0.0
  0
ENDBLK
  5
1EC
330
1E0
100
AcDbEntity
  8
0
 48
0.3
100
AcDbBlockEnd
  0
BLOCK
  5
25A
330
24F
100
AcDbEntity
  8
0
 48
0.3
100
AcDbBlockBegin
  2
*D9
 70
     1
 10
0.0
 20
0.0
 30
0.0
  3
*D9
  1

  0
LINE
  5
25D
330
24F
100
AcDbEntity
  8
0
 62
     0
 48
0.3
370
    -2
100
AcDbLine
 10
3.990939504113407
 20
3.908306436813789
 30
0.0
 11
3.990939504113407
 21
4.54864637865764
 31
0.0
  0
LINE
  5
25E
330
24F
100
AcDbEntity
  8
0
 62
     0
 48
0.3
370
    -2
100
AcDbLine
 10
4.440939504113408
 20
3.810806436813786
 30
0.0
 11
4.440939504113408
 21
4.54864637865764
 31
0.0
  0
LINE
  5
25F
330
24F
100
AcDbEntity
  8
0
 62
     0
 48
0.3
370
    -2
100
AcDbLine
 10
4.115939504113407
 20
4.36864637865764
 30
0.0
 11
4.315939504113408
 21
4.36864637865764
 31
0.0
  0
LINE
  5
260
330
24F
100
AcDbEntity
  8
0
 62
     0
 48
0.3
370
    -2
100
AcDbLine
 10
4.440939504113408
 20
4.36864637865764
 30
0.0
 11
4.565939504113408
 21
4.36864637865764
 31
0.0
  0
SOLID
  5
261
330
24F
100
AcDbEntity
  8
0
 62
     0
 48
0.3
100
AcDbTrace
 10
4.115939504113407
 20
4.389479711990973
 30
0.0
 11
4.115939504113407
 21
4.347813045324307
 31
0.0
 12
3.990939504113407
 22
4.36864637865764
 32
0.0
 13
3.990939504113407
 23
4.36864637865764
 33
0.0
  0
SOLID
  5
262
330
24F
100
AcDbEntity
  8
0
 62
     0
 48
0.3
100
AcDbTrace
 10
4.315939504113408
 20
4.389479711990973
 30
0.0
 11
4.315939504113408
 21
4.347813045324307
 31
0.0
 12
4.440939504113408
 22
4.36864637865764
 32
0.0
 13
4.440939504113408
 23
4.36864637865764
 33
0.0
  0
MTEXT
  5
263
330
24F
100
AcDbEntity
  8
0
 62
     0
 48
0.3
100
AcDbMText
 10
4.885106170780074
 20
4.36864637865764
 30
0.0
 40
0.125
 41
0.0
 71
     5
 72
     1
  1
\A1;0.450
 73
     1
 44
1.0
  0
POINT
  5
264
330
24F
100
AcDbEntity
  8
Defpoints
 62
     0
 48
0.3
100
AcDbPoint
 10
3.990939504113407
 20
3.845806436813789
 30
0.0
  0
POINT
  5
265
330
24F
100
AcDbEntity
  8
Defpoints
 62
     0
 48
0.3
100
AcDbPoint
 10
4.440939504113408
 20
3.748306436813786
 30
0.0
  0
POINT
  5
266
330
24F
100
AcDbEntity
  8
Defpoints
 62
     0
 48
0.3
100
AcDbPoint
 10
4.440939504113408
 20
4.36864637865764
 30
0.0
  0
ENDBLK
  5
25B
330
24F
100
AcDbEntity
  8
0
 48
0.3
100
AcDbBlockEnd
  0
BLOCK
  5
274
330
269
100
AcDbEntity
  8
0
 48
0.3
100
AcDbBlockBegin
  2
*D10
 70
     1
 10
0.0
 20
0.0
 30
0.0
  3
*D10
  1

  0
LINE
  5
277
330
269
100
AcDbEntity
  8
0
 62
     0
 48
0.3
370
    -2
100
AcDbLine
 10
4.440939504113408
 20
2.685806436813788
 30
0.0
 11
4.440939504113408
 21
2.251862711560107
 31
0.0
  0
LINE
  5
278
330
269
100
AcDbEntity
  8
0
 62
     0
 48
0.3
370
    -2
100
AcDbLine
 10
4.940939504113408
 20
2.685806436813788
 30
0.0
 11
4.940939504113408
 21
2.251862711560107
 31
0.0
  0
LINE
  5
279
330
269
100
AcDbEntity
  8
0
 62
     0
 48
0.3
370
    -2
100
AcDbLine
 10
4.565939504113408
 20
2.431862711560107
 30
0.0
 11
4.815939504113408
 21
2.431862711560107
 31
0.0
  0
LINE
  5
27A
330
269
100
AcDbEntity
  8
0
 62
     0
 48
0.3
370
    -2
100
AcDbLine
 10
4.940939504113408
 20
2.431862711560107
 30
0.0
 11
5.065939504113408
 21
2.431862711560107
 31
0.0
  0
SOLID
  5
27B
330
269
100
AcDbEntity
  8
0
 62
     0
 48
0.3
100
AcDbTrace
 10
4.565939504113408
 20
2.45269604489344
 30
0.0
 11
4.565939504113408
 21
2.411029378226773
 31
0.0
 12
4.440939504113408
 22
2.431862711560107
 32
0.0
 13
4.440939504113408
 23
2.431862711560107
 33
0.0
  0
SOLID
  5
27C
330
269
100
AcDbEntity
  8
0
 62
     0
 48
0.3
100
AcDbTrace
 10
4.815939504113408
 20
2.45269604489344
 30
0.0
 11
4.815939504113408
 21
2.411029378226773
 31
0.0
 12
4.940939504113408
 22
2.431862711560107
 32
0.0
 13
4.940939504113408
 23
2.431862711560107
 33
0.0
  0
MTEXT
  5
27D
330
269
100
AcDbEntity
  8
0
 62
     0
 48
0.3
100
AcDbMText
 10
5.374689504113407
 20
2.431862711560107
 30
0.0
 40
0.125
 41
0.0
 71
     5
 72
     1
  1
\A1;0.500
 73
     1
 44
1.0
  0
POINT
  5
27E
330
269
100
AcDbEntity
  8
Defpoints
 62
     0
 48
0.3
100
AcDbPoint
 10
4.440939504113408
 20
2.748306436813788
 30
0.0
  0
POINT
  5
27F
330
269
100
AcDbEntity
  8
Defpoints
 62
     0
 48
0.3
100
AcDbPoint
 10
4.940939504113408
 20
2.748306436813788
 30
0.0
  0
POINT
  5
280
330
269
100
AcDbEntity
  8
Defpoints
 62
     0
 48
0.3
100
AcDbPoint
 10
4.940939504113408
 20
2.431862711560107
 30
0.0
  0
ENDBLK
  5
275
330
269
100
AcDbEntity
  8
0
 48
0.3
100
AcDbBlockEnd
  0
ENDSEC
  0
SECTION
  2
ENTITIES
  0
VIEWPORT
  5
77
330
58
100
AcDbEntity
 67
     1
  8
0
100
AcDbViewport
 10
3.734613205804
 20
2.399880362352377
 30
0.0
 40
18.68387477060393
 41
8.229801982289828
 68
     1
 69
     1
 12
3.734613205804
 22
2.399880362352377
 13
0.0
 23
0.0
 14
0.5
 24
0.5
 15
0.5
 25
0.5
 16
0.0
 26
0.0
 36
1.0
 17
0.0
 27
0.0
 37
0.0
 42
50.0
 43
0.0
 44
0.0
 45
8.229801982289828
 50
0.0
 51
0.0
 72
   100
 90
    32800
  1

281
     0
 71
     1
 74
     0
110
0.0
120
0.0
130
0.0
111
1.0
121
0.0
131
0.0
112
0.0
122
1.0
132
0.0
 79
     0
146
0.0
  0
LWPOLYLINE
  5
86
330
58
100
AcDbEntity
 67
     1
  8
0
100
AcDbPolyline
 90
        4
 70
     1
 43
0.0
 10
-1.439262267973589
 20
6.396855050259421
 10
8.966538218833356
 20
6.396855050259421
 10
8.966538218833356
 20
-1.41285528304607
 10
-1.439262267973589
 20
-1.41285528304607
  0
LINE
  5
8A
330
58
100
AcDbEntity
 67
     1
  8
0
100
AcDbLine
 10
8.966538218833356
 20
-1.41285528304607
 30
0.0
 11
8.966538218833356
 21
-0.4128552830460706
 31
0.0
  0
LINE
  5
8B
330
58
100
AcDbEntity
 67
     1
  8
0
100
AcDbLine
 10
8.966538218833356
 20
-0.4128552830460706
 30
0.0
 11
6.466538218833356
 21
-0.4128552830460703
 31
0.0
  0
LINE
  5
8C
330
58
100
AcDbEntity
 67
     1
  8
0
100
AcDbLine
 10
6.466538218833356
 20
-0.4128552830460703
 30
0.0
 11
4.966538218833356
 21
-0.4128552830460701
 31
0.0
  0
LINE
  5
8D
330
58
100
AcDbEntity
 67
     1
  8
0
100
AcDbLine
 10
4.966538218833356
 20
-0.4128552830460701
 30
0.0
 11
4.966538218833356
 21
-1.41285528304607
 31
0.0
  0
LINE
  5
8E
330
58
100
AcDbEntity
 67
     1
  8
0
100
AcDbLine
 10
6.466538218833356
 20
-0.4128552830460703
 30
0.0
 11
6.466538218833356
 21
-1.40425062323316
 31
0.0
  0
MTEXT
  5
8F
330
58
100
AcDbEntity
 67
     1
  8
0
100
AcDbMText
 10
5.02064872125895
 20
-0.5532836662080878
 30
0.0
 40
0.1
 41
1.5
 71
     1
 72
     5
  1
  Tolerances\P.XXXX = +/- .001\P.XXX  = +/- .005\P.XX   = +/- .015\PMat: Steel
 73
     1
 44
1.0
  0
MTEXT
  5
AA
330
58
100
AcDbEntity
 67
     1
  8
0
 48
0.3
100
AcDbMText
 10
6.688767870543038
 20
-0.5779304272488833
 30
0.0
 40
0.1
 41
2.5
 71
     1
 72
     5
  1
G0704 Power Drawbar 2\PSpindle Tophat\PDaniel E. Kemp\P{\fArial|b0|i0|c0|p32;\H1.625x;©\fMS Shell Dlg|b0|i0|c0|p32;\H0.6538x; 12-08-}2011
 73
     1
 44
1.0
  0
MTEXT
  5
AC
330
58
100
AcDbEntity
 67
     1
  8
0
 48
0.3
100
AcDbMText
 10
-0.8330378939457148
 20
-0.9104262006358538
 30
0.0
 40
0.1625
 41
9.997099999999999
 71
     1
 72
     5
  1
{\fArial|b0|i0|c0|p32;© Daniel E. Kemp 2011}
 73
     1
 44
1.0
  0
LINE
  5
D8
102
{ACAD_REACTORS
330
1F8
102
}
330
58
100
AcDbEntity
 67
     1
  8
0
  6
threads
 48
0.3
100
AcDbLine
 10
4.690939504113408
 20
3.648306436813788
 30
0.0
 11
4.940939504113408
 21
3.648306436813788
 31
0.0
  0
LINE
  5
DA
330
58
100
AcDbEntity
 67
     1
  8
0
  6
threads
 48
0.3
100
AcDbLine
 10
4.690939504113408
 20
2.848306436813787
 30
0.0
 11
4.940939504113408
 21
2.848306436813787
 31
0.0
  0
LINE
  5
DC
330
58
100
AcDbEntity
 67
     1
  8
0
 48
0.3
100
AcDbLine
 10
4.940939504113408
 20
2.748306436813788
 30
0.0
 11
4.940939504113408
 21
3.748306436813788
 31
0.0
  0
LINE
  5
E3
330
58
100
AcDbEntity
 67
     1
  8
0
 48
0.3
100
AcDbLine
 10
4.690939504113408
 20
2.848306436813787
 30
0.0
 11
4.690939504113408
 21
3.648306436813788
 31
0.0
  0
CIRCLE
  5
F6
102
{ACAD_REACTORS
330
123
102
}
330
58
100
AcDbEntity
 67
     1
  8
0
 48
0.3
100
AcDbCircle
 10
1.329465902515401
 20
3.248306436813789
 30
0.0
 40
0.595
  0
LINE
  5
F9
102
{ACAD_REACTORS
330
267
102
}
330
58
100
AcDbEntity
 67
     1
  8
0
 48
0.3
100
AcDbLine
 10
3.740939504113407
 20
3.845806436813789
 30
0.0
 11
3.990939504113407
 21
3.845806436813789
 31
0.0
  0
LINE
  5
FB
330
58
100
AcDbEntity
 67
     1
  8
0
 48
0.3
100
AcDbLine
 10
3.740939504113407
 20
2.650806436813789
 30
0.0
 11
3.990939504113407
 21
2.650806436813789
 31
0.0
  0
CIRCLE
  5
FC
102
{ACAD_REACTORS
330
165
102
}
330
58
100
AcDbEntity
 67
     1
  8
0
 48
0.3
100
AcDbCircle
 10
1.329465902515401
 20
3.248306436813789
 30
0.0
 40
0.225
  0
CIRCLE
  5
FD
102
{ACAD_REACTORS
330
139
102
}
330
58
100
AcDbEntity
 67
     1
  8
0
 48
0.3
100
AcDbCircle
 10
1.329465902515401
 20
3.248306436813789
 30
0.0
 40
0.5
  0
LINE
  5
FF
330
58
100
AcDbEntity
 67
     1
  8
0
  6
HIDDENX2
 48
0.3
100
AcDbLine
 10
3.740939504113407
 20
3.473306436813789
 30
0.0
 11
4.977939504113408
 21
3.473306436813789
 31
0.0
  0
LINE
  5
101
330
58
100
AcDbEntity
 67
     1
  8
0
  6
HIDDENX2
 48
0.3
100
AcDbLine
 10
3.740939504113407
 20
3.023306436813789
 30
0.0
 11
4.977939504113408
 21
3.023306436813789
 31
0.0
  0
LINE
  5
103
330
58
100
AcDbEntity
 67
     1
  8
0
 48
0.3
100
AcDbLine
 10
4.440939504113408
 20
3.748306436813786
 30
0.0
 11
4.440939504113408
 21
2.748306436813788
 31
0.0
  0
CIRCLE
  5
104
102
{ACAD_REACTORS
330
14F
102
}
330
58
100
AcDbEntity
 67
     1
  8
0
  6
HIDDENX2
 48
0.3
100
AcDbCircle
 10
1.329465902515401
 20
3.248306436813789
 30
0.0
 40
0.375
  0
LINE
  5
106
330
58
100
AcDbEntity
 67
     1
  8
0
 48
0.3
100
AcDbLine
 10
3.990939504113407
 20
3.623306436813789
 30
0.0
 11
4.390939504113408
 21
3.623306436813789
 31
0.0
  0
LINE
  5
108
330
58
100
AcDbEntity
 67
     1
  8
0
 48
0.3
100
AcDbLine
 10
3.990939504113407
 20
2.873306436813789
 30
0.0
 11
4.390939504113408
 21
2.873306436813789
 31
0.0
  0
LINE
  5
10B
102
{ACAD_REACTORS
330
19E
330
1DE
102
}
330
58
100
AcDbEntity
 67
     1
  8
0
 48
0.3
100
AcDbLine
 10
3.740939504113407
 20
3.845806436813789
 30
0.0
 11
3.740939504113407
 21
2.650806436813789
 31
0.0
  0
LINE
  5
10C
102
{ACAD_REACTORS
330
19E
102
}
330
58
100
AcDbEntity
 67
     1
  8
0
 48
0.3
100
AcDbLine
 10
3.990939504113407
 20
3.845806436813789
 30
0.0
 11
3.990939504113407
 21
2.650806436813789
 31
0.0
  0
DIMENSION
  5
10D
102
{ACAD_XDICTIONARY
360
11A
102
}
102
{ACAD_REACTORS
330
123
102
}
330
58
100
AcDbEntity
 67
     1
  8
0
 48
0.3
100
AcDbDimension
  2
*D1
 10
1.77286702080636
 20
2.851543978536387
 30
0.0
 11
-0.3285461619101975
 21
4.297190834492443
 31
0.0
 70
   163
 71
     5
 42
1.19
  3
Standard
100
AcDbDiametricDimension
 15
0.8860647842244437
 25
3.645068895091193
 35
0.0
 40
0.0
1001
ACAD
1000
DSTYLE
1002
{
1070
   288
1070
     1
1002
}
  0
DIMENSION
  5
124
102
{ACAD_XDICTIONARY
360
130
102
}
102
{ACAD_REACTORS
330
139
102
}
330
58
100
AcDbEntity
 67
     1
  8
0
 48
0.3
100
AcDbDimension
  2
*D2
 10
1.392436610822757
 20
2.752287596551374
 30
0.0
 11
0.6908711472242083
 21
4.533656537700638
 31
0.0
 70
   163
 71
     5
 42
1.0
  3
Standard
100
AcDbDiametricDimension
 15
1.266495194208046
 25
3.744325277076203
 35
0.0
 40
0.0
1001
ACAD
1000
DSTYLE
1002
{
1070
   288
1070
     1
1002
}
  0
DIMENSION
  5
13A
102
{ACAD_XDICTIONARY
360
146
102
}
102
{ACAD_REACTORS
330
14F
102
}
330
58
100
AcDbEntity
 67
     1
  8
0
 48
0.3
100
AcDbDimension
  2
*D3
 10
1.168882793306621
 20
2.909428781845449
 30
0.0
 11
2.333164802822713
 21
4.297190834492443
 31
0.0
 70
   163
 71
     5
 42
0.7499999999999992
  3
Standard
100
AcDbDiametricDimension
 15
1.490049011724182
 25
3.587184091782126
 35
0.0
 40
0.0
1001
ACAD
1000
DSTYLE
1002
{
1070
   288
1070
     1
1002
}
  0
DIMENSION
  5
150
102
{ACAD_XDICTIONARY
360
15C
102
}
102
{ACAD_REACTORS
330
165
102
}
330
58
100
AcDbEntity
 67
     1
  8
0
 48
0.3
100
AcDbDimension
  2
*D4
 10
1.174358864884656
 20
3.085313164322515
 30
0.0
 11
2.407905594022544
 21
3.849150588468905
 31
0.0
 70
   163
 71
     5
 42
0.4500000000000011
  3
Standard
100
AcDbDiametricDimension
 15
1.484572940146147
 25
3.411299709305064
 35
0.0
 40
0.0
1001
ACAD
1000
DSTYLE
1002
{
1070
   288
1070
     1
1002
}
  0
CIRCLE
  5
180
330
58
100
AcDbEntity
 67
     1
  8
0
  6
HIDDENX2
 48
0.3
100
AcDbCircle
 10
1.329465902515401
 20
3.248306436813788
 30
0.0
 40
0.3935
  0
LEADER
  5
183
330
58
100
AcDbEntity
 67
     1
  8
0
 48
0.3
100
AcDbLeader
  3
Standard
 73
     0
 40
0.125
 41
0.6666666666666666
 76
     3
 10
1.329465902515402
 20
2.854806436813788
 30
0.0
 10
1.089650222285087
 20
2.270495025965349
 30
0.0
 10
0.9760354992207211
 20
2.270495025965349
 30
0.0
340
184
213
0.0
223
0.0625
233
0.0
1001
ACAD
1000
DSTYLE
1002
{
1070
   147
1040
0.09
1070
    77
1070
     0
1002
}
  0
MTEXT
  5
184
102
{ACAD_REACTORS
330
183
102
}
330
58
100
AcDbEntity
 67
     1
  8
0
 48
0.3
100
AcDbMText
 10
0.8860354992207211
 20
2.207995025965349
 30
0.0
 40
0.125
 41
0.0
 71
     9
 72
     1
  1
\A1;M20-1.0
 73
     1
 44
1.0
  0
DIMENSION
  5
185
102
{ACAD_XDICTIONARY
360
193
102
}
102
{ACAD_REACTORS
330
19E
102
}
330
58
100
AcDbEntity
 67
     1
  8
0
 48
0.3
100
AcDbDimension
  2
*D5
 10
3.990939504113407
 20
4.806940352442161
 30
0.0
 11
4.560106170780074
 21
4.806940352442161
 31
0.0
 70
    32
 71
     5
 42
0.25
  3
Standard
100
AcDbAlignedDimension
 13
3.740939504113407
 23
3.845806436813789
 33
0.0
 14
3.990939504113407
 24
3.845806436813789
 34
0.0
100
AcDbRotatedDimension
  0
LINE
  5
1C3
102
{ACAD_REACTORS
330
267
102
}
330
58
100
AcDbEntity
 67
     1
  8
0
 48
0.3
100
AcDbLine
 10
4.440939504113408
 20
3.748306436813786
 30
0.0
 11
4.940939504113408
 21
3.748306436813786
 31
0.0
  0
LINE
  5
1C4
102
{ACAD_REACTORS
330
1DE
330
281
102
}
330
58
100
AcDbEntity
 67
     1
  8
0
 48
0.3
100
AcDbLine
 10
4.440939504113408
 20
2.748306436813788
 30
0.0
 11
4.940939504113408
 21
2.748306436813788
 31
0.0
  0
DIMENSION
  5
1C5
102
{ACAD_XDICTIONARY
360
1D3
102
}
102
{ACAD_REACTORS
330
1DE
102
}
330
58
100
AcDbEntity
 67
     1
  8
0
 48
0.3
100
AcDbDimension
  2
*D7
 10
4.940939504113408
 20
1.982799152729782
 30
0.0
 11
4.340939504113407
 21
1.982799152729782
 31
0.0
 70
    32
 71
     5
 42
1.2
  3
Standard
100
AcDbAlignedDimension
 13
3.740939504113407
 23
2.650806436813789
 33
0.0
 14
4.940939504113408
 24
2.748306436813788
 34
0.0
100
AcDbRotatedDimension
  0
DIMENSION
  5
1DF
102
{ACAD_XDICTIONARY
360
1ED
102
}
102
{ACAD_REACTORS
330
1F8
102
}
330
58
100
AcDbEntity
 67
     1
  8
0
 48
0.3
100
AcDbDimension
  2
*D8
 10
4.940939504113408
 20
3.957566925202627
 30
0.0
 11
5.510106170780074
 21
3.957566925202627
 31
0.0
 70
    32
 71
     5
 42
0.25
  3
Standard
100
AcDbAlignedDimension
 13
4.690939504113408
 23
3.648306436813788
 33
0.0
 14
4.940939504113408
 24
3.648306436813788
 34
0.0
100
AcDbRotatedDimension
  0
LINE
  5
24A
330
58
100
AcDbEntity
 67
     1
  8
0
 48
0.3
100
AcDbLine
 10
4.390939504113408
 20
3.623306436813789
 30
0.0
 11
4.440939504113408
 21
3.623306436813789
 31
0.0
  0
LINE
  5
24B
330
58
100
AcDbEntity
 67
     1
  8
0
 48
0.3
100
AcDbLine
 10
4.390939504113408
 20
2.873306436813789
 30
0.0
 11
4.390939504113408
 21
2.873306436813789
 31
0.0
  0
LINE
  5
24C
330
58
100
AcDbEntity
 67
     1
  8
0
 48
0.3
100
AcDbLine
 10
4.390939504113408
 20
2.873306436813789
 30
0.0
 11
4.440939504113408
 21
2.873306436813789
 31
0.0
  0
DIMENSION
  5
24E
102
{ACAD_XDICTIONARY
360
25C
102
}
102
{ACAD_REACTORS
330
267
102
}
330
58
100
AcDbEntity
 67
     1
  8
0
 48
0.3
100
AcDbDimension
  2
*D9
 10
4.440939504113408
 20
4.36864637865764
 30
0.0
 11
4.885106170780074
 21
4.36864637865764
 31
0.0
 70
    32
 71
     5
 42
0.4500000000000002
  3
Standard
100
AcDbAlignedDimension
 13
3.990939504113407
 23
3.845806436813789
 33
0.0
 14
4.440939504113408
 24
3.748306436813786
 34
0.0
100
AcDbRotatedDimension
  0
DIMENSION
  5
268
102
{ACAD_XDICTIONARY
360
276
102
}
102
{ACAD_REACTORS
330
281
102
}
330
58
100
AcDbEntity
 67
     1
  8
0
 48
0.3
100
AcDbDimension
  2
*D10
 10
4.940939504113408
 20
2.431862711560107
 30
0.0
 11
5.374689504113407
 21
2.431862711560107
 31
0.0
 70
    32
 71
     5
 42
0.5
  3
Standard
100
AcDbAlignedDimension
 13
4.440939504113408
 23
2.748306436813788
 33
0.0
 14
4.940939504113408
 24
2.748306436813788
 34
0.0
100
AcDbRotatedDimension
  0
MTEXT
  5
287
330
58
100
AcDbEntity
 67
     1
  8
0
 48
0.3
100
AcDbMText
 10
-0.9482611078220202
 20
1.51188631083308
 30
0.0
 40
0.125
 41
6.143299999999999
 71
     1
 72
     5
  1
Note:\PM20x1.0 can be bored out to .788\Pif threading is not possible.\PIt will still work but not pop\Pthe collet as reliably as one\Pscrewed onto the top of the spindle.
 73
     1
 44
1.0
  0
ENDSEC
  0
SECTION
  2
OBJECTS
  0
DICTIONARY
  5
C
330
0
100
AcDbDictionary
281
     1
  3
ACAD_GROUP
350
D
  3
ACAD_LAYOUT
350
1A
  3
ACAD_MLINESTYLE
350
17
  3
ACAD_PLOTSETTINGS
350
19
  3
ACAD_PLOTSTYLENAME
350
E
  3
AcadDim
350
182
  3
AcDbVariableDictionary
350
66
  0
DICTIONARY
  5
11A
330
10D
100
AcDbDictionary
280
     1
281
     1
  3
ACAD_DIMASSOC
360
123
  0
DICTIONARY
  5
130
330
124
100
AcDbDictionary
280
     1
281
     1
  3
ACAD_DIMASSOC
360
139
  0
DICTIONARY
  5
146
330
13A
100
AcDbDictionary
280
     1
281
     1
  3
ACAD_DIMASSOC
360
14F
  0
DICTIONARY
  5
15C
330
150
100
AcDbDictionary
280
     1
281
     1
  3
ACAD_DIMASSOC
360
165
  0
DICTIONARY
  5
193
330
185
100
AcDbDictionary
280
     1
281
     1
  3
ACAD_DIMASSOC
360
19E
  0
DICTIONARY
  5
1D3
330
1C5
100
AcDbDictionary
280
     1
281
     1
  3
ACAD_DIMASSOC
360
1DE
  0
DICTIONARY
  5
1ED
330
1DF
100
AcDbDictionary
280
     1
281
     1
  3
ACAD_DIMASSOC
360
1F8
  0
DICTIONARY
  5
25C
330
24E
100
AcDbDictionary
280
     1
281
     1
  3
ACAD_DIMASSOC
360
267
  0
DICTIONARY
  5
276
330
268
100
AcDbDictionary
280
     1
281
     1
  3
ACAD_DIMASSOC
360
281
  0
DICTIONARY
  5
D
102
{ACAD_REACTORS
330
C
102
}
330
C
100
AcDbDictionary
281
     1
  0
DICTIONARY
  5
1A
102
{ACAD_REACTORS
330
C
102
}
330
C
100
AcDbDictionary
281
     1
  3
Layout1
350
59
  3
Layout2
350
5E
  3
Model
350
22
  0
DICTIONARY
  5
17
102
{ACAD_REACTORS
330
C
102
}
330
C
100
AcDbDictionary
281
     1
  3
Standard
350
18
  0
DICTIONARY
  5
19
102
{ACAD_REACTORS
330
C
102
}
330
C
100
AcDbDictionary
281
     1
  0
ACDBDICTIONARYWDFLT
  5
E
102
{ACAD_REACTORS
330
C
102
}
330
C
100
AcDbDictionary
281
     1
  3
Normal
350
F
100
AcDbDictionaryWithDefault
340
F
  0
XRECORD
  5
182
102
{ACAD_REACTORS
330
C
102
}
330
C
100
AcDbXrecord
280
     1
 90
   990106
  3

 60
     0
 61
     0
 62
     1
 63
     3
 64
     0
 65
     0
 66
     0
 67
     3
 68
     1
 69
     0
 70
     0
 71
     0
 72
     0
 40
0.0
170
     0
340
184
  0
DICTIONARY
  5
66
102
{ACAD_REACTORS
330
C
102
}
330
C
100
AcDbDictionary
281
     1
  3
DIMASSOC
350
67
  3
HIDETEXT
350
6B
  0
DIMASSOC
  5
123
102
{ACAD_REACTORS
330
11A
102
}
330
11A
100
AcDbDimAssoc
330
10D
 90
        2
 70
     0
 71
     0
  1
AcDbOsnapPointRef
 72
     3
331
F6
 73
     2
 91
        0
 40
0.0
 10
1.329465902515401
 20
3.248306436813789
 30
0.0
 75
     0
  0
DIMASSOC
  5
139
102
{ACAD_REACTORS
330
130
102
}
330
130
100
AcDbDimAssoc
330
124
 90
        2
 70
     0
 71
     0
  1
AcDbOsnapPointRef
 72
     3
331
FD
 73
     2
 91
        0
 40
0.0
 10
0.0
 20
0.0
 30
0.0
 75
     0
  0
DIMASSOC
  5
14F
102
{ACAD_REACTORS
330
146
102
}
330
146
100
AcDbDimAssoc
330
13A
 90
        2
 70
     0
 71
     0
  1
AcDbOsnapPointRef
 72
     3
331
104
 73
     2
 91
        0
 40
0.0
 10
0.0
 20
0.0
 30
0.0
 75
     0
  0
DIMASSOC
  5
165
102
{ACAD_REACTORS
330
15C
102
}
330
15C
100
AcDbDimAssoc
330
150
 90
        2
 70
     0
 71
     0
  1
AcDbOsnapPointRef
 72
     3
331
FC
 73
     2
 91
        0
 40
0.0
 10
0.0
 20
0.0
 30
0.0
 75
     0
  0
DIMASSOC
  5
19E
102
{ACAD_REACTORS
330
193
102
}
330
193
100
AcDbDimAssoc
330
185
 90
        3
 70
     0
 71
     0
  1
AcDbOsnapPointRef
 72
    13
331
10B
 73
     2
 91
        0
 40
0.0
 10
3.740939504113407
 20
3.845806436813789
 30
0.0
 75
     0
  1
AcDbOsnapPointRef
 72
    13
331
10C
 73
     2
 91
        0
 40
0.0
 10
3.990939504113407
 20
3.845806436813789
 30
0.0
 75
     0
  0
DIMASSOC
  5
1DE
102
{ACAD_REACTORS
330
1D3
102
}
330
1D3
100
AcDbDimAssoc
330
1C5
 90
        3
 70
     0
 71
     0
  1
AcDbOsnapPointRef
 72
     1
331
10B
 73
     2
 91
        0
 40
1.0
 10
3.740939504113407
 20
2.650806436813789
 30
0.0
 75
     0
  1
AcDbOsnapPointRef
 72
     1
331
1C4
 73
     2
 91
        0
 40
1.0
 10
4.940939504113408
 20
2.748306436813788
 30
0.0
 75
     0
  0
DIMASSOC
  5
1F8
102
{ACAD_REACTORS
330
1ED
102
}
330
1ED
100
AcDbDimAssoc
330
1DF
 90
        3
 70
     0
 71
     0
  1
AcDbOsnapPointRef
 72
    13
331
D8
 73
     2
 91
        0
 40
0.0
 10
4.690939504113408
 20
3.648306436813788
 30
0.0
 75
     0
  1
AcDbOsnapPointRef
 72
     1
331
D8
 73
     2
 91
        0
 40
1.0
 10
4.940939504113408
 20
3.648306436813788
 30
0.0
 75
     0
  0
DIMASSOC
  5
267
102
{ACAD_REACTORS
330
25C
102
}
330
25C
100
AcDbDimAssoc
330
24E
 90
        3
 70
     0
 71
     0
  1
AcDbOsnapPointRef
 72
     1
331
F9
 73
     2
 91
        0
 40
1.0
 10
3.990939504113407
 20
3.845806436813789
 30
0.0
 75
     0
  1
AcDbOsnapPointRef
 72
    13
331
1C3
 73
     2
 91
        0
 40
0.0
 10
4.440939504113408
 20
3.748306436813786
 30
0.0
 75
     0
  0
DIMASSOC
  5
281
102
{ACAD_REACTORS
330
276
102
}
330
276
100
AcDbDimAssoc
330
268
 90
        3
 70
     0
 71
     0
  1
AcDbOsnapPointRef
 72
    13
331
1C4
 73
     2
 91
        0
 40
0.0
 10
4.440939504113408
 20
2.748306436813788
 30
0.0
 75
     0
  1
AcDbOsnapPointRef
 72
     1
331
1C4
 73
     2
 91
        0
 40
1.0
 10
4.940939504113408
 20
2.748306436813788
 30
0.0
 75
     0
  0
LAYOUT
  5
59
102
{ACAD_REACTORS
330
1A
102
}
330
1A
100
AcDbPlotSettings
  1

  2
none_device
  4
Letter_(8.50_x_11.00_Inches)
  6

 40
6.349999904632568
 41
6.349999904632568
 42
6.350006103515625
 43
6.350006103515625
 44
215.8999938964843
 45
279.3999938964843
 46
38.3032
 47
38.15079999999999
 48
0.0
 49
0.0
140
0.0
141
0.0
142
1.0
143
1.0
 70
   688
 72
     0
 73
     1
 74
     5
  7

 75
    16
147
1.0
148
0.0
149
0.0
100
AcDbLayout
  1
Layout1
 70
     1
 71
     1
 10
-1.75200024029589
 20
-1.757999996245376
 11
9.247999519408217
 21
6.741999763458731
 12
0.0
 22
0.0
 32
0.0
 14
-1.439262267973589
 24
-1.41285528304607
 34
0.0
 15
8.966538218833356
 25
6.396855050259421
 35
0.0
146
0.0
 13
0.0
 23
0.0
 33
0.0
 16
1.0
 26
0.0
 36
0.0
 17
0.0
 27
1.0
 37
0.0
 76
     0
330
58
331
77
  0
LAYOUT
  5
5E
102
{ACAD_REACTORS
330
1A
102
}
330
1A
100
AcDbPlotSettings
  1

  2
None
  4

  6

 40
0.0
 41
0.0
 42
0.0
 43
0.0
 44
0.0
 45
0.0
 46
0.0
 47
0.0
 48
0.0
 49
0.0
140
0.0
141
0.0
142
1.0
143
1.0
 70
   688
 72
     0
 73
     0
 74
     5
  7

 75
    16
147
1.0
148
0.0
149
0.0
100
AcDbLayout
  1
Layout2
 70
     1
 71
     2
 10
0.0
 20
0.0
 11
12.0
 21
9.0
 12
0.0
 22
0.0
 32
0.0
 14
0.0
 24
0.0
 34
0.0
 15
0.0
 25
0.0
 35
0.0
146
0.0
 13
0.0
 23
0.0
 33
0.0
 16
1.0
 26
0.0
 36
0.0
 17
0.0
 27
1.0
 37
0.0
 76
     0
330
5D
  0
LAYOUT
  5
22
102
{ACAD_REACTORS
330
1A
102
}
330
1A
100
AcDbPlotSettings
  1

  2
none_device
  4
ANSI_A_(8.50_x_11.00_Inches)
  6

 40
6.349999904632568
 41
19.04999923706054
 42
6.350006103515625
 43
19.04998779296875
 44
215.8999938964843
 45
279.3999938964843
 46
0.0
 47
0.0
 48
0.0
 49
0.0
140
0.0
141
0.0
142
1.0
143
2.584895464708373
 70
 11952
 72
     0
 73
     1
 74
     0
  7

 75
     0
147
0.3868628397755418
148
0.0
149
0.0
100
AcDbLayout
  1
Model
 70
     1
 71
     0
 10
0.0
 20
0.0
 11
12.0
 21
9.0
 12
0.0
 22
0.0
 32
0.0
 14
0.0
 24
0.0
 34
0.0
 15
0.0
 25
0.0
 35
0.0
146
0.0
 13
0.0
 23
0.0
 33
0.0
 16
1.0
 26
0.0
 36
0.0
 17
0.0
 27
1.0
 37
0.0
 76
     0
330
1F
  0
MLINESTYLE
  5
18
102
{ACAD_REACTORS
330
17
102
}
330
17
100
AcDbMlineStyle
  2
STANDARD
 70
     0
  3

 62
   256
 51
90.0
 52
90.0
 71
     2
 49
0.5
 62
   256
  6
BYLAYER
 49
-0.5
 62
   256
  6
BYLAYER
  0
ACDBPLACEHOLDER
  5
F
102
{ACAD_REACTORS
330
E
102
}
330
E
  0
DICTIONARYVAR
  5
67
102
{ACAD_REACTORS
330
66
102
}
330
66
100
DictionaryVariables
280
     0
  1
2
  0
DICTIONARYVAR
  5
6B
102
{ACAD_REACTORS
330
66
102
}
330
66
100
DictionaryVariables
280
     0
  1
1
  0
ENDSEC
  0
EOF
