  0
SECTION
  2
HEADER
  9
$ACADVER
  1
AC1015
  9
$ACADMAINTVER
 70
    13
  9
$DWGCODEPAGE
  3
ANSI_1252
  9
$INSBASE
 10
0.0
 20
0.0
 30
0.0
  9
$EXTMIN
 10
1.000000000000000E+20
 20
1.000000000000000E+20
 30
1.000000000000000E+20
  9
$EXTMAX
 10
-1.000000000000000E+20
 20
-1.000000000000000E+20
 30
-1.000000000000000E+20
  9
$LIMMIN
 10
0.0
 20
0.0
  9
$LIMMAX
 10
12.0
 20
9.0
  9
$ORTHOMODE
 70
     0
  9
$REGENMODE
 70
     1
  9
$FILLMODE
 70
     1
  9
$QTEXTMODE
 70
     0
  9
$MIRRTEXT
 70
     1
  9
$LTSCALE
 40
0.3
  9
$ATTMODE
 70
     1
  9
$TEXTSIZE
 40
0.2
  9
$TRACEWID
 40
0.05
  9
$TEXTSTYLE
  7
Standard
  9
$CLAYER
  8
0
  9
$CELTYPE
  6
ByLayer
  9
$CECOLOR
 62
   256
  9
$CELTSCALE
 40
0.3
  9
$DISPSILH
 70
     0
  9
$DIMSCALE
 40
1.0
  9
$DIMASZ
 40
0.125
  9
$DIMEXO
 40
0.0625
  9
$DIMDLI
 40
0.38
  9
$DIMRND
 40
0.0
  9
$DIMDLE
 40
0.0
  9
$DIMEXE
 40
0.18
  9
$DIMTP
 40
0.0
  9
$DIMTM
 40
0.0
  9
$DIMTXT
 40
0.125
  9
$DIMCEN
 40
0.09
  9
$DIMTSZ
 40
0.0
  9
$DIMTOL
 70
     0
  9
$DIMLIM
 70
     0
  9
$DIMTIH
 70
     1
  9
$DIMTOH
 70
     1
  9
$DIMSE1
 70
     0
  9
$DIMSE2
 70
     0
  9
$DIMTAD
 70
     0
  9
$DIMZIN
 70
     0
  9
$DIMBLK
  1

  9
$DIMASO
 70
     1
  9
$DIMSHO
 70
     1
  9
$DIMPOST
  1

  9
$DIMAPOST
  1

  9
$DIMALT
 70
     0
  9
$DIMALTD
 70
     2
  9
$DIMALTF
 40
25.4
  9
$DIMLFAC
 40
1.0
  9
$DIMTOFL
 70
     0
  9
$DIMTVP
 40
0.0
  9
$DIMTIX
 70
     0
  9
$DIMSOXD
 70
     0
  9
$DIMSAH
 70
     0
  9
$DIMBLK1
  1

  9
$DIMBLK2
  1

  9
$DIMSTYLE
  2
Standard
  9
$DIMCLRD
 70
     0
  9
$DIMCLRE
 70
     0
  9
$DIMCLRT
 70
     0
  9
$DIMTFAC
 40
1.0
  9
$DIMGAP
 40
0.09
  9
$DIMJUST
 70
     0
  9
$DIMSD1
 70
     0
  9
$DIMSD2
 70
     0
  9
$DIMTOLJ
 70
     1
  9
$DIMTZIN
 70
     0
  9
$DIMALTZ
 70
     0
  9
$DIMALTTZ
 70
     0
  9
$DIMUPT
 70
     0
  9
$DIMDEC
 70
     3
  9
$DIMTDEC
 70
     3
  9
$DIMALTU
 70
     2
  9
$DIMALTTD
 70
     2
  9
$DIMTXSTY
  7
Standard
  9
$DIMAUNIT
 70
     0
  9
$DIMADEC
 70
     0
  9
$DIMALTRND
 40
0.0
  9
$DIMAZIN
 70
     0
  9
$DIMDSEP
 70
    46
  9
$DIMATFIT
 70
     3
  9
$DIMFRAC
 70
     0
  9
$DIMLDRBLK
  1

  9
$DIMLUNIT
 70
     2
  9
$DIMLWD
 70
    -2
  9
$DIMLWE
 70
    -2
  9
$DIMTMOVE
 70
     0
  9
$LUNITS
 70
     2
  9
$LUPREC
 70
     4
  9
$SKETCHINC
 40
0.1
  9
$FILLETRAD
 40
0.5
  9
$AUNITS
 70
     0
  9
$AUPREC
 70
     0
  9
$MENU
  1
.
  9
$ELEVATION
 40
0.0
  9
$PELEVATION
 40
0.0
  9
$THICKNESS
 40
0.0
  9
$LIMCHECK
 70
     0
  9
$CHAMFERA
 40
0.5
  9
$CHAMFERB
 40
0.5
  9
$CHAMFERC
 40
1.0
  9
$CHAMFERD
 40
0.0
  9
$SKPOLY
 70
     0
  9
$TDCREATE
 40
2454412.621520173
  9
$TDUCREATE
 40
2454412.788186840
  9
$TDUPDATE
 40
2455804.779059235
  9
$TDUUPDATE
 40
2455804.945725903
  9
$TDINDWG
 40
0.0916308565
  9
$TDUSRTIMER
 40
0.0916308565
  9
$USRTIMER
 70
     1
  9
$ANGBASE
 50
0.0
  9
$ANGDIR
 70
     0
  9
$PDMODE
 70
     0
  9
$PDSIZE
 40
0.0
  9
$PLINEWID
 40
0.0
  9
$SPLFRAME
 70
     0
  9
$SPLINETYPE
 70
     6
  9
$SPLINESEGS
 70
     8
  9
$HANDSEED
  5
5F8
  9
$SURFTAB1
 70
     6
  9
$SURFTAB2
 70
     6
  9
$SURFTYPE
 70
     6
  9
$SURFU
 70
     6
  9
$SURFV
 70
     6
  9
$UCSBASE
  2

  9
$UCSNAME
  2

  9
$UCSORG
 10
0.0
 20
0.0
 30
0.0
  9
$UCSXDIR
 10
1.0
 20
0.0
 30
0.0
  9
$UCSYDIR
 10
0.0
 20
1.0
 30
0.0
  9
$UCSORTHOREF
  2

  9
$UCSORTHOVIEW
 70
     0
  9
$UCSORGTOP
 10
0.0
 20
0.0
 30
0.0
  9
$UCSORGBOTTOM
 10
0.0
 20
0.0
 30
0.0
  9
$UCSORGLEFT
 10
0.0
 20
0.0
 30
0.0
  9
$UCSORGRIGHT
 10
0.0
 20
0.0
 30
0.0
  9
$UCSORGFRONT
 10
0.0
 20
0.0
 30
0.0
  9
$UCSORGBACK
 10
0.0
 20
0.0
 30
0.0
  9
$PUCSBASE
  2

  9
$PUCSNAME
  2

  9
$PUCSORG
 10
0.0
 20
0.0
 30
0.0
  9
$PUCSXDIR
 10
1.0
 20
0.0
 30
0.0
  9
$PUCSYDIR
 10
0.0
 20
1.0
 30
0.0
  9
$PUCSORTHOREF
  2

  9
$PUCSORTHOVIEW
 70
     0
  9
$PUCSORGTOP
 10
0.0
 20
0.0
 30
0.0
  9
$PUCSORGBOTTOM
 10
0.0
 20
0.0
 30
0.0
  9
$PUCSORGLEFT
 10
0.0
 20
0.0
 30
0.0
  9
$PUCSORGRIGHT
 10
0.0
 20
0.0
 30
0.0
  9
$PUCSORGFRONT
 10
0.0
 20
0.0
 30
0.0
  9
$PUCSORGBACK
 10
0.0
 20
0.0
 30
0.0
  9
$USERI1
 70
     0
  9
$USERI2
 70
     0
  9
$USERI3
 70
     0
  9
$USERI4
 70
     0
  9
$USERI5
 70
     0
  9
$USERR1
 40
0.0
  9
$USERR2
 40
0.0
  9
$USERR3
 40
0.0
  9
$USERR4
 40
0.0
  9
$USERR5
 40
0.0
  9
$WORLDVIEW
 70
     1
  9
$SHADEDGE
 70
     3
  9
$SHADEDIF
 70
    70
  9
$TILEMODE
 70
     0
  9
$MAXACTVP
 70
    64
  9
$PINSBASE
 10
0.0
 20
0.0
 30
0.0
  9
$PLIMCHECK
 70
     0
  9
$PEXTMIN
 10
-1.439262267973588
 20
-1.41285528304607
 30
0.0
  9
$PEXTMAX
 10
8.966538218833356
 20
6.396855050259421
 30
0.0
  9
$PLIMMIN
 10
-1.647916538508858
 20
-1.657916660534115
  9
$PLIMMAX
 10
9.352083221195249
 20
6.842083099169991
  9
$UNITMODE
 70
     0
  9
$VISRETAIN
 70
     1
  9
$PLINEGEN
 70
     0
  9
$PSLTSCALE
 70
     1
  9
$TREEDEPTH
 70
  3020
  9
$CMLSTYLE
  2
Standard
  9
$CMLJUST
 70
     0
  9
$CMLSCALE
 40
1.0
  9
$PROXYGRAPHICS
 70
     1
  9
$MEASUREMENT
 70
     0
  9
$CELWEIGHT
370
    -1
  9
$ENDCAPS
280
     0
  9
$JOINSTYLE
280
     0
  9
$LWDISPLAY
290
     0
  9
$INSUNITS
 70
     1
  9
$HYPERLINKBASE
  1

  9
$STYLESHEET
  1

  9
$XEDIT
290
     1
  9
$CEPSNTYPE
380
     0
  9
$PSTYLEMODE
290
     1
  9
$FINGERPRINTGUID
  2
{FDEAD576-A652-11D2-9A35-0060089B3A3F}
  9
$VERSIONGUID
  2
{C4670776-D4FD-45B1-957F-E703534646EC}
  9
$EXTNAMES
290
     1
  9
$PSVPSCALE
 40
0.0
  9
$OLESTARTUP
290
     0
  0
ENDSEC
  0
SECTION
  2
CLASSES
  0
CLASS
  1
ACDBDICTIONARYWDFLT
  2
AcDbDictionaryWithDefault
  3
AutoCAD 2000
 90
        0
280
     0
281
     0
  0
CLASS
  1
ACDBPLACEHOLDER
  2
AcDbPlaceHolder
  3
AutoCAD 2000
 90
        0
280
     0
281
     0
  0
CLASS
  1
LAYOUT
  2
AcDbLayout
  3
AutoCAD 2000
 90
        0
280
     0
281
     0
  0
CLASS
  1
DICTIONARYVAR
  2
AcDbDictionaryVar
  3
AutoCAD 2000
 90
        0
280
     0
281
     0
  0
CLASS
  1
DIMASSOC
  2
AcDbDimAssoc
  3
"AcDbDimAssoc|Product Desc:     AcDim ARX App For Dimension|Company:          Autodesk, Inc.|WEB Address:      www.autodesk.com"
 90
        0
280
     0
281
     0
  0
ENDSEC
  0
SECTION
  2
TABLES
  0
TABLE
  2
VPORT
  5
8
330
0
100
AcDbSymbolTable
 70
     1
  0
VPORT
  5
74
330
8
100
AcDbSymbolTableRecord
100
AcDbViewportTableRecord
  2
*Active
 70
     0
 10
0.0
 20
0.0
 11
1.0
 21
1.0
 12
20.48748698095427
 22
9.784138269231398
 13
0.0
 23
0.0
 14
0.5
 24
0.5
 15
0.5
 25
0.5
 16
0.0
 26
0.0
 36
1.0
 17
0.0
 27
0.0
 37
0.0
 40
19.56827653846278
 41
2.093949044585986
 42
50.0
 43
0.0
 44
0.0
 50
0.0
 51
0.0
 71
     0
 72
   100
 73
     1
 74
     3
 75
     0
 76
     0
 77
     0
 78
     0
281
     0
 65
     1
110
0.0
120
0.0
130
0.0
111
1.0
121
0.0
131
0.0
112
0.0
122
1.0
132
0.0
 79
     0
146
0.0
  0
ENDTAB
  0
TABLE
  2
LTYPE
  5
5
330
0
100
AcDbSymbolTable
 70
     3
  0
LTYPE
  5
14
330
5
100
AcDbSymbolTableRecord
100
AcDbLinetypeTableRecord
  2
ByBlock
 70
     0
  3

 72
    65
 73
     0
 40
0.0
  0
LTYPE
  5
15
330
5
100
AcDbSymbolTableRecord
100
AcDbLinetypeTableRecord
  2
ByLayer
 70
     0
  3

 72
    65
 73
     0
 40
0.0
  0
LTYPE
  5
16
330
5
100
AcDbSymbolTableRecord
100
AcDbLinetypeTableRecord
  2
Continuous
 70
     0
  3
Solid line
 72
    65
 73
     0
 40
0.0
  0
LTYPE
  5
92
330
5
100
AcDbSymbolTableRecord
100
AcDbLinetypeTableRecord
  2
HIDDENX2
 70
     0
  3
Hidden (2x) ____ ____ ____ ____ ____ ____ ____
 72
    65
 73
     2
 40
0.75
 49
0.5
 74
     0
 49
-0.25
 74
     0
  0
LTYPE
  5
93
330
5
100
AcDbSymbolTableRecord
100
AcDbLinetypeTableRecord
  2
threads
 70
     0
  3
Zig zag /\/\/\/\/\/\/\/\/\/\/\/\/\/\/\/\/\/\/\/
 72
    65
 73
     4
 40
0.8001000000000001
 49
0.0001
 74
     0
 49
-0.2
 74
     4
 75
   131
340
91
 46
0.2
 50
0.0
 44
-0.2
 45
0.0
 49
-0.4
 74
     4
 75
   131
340
91
 46
0.2
 50
180.0
 44
0.2
 45
0.0
 49
-0.2
 74
     0
  0
ENDTAB
  0
TABLE
  2
LAYER
  5
2
330
0
100
AcDbSymbolTable
 70
     2
  0
LAYER
  5
10
330
2
100
AcDbSymbolTableRecord
100
AcDbLayerTableRecord
  2
0
 70
     0
 62
     7
  6
Continuous
370
    -3
390
F
  0
LAYER
  5
E2
330
2
100
AcDbSymbolTableRecord
100
AcDbLayerTableRecord
  2
Defpoints
 70
     0
 62
     7
  6
Continuous
290
     0
370
    -3
390
F
  0
ENDTAB
  0
TABLE
  2
STYLE
  5
3
330
0
100
AcDbSymbolTable
 70
     2
  0
STYLE
  5
11
330
3
100
AcDbSymbolTableRecord
100
AcDbTextStyleTableRecord
  2
Standard
 70
     0
 40
0.0
 41
1.0
 50
0.0
 71
     0
 42
0.2
  3
txt
  4

  0
STYLE
  5
91
330
3
100
AcDbSymbolTableRecord
100
AcDbTextStyleTableRecord
  2

 70
     1
 40
0.0
 41
1.0
 50
0.0
 71
     0
 42
0.2
  3
ltypeshp.shx
  4

  0
ENDTAB
  0
TABLE
  2
VIEW
  5
6
330
0
100
AcDbSymbolTable
 70
     0
  0
ENDTAB
  0
TABLE
  2
UCS
  5
7
330
0
100
AcDbSymbolTable
 70
     0
  0
ENDTAB
  0
TABLE
  2
APPID
  5
9
330
0
100
AcDbSymbolTable
 70
     1
  0
APPID
  5
12
330
9
100
AcDbSymbolTableRecord
100
AcDbRegAppTableRecord
  2
ACAD
 70
     0
  0
ENDTAB
  0
TABLE
  2
DIMSTYLE
  5
A
330
0
100
AcDbSymbolTable
 70
     1
100
AcDbDimStyleTable
 71
     1
340
27
  0
DIMSTYLE
105
27
102
{ACAD_REACTORS
330
FC
330
14A
330
17E
330
194
330
1AA
330
384
330
39E
330
485
330
49F
330
4B9
330
4F8
330
50E
330
52C
330
542
330
5C1
330
5DE
102
}
330
A
100
AcDbSymbolTableRecord
100
AcDbDimStyleTableRecord
  2
Standard
 70
     0
 41
0.125
140
0.125
271
     3
272
     3
340
11
  0
ENDTAB
  0
TABLE
  2
BLOCK_RECORD
  5
1
330
0
100
AcDbSymbolTable
 70
    26
  0
BLOCK_RECORD
  5
1F
330
1
100
AcDbSymbolTableRecord
100
AcDbBlockTableRecord
  2
*Model_Space
340
22
  0
BLOCK_RECORD
  5
58
330
1
100
AcDbSymbolTableRecord
100
AcDbBlockTableRecord
  2
*Paper_Space
340
59
  0
BLOCK_RECORD
  5
5D
330
1
100
AcDbSymbolTableRecord
100
AcDbBlockTableRecord
  2
*Paper_Space0
340
5E
  0
BLOCK_RECORD
  5
FD
330
1
100
AcDbSymbolTableRecord
100
AcDbBlockTableRecord
  2
*D1
340
0
  0
BLOCK_RECORD
  5
14B
330
1
100
AcDbSymbolTableRecord
100
AcDbBlockTableRecord
  2
*D2
340
0
  0
BLOCK_RECORD
  5
17F
330
1
100
AcDbSymbolTableRecord
100
AcDbBlockTableRecord
  2
*D3
340
0
  0
BLOCK_RECORD
  5
195
330
1
100
AcDbSymbolTableRecord
100
AcDbBlockTableRecord
  2
*D4
340
0
  0
BLOCK_RECORD
  5
1AB
330
1
100
AcDbSymbolTableRecord
100
AcDbBlockTableRecord
  2
*D5
340
0
  0
BLOCK_RECORD
  5
291
330
1
100
AcDbSymbolTableRecord
100
AcDbBlockTableRecord
  2
*D6
340
0
  0
BLOCK_RECORD
  5
2C1
330
1
100
AcDbSymbolTableRecord
100
AcDbBlockTableRecord
  2
*D7
340
0
  0
BLOCK_RECORD
  5
2D7
330
1
100
AcDbSymbolTableRecord
100
AcDbBlockTableRecord
  2
*D8
340
0
  0
BLOCK_RECORD
  5
385
330
1
100
AcDbSymbolTableRecord
100
AcDbBlockTableRecord
  2
*D9
340
0
  0
BLOCK_RECORD
  5
39F
330
1
100
AcDbSymbolTableRecord
100
AcDbBlockTableRecord
  2
*D10
340
0
  0
BLOCK_RECORD
  5
3B9
330
1
100
AcDbSymbolTableRecord
100
AcDbBlockTableRecord
  2
*D11
340
0
  0
BLOCK_RECORD
  5
3CF
330
1
100
AcDbSymbolTableRecord
100
AcDbBlockTableRecord
  2
*D12
340
0
  0
BLOCK_RECORD
  5
3E5
330
1
100
AcDbSymbolTableRecord
100
AcDbBlockTableRecord
  2
*D13
340
0
  0
BLOCK_RECORD
  5
3FF
330
1
100
AcDbSymbolTableRecord
100
AcDbBlockTableRecord
  2
*D14
340
0
  0
BLOCK_RECORD
  5
486
330
1
100
AcDbSymbolTableRecord
100
AcDbBlockTableRecord
  2
*D15
340
0
  0
BLOCK_RECORD
  5
4A0
330
1
100
AcDbSymbolTableRecord
100
AcDbBlockTableRecord
  2
*D16
340
0
  0
BLOCK_RECORD
  5
4BA
330
1
100
AcDbSymbolTableRecord
100
AcDbBlockTableRecord
  2
*D17
340
0
  0
BLOCK_RECORD
  5
4F9
330
1
100
AcDbSymbolTableRecord
100
AcDbBlockTableRecord
  2
*D18
340
0
  0
BLOCK_RECORD
  5
50F
330
1
100
AcDbSymbolTableRecord
100
AcDbBlockTableRecord
  2
*D19
340
0
  0
BLOCK_RECORD
  5
52D
330
1
100
AcDbSymbolTableRecord
100
AcDbBlockTableRecord
  2
*D20
340
0
  0
BLOCK_RECORD
  5
543
330
1
100
AcDbSymbolTableRecord
100
AcDbBlockTableRecord
  2
*D21
340
0
  0
BLOCK_RECORD
  5
569
330
1
100
AcDbSymbolTableRecord
100
AcDbBlockTableRecord
  2
*D22
340
0
  0
BLOCK_RECORD
  5
583
330
1
100
AcDbSymbolTableRecord
100
AcDbBlockTableRecord
  2
*D23
340
0
  0
BLOCK_RECORD
  5
5C2
330
1
100
AcDbSymbolTableRecord
100
AcDbBlockTableRecord
  2
*D24
340
0
  0
BLOCK_RECORD
  5
5DF
330
1
100
AcDbSymbolTableRecord
100
AcDbBlockTableRecord
  2
*D25
340
0
  0
ENDTAB
  0
ENDSEC
  0
SECTION
  2
BLOCKS
  0
BLOCK
  5
20
330
1F
100
AcDbEntity
  8
0
100
AcDbBlockBegin
  2
*Model_Space
 70
     0
 10
0.0
 20
0.0
 30
0.0
  3
*Model_Space
  1

  0
ENDBLK
  5
21
330
1F
100
AcDbEntity
  8
0
100
AcDbBlockEnd
  0
BLOCK
  5
5A
330
58
100
AcDbEntity
 67
     1
  8
0
100
AcDbBlockBegin
  2
*Paper_Space
 70
     0
 10
0.0
 20
0.0
 30
0.0
  3
*Paper_Space
  1

  0
ENDBLK
  5
5B
330
58
100
AcDbEntity
 67
     1
  8
0
100
AcDbBlockEnd
  0
BLOCK
  5
5F
330
5D
100
AcDbEntity
  8
0
100
AcDbBlockBegin
  2
*Paper_Space0
 70
     0
 10
0.0
 20
0.0
 30
0.0
  3
*Paper_Space0
  1

  0
ENDBLK
  5
60
330
5D
100
AcDbEntity
  8
0
100
AcDbBlockEnd
  0
BLOCK
  5
108
330
FD
100
AcDbEntity
  8
0
 48
0.3
100
AcDbBlockBegin
  2
*D1
 70
     1
 10
0.0
 20
0.0
 30
0.0
  3
*D1
  1

  0
LINE
  5
37A
330
FD
100
AcDbEntity
  8
0
 62
     0
 48
0.3
370
    -2
100
AcDbLine
 10
5.844587591894782
 20
1.531104635066439
 30
0.0
 11
5.844587591894782
 21
0.7264946639794445
 31
0.0
  0
LINE
  5
37B
330
FD
100
AcDbEntity
  8
0
 62
     0
 48
0.3
370
    -2
100
AcDbLine
 10
5.281587591894782
 20
1.531104635066439
 30
0.0
 11
5.281587591894782
 21
0.7264946639794445
 31
0.0
  0
LINE
  5
37C
330
FD
100
AcDbEntity
  8
0
 62
     0
 48
0.3
370
    -2
100
AcDbLine
 10
5.719587591894782
 20
0.9064946639794442
 30
0.0
 11
5.406587591894782
 21
0.9064946639794442
 31
0.0
  0
LINE
  5
37D
330
FD
100
AcDbEntity
  8
0
 62
     0
 48
0.3
370
    -2
100
AcDbLine
 10
5.281587591894782
 20
0.9064946639794442
 30
0.0
 11
5.156587591894782
 21
0.9064946639794442
 31
0.0
  0
SOLID
  5
37E
330
FD
100
AcDbEntity
  8
0
 62
     0
 48
0.3
100
AcDbTrace
 10
5.719587591894782
 20
0.9273279973127776
 30
0.0
 11
5.719587591894782
 21
0.8856613306461106
 31
0.0
 12
5.844587591894782
 22
0.9064946639794442
 32
0.0
 13
5.844587591894782
 23
0.9064946639794442
 33
0.0
  0
SOLID
  5
37F
330
FD
100
AcDbEntity
  8
0
 62
     0
 48
0.3
100
AcDbTrace
 10
5.406587591894782
 20
0.9273279973127776
 30
0.0
 11
5.406587591894782
 21
0.8856613306461106
 31
0.0
 12
5.281587591894782
 22
0.9064946639794442
 32
0.0
 13
5.281587591894782
 23
0.9064946639794442
 33
0.0
  0
MTEXT
  5
380
330
FD
100
AcDbEntity
  8
0
 62
     0
 48
0.3
100
AcDbMText
 10
4.82700425856145
 20
0.9064946639794442
 30
0.0
 40
0.125
 41
0.0
 71
     5
 72
     1
  1
\A1;0.563
 73
     1
 44
1.0
  0
POINT
  5
381
330
FD
100
AcDbEntity
  8
Defpoints
 62
     0
 48
0.3
100
AcDbPoint
 10
5.844587591894782
 20
1.593604635066439
 30
0.0
  0
POINT
  5
382
330
FD
100
AcDbEntity
  8
Defpoints
 62
     0
 48
0.3
100
AcDbPoint
 10
5.281587591894782
 20
1.593604635066439
 30
0.0
  0
POINT
  5
383
330
FD
100
AcDbEntity
  8
Defpoints
 62
     0
 48
0.3
100
AcDbPoint
 10
5.281587591894782
 20
0.9064946639794442
 30
0.0
  0
ENDBLK
  5
109
330
FD
100
AcDbEntity
  8
0
 48
0.3
100
AcDbBlockEnd
  0
BLOCK
  5
156
330
14B
100
AcDbEntity
  8
0
 48
0.3
100
AcDbBlockBegin
  2
*D2
 70
     1
 10
0.0
 20
0.0
 30
0.0
  3
*D2
  1

  0
LINE
  5
159
330
14B
100
AcDbEntity
  8
0
 62
     0
 48
0.3
370
    -2
100
AcDbLine
 10
5.563587591894783
 20
3.223830320764252
 30
0.0
 11
5.563587591894783
 21
5.86997131857333
 31
0.0
  0
LINE
  5
15A
330
14B
100
AcDbEntity
  8
0
 62
     0
 48
0.3
370
    -2
100
AcDbLine
 10
5.281587591894782
 20
4.805330320764253
 30
0.0
 11
5.281587591894782
 21
5.86997131857333
 31
0.0
  0
LINE
  5
15B
330
14B
100
AcDbEntity
  8
0
 62
     0
 48
0.3
370
    -2
100
AcDbLine
 10
5.688587591894783
 20
5.68997131857333
 30
0.0
 11
5.813587591894783
 21
5.68997131857333
 31
0.0
  0
LINE
  5
15C
330
14B
100
AcDbEntity
  8
0
 62
     0
 48
0.3
370
    -2
100
AcDbLine
 10
5.156587591894782
 20
5.68997131857333
 30
0.0
 11
5.031587591894782
 21
5.68997131857333
 31
0.0
  0
SOLID
  5
15D
330
14B
100
AcDbEntity
  8
0
 62
     0
 48
0.3
100
AcDbTrace
 10
5.688587591894783
 20
5.710804651906664
 30
0.0
 11
5.688587591894783
 21
5.669137985239997
 31
0.0
 12
5.563587591894783
 22
5.68997131857333
 32
0.0
 13
5.563587591894783
 23
5.68997131857333
 33
0.0
  0
SOLID
  5
15E
330
14B
100
AcDbEntity
  8
0
 62
     0
 48
0.3
100
AcDbTrace
 10
5.156587591894782
 20
5.710804651906664
 30
0.0
 11
5.156587591894782
 21
5.669137985239997
 31
0.0
 12
5.281587591894782
 22
5.68997131857333
 32
0.0
 13
5.281587591894782
 23
5.68997131857333
 33
0.0
  0
MTEXT
  5
15F
330
14B
100
AcDbEntity
  8
0
 62
     0
 48
0.3
100
AcDbMText
 10
4.70200425856145
 20
5.68997131857333
 30
0.0
 40
0.125
 41
0.0
 71
     5
 72
     1
  1
\A1;0.282
 73
     1
 44
1.0
  0
POINT
  5
160
330
14B
100
AcDbEntity
  8
Defpoints
 62
     0
 48
0.3
100
AcDbPoint
 10
5.563587591894783
 20
3.161330320764252
 30
0.0
  0
POINT
  5
161
330
14B
100
AcDbEntity
  8
Defpoints
 62
     0
 48
0.3
100
AcDbPoint
 10
5.281587591894782
 20
4.742830320764253
 30
0.0
  0
POINT
  5
162
330
14B
100
AcDbEntity
  8
Defpoints
 62
     0
 48
0.3
100
AcDbPoint
 10
5.281587591894782
 20
5.68997131857333
 30
0.0
  0
ENDBLK
  5
157
330
14B
100
AcDbEntity
  8
0
 48
0.3
100
AcDbBlockEnd
  0
BLOCK
  5
188
330
17F
100
AcDbEntity
  8
0
 48
0.3
100
AcDbBlockBegin
  2
*D3
 70
     1
 10
0.0
 20
0.0
 30
0.0
  3
*D3
  1

  0
LINE
  5
340
330
17F
100
AcDbEntity
  8
0
 62
     0
 48
0.3
370
    -2
100
AcDbLine
 10
0.5518752277325314
 20
5.339839079536615
 30
0.0
 11
0.7393752277325309
 21
5.339839079536615
 31
0.0
  0
LINE
  5
341
330
17F
100
AcDbEntity
  8
0
 62
     0
 48
0.3
370
    -2
100
AcDbLine
 10
0.7393752277325309
 20
5.339839079536615
 30
0.0
 11
1.121132032540328
 21
4.652943246692331
 31
0.0
  0
MTEXT
  5
342
330
17F
100
AcDbEntity
  8
0
 62
     0
 48
0.3
100
AcDbMText
 10
-0.1318747722674685
 20
5.339839079536615
 30
0.0
 40
0.125
 41
0.0
 71
     5
 72
     1
  1
\A1;%%c3.163  50T
 73
     1
 44
1.0
  0
SOLID
  5
343
330
17F
100
AcDbEntity
  8
0
 62
     0
 48
0.3
100
AcDbTrace
 10
1.139341976454872
 20
4.663063805985522
 30
0.0
 11
1.102922088625784
 21
4.642822687399141
 31
0.0
 12
1.181855388299464
 22
4.543683583205071
 32
0.0
 13
1.181855388299464
 23
4.543683583205071
 33
0.0
  0
LINE
  5
344
330
17F
100
AcDbEntity
  8
0
 62
     0
 48
0.3
370
    -2
100
AcDbLine
 10
1.860127285364056
 20
3.161330320764252
 30
0.0
 11
2.040127285364055
 21
3.161330320764252
 31
0.0
  0
LINE
  5
345
330
17F
100
AcDbEntity
  8
0
 62
     0
 48
0.3
370
    -2
100
AcDbLine
 10
1.950127285364055
 20
3.071330320764253
 30
0.0
 11
1.950127285364055
 21
3.251330320764251
 31
0.0
  0
POINT
  5
346
330
17F
100
AcDbEntity
  8
Defpoints
 62
     0
 48
0.3
100
AcDbPoint
 10
1.181855388299464
 20
4.543683583205071
 30
0.0
  0
POINT
  5
347
330
17F
100
AcDbEntity
  8
Defpoints
 62
     0
 48
0.3
100
AcDbPoint
 10
2.718399182428647
 20
1.778977058323433
 30
0.0
  0
ENDBLK
  5
189
330
17F
100
AcDbEntity
  8
0
 48
0.3
100
AcDbBlockEnd
  0
BLOCK
  5
19E
330
195
100
AcDbEntity
  8
0
 48
0.3
100
AcDbBlockBegin
  2
*D4
 70
     1
 10
0.0
 20
0.0
 30
0.0
  3
*D4
  1

  0
LINE
  5
330
330
195
100
AcDbEntity
  8
0
 62
     0
 48
0.3
370
    -2
100
AcDbLine
 10
0.0974395907174772
 20
4.473722457247281
 30
0.0
 11
0.2224395907174776
 21
4.473722457247281
 31
0.0
  0
LINE
  5
331
330
195
100
AcDbEntity
  8
0
 62
     0
 48
0.3
370
    -2
100
AcDbLine
 10
0.2224395907174776
 20
4.473722457247281
 30
0.0
 11
0.8448537090368681
 21
4.000922079580943
 31
0.0
  0
MTEXT
  5
332
330
195
100
AcDbEntity
  8
0
 62
     0
 48
0.3
100
AcDbMText
 10
-0.6071437426158557
 20
4.473722457247281
 30
0.0
 40
0.125
 41
0.0
 71
     5
 72
     1
  1
\A1;%%c2.526  40T
 73
     1
 44
1.0
  0
SOLID
  5
333
330
195
100
AcDbEntity
  8
0
 62
     0
 48
0.3
100
AcDbTrace
 10
0.8574556506617582
 20
4.017511800647334
 30
0.0
 11
0.8322517674119776
 21
3.984332358514553
 31
0.0
 12
0.9443920354352099
 22
3.925310429831601
 32
0.0
 13
0.9443920354352099
 23
3.925310429831601
 33
0.0
  0
LINE
  5
334
330
195
100
AcDbEntity
  8
0
 62
     0
 48
0.3
370
    -2
100
AcDbLine
 10
1.860127285364056
 20
3.161330320764252
 30
0.0
 11
2.040127285364056
 21
3.161330320764252
 31
0.0
  0
LINE
  5
335
330
195
100
AcDbEntity
  8
0
 62
     0
 48
0.3
370
    -2
100
AcDbLine
 10
1.950127285364055
 20
3.071330320764253
 30
0.0
 11
1.950127285364055
 21
3.251330320764251
 31
0.0
  0
POINT
  5
336
330
195
100
AcDbEntity
  8
Defpoints
 62
     0
 48
0.3
100
AcDbPoint
 10
0.9443920354352099
 20
3.925310429831601
 30
0.0
  0
POINT
  5
337
330
195
100
AcDbEntity
  8
Defpoints
 62
     0
 48
0.3
100
AcDbPoint
 10
2.955862535292903
 20
2.397350211696902
 30
0.0
  0
ENDBLK
  5
19F
330
195
100
AcDbEntity
  8
0
 48
0.3
100
AcDbBlockEnd
  0
BLOCK
  5
1B3
330
1AB
100
AcDbEntity
  8
0
 48
0.3
100
AcDbBlockBegin
  2
*D5
 70
     1
 10
0.0
 20
0.0
 30
0.0
  3
*D5
  1

  0
LINE
  5
5D7
330
1AB
100
AcDbEntity
  8
0
 62
     0
 48
0.3
370
    -2
100
AcDbLine
 10
-0.2021861413729908
 20
3.644461853922102
 30
0.0
 11
0.9622105711521026
 21
3.383088783467834
 31
0.0
  0
MTEXT
  5
5D8
330
1AB
100
AcDbEntity
  8
0
 62
     0
 48
0.3
100
AcDbMText
 10
-0.5838528080396576
 20
3.644461853922102
 30
0.0
 40
0.125
 41
0.0
 71
     5
 72
     1
  1
\A1;\U+22051.775
 73
     1
 44
1.0
  0
SOLID
  5
5D9
330
1AB
100
AcDbEntity
  8
0
 62
     0
 48
0.3
100
AcDbTrace
 10
0.9667735024834522
 20
3.403416287875488
 30
0.0
 11
0.9576476398207532
 21
3.362761279060181
 31
0.0
 12
1.084175597598022
 22
3.355711195479738
 32
0.0
 13
1.084175597598022
 23
3.355711195479738
 33
0.0
  0
LINE
  5
5DA
330
1AB
100
AcDbEntity
  8
0
 62
     0
 48
0.3
370
    -2
100
AcDbLine
 10
1.860127285364057
 20
3.161330320764252
 30
0.0
 11
2.040127285364057
 21
3.161330320764253
 31
0.0
  0
LINE
  5
5DB
330
1AB
100
AcDbEntity
  8
0
 62
     0
 48
0.3
370
    -2
100
AcDbLine
 10
1.950127285364057
 20
3.071330320764253
 30
0.0
 11
1.950127285364057
 21
3.251330320764253
 31
0.0
  0
POINT
  5
5DC
330
1AB
100
AcDbEntity
  8
Defpoints
 62
     0
 48
0.3
100
AcDbPoint
 10
1.084175597598022
 20
3.355711195479738
 30
0.0
  0
POINT
  5
5DD
330
1AB
100
AcDbEntity
  8
Defpoints
 62
     0
 48
0.3
100
AcDbPoint
 10
2.816078973130091
 20
2.966949446048767
 30
0.0
  0
ENDBLK
  5
1B4
330
1AB
100
AcDbEntity
  8
0
 48
0.3
100
AcDbBlockEnd
  0
BLOCK
  5
29C
330
291
100
AcDbEntity
  8
0
 48
0.3
100
AcDbBlockBegin
  2
*D6
 70
     1
 10
0.0
 20
0.0
 30
0.0
  3
*D6
  1

  0
LINE
  5
370
330
291
100
AcDbEntity
  8
0
 62
     0
 48
0.3
370
    -2
100
AcDbLine
 10
5.281587591894782
 20
1.531104635066439
 30
0.0
 11
5.281587591894782
 21
0.1204247425314795
 31
0.0
  0
LINE
  5
371
330
291
100
AcDbEntity
  8
0
 62
     0
 48
0.3
370
    -2
100
AcDbLine
 10
6.407587591894782
 20
2.104104635066438
 30
0.0
 11
6.407587591894782
 21
0.1204247425314793
 31
0.0
  0
LINE
  5
372
330
291
100
AcDbEntity
  8
0
 62
     0
 48
0.3
370
    -2
100
AcDbLine
 10
5.406587591894782
 20
0.3004247425314794
 30
0.0
 11
5.546254258561448
 21
0.3004247425314794
 31
0.0
  0
LINE
  5
373
330
291
100
AcDbEntity
  8
0
 62
     0
 48
0.3
370
    -2
100
AcDbLine
 10
6.282587591894782
 20
0.3004247425314794
 30
0.0
 11
6.142920925228116
 21
0.3004247425314794
 31
0.0
  0
SOLID
  5
374
330
291
100
AcDbEntity
  8
0
 62
     0
 48
0.3
100
AcDbTrace
 10
5.406587591894782
 20
0.3212580758648127
 30
0.0
 11
5.406587591894782
 21
0.2795914091981461
 31
0.0
 12
5.281587591894782
 22
0.3004247425314794
 32
0.0
 13
5.281587591894782
 23
0.3004247425314794
 33
0.0
  0
SOLID
  5
375
330
291
100
AcDbEntity
  8
0
 62
     0
 48
0.3
100
AcDbTrace
 10
6.282587591894782
 20
0.3212580758648127
 30
0.0
 11
6.282587591894782
 21
0.2795914091981461
 31
0.0
 12
6.407587591894782
 22
0.3004247425314794
 32
0.0
 13
6.407587591894782
 23
0.3004247425314794
 33
0.0
  0
MTEXT
  5
376
330
291
100
AcDbEntity
  8
0
 62
     0
 48
0.3
100
AcDbMText
 10
5.844587591894782
 20
0.3004247425314794
 30
0.0
 40
0.125
 41
0.0
 71
     5
 72
     1
  1
\A1;1.126
 73
     1
 44
1.0
  0
POINT
  5
377
330
291
100
AcDbEntity
  8
Defpoints
 62
     0
 48
0.3
100
AcDbPoint
 10
5.281587591894782
 20
1.593604635066439
 30
0.0
  0
POINT
  5
378
330
291
100
AcDbEntity
  8
Defpoints
 62
     0
 48
0.3
100
AcDbPoint
 10
6.407587591894782
 20
2.166604635066438
 30
0.0
  0
POINT
  5
379
330
291
100
AcDbEntity
  8
Defpoints
 62
     0
 48
0.3
100
AcDbPoint
 10
6.407587591894782
 20
0.3004247425314794
 30
0.0
  0
ENDBLK
  5
29D
330
291
100
AcDbEntity
  8
0
 48
0.3
100
AcDbBlockEnd
  0
BLOCK
  5
2CA
330
2C1
100
AcDbEntity
  8
0
 48
0.3
100
AcDbBlockBegin
  2
*D7
 70
     1
 10
0.0
 20
0.0
 30
0.0
  3
*D7
  1

  0
LINE
  5
2CD
330
2C1
100
AcDbEntity
  8
0
 62
     0
 48
0.3
370
    -2
100
AcDbLine
 10
-0.2336487069380909
 20
2.542859722772643
 30
0.0
 11
-0.1086487069380905
 21
2.542859722772643
 31
0.0
  0
LINE
  5
2CE
330
2C1
100
AcDbEntity
  8
0
 62
     0
 48
0.3
370
    -2
100
AcDbLine
 10
-0.1086487069380905
 20
2.542859722772643
 30
0.0
 11
1.063758395336221
 21
2.895058953939308
 31
0.0
  0
MTEXT
  5
2CF
330
2C1
100
AcDbEntity
  8
0
 62
     0
 48
0.3
100
AcDbMText
 10
-0.5840653736047576
 20
2.542859722772643
 30
0.0
 40
0.125
 41
0.0
 71
     5
 72
     1
  1
\A1;\U+22051.601
 73
     1
 44
1.0
  0
SOLID
  5
2D0
330
2C1
100
AcDbEntity
  8
0
 62
     0
 48
0.3
100
AcDbTrace
 10
1.057764532405712
 20
2.91501143210489
 30
0.0
 11
1.06975225826673
 21
2.875106475773725
 31
0.0
 12
1.183473264329715
 22
2.931022131522364
 32
0.0
 13
1.183473264329715
 23
2.931022131522364
 33
0.0
  0
LINE
  5
2D1
330
2C1
100
AcDbEntity
  8
0
 62
     0
 48
0.3
370
    -2
100
AcDbLine
 10
1.860127285364056
 20
3.161330320764252
 30
0.0
 11
2.040127285364055
 21
3.161330320764252
 31
0.0
  0
LINE
  5
2D2
330
2C1
100
AcDbEntity
  8
0
 62
     0
 48
0.3
370
    -2
100
AcDbLine
 10
1.950127285364055
 20
3.071330320764252
 30
0.0
 11
1.950127285364055
 21
3.251330320764251
 31
0.0
  0
POINT
  5
2D3
330
2C1
100
AcDbEntity
  8
Defpoints
 62
     0
 48
0.3
100
AcDbPoint
 10
1.183473264329715
 20
2.931022131522364
 30
0.0
  0
POINT
  5
2D4
330
2C1
100
AcDbEntity
  8
Defpoints
 62
     0
 48
0.3
100
AcDbPoint
 10
2.716781306398396
 20
3.391638510006141
 30
0.0
  0
ENDBLK
  5
2CB
330
2C1
100
AcDbEntity
  8
0
 48
0.3
100
AcDbBlockEnd
  0
BLOCK
  5
2E0
330
2D7
100
AcDbEntity
  8
0
 48
0.3
100
AcDbBlockBegin
  2
*D8
 70
     1
 10
0.0
 20
0.0
 30
0.0
  3
*D8
  1

  0
LINE
  5
2E3
330
2D7
100
AcDbEntity
  8
0
 62
     0
 48
0.3
370
    -2
100
AcDbLine
 10
0.2892348011828708
 20
1.485055121383964
 30
0.0
 11
0.4142348011828713
 21
1.485055121383964
 31
0.0
  0
LINE
  5
2E4
330
2D7
100
AcDbEntity
  8
0
 62
     0
 48
0.3
370
    -2
100
AcDbLine
 10
0.4142348011828713
 20
1.485055121383964
 30
0.0
 11
1.375564399375647
 21
2.534251585640291
 31
0.0
  0
MTEXT
  5
2E5
330
2D7
100
AcDbEntity
  8
0
 62
     0
 48
0.3
100
AcDbMText
 10
-0.0715985321504626
 20
1.485055121383964
 30
0.0
 40
0.125
 41
0.0
 71
     5
 72
     1
  1
\A1;\U+22051.451
 73
     1
 44
1.0
  0
SOLID
  5
2E6
330
2D7
100
AcDbEntity
  8
0
 62
     0
 48
0.3
100
AcDbTrace
 10
1.36020385814686
 20
2.548325730407791
 30
0.0
 11
1.390924940604432
 21
2.520177440872791
 31
0.0
 12
1.460009267980644
 22
2.626414833013006
 32
0.0
 13
1.460009267980644
 23
2.626414833013006
 33
0.0
  0
LINE
  5
2E7
330
2D7
100
AcDbEntity
  8
0
 62
     0
 48
0.3
370
    -2
100
AcDbLine
 10
1.860127285364056
 20
3.161330320764252
 30
0.0
 11
2.040127285364058
 21
3.161330320764252
 31
0.0
  0
LINE
  5
2E8
330
2D7
100
AcDbEntity
  8
0
 62
     0
 48
0.3
370
    -2
100
AcDbLine
 10
1.950127285364058
 20
3.071330320764253
 30
0.0
 11
1.950127285364056
 21
3.251330320764251
 31
0.0
  0
POINT
  5
2E9
330
2D7
100
AcDbEntity
  8
Defpoints
 62
     0
 48
0.3
100
AcDbPoint
 10
1.460009267980644
 20
2.626414833013006
 30
0.0
  0
POINT
  5
2EA
330
2D7
100
AcDbEntity
  8
Defpoints
 62
     0
 48
0.3
100
AcDbPoint
 10
2.44024530274747
 20
3.696245808515497
 30
0.0
  0
ENDBLK
  5
2E1
330
2D7
100
AcDbEntity
  8
0
 48
0.3
100
AcDbBlockEnd
  0
BLOCK
  5
390
330
385
100
AcDbEntity
  8
0
 48
0.3
100
AcDbBlockBegin
  2
*D9
 70
     1
 10
0.0
 20
0.0
 30
0.0
  3
*D9
  1

  0
LINE
  5
476
330
385
100
AcDbEntity
  8
0
 62
     0
 48
0.3
370
    -2
100
AcDbLine
 10
5.844587591894782
 20
1.988830320764252
 30
0.0
 11
5.844587591894782
 21
1.10972416676647
 31
0.0
  0
LINE
  5
477
330
385
100
AcDbEntity
  8
0
 62
     0
 48
0.3
370
    -2
100
AcDbLine
 10
5.469587591894782
 20
2.000830320764252
 30
0.0
 11
5.469587591894782
 21
1.10972416676647
 31
0.0
  0
LINE
  5
478
330
385
100
AcDbEntity
  8
0
 62
     0
 48
0.3
370
    -2
100
AcDbLine
 10
5.969587591894782
 20
1.28972416676647
 30
0.0
 11
6.094587591894782
 21
1.28972416676647
 31
0.0
  0
LINE
  5
479
330
385
100
AcDbEntity
  8
0
 62
     0
 48
0.3
370
    -2
100
AcDbLine
 10
5.344587591894782
 20
1.28972416676647
 30
0.0
 11
5.219587591894782
 21
1.28972416676647
 31
0.0
  0
SOLID
  5
47A
330
385
100
AcDbEntity
  8
0
 62
     0
 48
0.3
100
AcDbTrace
 10
5.969587591894782
 20
1.310557500099803
 30
0.0
 11
5.969587591894782
 21
1.268890833433136
 31
0.0
 12
5.844587591894782
 22
1.28972416676647
 32
0.0
 13
5.844587591894782
 23
1.28972416676647
 33
0.0
  0
SOLID
  5
47B
330
385
100
AcDbEntity
  8
0
 62
     0
 48
0.3
100
AcDbTrace
 10
5.344587591894782
 20
1.310557500099803
 30
0.0
 11
5.344587591894782
 21
1.268890833433136
 31
0.0
 12
5.469587591894782
 22
1.28972416676647
 32
0.0
 13
5.469587591894782
 23
1.28972416676647
 33
0.0
  0
MTEXT
  5
47C
330
385
100
AcDbEntity
  8
0
 62
     0
 48
0.3
100
AcDbMText
 10
4.890004258561448
 20
1.28972416676647
 30
0.0
 40
0.125
 41
0.0
 71
     5
 72
     1
  1
\A1;0.375
 73
     1
 44
1.0
  0
POINT
  5
47D
330
385
100
AcDbEntity
  8
Defpoints
 62
     0
 48
0.3
100
AcDbPoint
 10
5.844587591894782
 20
2.051330320764252
 30
0.0
  0
POINT
  5
47E
330
385
100
AcDbEntity
  8
Defpoints
 62
     0
 48
0.3
100
AcDbPoint
 10
5.469587591894782
 20
2.063330320764252
 30
0.0
  0
POINT
  5
47F
330
385
100
AcDbEntity
  8
Defpoints
 62
     0
 48
0.3
100
AcDbPoint
 10
5.469587591894782
 20
1.28972416676647
 30
0.0
  0
ENDBLK
  5
391
330
385
100
AcDbEntity
  8
0
 48
0.3
100
AcDbBlockEnd
  0
BLOCK
  5
3AA
330
39F
100
AcDbEntity
  8
0
 48
0.3
100
AcDbBlockBegin
  2
*D10
 70
     1
 10
0.0
 20
0.0
 30
0.0
  3
*D10
  1

  0
LINE
  5
46C
330
39F
100
AcDbEntity
  8
0
 62
     0
 48
0.3
370
    -2
100
AcDbLine
 10
6.207587591894783
 20
4.397830320764254
 30
0.0
 11
6.207587591894783
 21
5.006077572665139
 31
0.0
  0
LINE
  5
46D
330
39F
100
AcDbEntity
  8
0
 62
     0
 48
0.3
370
    -2
100
AcDbLine
 10
6.407587591894782
 20
4.397830320764254
 30
0.0
 11
6.407587591894782
 21
5.006077572665139
 31
0.0
  0
LINE
  5
46E
330
39F
100
AcDbEntity
  8
0
 62
     0
 48
0.3
370
    -2
100
AcDbLine
 10
6.082587591894783
 20
4.826077572665139
 30
0.0
 11
5.957587591894783
 21
4.826077572665139
 31
0.0
  0
LINE
  5
46F
330
39F
100
AcDbEntity
  8
0
 62
     0
 48
0.3
370
    -2
100
AcDbLine
 10
6.532587591894782
 20
4.826077572665139
 30
0.0
 11
6.657587591894782
 21
4.826077572665139
 31
0.0
  0
SOLID
  5
470
330
39F
100
AcDbEntity
  8
0
 62
     0
 48
0.3
100
AcDbTrace
 10
6.082587591894783
 20
4.846910905998472
 30
0.0
 11
6.082587591894783
 21
4.805244239331806
 31
0.0
 12
6.207587591894783
 22
4.826077572665139
 32
0.0
 13
6.207587591894783
 23
4.826077572665139
 33
0.0
  0
SOLID
  5
471
330
39F
100
AcDbEntity
  8
0
 62
     0
 48
0.3
100
AcDbTrace
 10
6.532587591894782
 20
4.846910905998472
 30
0.0
 11
6.532587591894782
 21
4.805244239331806
 31
0.0
 12
6.407587591894782
 22
4.826077572665139
 32
0.0
 13
6.407587591894782
 23
4.826077572665139
 33
0.0
  0
MTEXT
  5
472
330
39F
100
AcDbEntity
  8
0
 62
     0
 48
0.3
100
AcDbMText
 10
6.966337591894782
 20
4.826077572665139
 30
0.0
 40
0.125
 41
0.0
 71
     5
 72
     1
  1
\A1;0.200
 73
     1
 44
1.0
  0
POINT
  5
473
330
39F
100
AcDbEntity
  8
Defpoints
 62
     0
 48
0.3
100
AcDbPoint
 10
6.207587591894783
 20
4.335330320764254
 30
0.0
  0
POINT
  5
474
330
39F
100
AcDbEntity
  8
Defpoints
 62
     0
 48
0.3
100
AcDbPoint
 10
6.407587591894782
 20
4.335330320764254
 30
0.0
  0
POINT
  5
475
330
39F
100
AcDbEntity
  8
Defpoints
 62
     0
 48
0.3
100
AcDbPoint
 10
6.407587591894782
 20
4.826077572665139
 30
0.0
  0
ENDBLK
  5
3AB
330
39F
100
AcDbEntity
  8
0
 48
0.3
100
AcDbBlockEnd
  0
BLOCK
  5
3C2
330
3B9
100
AcDbEntity
  8
0
 48
0.3
100
AcDbBlockBegin
  2
*D11
 70
     1
 10
0.0
 20
0.0
 30
0.0
  3
*D11
  1

  0
LINE
  5
4DB
330
3B9
100
AcDbEntity
  8
0
 62
     0
 48
0.3
370
    -2
100
AcDbLine
 10
0.5977696347609092
 20
5.244427335365862
 30
0.0
 11
0.3719125202625877
 21
5.244427335365861
 31
0.0
  0
LINE
  5
4DC
330
3B9
100
AcDbEntity
  8
0
 62
     0
 48
0.3
370
    -2
100
AcDbLine
 10
0.3719125202625877
 20
5.244427335365861
 30
0.0
 11
1.099133052777972
 21
4.095719748296152
 31
0.0
  0
MTEXT
  5
4DD
330
3B9
100
AcDbEntity
  8
0
 62
     0
 48
0.3
100
AcDbMText
 10
0.9690196347609095
 20
5.244427335365862
 30
0.0
 40
0.125
 41
0.0
 71
     5
 72
     1
  1
\A1;%%c0.281
 73
     1
 44
1.0
  0
SOLID
  5
4DE
330
3B9
100
AcDbEntity
  8
0
 62
     0
 48
0.3
100
AcDbTrace
 10
1.116735488213641
 20
4.106863448063775
 30
0.0
 11
1.081530617342304
 21
4.08457604852853
 31
0.0
 12
1.165995251383705
 22
3.990105135682141
 32
0.0
 13
1.165995251383705
 23
3.990105135682141
 33
0.0
  0
LINE
  5
4DF
330
3B9
100
AcDbEntity
  8
0
 62
     0
 48
0.3
370
    -2
100
AcDbLine
 10
1.153020504177509
 20
3.8684371019508
 30
0.0
 11
1.33302050417751
 21
3.8684371019508
 31
0.0
  0
LINE
  5
4E0
330
3B9
100
AcDbEntity
  8
0
 62
     0
 48
0.3
370
    -2
100
AcDbLine
 10
1.24302050417751
 20
3.7784371019508
 30
0.0
 11
1.24302050417751
 21
3.9584371019508
 31
0.0
  0
POINT
  5
4E1
330
3B9
100
AcDbEntity
  8
Defpoints
 62
     0
 48
0.3
100
AcDbPoint
 10
1.165995251383705
 20
3.990105135682141
 30
0.0
  0
POINT
  5
4E2
330
3B9
100
AcDbEntity
  8
Defpoints
 62
     0
 48
0.3
100
AcDbPoint
 10
1.320045756971314
 20
3.746769068219459
 30
0.0
  0
ENDBLK
  5
3C3
330
3B9
100
AcDbEntity
  8
0
 48
0.3
100
AcDbBlockEnd
  0
BLOCK
  5
3D8
330
3CF
100
AcDbEntity
  8
0
 48
0.3
100
AcDbBlockBegin
  2
*D12
 70
     1
 10
0.0
 20
0.0
 30
0.0
  3
*D12
  1

  0
LINE
  5
426
330
3CF
100
AcDbEntity
  8
0
 62
     0
 48
0.3
370
    -2
100
AcDbLine
 10
2.758233652486797
 20
4.934112072571522
 30
0.0
 11
2.622816985820132
 21
4.934112072571522
 31
0.0
  0
LINE
  5
427
330
3CF
100
AcDbEntity
  8
0
 62
     0
 48
0.3
370
    -2
100
AcDbLine
 10
2.622816985820132
 20
4.934112072571522
 30
0.0
 11
2.08833543257452
 21
4.320102982279547
 31
0.0
  0
MTEXT
  5
428
330
3CF
100
AcDbEntity
  8
0
 62
     0
 48
0.3
100
AcDbMText
 10
3.108650319153464
 20
4.934112072571522
 30
0.0
 40
0.125
 41
0.0
 71
     5
 72
     1
  1
\A1;\U+22050.171
 73
     1
 44
1.0
  0
SOLID
  5
429
330
3CF
100
AcDbEntity
  8
0
 62
     0
 48
0.3
100
AcDbTrace
 10
2.072621590381793
 20
4.333781540000298
 30
0.0
 11
2.104049274767245
 21
4.306424424558797
 31
0.0
 12
2.006264086250017
 22
4.225819929123195
 32
0.0
 13
2.006264086250017
 23
4.225819929123195
 33
0.0
  0
LINE
  5
42A
330
3CF
100
AcDbEntity
  8
0
 62
     0
 48
0.3
370
    -2
100
AcDbLine
 10
1.860127285364056
 20
4.161330320764252
 30
0.0
 11
2.040127285364056
 21
4.161330320764252
 31
0.0
  0
LINE
  5
42B
330
3CF
100
AcDbEntity
  8
0
 62
     0
 48
0.3
370
    -2
100
AcDbLine
 10
1.950127285364056
 20
4.071330320764252
 30
0.0
 11
1.950127285364056
 21
4.25133032076425
 31
0.0
  0
POINT
  5
42C
330
3CF
100
AcDbEntity
  8
Defpoints
 62
     0
 48
0.3
100
AcDbPoint
 10
2.006264086250017
 20
4.225819929123195
 30
0.0
  0
POINT
  5
42D
330
3CF
100
AcDbEntity
  8
Defpoints
 62
     0
 48
0.3
100
AcDbPoint
 10
1.893990484478098
 20
4.096840712405307
 30
0.0
  0
ENDBLK
  5
3D9
330
3CF
100
AcDbEntity
  8
0
 48
0.3
100
AcDbBlockEnd
  0
BLOCK
  5
3F0
330
3E5
100
AcDbEntity
  8
0
 48
0.3
100
AcDbBlockBegin
  2
*D13
 70
     1
 10
0.0
 20
0.0
 30
0.0
  3
*D13
  1

  0
LINE
  5
3F3
330
3E5
100
AcDbEntity
  8
0
 62
     0
 48
0.3
370
    -2
100
AcDbLine
 10
5.391587591894784
 20
2.335149914940648
 30
0.0
 11
5.391587591894784
 21
3.070094507605048
 31
0.0
  0
LINE
  5
3F4
330
3E5
100
AcDbEntity
  8
0
 62
     0
 48
0.3
370
    -2
100
AcDbLine
 10
5.281587591894782
 20
2.335149914940648
 30
0.0
 11
5.281587591894782
 21
3.070094507605048
 31
0.0
  0
LINE
  5
3F5
330
3E5
100
AcDbEntity
  8
0
 62
     0
 48
0.3
370
    -2
100
AcDbLine
 10
5.516587591894784
 20
2.890094507605049
 30
0.0
 11
5.641587591894784
 21
2.890094507605049
 31
0.0
  0
LINE
  5
3F6
330
3E5
100
AcDbEntity
  8
0
 62
     0
 48
0.3
370
    -2
100
AcDbLine
 10
5.156587591894782
 20
2.890094507605049
 30
0.0
 11
5.031587591894782
 21
2.890094507605049
 31
0.0
  0
SOLID
  5
3F7
330
3E5
100
AcDbEntity
  8
0
 62
     0
 48
0.3
100
AcDbTrace
 10
5.516587591894784
 20
2.910927840938381
 30
0.0
 11
5.516587591894784
 21
2.869261174271714
 31
0.0
 12
5.391587591894784
 22
2.890094507605049
 32
0.0
 13
5.391587591894784
 23
2.890094507605049
 33
0.0
  0
SOLID
  5
3F8
330
3E5
100
AcDbEntity
  8
0
 62
     0
 48
0.3
100
AcDbTrace
 10
5.156587591894782
 20
2.910927840938381
 30
0.0
 11
5.156587591894782
 21
2.869261174271714
 31
0.0
 12
5.281587591894782
 22
2.890094507605049
 32
0.0
 13
5.281587591894782
 23
2.890094507605049
 33
0.0
  0
MTEXT
  5
3F9
330
3E5
100
AcDbEntity
  8
0
 62
     0
 48
0.3
100
AcDbMText
 10
4.754087591894783
 20
2.890094507605049
 30
0.0
 40
0.125
 41
0.0
 71
     5
 72
     1
  1
\A1;0.110
 73
     1
 44
1.0
  0
POINT
  5
3FA
330
3E5
100
AcDbEntity
  8
Defpoints
 62
     0
 48
0.3
100
AcDbPoint
 10
5.391587591894784
 20
2.272649914940648
 30
0.0
  0
POINT
  5
3FB
330
3E5
100
AcDbEntity
  8
Defpoints
 62
     0
 48
0.3
100
AcDbPoint
 10
5.281587591894782
 20
2.272649914940648
 30
0.0
  0
POINT
  5
3FC
330
3E5
100
AcDbEntity
  8
Defpoints
 62
     0
 48
0.3
100
AcDbPoint
 10
5.281587591894782
 20
2.890094507605049
 30
0.0
  0
ENDBLK
  5
3F1
330
3E5
100
AcDbEntity
  8
0
 48
0.3
100
AcDbBlockEnd
  0
BLOCK
  5
40A
330
3FF
100
AcDbEntity
  8
0
 48
0.3
100
AcDbBlockBegin
  2
*D14
 70
     1
 10
0.0
 20
0.0
 30
0.0
  3
*D14
  1

  0
LINE
  5
40D
330
3FF
100
AcDbEntity
  8
0
 62
     0
 48
0.3
370
    -2
100
AcDbLine
 10
5.756587591894784
 20
2.423262059104895
 30
0.0
 11
5.756587591894784
 21
2.750282232275666
 31
0.0
  0
LINE
  5
40E
330
3FF
100
AcDbEntity
  8
0
 62
     0
 48
0.3
370
    -2
100
AcDbLine
 10
5.281587591894782
 20
2.335149914940648
 30
0.0
 11
5.281587591894782
 21
2.750282232275666
 31
0.0
  0
LINE
  5
40F
330
3FF
100
AcDbEntity
  8
0
 62
     0
 48
0.3
370
    -2
100
AcDbLine
 10
5.631587591894784
 20
2.570282232275665
 30
0.0
 11
5.406587591894782
 21
2.570282232275665
 31
0.0
  0
LINE
  5
410
330
3FF
100
AcDbEntity
  8
0
 62
     0
 48
0.3
370
    -2
100
AcDbLine
 10
5.281587591894782
 20
2.570282232275665
 30
0.0
 11
5.156587591894782
 21
2.570282232275665
 31
0.0
  0
SOLID
  5
411
330
3FF
100
AcDbEntity
  8
0
 62
     0
 48
0.3
100
AcDbTrace
 10
5.631587591894784
 20
2.591115565608999
 30
0.0
 11
5.631587591894784
 21
2.549448898942332
 31
0.0
 12
5.756587591894784
 22
2.570282232275665
 32
0.0
 13
5.756587591894784
 23
2.570282232275665
 33
0.0
  0
SOLID
  5
412
330
3FF
100
AcDbEntity
  8
0
 62
     0
 48
0.3
100
AcDbTrace
 10
5.406587591894782
 20
2.591115565608999
 30
0.0
 11
5.406587591894782
 21
2.549448898942332
 31
0.0
 12
5.281587591894782
 22
2.570282232275665
 32
0.0
 13
5.281587591894782
 23
2.570282232275665
 33
0.0
  0
MTEXT
  5
413
330
3FF
100
AcDbEntity
  8
0
 62
     0
 48
0.3
100
AcDbMText
 10
4.82700425856145
 20
2.570282232275665
 30
0.0
 40
0.125
 41
0.0
 71
     5
 72
     1
  1
\A1;0.475
 73
     1
 44
1.0
  0
POINT
  5
414
330
3FF
100
AcDbEntity
  8
Defpoints
 62
     0
 48
0.3
100
AcDbPoint
 10
5.756587591894784
 20
2.360762059104895
 30
0.0
  0
POINT
  5
415
330
3FF
100
AcDbEntity
  8
Defpoints
 62
     0
 48
0.3
100
AcDbPoint
 10
5.281587591894782
 20
2.272649914940648
 30
0.0
  0
POINT
  5
416
330
3FF
100
AcDbEntity
  8
Defpoints
 62
     0
 48
0.3
100
AcDbPoint
 10
5.281587591894782
 20
2.570282232275665
 30
0.0
  0
ENDBLK
  5
40B
330
3FF
100
AcDbEntity
  8
0
 48
0.3
100
AcDbBlockEnd
  0
BLOCK
  5
491
330
486
100
AcDbEntity
  8
0
 48
0.3
100
AcDbBlockBegin
  2
*D15
 70
     1
 10
0.0
 20
0.0
 30
0.0
  3
*D15
  1

  0
LINE
  5
494
330
486
100
AcDbEntity
  8
0
 62
     0
 48
0.3
370
    -2
100
AcDbLine
 10
5.281587591894782
 20
1.517330320764253
 30
0.0
 11
5.281587591894782
 21
0.0127793289412812
 31
0.0
  0
LINE
  5
495
330
486
100
AcDbEntity
  8
0
 62
     0
 48
0.3
370
    -2
100
AcDbLine
 10
6.777587591894783
 20
2.373830320764253
 30
0.0
 11
6.777587591894783
 21
0.012779328941281
 31
0.0
  0
LINE
  5
496
330
486
100
AcDbEntity
  8
0
 62
     0
 48
0.3
370
    -2
100
AcDbLine
 10
5.406587591894782
 20
0.1927793289412811
 30
0.0
 11
5.710420925228116
 21
0.1927793289412811
 31
0.0
  0
LINE
  5
497
330
486
100
AcDbEntity
  8
0
 62
     0
 48
0.3
370
    -2
100
AcDbLine
 10
6.652587591894783
 20
0.1927793289412811
 30
0.0
 11
6.34875425856145
 21
0.1927793289412811
 31
0.0
  0
SOLID
  5
498
330
486
100
AcDbEntity
  8
0
 62
     0
 48
0.3
100
AcDbTrace
 10
5.406587591894782
 20
0.2136126622746145
 30
0.0
 11
5.406587591894782
 21
0.1719459956079478
 31
0.0
 12
5.281587591894782
 22
0.1927793289412811
 32
0.0
 13
5.281587591894782
 23
0.1927793289412811
 33
0.0
  0
SOLID
  5
499
330
486
100
AcDbEntity
  8
0
 62
     0
 48
0.3
100
AcDbTrace
 10
6.652587591894783
 20
0.2136126622746145
 30
0.0
 11
6.652587591894783
 21
0.1719459956079478
 31
0.0
 12
6.777587591894783
 22
0.1927793289412811
 32
0.0
 13
6.777587591894783
 23
0.1927793289412811
 33
0.0
  0
MTEXT
  5
49A
330
486
100
AcDbEntity
  8
0
 62
     0
 48
0.3
100
AcDbMText
 10
6.029587591894783
 20
0.1927793289412811
 30
0.0
 40
0.125
 41
0.0
 71
     5
 72
     1
  1
\A1;1.496
 73
     1
 44
1.0
  0
POINT
  5
49B
330
486
100
AcDbEntity
  8
Defpoints
 62
     0
 48
0.3
100
AcDbPoint
 10
5.281587591894782
 20
1.579830320764253
 30
0.0
  0
POINT
  5
49C
330
486
100
AcDbEntity
  8
Defpoints
 62
     0
 48
0.3
100
AcDbPoint
 10
6.777587591894783
 20
2.436330320764253
 30
0.0
  0
POINT
  5
49D
330
486
100
AcDbEntity
  8
Defpoints
 62
     0
 48
0.3
100
AcDbPoint
 10
6.777587591894783
 20
0.1927793289412811
 30
0.0
  0
ENDBLK
  5
492
330
486
100
AcDbEntity
  8
0
 48
0.3
100
AcDbBlockEnd
  0
BLOCK
  5
4AB
330
4A0
100
AcDbEntity
  8
0
 48
0.3
100
AcDbBlockBegin
  2
*D16
 70
     1
 10
0.0
 20
0.0
 30
0.0
  3
*D16
  1

  0
LINE
  5
4AE
330
4A0
100
AcDbEntity
  8
0
 62
     0
 48
0.3
370
    -2
100
AcDbLine
 10
6.577587591894783
 20
2.212830320764253
 30
0.0
 11
6.577587591894783
 21
0.7238327917820689
 31
0.0
  0
LINE
  5
4AF
330
4A0
100
AcDbEntity
  8
0
 62
     0
 48
0.3
370
    -2
100
AcDbLine
 10
6.777587591894783
 20
2.373830320764253
 30
0.0
 11
6.777587591894783
 21
0.7238327917820689
 31
0.0
  0
LINE
  5
4B0
330
4A0
100
AcDbEntity
  8
0
 62
     0
 48
0.3
370
    -2
100
AcDbLine
 10
6.452587591894783
 20
0.9038327917820687
 30
0.0
 11
6.327587591894783
 21
0.9038327917820687
 31
0.0
  0
LINE
  5
4B1
330
4A0
100
AcDbEntity
  8
0
 62
     0
 48
0.3
370
    -2
100
AcDbLine
 10
6.902587591894783
 20
0.9038327917820687
 30
0.0
 11
7.027587591894783
 21
0.9038327917820687
 31
0.0
  0
SOLID
  5
4B2
330
4A0
100
AcDbEntity
  8
0
 62
     0
 48
0.3
100
AcDbTrace
 10
6.452587591894783
 20
0.9246661251154021
 30
0.0
 11
6.452587591894783
 21
0.8829994584487353
 31
0.0
 12
6.577587591894783
 22
0.9038327917820687
 32
0.0
 13
6.577587591894783
 23
0.9038327917820687
 33
0.0
  0
SOLID
  5
4B3
330
4A0
100
AcDbEntity
  8
0
 62
     0
 48
0.3
100
AcDbTrace
 10
6.902587591894783
 20
0.9246661251154021
 30
0.0
 11
6.902587591894783
 21
0.8829994584487353
 31
0.0
 12
6.777587591894783
 22
0.9038327917820687
 32
0.0
 13
6.777587591894783
 23
0.9038327917820687
 33
0.0
  0
MTEXT
  5
4B4
330
4A0
100
AcDbEntity
  8
0
 62
     0
 48
0.3
100
AcDbMText
 10
7.336337591894783
 20
0.9038327917820687
 30
0.0
 40
0.125
 41
0.0
 71
     5
 72
     1
  1
\A1;0.200
 73
     1
 44
1.0
  0
POINT
  5
4B5
330
4A0
100
AcDbEntity
  8
Defpoints
 62
     0
 48
0.3
100
AcDbPoint
 10
6.577587591894783
 20
2.275330320764253
 30
0.0
  0
POINT
  5
4B6
330
4A0
100
AcDbEntity
  8
Defpoints
 62
     0
 48
0.3
100
AcDbPoint
 10
6.777587591894783
 20
2.436330320764253
 30
0.0
  0
POINT
  5
4B7
330
4A0
100
AcDbEntity
  8
Defpoints
 62
     0
 48
0.3
100
AcDbPoint
 10
6.777587591894783
 20
0.9038327917820687
 30
0.0
  0
ENDBLK
  5
4AC
330
4A0
100
AcDbEntity
  8
0
 48
0.3
100
AcDbBlockEnd
  0
BLOCK
  5
4C5
330
4BA
100
AcDbEntity
  8
0
 48
0.3
100
AcDbBlockBegin
  2
*D17
 70
     1
 10
0.0
 20
0.0
 30
0.0
  3
*D17
  1

  0
LINE
  5
4C8
330
4BA
100
AcDbEntity
  8
0
 62
     0
 48
0.3
370
    -2
100
AcDbLine
 10
6.407587591894782
 20
2.212830320764253
 30
0.0
 11
6.407587591894782
 21
1.375631816908004
 31
0.0
  0
LINE
  5
4C9
330
4BA
100
AcDbEntity
  8
0
 62
     0
 48
0.3
370
    -2
100
AcDbLine
 10
6.777587591894783
 20
2.373830320764253
 30
0.0
 11
6.777587591894783
 21
1.375631816908004
 31
0.0
  0
LINE
  5
4CA
330
4BA
100
AcDbEntity
  8
0
 62
     0
 48
0.3
370
    -2
100
AcDbLine
 10
6.282587591894782
 20
1.555631816908004
 30
0.0
 11
6.157587591894782
 21
1.555631816908004
 31
0.0
  0
LINE
  5
4CB
330
4BA
100
AcDbEntity
  8
0
 62
     0
 48
0.3
370
    -2
100
AcDbLine
 10
6.902587591894783
 20
1.555631816908004
 30
0.0
 11
7.027587591894783
 21
1.555631816908004
 31
0.0
  0
SOLID
  5
4CC
330
4BA
100
AcDbEntity
  8
0
 62
     0
 48
0.3
100
AcDbTrace
 10
6.282587591894782
 20
1.576465150241337
 30
0.0
 11
6.282587591894782
 21
1.534798483574671
 31
0.0
 12
6.407587591894782
 22
1.555631816908004
 32
0.0
 13
6.407587591894782
 23
1.555631816908004
 33
0.0
  0
SOLID
  5
4CD
330
4BA
100
AcDbEntity
  8
0
 62
     0
 48
0.3
100
AcDbTrace
 10
6.902587591894783
 20
1.576465150241337
 30
0.0
 11
6.902587591894783
 21
1.534798483574671
 31
0.0
 12
6.777587591894783
 22
1.555631816908004
 32
0.0
 13
6.777587591894783
 23
1.555631816908004
 33
0.0
  0
MTEXT
  5
4CE
330
4BA
100
AcDbEntity
  8
0
 62
     0
 48
0.3
100
AcDbMText
 10
7.34675425856145
 20
1.555631816908004
 30
0.0
 40
0.125
 41
0.0
 71
     5
 72
     1
  1
\A1;0.370
 73
     1
 44
1.0
  0
POINT
  5
4CF
330
4BA
100
AcDbEntity
  8
Defpoints
 62
     0
 48
0.3
100
AcDbPoint
 10
6.407587591894782
 20
2.275330320764253
 30
0.0
  0
POINT
  5
4D0
330
4BA
100
AcDbEntity
  8
Defpoints
 62
     0
 48
0.3
100
AcDbPoint
 10
6.777587591894783
 20
2.436330320764253
 30
0.0
  0
POINT
  5
4D1
330
4BA
100
AcDbEntity
  8
Defpoints
 62
     0
 48
0.3
100
AcDbPoint
 10
6.777587591894783
 20
1.555631816908004
 30
0.0
  0
ENDBLK
  5
4C6
330
4BA
100
AcDbEntity
  8
0
 48
0.3
100
AcDbBlockEnd
  0
BLOCK
  5
502
330
4F9
100
AcDbEntity
  8
0
 48
0.3
100
AcDbBlockBegin
  2
*D18
 70
     1
 10
0.0
 20
0.0
 30
0.0
  3
*D18
  1

  0
LINE
  5
505
330
4F9
100
AcDbEntity
  8
0
 62
     0
 48
0.3
370
    -2
100
AcDbLine
 10
3.882686124155561
 20
4.106010549305739
 30
0.0
 11
3.757686124155561
 21
4.106010549305739
 31
0.0
  0
LINE
  5
506
330
4F9
100
AcDbEntity
  8
0
 62
     0
 48
0.3
370
    -2
100
AcDbLine
 10
3.757686124155561
 20
4.106010549305739
 30
0.0
 11
2.846137853111066
 21
3.629610218352951
 31
0.0
  0
MTEXT
  5
507
330
4F9
100
AcDbEntity
  8
0
 62
     0
 48
0.3
100
AcDbMText
 10
4.264352790822228
 20
4.106010549305739
 30
0.0
 40
0.125
 41
0.0
 71
     5
 72
     1
  1
\A1;\U+22051.772
 73
     1
 44
1.0
  0
SOLID
  5
508
330
4F9
100
AcDbEntity
  8
0
 62
     0
 48
0.3
100
AcDbTrace
 10
2.836488168442654
 20
3.648074003543913
 30
0.0
 11
2.855787537779478
 21
3.611146433161989
 31
0.0
 12
2.735355141965293
 22
3.571712110342478
 32
0.0
 13
2.735355141965293
 23
3.571712110342478
 33
0.0
  0
LINE
  5
509
330
4F9
100
AcDbEntity
  8
0
 62
     0
 48
0.3
370
    -2
100
AcDbLine
 10
1.860127285364057
 20
3.161330320764252
 30
0.0
 11
2.040127285364057
 21
3.161330320764252
 31
0.0
  0
LINE
  5
50A
330
4F9
100
AcDbEntity
  8
0
 62
     0
 48
0.3
370
    -2
100
AcDbLine
 10
1.950127285364057
 20
3.071330320764253
 30
0.0
 11
1.950127285364057
 21
3.251330320764252
 31
0.0
  0
POINT
  5
50B
330
4F9
100
AcDbEntity
  8
Defpoints
 62
     0
 48
0.3
100
AcDbPoint
 10
2.735355141965293
 20
3.571712110342478
 30
0.0
  0
POINT
  5
50C
330
4F9
100
AcDbEntity
  8
Defpoints
 62
     0
 48
0.3
100
AcDbPoint
 10
1.16489942876282
 20
2.750948531186026
 30
0.0
  0
ENDBLK
  5
503
330
4F9
100
AcDbEntity
  8
0
 48
0.3
100
AcDbBlockEnd
  0
BLOCK
  5
517
330
50F
100
AcDbEntity
  8
0
 48
0.3
100
AcDbBlockBegin
  2
*D19
 70
     1
 10
0.0
 20
0.0
 30
0.0
  3
*D19
  1

  0
LINE
  5
5AA
330
50F
100
AcDbEntity
  8
0
 62
     0
 48
0.3
370
    -2
100
AcDbLine
 10
3.93427290557414
 20
3.658235037177226
 30
0.0
 11
2.774663437618007
 21
3.367825196309027
 31
0.0
  0
MTEXT
  5
5AB
330
50F
100
AcDbEntity
  8
0
 62
     0
 48
0.3
100
AcDbMText
 10
4.30552290557414
 20
3.658235037177226
 30
0.0
 40
0.125
 41
0.0
 71
     5
 72
     1
  1
\A1;\U+22051.450
 73
     1
 44
1.0
  0
SOLID
  5
5AC
330
50F
100
AcDbEntity
  8
0
 62
     0
 48
0.3
100
AcDbTrace
 10
2.769602288707596
 20
3.388034415727017
 30
0.0
 11
2.779724586528419
 21
3.347615976891038
 31
0.0
 12
2.653408121110074
 22
3.33745830284656
 32
0.0
 13
2.653408121110074
 23
3.33745830284656
 33
0.0
  0
LINE
  5
5AD
330
50F
100
AcDbEntity
  8
0
 62
     0
 48
0.3
370
    -2
100
AcDbLine
 10
1.860127285364057
 20
3.161330320764252
 30
0.0
 11
2.040127285364058
 21
3.161330320764252
 31
0.0
  0
LINE
  5
5AE
330
50F
100
AcDbEntity
  8
0
 62
     0
 48
0.3
370
    -2
100
AcDbLine
 10
1.950127285364058
 20
3.071330320764252
 30
0.0
 11
1.950127285364058
 21
3.251330320764251
 31
0.0
  0
POINT
  5
5AF
330
50F
100
AcDbEntity
  8
Defpoints
 62
     0
 48
0.3
100
AcDbPoint
 10
2.653408121110074
 20
3.33745830284656
 30
0.0
  0
POINT
  5
5B0
330
50F
100
AcDbEntity
  8
Defpoints
 62
     0
 48
0.3
100
AcDbPoint
 10
1.246846449618042
 20
2.985202338681943
 30
0.0
  0
ENDBLK
  5
518
330
50F
100
AcDbEntity
  8
0
 48
0.3
100
AcDbBlockEnd
  0
BLOCK
  5
536
330
52D
100
AcDbEntity
  8
0
 48
0.3
100
AcDbBlockBegin
  2
*D20
 70
     1
 10
0.0
 20
0.0
 30
0.0
  3
*D20
  1

  0
LINE
  5
560
330
52D
100
AcDbEntity
  8
0
 62
     0
 48
0.3
370
    -2
100
AcDbLine
 10
3.142578290594482
 20
5.105787142849213
 30
0.0
 11
2.996744957261148
 21
5.105787142849212
 31
0.0
  0
LINE
  5
561
330
52D
100
AcDbEntity
  8
0
 62
     0
 48
0.3
370
    -2
100
AcDbLine
 10
2.996744957261148
 20
5.105787142849212
 30
0.0
 11
2.727486824967431
 21
4.124473817940572
 31
0.0
  0
MTEXT
  5
562
330
52D
100
AcDbEntity
  8
0
 62
     0
 48
0.3
100
AcDbMText
 10
3.513828290594481
 20
5.105787142849213
 30
0.0
 40
0.125
 41
0.0
 71
     5
 72
     1
  1
\A1;\U+22050.281
 73
     1
 44
1.0
  0
SOLID
  5
563
330
52D
100
AcDbEntity
  8
0
 62
     0
 48
0.3
100
AcDbTrace
 10
2.707396059431511
 20
4.12998643238006
 30
0.0
 11
2.747577590503352
 21
4.118961203501084
 31
0.0
 12
2.694411138330506
 22
4.003929224725048
 32
0.0
 13
2.694411138330506
 23
4.003929224725048
 33
0.0
  0
LINE
  5
564
330
52D
100
AcDbEntity
  8
0
 62
     0
 48
0.3
370
    -2
100
AcDbLine
 10
2.567234066550602
 20
3.8684371019508
 30
0.0
 11
2.747234066550602
 21
3.868437101950801
 31
0.0
  0
LINE
  5
565
330
52D
100
AcDbEntity
  8
0
 62
     0
 48
0.3
370
    -2
100
AcDbLine
 10
2.657234066550602
 20
3.778437101950801
 30
0.0
 11
2.657234066550601
 21
3.958437101950801
 31
0.0
  0
POINT
  5
566
330
52D
100
AcDbEntity
  8
Defpoints
 62
     0
 48
0.3
100
AcDbPoint
 10
2.694411138330506
 20
4.003929224725048
 30
0.0
  0
POINT
  5
567
330
52D
100
AcDbEntity
  8
Defpoints
 62
     0
 48
0.3
100
AcDbPoint
 10
2.620056994770698
 20
3.732944979176554
 30
0.0
  0
ENDBLK
  5
537
330
52D
100
AcDbEntity
  8
0
 48
0.3
100
AcDbBlockEnd
  0
BLOCK
  5
54C
330
543
100
AcDbEntity
  8
0
 48
0.3
100
AcDbBlockBegin
  2
*D21
 70
     1
 10
0.0
 20
0.0
 30
0.0
  3
*D21
  1

  0
LINE
  5
54F
330
543
100
AcDbEntity
  8
0
 62
     0
 48
0.3
370
    -2
100
AcDbLine
 10
3.332058726902624
 20
4.685613032574668
 30
0.0
 11
3.207058726902624
 21
4.685613032574668
 31
0.0
  0
LINE
  5
550
330
543
100
AcDbEntity
  8
0
 62
     0
 48
0.3
370
    -2
100
AcDbLine
 10
3.207058726902624
 20
4.685613032574668
 30
0.0
 11
2.774743226167077
 21
4.043084882945093
 31
0.0
  0
MTEXT
  5
551
330
543
100
AcDbEntity
  8
0
 62
     0
 48
0.3
100
AcDbMText
 10
3.682475393569291
 20
4.685613032574668
 30
0.0
 40
0.125
 41
0.0
 71
     5
 72
     1
  1
\A1;\U+22050.171
 73
     1
 44
1.0
  0
SOLID
  5
552
330
543
100
AcDbEntity
  8
0
 62
     0
 48
0.3
100
AcDbTrace
 10
2.757458212212772
 20
4.054714847277681
 30
0.0
 11
2.792028240121381
 21
4.031454918612504
 31
0.0
 12
2.704963440171546
 22
3.939374799219266
 32
0.0
 13
2.704963440171546
 23
3.939374799219266
 33
0.0
  0
LINE
  5
553
330
543
100
AcDbEntity
  8
0
 62
     0
 48
0.3
370
    -2
100
AcDbLine
 10
2.567234066550603
 20
3.868437101950801
 30
0.0
 11
2.747234066550603
 21
3.868437101950802
 31
0.0
  0
LINE
  5
554
330
543
100
AcDbEntity
  8
0
 62
     0
 48
0.3
370
    -2
100
AcDbLine
 10
2.657234066550603
 20
3.778437101950801
 30
0.0
 11
2.657234066550603
 21
3.958437101950801
 31
0.0
  0
POINT
  5
555
330
543
100
AcDbEntity
  8
Defpoints
 62
     0
 48
0.3
100
AcDbPoint
 10
2.704963440171546
 20
3.939374799219266
 30
0.0
  0
POINT
  5
556
330
543
100
AcDbEntity
  8
Defpoints
 62
     0
 48
0.3
100
AcDbPoint
 10
2.60950469292966
 20
3.797499404682336
 30
0.0
  0
ENDBLK
  5
54D
330
543
100
AcDbEntity
  8
0
 48
0.3
100
AcDbBlockEnd
  0
BLOCK
  5
574
330
569
100
AcDbEntity
  8
0
 48
0.3
100
AcDbBlockBegin
  2
*D22
 70
     1
 10
0.0
 20
0.0
 30
0.0
  3
*D22
  1

  0
LINE
  5
5A0
330
569
100
AcDbEntity
  8
0
 62
     0
 48
0.3
370
    -2
100
AcDbLine
 10
6.136587591894782
 20
2.37333032076425
 30
0.0
 11
6.136587591894782
 21
0.3923295077779332
 31
0.0
  0
LINE
  5
5A1
330
569
100
AcDbEntity
  8
0
 62
     0
 48
0.3
370
    -2
100
AcDbLine
 10
5.281587591894782
 20
2.373330320764251
 30
0.0
 11
5.281587591894782
 21
0.3923295077779332
 31
0.0
  0
LINE
  5
5A2
330
569
100
AcDbEntity
  8
0
 62
     0
 48
0.3
370
    -2
100
AcDbLine
 10
6.261587591894782
 20
0.5723295077779334
 30
0.0
 11
6.386587591894782
 21
0.5723295077779334
 31
0.0
  0
LINE
  5
5A3
330
569
100
AcDbEntity
  8
0
 62
     0
 48
0.3
370
    -2
100
AcDbLine
 10
5.156587591894782
 20
0.5723295077779334
 30
0.0
 11
5.031587591894782
 21
0.5723295077779334
 31
0.0
  0
SOLID
  5
5A4
330
569
100
AcDbEntity
  8
0
 62
     0
 48
0.3
100
AcDbTrace
 10
6.261587591894782
 20
0.5931628411112668
 30
0.0
 11
6.261587591894782
 21
0.5514961744446
 31
0.0
 12
6.136587591894782
 22
0.5723295077779334
 32
0.0
 13
6.136587591894782
 23
0.5723295077779334
 33
0.0
  0
SOLID
  5
5A5
330
569
100
AcDbEntity
  8
0
 62
     0
 48
0.3
100
AcDbTrace
 10
5.156587591894782
 20
0.5931628411112668
 30
0.0
 11
5.156587591894782
 21
0.5514961744446
 31
0.0
 12
5.281587591894782
 22
0.5723295077779334
 32
0.0
 13
5.281587591894782
 23
0.5723295077779334
 33
0.0
  0
MTEXT
  5
5A6
330
569
100
AcDbEntity
  8
0
 62
     0
 48
0.3
100
AcDbMText
 10
5.709087591894782
 20
0.5723295077779334
 30
0.0
 40
0.125
 41
0.0
 71
     5
 72
     1
  1
\A1;0.855
 73
     1
 44
1.0
  0
POINT
  5
5A7
330
569
100
AcDbEntity
  8
Defpoints
 62
     0
 48
0.3
100
AcDbPoint
 10
6.136587591894782
 20
2.43583032076425
 30
0.0
  0
POINT
  5
5A8
330
569
100
AcDbEntity
  8
Defpoints
 62
     0
 48
0.3
100
AcDbPoint
 10
5.281587591894782
 20
2.435830320764251
 30
0.0
  0
POINT
  5
5A9
330
569
100
AcDbEntity
  8
Defpoints
 62
     0
 48
0.3
100
AcDbPoint
 10
5.281587591894782
 20
0.5723295077779334
 30
0.0
  0
ENDBLK
  5
575
330
569
100
AcDbEntity
  8
0
 48
0.3
100
AcDbBlockEnd
  0
BLOCK
  5
58C
330
583
100
AcDbEntity
  8
0
 48
0.3
100
AcDbBlockBegin
  2
*D23
 70
     1
 10
0.0
 20
0.0
 30
0.0
  3
*D23
  1

  0
LINE
  5
58F
330
583
100
AcDbEntity
  8
0
 62
     0
 48
0.3
370
    -2
100
AcDbLine
 10
3.730548022379656
 20
1.910252379631939
 30
0.0
 11
3.605548022379656
 21
1.910252379631939
 31
0.0
  0
LINE
  5
590
330
583
100
AcDbEntity
  8
0
 62
     0
 48
0.3
370
    -2
100
AcDbLine
 10
3.605548022379656
 20
1.910252379631939
 30
0.0
 11
2.528528052089871
 21
2.724206135833938
 31
0.0
  0
MTEXT
  5
591
330
583
100
AcDbEntity
  8
0
 62
     0
 48
0.3
100
AcDbMText
 10
4.091381355712989
 20
1.910252379631938
 30
0.0
 40
0.125
 41
0.0
 71
     5
 72
     1
  1
\A1;\U+22051.200
 73
     1
 44
1.0
  0
SOLID
  5
592
330
583
100
AcDbEntity
  8
0
 62
     0
 48
0.3
100
AcDbTrace
 10
2.541089091886719
 20
2.740826847521461
 30
0.0
 11
2.515967012293022
 21
2.707585424146414
 31
0.0
 12
2.428803781964731
 22
2.799572374615026
 32
0.0
 13
2.428803781964731
 23
2.799572374615026
 33
0.0
  0
LINE
  5
593
330
583
100
AcDbEntity
  8
0
 62
     0
 48
0.3
370
    -2
100
AcDbLine
 10
1.860127285364057
 20
3.161330320764252
 30
0.0
 11
2.040127285364057
 21
3.161330320764252
 31
0.0
  0
LINE
  5
594
330
583
100
AcDbEntity
  8
0
 62
     0
 48
0.3
370
    -2
100
AcDbLine
 10
1.950127285364057
 20
3.071330320764252
 30
0.0
 11
1.950127285364057
 21
3.251330320764251
 31
0.0
  0
POINT
  5
595
330
583
100
AcDbEntity
  8
Defpoints
 62
     0
 48
0.3
100
AcDbPoint
 10
2.428803781964731
 20
2.799572374615026
 30
0.0
  0
POINT
  5
596
330
583
100
AcDbEntity
  8
Defpoints
 62
     0
 48
0.3
100
AcDbPoint
 10
1.471450788763383
 20
3.523088266913476
 30
0.0
  0
ENDBLK
  5
58D
330
583
100
AcDbEntity
  8
0
 48
0.3
100
AcDbBlockEnd
  0
BLOCK
  5
5CB
330
5C2
100
AcDbEntity
  8
0
 48
0.3
100
AcDbBlockBegin
  2
*D24
 70
     1
 10
0.0
 20
0.0
 30
0.0
  3
*D24
  1

  0
LINE
  5
5CE
330
5C2
100
AcDbEntity
  8
0
 62
     0
 48
0.3
370
    -2
100
AcDbLine
 10
3.752060599721814
 20
2.252850695004967
 30
0.0
 11
3.627060599721813
 21
2.252850695004966
 31
0.0
  0
LINE
  5
5CF
330
5C2
100
AcDbEntity
  8
0
 62
     0
 48
0.3
370
    -2
100
AcDbLine
 10
3.627060599721813
 20
2.252850695004966
 30
0.0
 11
2.435039759340074
 21
2.898628698039045
 31
0.0
  0
MTEXT
  5
5D0
330
5C2
100
AcDbEntity
  8
0
 62
     0
 48
0.3
100
AcDbMText
 10
4.144143933055147
 20
2.252850695004966
 30
0.0
 40
0.125
 41
0.0
 71
     5
 72
     1
  1
\A1;\U+22050.853
 73
     1
 44
1.0
  0
SOLID
  5
5D1
330
5C2
100
AcDbEntity
  8
0
 62
     0
 48
0.3
100
AcDbTrace
 10
2.444963513598355
 20
2.916946636765851
 30
0.0
 11
2.425116005081793
 21
2.880310759312239
 31
0.0
 12
2.325132126979236
 22
2.958171223588729
 32
0.0
 13
2.325132126979236
 23
2.958171223588729
 33
0.0
  0
LINE
  5
5D2
330
5C2
100
AcDbEntity
  8
0
 62
     0
 48
0.3
370
    -2
100
AcDbLine
 10
1.860127285364056
 20
3.161330320764252
 30
0.0
 11
2.040127285364055
 21
3.161330320764252
 31
0.0
  0
LINE
  5
5D3
330
5C2
100
AcDbEntity
  8
0
 62
     0
 48
0.3
370
    -2
100
AcDbLine
 10
1.950127285364056
 20
3.071330320764252
 30
0.0
 11
1.950127285364056
 21
3.251330320764252
 31
0.0
  0
POINT
  5
5D4
330
5C2
100
AcDbEntity
  8
Defpoints
 62
     0
 48
0.3
100
AcDbPoint
 10
2.325132126979236
 20
2.958171223588729
 30
0.0
  0
POINT
  5
5D5
330
5C2
100
AcDbEntity
  8
Defpoints
 62
     0
 48
0.3
100
AcDbPoint
 10
1.575122443748876
 20
3.364489417939775
 30
0.0
  0
ENDBLK
  5
5CC
330
5C2
100
AcDbEntity
  8
0
 48
0.3
100
AcDbBlockEnd
  0
BLOCK
  5
5EA
330
5DF
100
AcDbEntity
  8
0
 48
0.3
100
AcDbBlockBegin
  2
*D25
 70
     1
 10
0.0
 20
0.0
 30
0.0
  3
*D25
  1

  0
LINE
  5
5ED
330
5DF
100
AcDbEntity
  8
0
 62
     0
 48
0.3
370
    -2
100
AcDbLine
 10
5.356587591894784
 20
4.110149914940648
 30
0.0
 11
5.356587591894784
 21
5.241654307209103
 31
0.0
  0
LINE
  5
5EE
330
5DF
100
AcDbEntity
  8
0
 62
     0
 48
0.3
370
    -2
100
AcDbLine
 10
5.281587591894782
 20
4.110149914940648
 30
0.0
 11
5.281587591894782
 21
5.241654307209103
 31
0.0
  0
LINE
  5
5EF
330
5DF
100
AcDbEntity
  8
0
 62
     0
 48
0.3
370
    -2
100
AcDbLine
 10
5.481587591894784
 20
5.061654307209103
 30
0.0
 11
5.606587591894784
 21
5.061654307209103
 31
0.0
  0
LINE
  5
5F0
330
5DF
100
AcDbEntity
  8
0
 62
     0
 48
0.3
370
    -2
100
AcDbLine
 10
5.156587591894782
 20
5.061654307209103
 30
0.0
 11
5.031587591894782
 21
5.061654307209103
 31
0.0
  0
SOLID
  5
5F1
330
5DF
100
AcDbEntity
  8
0
 62
     0
 48
0.3
100
AcDbTrace
 10
5.481587591894784
 20
5.082487640542436
 30
0.0
 11
5.481587591894784
 21
5.04082097387577
 31
0.0
 12
5.356587591894784
 22
5.061654307209103
 32
0.0
 13
5.356587591894784
 23
5.061654307209103
 33
0.0
  0
SOLID
  5
5F2
330
5DF
100
AcDbEntity
  8
0
 62
     0
 48
0.3
100
AcDbTrace
 10
5.156587591894782
 20
5.082487640542436
 30
0.0
 11
5.156587591894782
 21
5.04082097387577
 31
0.0
 12
5.281587591894782
 22
5.061654307209103
 32
0.0
 13
5.281587591894782
 23
5.061654307209103
 33
0.0
  0
MTEXT
  5
5F3
330
5DF
100
AcDbEntity
  8
0
 62
     0
 48
0.3
100
AcDbMText
 10
4.712420925228116
 20
5.061654307209103
 30
0.0
 40
0.125
 41
0.0
 71
     5
 72
     1
  1
\A1;0.075
 73
     1
 44
1.0
  0
POINT
  5
5F4
330
5DF
100
AcDbEntity
  8
Defpoints
 62
     0
 48
0.3
100
AcDbPoint
 10
5.356587591894784
 20
4.047649914940648
 30
0.0
  0
POINT
  5
5F5
330
5DF
100
AcDbEntity
  8
Defpoints
 62
     0
 48
0.3
100
AcDbPoint
 10
5.281587591894782
 20
4.047649914940648
 30
0.0
  0
POINT
  5
5F6
330
5DF
100
AcDbEntity
  8
Defpoints
 62
     0
 48
0.3
100
AcDbPoint
 10
5.281587591894782
 20
5.061654307209103
 30
0.0
  0
ENDBLK
  5
5EB
330
5DF
100
AcDbEntity
  8
0
 48
0.3
100
AcDbBlockEnd
  0
ENDSEC
  0
SECTION
  2
ENTITIES
  0
VIEWPORT
  5
77
330
58
100
AcDbEntity
 67
     1
  8
0
100
AcDbViewport
 10
3.69272767713875
 20
2.505286654865724
 30
0.0
 40
19.33107686636951
 41
8.514879095900859
 68
     1
 69
     1
 12
3.69272767713875
 22
2.505286654865724
 13
0.0
 23
0.0
 14
0.5
 24
0.5
 15
0.5
 25
0.5
 16
0.0
 26
0.0
 36
1.0
 17
0.0
 27
0.0
 37
0.0
 42
50.0
 43
0.0
 44
0.0
 45
8.514879095900859
 50
0.0
 51
0.0
 72
   100
 90
    32800
  1

281
     0
 71
     1
 74
     0
110
0.0
120
0.0
130
0.0
111
1.0
121
0.0
131
0.0
112
0.0
122
1.0
132
0.0
 79
     0
146
0.0
  0
LWPOLYLINE
  5
86
330
58
100
AcDbEntity
 67
     1
  8
0
100
AcDbPolyline
 90
        4
 70
     1
 43
0.0
 10
-1.439262267973588
 20
6.396855050259421
 10
8.966538218833356
 20
6.396855050259421
 10
8.966538218833356
 20
-1.41285528304607
 10
-1.439262267973588
 20
-1.41285528304607
  0
LINE
  5
8A
330
58
100
AcDbEntity
 67
     1
  8
0
100
AcDbLine
 10
8.966538218833356
 20
-1.41285528304607
 30
0.0
 11
8.966538218833356
 21
-0.4128552830460707
 31
0.0
  0
LINE
  5
8B
330
58
100
AcDbEntity
 67
     1
  8
0
100
AcDbLine
 10
8.966538218833356
 20
-0.4128552830460707
 30
0.0
 11
6.466538218833355
 21
-0.4128552830460703
 31
0.0
  0
LINE
  5
8C
330
58
100
AcDbEntity
 67
     1
  8
0
100
AcDbLine
 10
6.466538218833355
 20
-0.4128552830460703
 30
0.0
 11
4.966538218833356
 21
-0.4128552830460701
 31
0.0
  0
LINE
  5
8D
330
58
100
AcDbEntity
 67
     1
  8
0
100
AcDbLine
 10
4.966538218833356
 20
-0.4128552830460701
 30
0.0
 11
4.966538218833356
 21
-1.41285528304607
 31
0.0
  0
LINE
  5
8E
330
58
100
AcDbEntity
 67
     1
  8
0
100
AcDbLine
 10
6.466538218833355
 20
-0.4128552830460703
 30
0.0
 11
6.466538218833355
 21
-1.404250623233159
 31
0.0
  0
MTEXT
  5
8F
330
58
100
AcDbEntity
 67
     1
  8
0
100
AcDbMText
 10
5.020648721258949
 20
-0.5532836662080878
 30
0.0
 40
0.1
 41
1.5
 71
     1
 72
     5
  1
  Tolerances\P.XXXX = +/- .001\P.XXX  = +/- .005\P.XX   = +/- .015
 73
     1
 44
1.0
  0
MTEXT
  5
AA
330
58
100
AcDbEntity
 67
     1
  8
0
 48
0.3
100
AcDbMText
 10
6.604505128948594
 20
-0.4728628579566771
 30
0.0
 40
0.1
 41
2.5
 71
     1
 72
     5
  1
G0704 CNC Belt Drive\PSpindle Timing Pulley\Pfrom Premade XL Pulleys\PDaniel E. Kemp\P{\fArial|b0|i0|c0|p32;\H1.625x;©\fMS Shell Dlg|b0|i0|c0|p32;\H0.6538x; }0{\fArial|b0|i0|c0|p32;8-30-2011}
 73
     1
 44
1.0
  0
MTEXT
  5
AC
330
58
100
AcDbEntity
 67
     1
  8
0
 48
0.3
100
AcDbMText
 10
-0.8330378939457148
 20
-0.9104262006358537
 30
0.0
 40
0.1625
 41
9.997099999999999
 71
     1
 72
     5
  1
{\fArial|b0|i0|c0|p32;© Daniel E. Kemp 2011}
 73
     1
 44
1.0
  0
CIRCLE
  5
B3
102
{ACAD_REACTORS
330
193
102
}
330
58
100
AcDbEntity
 67
     1
  8
0
 48
0.3
100
AcDbCircle
 10
1.950127285364055
 20
3.161330320764252
 30
0.0
 40
1.581499999999999
  0
CIRCLE
  5
B4
102
{ACAD_REACTORS
330
1A9
102
}
330
58
100
AcDbEntity
 67
     1
  8
0
 48
0.3
100
AcDbCircle
 10
1.950127285364055
 20
3.161330320764252
 30
0.0
 40
1.262999999999999
  0
LINE
  5
B9
330
58
100
AcDbEntity
 67
     1
  8
0
 48
0.3
100
AcDbLine
 10
5.281587591894782
 20
4.742830320764253
 30
0.0
 11
5.844587591894782
 21
4.742830320764253
 31
0.0
  0
LINE
  5
BA
330
58
100
AcDbEntity
 67
     1
  8
0
 48
0.3
100
AcDbLine
 10
5.844587591894782
 20
4.742830320764253
 30
0.0
 11
5.844587591894782
 21
1.579830320764253
 31
0.0
  0
LINE
  5
BB
330
58
100
AcDbEntity
 67
     1
  8
0
 48
0.3
100
AcDbLine
 10
5.844587591894782
 20
1.579830320764253
 30
0.0
 11
5.281587591894782
 21
1.579830320764253
 31
0.0
  0
LINE
  5
BC
102
{ACAD_REACTORS
330
163
330
49E
102
}
330
58
100
AcDbEntity
 67
     1
  8
0
 48
0.3
100
AcDbLine
 10
5.281587591894782
 20
1.579830320764253
 30
0.0
 11
5.281587591894782
 21
4.742830320764253
 31
0.0
  0
CIRCLE
  5
CA
330
58
100
AcDbEntity
 67
     1
  8
0
 48
0.3
100
AcDbCircle
 10
5.563587591894783
 20
3.161330320764252
 30
0.0
 40
0.1
  0
DIMENSION
  5
FC
330
58
100
AcDbEntity
 67
     1
  8
0
 48
0.3
100
AcDbDimension
  2
*D1
 10
5.281587591894782
 20
0.9064946639794442
 30
0.0
 11
4.82700425856145
 21
0.9064946639794442
 31
0.0
 70
   160
 71
     5
 42
0.5629999999999999
  3
Standard
100
AcDbAlignedDimension
 13
5.844587591894782
 23
1.593604635066439
 33
0.0
 14
5.281587591894782
 24
1.593604635066439
 34
0.0
100
AcDbRotatedDimension
  0
DIMENSION
  5
14A
102
{ACAD_XDICTIONARY
360
158
102
}
102
{ACAD_REACTORS
330
163
102
}
330
58
100
AcDbEntity
 67
     1
  8
0
 48
0.3
100
AcDbDimension
  2
*D2
 10
5.281587591894782
 20
5.68997131857333
 30
0.0
 11
4.70200425856145
 21
5.68997131857333
 31
0.0
 70
    32
 71
     5
 42
0.2819999999999991
  3
Standard
100
AcDbAlignedDimension
 13
5.563587591894783
 23
3.161330320764252
 33
0.0
 14
5.281587591894782
 24
4.742830320764253
 34
0.0
100
AcDbRotatedDimension
  0
DIMENSION
  5
17E
102
{ACAD_XDICTIONARY
360
18A
102
}
102
{ACAD_REACTORS
330
193
102
}
330
58
100
AcDbEntity
 67
     1
  8
0
 48
0.3
100
AcDbDimension
  2
*D3
 10
2.718399182428647
 20
1.778977058323433
 30
0.0
 11
-0.1318747722674685
 21
5.339839079536615
 31
0.0
 70
   163
  1
%%c3.163  50T
 71
     5
 42
3.163000000000001
  3
Standard
100
AcDbDiametricDimension
 15
1.181855388299464
 25
4.543683583205071
 35
0.0
 40
0.0
1001
ACAD
1000
DSTYLE
1002
{
1070
   288
1070
     1
1002
}
  0
DIMENSION
  5
194
102
{ACAD_XDICTIONARY
360
1A0
102
}
102
{ACAD_REACTORS
330
1A9
102
}
330
58
100
AcDbEntity
 67
     1
  8
0
 48
0.3
100
AcDbDimension
  2
*D4
 10
2.955862535292903
 20
2.397350211696902
 30
0.0
 11
-0.6071437426158557
 21
4.473722457247281
 31
0.0
 70
   163
  1
%%c2.526  40T
 71
     5
 42
2.525999999999999
  3
Standard
100
AcDbDiametricDimension
 15
0.9443920354352099
 25
3.925310429831601
 35
0.0
 40
0.0
1001
ACAD
1000
DSTYLE
1002
{
1070
   288
1070
     1
1002
}
  0
DIMENSION
  5
1AA
330
58
100
AcDbEntity
 67
     1
  8
0
 48
0.3
100
AcDbDimension
  2
*D5
 10
2.816078973130091
 20
2.966949446048767
 30
0.0
 11
-0.2021861413729908
 21
3.644461853922102
 31
0.0
 70
   163
 71
     5
 42
1.775
  3
Standard
100
AcDbDiametricDimension
 15
1.084175597598022
 25
3.355711195479738
 35
0.0
 40
0.0
1001
ACAD
1000
DSTYLE
1002
{
1070
   288
1070
     1
1002
}
  0
LEADER
  5
22C
330
58
100
AcDbEntity
 67
     1
  8
0
 48
0.3
100
AcDbLeader
  3
Standard
 73
     0
 40
0.125
 41
1.749999999999999
 76
     3
 10
5.563587591894783
 20
3.161330320764252
 30
0.0
 10
6.690304374089741
 20
3.6564691885916
 30
0.0
 10
6.841877859811069
 20
3.6564691885916
 30
0.0
340
22D
213
0.0
223
-0.0625
233
0.0
1001
ACAD
1000
DSTYLE
1002
{
1070
   147
1040
0.09
1070
    77
1070
     0
1002
}
  0
MTEXT
  5
22D
102
{ACAD_REACTORS
330
22C
102
}
330
58
100
AcDbEntity
 67
     1
  8
0
 48
0.3
100
AcDbMText
 10
6.93187785981107
 20
3.7189691885916
 30
0.0
 40
0.125
 41
0.0
 71
     1
 72
     1
  1
(4) 1/4-20 @ 90°
 73
     1
 44
1.0
  0
LINE
  5
25C
102
{ACAD_REACTORS
330
5F7
102
}
330
58
100
AcDbEntity
 67
     1
  8
0
  6
HIDDENX2
 48
0.3
100
AcDbLine
 10
5.356587591894784
 20
4.047649914940648
 30
0.0
 11
5.356587591894784
 21
2.272649914940648
 31
0.0
  0
LINE
  5
26F
330
58
100
AcDbEntity
 67
     1
  8
0
  6
HIDDENX2
 48
0.3
100
AcDbLine
 10
6.407587591894782
 20
3.88683032076425
 30
0.0
 11
6.407587591894782
 21
3.88683032076425
 31
0.0
  0
CIRCLE
  5
28D
330
58
100
AcDbEntity
 67
     1
  8
0
 48
0.3
100
AcDbCircle
 10
1.950127285364056
 20
3.161330320764252
 30
0.0
 40
0.7254999999999999
  0
LINE
  5
28E
330
58
100
AcDbEntity
 67
     1
  8
0
 48
0.3
100
AcDbLine
 10
6.407587591894782
 20
3.88683032076425
 30
0.0
 11
6.407587591894782
 21
4.169830320764251
 31
0.0
  0
LINE
  5
28F
330
58
100
AcDbEntity
 67
     1
  8
0
 48
0.3
100
AcDbLine
 10
6.407587591894782
 20
3.88683032076425
 30
0.0
 11
6.407587591894782
 21
2.152830320764251
 31
0.0
  0
LINE
  5
2BB
330
58
100
AcDbEntity
 67
     1
  8
0
 48
0.3
100
AcDbLine
 10
5.844587591894782
 20
4.424330320764251
 30
0.0
 11
6.407587591894782
 21
4.424330320764251
 31
0.0
  0
LINE
  5
2BC
330
58
100
AcDbEntity
 67
     1
  8
0
 48
0.3
100
AcDbLine
 10
6.407587591894782
 20
4.424330320764251
 30
0.0
 11
6.407587591894782
 21
4.169830320764251
 31
0.0
  0
LINE
  5
2BE
330
58
100
AcDbEntity
 67
     1
  8
0
 48
0.3
100
AcDbLine
 10
5.844587591894782
 20
1.898330320764253
 30
0.0
 11
6.407587591894784
 21
1.898330320764253
 31
0.0
  0
LINE
  5
2BF
330
58
100
AcDbEntity
 67
     1
  8
0
 48
0.3
100
AcDbLine
 10
6.407587591894784
 20
1.898330320764253
 30
0.0
 11
6.407587591894782
 21
2.152830320764251
 31
0.0
  0
CIRCLE
  5
2F4
330
58
100
AcDbEntity
 67
     1
  8
0
 48
0.3
100
AcDbCircle
 10
1.243020504177509
 20
3.868437101950801
 30
0.0
 40
0.1405
  0
CIRCLE
  5
2F5
102
{ACAD_REACTORS
330
541
102
}
330
58
100
AcDbEntity
 67
     1
  8
0
 48
0.3
100
AcDbCircle
 10
2.657234066550603
 20
3.868437101950802
 30
0.0
 40
0.1405
  0
CIRCLE
  5
2F6
102
{ACAD_REACTORS
330
4F7
102
}
330
58
100
AcDbEntity
 67
     1
  8
0
 48
0.3
100
AcDbCircle
 10
2.657234066550604
 20
2.454223539577706
 30
0.0
 40
0.1405
  0
CIRCLE
  5
2F7
330
58
100
AcDbEntity
 67
     1
  8
0
 48
0.3
100
AcDbCircle
 10
1.243020504177508
 20
2.454223539577705
 30
0.0
 40
0.1405
  0
LINE
  5
2FB
102
{ACAD_REACTORS
330
3B7
102
}
330
58
100
AcDbEntity
 67
     1
  8
0
  6
HIDDENX2
 48
0.3
100
AcDbLine
 10
6.407587591894782
 20
4.335330320764254
 30
0.0
 11
6.207587591894783
 21
4.335330320764254
 31
0.0
  0
LINE
  5
2FD
330
58
100
AcDbEntity
 67
     1
  8
0
  6
HIDDENX2
 48
0.3
100
AcDbLine
 10
6.207587591894783
 20
4.047330320764253
 30
0.0
 11
6.407587591894782
 21
4.047330320764253
 31
0.0
  0
LINE
  5
2FF
330
58
100
AcDbEntity
 67
     1
  8
0
  6
HIDDENX2
 48
0.3
100
AcDbLine
 10
6.407587591894782
 20
1.987330320764252
 30
0.0
 11
6.207587591894783
 21
1.987330320764252
 31
0.0
  0
LINE
  5
301
330
58
100
AcDbEntity
 67
     1
  8
0
  6
HIDDENX2
 48
0.3
100
AcDbLine
 10
6.207587591894783
 20
2.275330320764253
 30
0.0
 11
6.407587591894782
 21
2.275330320764253
 31
0.0
  0
LINE
  5
303
330
58
100
AcDbEntity
 67
     1
  8
0
  6
HIDDENX2
 48
0.3
100
AcDbLine
 10
5.844587591894782
 20
4.271330320764254
 30
0.0
 11
6.207587591894783
 21
4.271330320764254
 31
0.0
  0
LINE
  5
305
330
58
100
AcDbEntity
 67
     1
  8
0
  6
HIDDENX2
 48
0.3
100
AcDbLine
 10
5.844587591894782
 20
4.111330320764254
 30
0.0
 11
6.207587591894783
 21
4.111330320764254
 31
0.0
  0
LINE
  5
307
330
58
100
AcDbEntity
 67
     1
  8
0
  6
HIDDENX2
 48
0.3
100
AcDbLine
 10
5.844587591894782
 20
2.211330320764253
 30
0.0
 11
6.207587591894783
 21
2.211330320764253
 31
0.0
  0
LINE
  5
309
102
{ACAD_REACTORS
330
39D
102
}
330
58
100
AcDbEntity
 67
     1
  8
0
  6
HIDDENX2
 48
0.3
100
AcDbLine
 10
5.844587591894782
 20
2.051330320764252
 30
0.0
 11
6.207587591894783
 21
2.051330320764252
 31
0.0
  0
LINE
  5
30A
330
58
100
AcDbEntity
 67
     1
  8
0
  6
threads
 48
0.3
100
AcDbLine
 10
5.844587591894782
 20
4.259330320764253
 30
0.0
 11
5.469587591894782
 21
4.259330320764253
 31
0.0
  0
LINE
  5
30B
330
58
100
AcDbEntity
 67
     1
  8
0
  6
threads
 48
0.3
100
AcDbLine
 10
5.844587591894782
 20
4.123330320764255
 30
0.0
 11
5.469587591894782
 21
4.123330320764255
 31
0.0
  0
LINE
  5
30C
330
58
100
AcDbEntity
 67
     1
  8
0
  6
threads
 48
0.3
100
AcDbLine
 10
5.844587591894782
 20
2.199330320764253
 30
0.0
 11
5.469587591894782
 21
2.199330320764253
 31
0.0
  0
LINE
  5
30D
330
58
100
AcDbEntity
 67
     1
  8
0
  6
threads
 48
0.3
100
AcDbLine
 10
5.844587591894782
 20
2.063330320764252
 30
0.0
 11
5.469587591894782
 21
2.063330320764252
 31
0.0
  0
LINE
  5
30E
330
58
100
AcDbEntity
 67
     1
  8
0
  6
HIDDENX2
 48
0.3
100
AcDbLine
 10
5.469587591894782
 20
4.259330320764253
 30
0.0
 11
5.469587591894782
 21
4.123330320764255
 31
0.0
  0
LINE
  5
30F
102
{ACAD_REACTORS
330
39D
102
}
330
58
100
AcDbEntity
 67
     1
  8
0
  6
HIDDENX2
 48
0.3
100
AcDbLine
 10
5.469587591894782
 20
2.199330320764253
 30
0.0
 11
5.469587591894782
 21
2.063330320764252
 31
0.0
  0
CIRCLE
  5
311
102
{ACAD_REACTORS
330
557
102
}
330
58
100
AcDbEntity
 67
     1
  8
0
 48
0.3
100
AcDbCircle
 10
2.657234066550603
 20
3.868437101950802
 30
0.0
 40
0.0855
  0
CIRCLE
  5
312
330
58
100
AcDbEntity
 67
     1
  8
0
 48
0.3
100
AcDbCircle
 10
2.657234066550604
 20
2.454223539577706
 30
0.0
 40
0.0855
  0
CIRCLE
  5
313
330
58
100
AcDbEntity
 67
     1
  8
0
 48
0.3
100
AcDbCircle
 10
1.243020504177508
 20
2.454223539577705
 30
0.0
 40
0.0855
  0
MTEXT
  5
315
102
{ACAD_REACTORS
330
314
102
}
330
58
100
AcDbEntity
 67
     1
  8
0
 48
0.3
100
AcDbMText
 10
1.847127079291214
 20
0.9552203496772619
 30
0.0
 40
0.125
 41
0.0
 71
     1
 72
     1
  1
(4) 8-32 @ 90°\Pon 2.050 B.C.
 73
     1
 44
1.0
  0
DIMENSION
  5
384
102
{ACAD_XDICTIONARY
360
392
102
}
102
{ACAD_REACTORS
330
39D
102
}
330
58
100
AcDbEntity
 67
     1
  8
0
 48
0.3
100
AcDbDimension
  2
*D9
 10
5.469587591894782
 20
1.28972416676647
 30
0.0
 11
4.890004258561448
 21
1.28972416676647
 31
0.0
 70
    32
 71
     5
 42
0.375
  3
Standard
100
AcDbAlignedDimension
 13
5.844587591894782
 23
2.051330320764252
 33
0.0
 14
5.469587591894782
 24
2.063330320764252
 34
0.0
100
AcDbRotatedDimension
  0
DIMENSION
  5
39E
102
{ACAD_XDICTIONARY
360
3AC
102
}
102
{ACAD_REACTORS
330
3B7
102
}
330
58
100
AcDbEntity
 67
     1
  8
0
 48
0.3
100
AcDbDimension
  2
*D10
 10
6.407587591894782
 20
4.826077572665139
 30
0.0
 11
6.966337591894782
 21
4.826077572665139
 31
0.0
 70
    32
 71
     5
 42
0.1999999999999993
  3
Standard
100
AcDbAlignedDimension
 13
6.207587591894783
 23
4.335330320764254
 33
0.0
 14
6.407587591894782
 24
4.335330320764254
 34
0.0
100
AcDbRotatedDimension
  0
LINE
  5
448
330
58
100
AcDbEntity
 67
     1
  8
0
  6
HIDDENX2
 48
0.3
100
AcDbLine
 10
6.207587591894783
 20
4.335330320764254
 30
0.0
 11
6.207587591894783
 21
4.047330320764253
 31
0.0
  0
LINE
  5
449
330
58
100
AcDbEntity
 67
     1
  8
0
  6
HIDDENX2
 48
0.3
100
AcDbLine
 10
6.207587591894783
 20
2.275330320764253
 30
0.0
 11
6.207587591894783
 21
1.987330320764252
 31
0.0
  0
MTEXT
  5
44A
330
58
100
AcDbEntity
 67
     1
  8
0
  6
HIDDENX2
 48
0.3
100
AcDbMText
 10
-1.132425642565173
 20
0.4912208340770015
 30
0.0
 40
0.1
 41
5.3608
 71
     1
 72
     5
  1
Econobelt.com Part #s\P50T XL pulley - QPMXLA37050N10\P          or - QPEXLA37050N12\P          or - QPEXLA37050N16\P40T XL pulley - QPMXLA37040N08\P          or - QPEXLA37040N12\P          or - QPEXLA37040N16
 73
     1
 44
1.0
  0
CIRCLE
  5
466
102
{ACAD_REACTORS
330
50D
102
}
330
58
100
AcDbEntity
 67
     1
  8
0
  6
HIDDENX2
 48
0.3
100
AcDbCircle
 10
1.950127285364057
 20
3.161330320764252
 30
0.0
 40
0.8859999999999999
  0
LINE
  5
469
330
58
100
AcDbEntity
 67
     1
  8
0
 48
0.3
100
AcDbLine
 10
6.407587591894783
 20
4.047330320764253
 30
0.0
 11
6.577587591894783
 21
4.047330320764253
 31
0.0
  0
LINE
  5
46A
102
{ACAD_REACTORS
330
4B8
330
59B
102
}
330
58
100
AcDbEntity
 67
     1
  8
0
 48
0.3
100
AcDbLine
 10
6.577587591894783
 20
4.047330320764253
 30
0.0
 11
6.577587591894783
 21
2.275330320764253
 31
0.0
  0
LINE
  5
46B
102
{ACAD_REACTORS
330
4D2
102
}
330
58
100
AcDbEntity
 67
     1
  8
0
 48
0.3
100
AcDbLine
 10
6.577587591894783
 20
2.275330320764253
 30
0.0
 11
6.407587591894782
 21
2.275330320764253
 31
0.0
  0
LINE
  5
482
330
58
100
AcDbEntity
 67
     1
  8
0
 48
0.3
100
AcDbLine
 10
6.577587591894783
 20
3.886330320764253
 30
0.0
 11
6.777587591894783
 21
3.886330320764253
 31
0.0
  0
LINE
  5
483
102
{ACAD_REACTORS
330
49E
330
4B8
330
4D2
330
59F
102
}
330
58
100
AcDbEntity
 67
     1
  8
0
 48
0.3
100
AcDbLine
 10
6.777587591894783
 20
3.886330320764253
 30
0.0
 11
6.777587591894783
 21
2.436330320764253
 31
0.0
  0
LINE
  5
484
330
58
100
AcDbEntity
 67
     1
  8
0
 48
0.3
100
AcDbLine
 10
6.777587591894783
 20
2.436330320764253
 30
0.0
 11
6.577587591894783
 21
2.436330320764253
 31
0.0
  0
DIMENSION
  5
485
102
{ACAD_XDICTIONARY
360
493
102
}
102
{ACAD_REACTORS
330
49E
102
}
330
58
100
AcDbEntity
 67
     1
  8
0
 48
0.3
100
AcDbDimension
  2
*D15
 10
6.777587591894783
 20
0.1927793289412811
 30
0.0
 11
6.029587591894783
 21
0.1927793289412811
 31
0.0
 70
    32
 71
     5
 42
1.496000000000001
  3
Standard
100
AcDbAlignedDimension
 13
5.281587591894782
 23
1.579830320764253
 33
0.0
 14
6.777587591894783
 24
2.436330320764253
 34
0.0
100
AcDbRotatedDimension
  0
DIMENSION
  5
49F
102
{ACAD_XDICTIONARY
360
4AD
102
}
102
{ACAD_REACTORS
330
4B8
102
}
330
58
100
AcDbEntity
 67
     1
  8
0
 48
0.3
100
AcDbDimension
  2
*D16
 10
6.777587591894783
 20
0.9038327917820687
 30
0.0
 11
7.336337591894783
 21
0.9038327917820687
 31
0.0
 70
    32
 71
     5
 42
0.2000000000000002
  3
Standard
100
AcDbAlignedDimension
 13
6.577587591894783
 23
2.275330320764253
 33
0.0
 14
6.777587591894783
 24
2.436330320764253
 34
0.0
100
AcDbRotatedDimension
  0
DIMENSION
  5
4B9
102
{ACAD_XDICTIONARY
360
4C7
102
}
102
{ACAD_REACTORS
330
4D2
102
}
330
58
100
AcDbEntity
 67
     1
  8
0
 48
0.3
100
AcDbDimension
  2
*D17
 10
6.777587591894783
 20
1.555631816908004
 30
0.0
 11
7.34675425856145
 21
1.555631816908004
 31
0.0
 70
    32
 71
     5
 42
0.370000000000001
  3
Standard
100
AcDbAlignedDimension
 13
6.407587591894782
 23
2.275330320764253
 33
0.0
 14
6.777587591894783
 24
2.436330320764253
 34
0.0
100
AcDbRotatedDimension
  0
CIRCLE
  5
4E3
330
58
100
AcDbEntity
 67
     1
  8
0
 48
0.3
100
AcDbCircle
 10
1.243020504177509
 20
3.868437101950801
 30
0.0
 40
0.0855
  0
LINE
  5
4E6
330
58
100
AcDbEntity
 67
     1
  8
0
  6
threads
 48
0.3
100
AcDbLine
 10
2.040127285364055
 20
3.956754892926817
 30
0.0
 11
2.040127285364055
 21
4.740267384107816
 31
0.0
  0
LINE
  5
4E8
330
58
100
AcDbEntity
 67
     1
  8
0
  6
threads
 48
0.3
100
AcDbLine
 10
1.860127285364056
 20
3.956754892926817
 30
0.0
 11
1.860127285364056
 21
4.740267384107816
 31
0.0
  0
LINE
  5
4EA
330
58
100
AcDbEntity
 67
     1
  8
0
  6
threads
 48
0.3
100
AcDbLine
 10
2.040127285364058
 20
2.365905748601687
 30
0.0
 11
2.040127285364058
 21
1.579839688108299
 31
0.0
  0
LINE
  5
4EC
330
58
100
AcDbEntity
 67
     1
  8
0
  6
threads
 48
0.3
100
AcDbLine
 10
1.860127285364055
 20
2.365905748601687
 30
0.0
 11
1.860127285364055
 21
1.582393257420687
 31
0.0
  0
LINE
  5
4EE
330
58
100
AcDbEntity
 67
     1
  8
0
  6
threads
 48
0.3
100
AcDbLine
 10
2.744293514814792
 20
3.261830320764252
 30
0.0
 11
3.528430804969838
 21
3.261830320764252
 31
0.0
  0
LINE
  5
4F0
330
58
100
AcDbEntity
 67
     1
  8
0
  6
threads
 48
0.3
100
AcDbLine
 10
2.745551857526621
 20
3.071330320764253
 30
0.0
 11
3.52906434870762
 21
3.071330320764253
 31
0.0
  0
LINE
  5
4F2
330
58
100
AcDbEntity
 67
     1
  8
0
  6
threads
 48
0.3
100
AcDbLine
 10
1.15470271320149
 20
3.251330320764251
 30
0.0
 11
0.3711902220204912
 21
3.251330320764251
 31
0.0
  0
LINE
  5
4F4
330
58
100
AcDbEntity
 67
     1
  8
0
  6
threads
 48
0.3
100
AcDbLine
 10
1.15470271320149
 20
3.071330320764252
 30
0.0
 11
0.3711902220204912
 21
3.071330320764252
 31
0.0
  0
LEADER
  5
4F5
102
{ACAD_XDICTIONARY
360
4F6
102
}
102
{ACAD_REACTORS
330
4F7
102
}
330
58
100
AcDbEntity
 67
     1
  8
0
 48
0.3
100
AcDbLeader
  3
Standard
 76
     2
 10
2.657234066550604
 20
2.454223539577706
 30
0.0
 10
2.657234066550603
 20
1.147978339408222
 30
0.0
1001
ACAD
1000
DSTYLE
1002
{
1070
   147
1040
0.09
1070
    77
1070
     0
1002
}
  0
DIMENSION
  5
4F8
102
{ACAD_XDICTIONARY
360
504
102
}
102
{ACAD_REACTORS
330
50D
102
}
330
58
100
AcDbEntity
 67
     1
  8
0
 48
0.3
100
AcDbDimension
  2
*D18
 10
1.16489942876282
 20
2.750948531186026
 30
0.0
 11
4.264352790822228
 21
4.106010549305739
 31
0.0
 70
   163
 71
     5
 42
1.771999999999998
  3
Standard
100
AcDbDiametricDimension
 15
2.735355141965293
 25
3.571712110342478
 35
0.0
 40
0.0
1001
ACAD
1000
DSTYLE
1002
{
1070
   288
1070
     1
1002
}
  0
DIMENSION
  5
50E
330
58
100
AcDbEntity
 67
     1
  8
0
 48
0.3
100
AcDbDimension
  2
*D19
 10
1.246846449618042
 20
2.985202338681943
 30
0.0
 11
3.93427290557414
 21
3.658235037177226
 31
0.0
 70
   163
 71
     5
 42
1.450000000000001
  3
Standard
100
AcDbDiametricDimension
 15
2.653408121110074
 25
3.33745830284656
 35
0.0
 40
0.0
1001
ACAD
1000
DSTYLE
1002
{
1070
   288
1070
     1
1002
}
  0
DIMENSION
  5
52C
102
{ACAD_XDICTIONARY
360
538
102
}
102
{ACAD_REACTORS
330
541
102
}
330
58
100
AcDbEntity
 67
     1
  8
0
 48
0.3
100
AcDbDimension
  2
*D20
 10
2.620056994770698
 20
3.732944979176554
 30
0.0
 11
3.513828290594481
 21
5.105787142849213
 31
0.0
 70
   163
 71
     5
 42
0.2809999999999997
  3
Standard
100
AcDbDiametricDimension
 15
2.694411138330506
 25
4.003929224725048
 35
0.0
 40
0.0
1001
ACAD
1000
DSTYLE
1002
{
1070
   288
1070
     1
1002
}
  0
DIMENSION
  5
542
102
{ACAD_XDICTIONARY
360
54E
102
}
102
{ACAD_REACTORS
330
557
102
}
330
58
100
AcDbEntity
 67
     1
  8
0
 48
0.3
100
AcDbDimension
  2
*D21
 10
2.60950469292966
 20
3.797499404682336
 30
0.0
 11
3.682475393569291
 21
4.685613032574668
 31
0.0
 70
   163
 71
     5
 42
0.1709999999999994
  3
Standard
100
AcDbDiametricDimension
 15
2.704963440171546
 25
3.939374799219266
 35
0.0
 40
0.0
1001
ACAD
1000
DSTYLE
1002
{
1070
   288
1070
     1
1002
}
  0
LEADER
  5
598
102
{ACAD_XDICTIONARY
360
59A
102
}
102
{ACAD_REACTORS
330
59B
102
}
330
58
100
AcDbEntity
 67
     1
  8
0
 48
0.3
100
AcDbLeader
  3
Standard
 73
     0
 40
0.125
 41
0.5833333333333334
 76
     3
 10
6.577587591894783
 20
4.047330320764253
 30
0.0
 10
7.39245584894143
 20
4.520934213400167
 30
0.0
 10
7.578372349849011
 20
4.520934213400167
 30
0.0
340
599
213
0.0
223
-0.0625
233
0.0
1001
ACAD
1000
DSTYLE
1002
{
1070
   147
1040
0.09
1070
    77
1070
     0
1002
}
  0
MTEXT
  5
599
102
{ACAD_REACTORS
330
598
102
}
330
58
100
AcDbEntity
 67
     1
  8
0
 48
0.3
100
AcDbMText
 10
7.668372349849011
 20
4.583434213400167
 30
0.0
 40
0.125
 41
0.0
 71
     1
 72
     1
  1
\A1;%%c1.772
 73
     1
 44
1.0
  0
LEADER
  5
59C
102
{ACAD_XDICTIONARY
360
59E
102
}
102
{ACAD_REACTORS
330
59F
102
}
330
58
100
AcDbEntity
 67
     1
  8
0
 48
0.3
100
AcDbLeader
  3
Standard
 73
     0
 40
0.125
 41
0.5625
 76
     3
 10
6.777587591894783
 20
3.886330320764253
 30
0.0
 10
7.454427999998856
 20
4.288789150946552
 30
0.0
 10
7.640344500906444
 20
4.288789150946552
 30
0.0
340
59D
213
0.0
223
-0.0625
233
0.0
1001
ACAD
1000
DSTYLE
1002
{
1070
   147
1040
0.09
1070
    77
1070
     0
1002
}
  0
MTEXT
  5
59D
102
{ACAD_REACTORS
330
59C
102
}
330
58
100
AcDbEntity
 67
     1
  8
0
 48
0.3
100
AcDbMText
 10
7.730344500906443
 20
4.351289150946552
 30
0.0
 40
0.125
 41
0.0
 71
     1
 72
     1
  1
%%C1.450
 73
     1
 44
1.0
  0
CIRCLE
  5
5B1
102
{ACAD_REACTORS
330
5D6
102
}
330
58
100
AcDbEntity
 67
     1
  8
0
 48
0.3
100
AcDbCircle
 10
1.950127285364055
 20
3.161330320764252
 30
0.0
 40
0.4265
  0
LINE
  5
5B2
102
{ACAD_REACTORS
330
5F7
102
}
330
58
100
AcDbEntity
 67
     1
  8
0
  6
HIDDENX2
 48
0.3
100
AcDbLine
 10
5.356587591894784
 20
4.047649914940648
 30
0.0
 11
5.281587591894782
 21
4.047649914940648
 31
0.0
  0
LINE
  5
5B3
330
58
100
AcDbEntity
 67
     1
  8
0
  6
HIDDENX2
 48
0.3
100
AcDbLine
 10
5.356587591894784
 20
2.272649914940648
 30
0.0
 11
5.356587591894784
 21
2.272649914940648
 31
0.0
  0
LINE
  5
5B4
330
58
100
AcDbEntity
 67
     1
  8
0
  6
HIDDENX2
 48
0.3
100
AcDbLine
 10
5.356587591894784
 20
2.272649914940648
 30
0.0
 11
5.281587591894782
 21
2.272649914940648
 31
0.0
  0
LINE
  5
5B6
330
58
100
AcDbEntity
 67
     1
  8
0
  6
HIDDENX2
 48
0.3
100
AcDbLine
 10
5.356587591894784
 20
3.587830320764251
 30
0.0
 11
6.777587591894783
 21
3.587830320764251
 31
0.0
  0
LINE
  5
5B8
330
58
100
AcDbEntity
 67
     1
  8
0
  6
HIDDENX2
 48
0.3
100
AcDbLine
 10
5.356587591894784
 20
2.734830320764252
 30
0.0
 11
6.777587591894783
 21
2.734830320764252
 31
0.0
  0
LINE
  5
5B9
330
58
100
AcDbEntity
 67
     1
  8
0
  6
threads
 48
0.3
100
AcDbLine
 10
1.860127285364056
 20
3.956754892926817
 30
0.0
 11
1.860127285364056
 21
3.578226291001432
 31
0.0
  0
LINE
  5
5BA
330
58
100
AcDbEntity
 67
     1
  8
0
  6
threads
 48
0.3
100
AcDbLine
 10
2.040127285364055
 20
3.956754892926817
 30
0.0
 11
2.040127285364055
 21
3.578226291001432
 31
0.0
  0
LINE
  5
5BB
330
58
100
AcDbEntity
 67
     1
  8
0
  6
threads
 48
0.3
100
AcDbLine
 10
2.745551857526621
 20
3.071330320764253
 30
0.0
 11
2.367023255601236
 21
3.071330320764253
 31
0.0
  0
LINE
  5
5BC
330
58
100
AcDbEntity
 67
     1
  8
0
  6
threads
 48
0.3
100
AcDbLine
 10
2.744293514814792
 20
3.261830320764252
 30
0.0
 11
2.364617333495491
 21
3.261830320764252
 31
0.0
  0
LINE
  5
5BD
330
58
100
AcDbEntity
 67
     1
  8
0
  6
threads
 48
0.3
100
AcDbLine
 10
2.040127285364058
 20
2.365905748601687
 30
0.0
 11
2.040127285364058
 21
2.744434350527072
 31
0.0
  0
LINE
  5
5BE
330
58
100
AcDbEntity
 67
     1
  8
0
  6
threads
 48
0.3
100
AcDbLine
 10
1.860127285364055
 20
2.365905748601687
 30
0.0
 11
1.860127285364055
 21
2.744434350527071
 31
0.0
  0
LINE
  5
5BF
330
58
100
AcDbEntity
 67
     1
  8
0
  6
threads
 48
0.3
100
AcDbLine
 10
1.15470271320149
 20
3.071330320764252
 30
0.0
 11
1.533231315126875
 21
3.071330320764252
 31
0.0
  0
LINE
  5
5C0
330
58
100
AcDbEntity
 67
     1
  8
0
  6
threads
 48
0.3
100
AcDbLine
 10
1.15470271320149
 20
3.251330320764251
 30
0.0
 11
1.533231315126875
 21
3.251330320764251
 31
0.0
  0
DIMENSION
  5
5C1
102
{ACAD_XDICTIONARY
360
5CD
102
}
102
{ACAD_REACTORS
330
5D6
102
}
330
58
100
AcDbEntity
 67
     1
  8
0
 48
0.3
100
AcDbDimension
  2
*D24
 10
1.575122443748876
 20
3.364489417939775
 30
0.0
 11
4.144143933055147
 21
2.252850695004966
 31
0.0
 70
   163
 71
     5
 42
0.8529999999999997
  3
Standard
100
AcDbDiametricDimension
 15
2.325132126979236
 25
2.958171223588729
 35
0.0
 40
0.0
1001
ACAD
1000
DSTYLE
1002
{
1070
   288
1070
     1
1002
}
  0
DIMENSION
  5
5DE
102
{ACAD_XDICTIONARY
360
5EC
102
}
102
{ACAD_REACTORS
330
5F7
102
}
330
58
100
AcDbEntity
 67
     1
  8
0
 48
0.3
100
AcDbDimension
  2
*D25
 10
5.281587591894782
 20
5.061654307209103
 30
0.0
 11
4.712420925228116
 21
5.061654307209103
 31
0.0
 70
    32
 71
     5
 42
0.0750000000000011
  3
Standard
100
AcDbAlignedDimension
 13
5.356587591894784
 23
4.047649914940648
 33
0.0
 14
5.281587591894782
 24
4.047649914940648
 34
0.0
100
AcDbRotatedDimension
  0
ENDSEC
  0
SECTION
  2
OBJECTS
  0
DICTIONARY
  5
C
330
0
100
AcDbDictionary
281
     1
  3
ACAD_GROUP
350
D
  3
ACAD_LAYOUT
350
1A
  3
ACAD_MLINESTYLE
350
17
  3
ACAD_PLOTSETTINGS
350
19
  3
ACAD_PLOTSTYLENAME
350
E
  3
AcadDim
350
22B
  3
AcDbVariableDictionary
350
66
  0
DICTIONARY
  5
158
330
14A
100
AcDbDictionary
280
     1
281
     1
  3
ACAD_DIMASSOC
360
163
  0
DICTIONARY
  5
18A
330
17E
100
AcDbDictionary
280
     1
281
     1
  3
ACAD_DIMASSOC
360
193
  0
DICTIONARY
  5
1A0
330
194
100
AcDbDictionary
280
     1
281
     1
  3
ACAD_DIMASSOC
360
1A9
  0
DICTIONARY
  5
392
330
384
100
AcDbDictionary
280
     1
281
     1
  3
ACAD_DIMASSOC
360
39D
  0
DICTIONARY
  5
3AC
330
39E
100
AcDbDictionary
280
     1
281
     1
  3
ACAD_DIMASSOC
360
3B7
  0
DICTIONARY
  5
493
330
485
100
AcDbDictionary
280
     1
281
     1
  3
ACAD_DIMASSOC
360
49E
  0
DICTIONARY
  5
4AD
330
49F
100
AcDbDictionary
280
     1
281
     1
  3
ACAD_DIMASSOC
360
4B8
  0
DICTIONARY
  5
4C7
330
4B9
100
AcDbDictionary
280
     1
281
     1
  3
ACAD_DIMASSOC
360
4D2
  0
DICTIONARY
  5
4F6
330
4F5
100
AcDbDictionary
280
     1
281
     1
  3
ACAD_DIMASSOC
360
4F7
  0
DICTIONARY
  5
504
330
4F8
100
AcDbDictionary
280
     1
281
     1
  3
ACAD_DIMASSOC
360
50D
  0
DICTIONARY
  5
538
330
52C
100
AcDbDictionary
280
     1
281
     1
  3
ACAD_DIMASSOC
360
541
  0
DICTIONARY
  5
54E
330
542
100
AcDbDictionary
280
     1
281
     1
  3
ACAD_DIMASSOC
360
557
  0
DICTIONARY
  5
59A
330
598
100
AcDbDictionary
280
     1
281
     1
  3
ACAD_DIMASSOC
360
59B
  0
DICTIONARY
  5
59E
330
59C
100
AcDbDictionary
280
     1
281
     1
  3
ACAD_DIMASSOC
360
59F
  0
DICTIONARY
  5
5CD
330
5C1
100
AcDbDictionary
280
     1
281
     1
  3
ACAD_DIMASSOC
360
5D6
  0
DICTIONARY
  5
5EC
330
5DE
100
AcDbDictionary
280
     1
281
     1
  3
ACAD_DIMASSOC
360
5F7
  0
DICTIONARY
  5
D
102
{ACAD_REACTORS
330
C
102
}
330
C
100
AcDbDictionary
281
     1
  0
DICTIONARY
  5
1A
102
{ACAD_REACTORS
330
C
102
}
330
C
100
AcDbDictionary
281
     1
  3
Layout1
350
59
  3
Layout2
350
5E
  3
Model
350
22
  0
DICTIONARY
  5
17
102
{ACAD_REACTORS
330
C
102
}
330
C
100
AcDbDictionary
281
     1
  3
Standard
350
18
  0
DICTIONARY
  5
19
102
{ACAD_REACTORS
330
C
102
}
330
C
100
AcDbDictionary
281
     1
  0
ACDBDICTIONARYWDFLT
  5
E
102
{ACAD_REACTORS
330
C
102
}
330
C
100
AcDbDictionary
281
     1
  3
Normal
350
F
100
AcDbDictionaryWithDefault
340
F
  0
XRECORD
  5
22B
102
{ACAD_REACTORS
330
C
102
}
330
C
100
AcDbXrecord
280
     1
 90
   990106
  3

 60
     0
 61
     0
 62
     1
 63
     3
 64
     0
 65
     0
 66
     0
 67
     3
 68
     1
 69
     0
 70
     0
 71
     0
 72
     0
 40
0.0
170
     0
340
59D
  0
DICTIONARY
  5
66
102
{ACAD_REACTORS
330
C
102
}
330
C
100
AcDbDictionary
281
     1
  3
DIMASSOC
350
67
  3
HIDETEXT
350
6B
  0
DIMASSOC
  5
163
102
{ACAD_REACTORS
330
158
102
}
330
158
100
AcDbDimAssoc
330
14A
 90
        2
 70
     0
 71
     0
  1
AcDbOsnapPointRef
 72
     1
331
BC
 73
     2
 91
        0
 40
1.0
 10
5.281587591894782
 20
4.742830320764253
 30
0.0
 75
     0
  0
DIMASSOC
  5
193
102
{ACAD_REACTORS
330
18A
102
}
330
18A
100
AcDbDimAssoc
330
17E
 90
        2
 70
     0
 71
     0
  1
AcDbOsnapPointRef
 72
     3
331
B3
 73
     2
 91
        0
 40
0.0
 10
1.950127285364055
 20
3.161330320764252
 30
0.0
 75
     0
  0
DIMASSOC
  5
1A9
102
{ACAD_REACTORS
330
1A0
102
}
330
1A0
100
AcDbDimAssoc
330
194
 90
        2
 70
     0
 71
     0
  1
AcDbOsnapPointRef
 72
     3
331
B4
 73
     2
 91
        0
 40
0.0
 10
1.950127285364055
 20
3.161330320764252
 30
0.0
 75
     0
  0
DIMASSOC
  5
39D
102
{ACAD_REACTORS
330
392
102
}
330
392
100
AcDbDimAssoc
330
384
 90
        3
 70
     0
 71
     0
  1
AcDbOsnapPointRef
 72
    13
331
309
 73
     2
 91
        0
 40
0.0
 10
5.844587591894782
 20
2.051330320764252
 30
0.0
 75
     0
  1
AcDbOsnapPointRef
 72
     1
331
30F
 73
     2
 91
        0
 40
1.0
 10
5.469587591894782
 20
2.063330320764252
 30
0.0
 75
     0
  0
DIMASSOC
  5
3B7
102
{ACAD_REACTORS
330
3AC
102
}
330
3AC
100
AcDbDimAssoc
330
39E
 90
        3
 70
     0
 71
     0
  1
AcDbOsnapPointRef
 72
     1
331
2FB
 73
     2
 91
        0
 40
1.0
 10
6.207587591894783
 20
4.335330320764254
 30
0.0
 75
     0
  1
AcDbOsnapPointRef
 72
    13
331
2FB
 73
     2
 91
        0
 40
0.0
 10
6.407587591894782
 20
4.335330320764254
 30
0.0
 75
     0
  0
DIMASSOC
  5
49E
102
{ACAD_REACTORS
330
493
102
}
330
493
100
AcDbDimAssoc
330
485
 90
        3
 70
     0
 71
     0
  1
AcDbOsnapPointRef
 72
    13
331
BC
 73
     2
 91
        0
 40
0.0
 10
5.281587591894782
 20
1.579830320764253
 30
0.0
 75
     0
  1
AcDbOsnapPointRef
 72
     1
331
483
 73
     2
 91
        0
 40
1.0
 10
6.777587591894783
 20
2.436330320764253
 30
0.0
 75
     0
  0
DIMASSOC
  5
4B8
102
{ACAD_REACTORS
330
4AD
102
}
330
4AD
100
AcDbDimAssoc
330
49F
 90
        3
 70
     0
 71
     0
  1
AcDbOsnapPointRef
 72
     1
331
46A
 73
     2
 91
        0
 40
1.0
 10
6.577587591894783
 20
2.275330320764253
 30
0.0
 75
     0
  1
AcDbOsnapPointRef
 72
     1
331
483
 73
     2
 91
        0
 40
1.0
 10
6.777587591894783
 20
2.436330320764253
 30
0.0
 75
     0
  0
DIMASSOC
  5
4D2
102
{ACAD_REACTORS
330
4C7
102
}
330
4C7
100
AcDbDimAssoc
330
4B9
 90
        3
 70
     0
 71
     0
  1
AcDbOsnapPointRef
 72
     1
331
46B
 73
     2
 91
        0
 40
1.0
 10
6.407587591894782
 20
2.275330320764253
 30
0.0
 75
     0
  1
AcDbOsnapPointRef
 72
     1
331
483
 73
     2
 91
        0
 40
1.0
 10
6.777587591894783
 20
2.436330320764253
 30
0.0
 75
     0
  0
DIMASSOC
  5
4F7
102
{ACAD_REACTORS
330
4F6
102
}
330
4F6
100
AcDbDimAssoc
330
4F5
 90
        1
 70
     0
 71
     0
  1
AcDbOsnapPointRef
 72
     3
331
2F6
 73
     2
 91
        0
 40
0.0
 10
2.657234066550604
 20
2.454223539577706
 30
0.0
 75
     0
  0
DIMASSOC
  5
50D
102
{ACAD_REACTORS
330
504
102
}
330
504
100
AcDbDimAssoc
330
4F8
 90
        2
 70
     0
 71
     0
  1
AcDbOsnapPointRef
 72
     3
331
466
 73
     2
 91
        0
 40
0.0
 10
0.0
 20
0.0
 30
0.0
 75
     0
  0
DIMASSOC
  5
541
102
{ACAD_REACTORS
330
538
102
}
330
538
100
AcDbDimAssoc
330
52C
 90
        2
 70
     0
 71
     0
  1
AcDbOsnapPointRef
 72
     3
331
2F5
 73
     2
 91
        0
 40
0.0
 10
2.657234066550603
 20
3.868437101950802
 30
0.0
 75
     0
  0
DIMASSOC
  5
557
102
{ACAD_REACTORS
330
54E
102
}
330
54E
100
AcDbDimAssoc
330
542
 90
        2
 70
     0
 71
     0
  1
AcDbOsnapPointRef
 72
     3
331
311
 73
     2
 91
        0
 40
0.0
 10
0.0
 20
0.0
 30
0.0
 75
     0
  0
DIMASSOC
  5
59B
102
{ACAD_REACTORS
330
59A
102
}
330
59A
100
AcDbDimAssoc
330
598
 90
        1
 70
     0
 71
     0
  1
AcDbOsnapPointRef
 72
    13
331
46A
 73
     2
 91
        0
 40
0.0
 10
6.577587591894783
 20
4.047330320764253
 30
0.0
 75
     0
  0
DIMASSOC
  5
59F
102
{ACAD_REACTORS
330
59E
102
}
330
59E
100
AcDbDimAssoc
330
59C
 90
        1
 70
     0
 71
     0
  1
AcDbOsnapPointRef
 72
    13
331
483
 73
     2
 91
        0
 40
0.0
 10
6.777587591894783
 20
3.886330320764253
 30
0.0
 75
     0
  0
DIMASSOC
  5
5D6
102
{ACAD_REACTORS
330
5CD
102
}
330
5CD
100
AcDbDimAssoc
330
5C1
 90
        2
 70
     0
 71
     0
  1
AcDbOsnapPointRef
 72
     3
331
5B1
 73
     2
 91
        0
 40
0.0
 10
0.0
 20
0.0
 30
0.0
 75
     0
  0
DIMASSOC
  5
5F7
102
{ACAD_REACTORS
330
5EC
102
}
330
5EC
100
AcDbDimAssoc
330
5DE
 90
        3
 70
     0
 71
     0
  1
AcDbOsnapPointRef
 72
    13
331
25C
 73
     2
 91
        0
 40
0.0
 10
5.356587591894784
 20
4.047649914940648
 30
0.0
 75
     0
  1
AcDbOsnapPointRef
 72
     1
331
5B2
 73
     2
 91
        0
 40
1.0
 10
5.281587591894782
 20
4.047649914940648
 30
0.0
 75
     0
  0
LAYOUT
  5
59
102
{ACAD_REACTORS
330
1A
102
}
330
1A
100
AcDbPlotSettings
  1

  2
EPSON Stylus Photo R200 Series
  4
User256
  6

 40
3.757083177566528
 41
3.757076978683471
 42
3.757080078125
 43
3.757080078125
 44
215.8999938964842
 45
279.3999938964843
 46
38.35399999999999
 47
38.09999999999998
 48
0.0
 49
0.0
140
0.0
141
0.0
142
1.0
143
1.0
 70
   688
 72
     0
 73
     1
 74
     5
  7

 75
    16
147
1.0
148
0.0
149
0.0
100
AcDbLayout
  1
Layout1
 70
     1
 71
     1
 10
-1.647916538508858
 20
-1.657916660534115
 11
9.352083221195249
 21
6.842083099169991
 12
0.0
 22
0.0
 32
0.0
 14
-1.439262267973588
 24
-1.41285528304607
 34
0.0
 15
8.966538218833356
 25
6.396855050259421
 35
0.0
146
0.0
 13
0.0
 23
0.0
 33
0.0
 16
1.0
 26
0.0
 36
0.0
 17
0.0
 27
1.0
 37
0.0
 76
     0
330
58
331
77
  0
LAYOUT
  5
5E
102
{ACAD_REACTORS
330
1A
102
}
330
1A
100
AcDbPlotSettings
  1

  2
None
  4

  6

 40
0.0
 41
0.0
 42
0.0
 43
0.0
 44
0.0
 45
0.0
 46
0.0
 47
0.0
 48
0.0
 49
0.0
140
0.0
141
0.0
142
1.0
143
1.0
 70
   688
 72
     0
 73
     0
 74
     5
  7

 75
    16
147
1.0
148
0.0
149
0.0
100
AcDbLayout
  1
Layout2
 70
     1
 71
     2
 10
0.0
 20
0.0
 11
12.0
 21
9.0
 12
0.0
 22
0.0
 32
0.0
 14
0.0
 24
0.0
 34
0.0
 15
0.0
 25
0.0
 35
0.0
146
0.0
 13
0.0
 23
0.0
 33
0.0
 16
1.0
 26
0.0
 36
0.0
 17
0.0
 27
1.0
 37
0.0
 76
     0
330
5D
  0
LAYOUT
  5
22
102
{ACAD_REACTORS
330
1A
102
}
330
1A
100
AcDbPlotSettings
  1

  2
none_device
  4
ANSI_A_(8.50_x_11.00_Inches)
  6

 40
6.349999904632567
 41
19.04999923706053
 42
6.350006103515625
 43
19.04998779296875
 44
215.8999938964842
 45
279.3999938964843
 46
0.0
 47
0.0
 48
0.0
 49
0.0
140
0.0
141
0.0
142
1.0
143
2.584895464708373
 70
 11952
 72
     0
 73
     1
 74
     0
  7

 75
     0
147
0.3868628397755418
148
0.0
149
0.0
100
AcDbLayout
  1
Model
 70
     1
 71
     0
 10
0.0
 20
0.0
 11
12.0
 21
9.0
 12
0.0
 22
0.0
 32
0.0
 14
0.0
 24
0.0
 34
0.0
 15
0.0
 25
0.0
 35
0.0
146
0.0
 13
0.0
 23
0.0
 33
0.0
 16
1.0
 26
0.0
 36
0.0
 17
0.0
 27
1.0
 37
0.0
 76
     0
330
1F
  0
MLINESTYLE
  5
18
102
{ACAD_REACTORS
330
17
102
}
330
17
100
AcDbMlineStyle
  2
STANDARD
 70
     0
  3

 62
   256
 51
90.0
 52
90.0
 71
     2
 49
0.5
 62
   256
  6
BYLAYER
 49
-0.5
 62
   256
  6
BYLAYER
  0
ACDBPLACEHOLDER
  5
F
102
{ACAD_REACTORS
330
E
102
}
330
E
  0
DICTIONARYVAR
  5
67
102
{ACAD_REACTORS
330
66
102
}
330
66
100
DictionaryVariables
280
     0
  1
2
  0
DICTIONARYVAR
  5
6B
102
{ACAD_REACTORS
330
66
102
}
330
66
100
DictionaryVariables
280
     0
  1
1
  0
ENDSEC
  0
EOF
