  0
SECTION
  2
HEADER
  9
$ACADVER
  1
AC1015
  9
$ACADMAINTVER
 70
    13
  9
$DWGCODEPAGE
  3
ANSI_1252
  9
$INSBASE
 10
0.0
 20
0.0
 30
0.0
  9
$EXTMIN
 10
1.000000000000000E+20
 20
1.000000000000000E+20
 30
1.000000000000000E+20
  9
$EXTMAX
 10
-1.000000000000000E+20
 20
-1.000000000000000E+20
 30
-1.000000000000000E+20
  9
$LIMMIN
 10
0.0
 20
0.0
  9
$LIMMAX
 10
12.0
 20
9.0
  9
$ORTHOMODE
 70
     0
  9
$REGENMODE
 70
     1
  9
$FILLMODE
 70
     1
  9
$QTEXTMODE
 70
     0
  9
$MIRRTEXT
 70
     1
  9
$LTSCALE
 40
0.3
  9
$ATTMODE
 70
     1
  9
$TEXTSIZE
 40
0.2
  9
$TRACEWID
 40
0.05
  9
$TEXTSTYLE
  7
Standard
  9
$CLAYER
  8
0
  9
$CELTYPE
  6
ByLayer
  9
$CECOLOR
 62
   256
  9
$CELTSCALE
 40
0.3
  9
$DISPSILH
 70
     0
  9
$DIMSCALE
 40
1.0
  9
$DIMASZ
 40
0.125
  9
$DIMEXO
 40
0.0625
  9
$DIMDLI
 40
0.38
  9
$DIMRND
 40
0.0
  9
$DIMDLE
 40
0.0
  9
$DIMEXE
 40
0.18
  9
$DIMTP
 40
0.0
  9
$DIMTM
 40
0.0
  9
$DIMTXT
 40
0.125
  9
$DIMCEN
 40
0.09
  9
$DIMTSZ
 40
0.0
  9
$DIMTOL
 70
     0
  9
$DIMLIM
 70
     0
  9
$DIMTIH
 70
     1
  9
$DIMTOH
 70
     1
  9
$DIMSE1
 70
     0
  9
$DIMSE2
 70
     0
  9
$DIMTAD
 70
     0
  9
$DIMZIN
 70
     0
  9
$DIMBLK
  1

  9
$DIMASO
 70
     1
  9
$DIMSHO
 70
     1
  9
$DIMPOST
  1

  9
$DIMAPOST
  1

  9
$DIMALT
 70
     0
  9
$DIMALTD
 70
     2
  9
$DIMALTF
 40
25.4
  9
$DIMLFAC
 40
1.0
  9
$DIMTOFL
 70
     0
  9
$DIMTVP
 40
0.0
  9
$DIMTIX
 70
     0
  9
$DIMSOXD
 70
     0
  9
$DIMSAH
 70
     0
  9
$DIMBLK1
  1

  9
$DIMBLK2
  1

  9
$DIMSTYLE
  2
Standard
  9
$DIMCLRD
 70
     0
  9
$DIMCLRE
 70
     0
  9
$DIMCLRT
 70
     0
  9
$DIMTFAC
 40
1.0
  9
$DIMGAP
 40
0.09
  9
$DIMJUST
 70
     0
  9
$DIMSD1
 70
     0
  9
$DIMSD2
 70
     0
  9
$DIMTOLJ
 70
     1
  9
$DIMTZIN
 70
     0
  9
$DIMALTZ
 70
     0
  9
$DIMALTTZ
 70
     0
  9
$DIMUPT
 70
     0
  9
$DIMDEC
 70
     3
  9
$DIMTDEC
 70
     3
  9
$DIMALTU
 70
     2
  9
$DIMALTTD
 70
     2
  9
$DIMTXSTY
  7
Standard
  9
$DIMAUNIT
 70
     0
  9
$DIMADEC
 70
     0
  9
$DIMALTRND
 40
0.0
  9
$DIMAZIN
 70
     0
  9
$DIMDSEP
 70
    46
  9
$DIMATFIT
 70
     3
  9
$DIMFRAC
 70
     0
  9
$DIMLDRBLK
  1

  9
$DIMLUNIT
 70
     2
  9
$DIMLWD
 70
    -2
  9
$DIMLWE
 70
    -2
  9
$DIMTMOVE
 70
     0
  9
$LUNITS
 70
     2
  9
$LUPREC
 70
     4
  9
$SKETCHINC
 40
0.1
  9
$FILLETRAD
 40
0.5
  9
$AUNITS
 70
     0
  9
$AUPREC
 70
     0
  9
$MENU
  1
.
  9
$ELEVATION
 40
0.0
  9
$PELEVATION
 40
0.0
  9
$THICKNESS
 40
0.0
  9
$LIMCHECK
 70
     0
  9
$CHAMFERA
 40
0.5
  9
$CHAMFERB
 40
0.5
  9
$CHAMFERC
 40
1.0
  9
$CHAMFERD
 40
0.0
  9
$SKPOLY
 70
     0
  9
$TDCREATE
 40
2454412.621520173
  9
$TDUCREATE
 40
2454412.788186840
  9
$TDUPDATE
 40
2456108.746384907
  9
$TDUUPDATE
 40
2456108.913051574
  9
$TDINDWG
 40
0.0329618750
  9
$TDUSRTIMER
 40
0.0329618750
  9
$USRTIMER
 70
     1
  9
$ANGBASE
 50
0.0
  9
$ANGDIR
 70
     0
  9
$PDMODE
 70
     0
  9
$PDSIZE
 40
0.0
  9
$PLINEWID
 40
0.0
  9
$SPLFRAME
 70
     0
  9
$SPLINETYPE
 70
     6
  9
$SPLINESEGS
 70
     8
  9
$HANDSEED
  5
258
  9
$SURFTAB1
 70
     6
  9
$SURFTAB2
 70
     6
  9
$SURFTYPE
 70
     6
  9
$SURFU
 70
     6
  9
$SURFV
 70
     6
  9
$UCSBASE
  2

  9
$UCSNAME
  2

  9
$UCSORG
 10
0.0
 20
0.0
 30
0.0
  9
$UCSXDIR
 10
1.0
 20
0.0
 30
0.0
  9
$UCSYDIR
 10
0.0
 20
1.0
 30
0.0
  9
$UCSORTHOREF
  2

  9
$UCSORTHOVIEW
 70
     0
  9
$UCSORGTOP
 10
0.0
 20
0.0
 30
0.0
  9
$UCSORGBOTTOM
 10
0.0
 20
0.0
 30
0.0
  9
$UCSORGLEFT
 10
0.0
 20
0.0
 30
0.0
  9
$UCSORGRIGHT
 10
0.0
 20
0.0
 30
0.0
  9
$UCSORGFRONT
 10
0.0
 20
0.0
 30
0.0
  9
$UCSORGBACK
 10
0.0
 20
0.0
 30
0.0
  9
$PUCSBASE
  2

  9
$PUCSNAME
  2

  9
$PUCSORG
 10
0.0
 20
0.0
 30
0.0
  9
$PUCSXDIR
 10
1.0
 20
0.0
 30
0.0
  9
$PUCSYDIR
 10
0.0
 20
1.0
 30
0.0
  9
$PUCSORTHOREF
  2

  9
$PUCSORTHOVIEW
 70
     0
  9
$PUCSORGTOP
 10
0.0
 20
0.0
 30
0.0
  9
$PUCSORGBOTTOM
 10
0.0
 20
0.0
 30
0.0
  9
$PUCSORGLEFT
 10
0.0
 20
0.0
 30
0.0
  9
$PUCSORGRIGHT
 10
0.0
 20
0.0
 30
0.0
  9
$PUCSORGFRONT
 10
0.0
 20
0.0
 30
0.0
  9
$PUCSORGBACK
 10
0.0
 20
0.0
 30
0.0
  9
$USERI1
 70
     0
  9
$USERI2
 70
     0
  9
$USERI3
 70
     0
  9
$USERI4
 70
     0
  9
$USERI5
 70
     0
  9
$USERR1
 40
0.0
  9
$USERR2
 40
0.0
  9
$USERR3
 40
0.0
  9
$USERR4
 40
0.0
  9
$USERR5
 40
0.0
  9
$WORLDVIEW
 70
     1
  9
$SHADEDGE
 70
     3
  9
$SHADEDIF
 70
    70
  9
$TILEMODE
 70
     0
  9
$MAXACTVP
 70
    64
  9
$PINSBASE
 10
0.0
 20
0.0
 30
0.0
  9
$PLIMCHECK
 70
     0
  9
$PEXTMIN
 10
-1.439262267973588
 20
-1.41285528304607
 30
0.0
  9
$PEXTMAX
 10
8.966538218833356
 20
6.396855050259421
 30
0.0
  9
$PLIMMIN
 10
-1.75200024029589
 20
-1.757999996245375
  9
$PLIMMAX
 10
9.247999519408216
 20
6.74199976345873
  9
$UNITMODE
 70
     0
  9
$VISRETAIN
 70
     1
  9
$PLINEGEN
 70
     0
  9
$PSLTSCALE
 70
     1
  9
$TREEDEPTH
 70
  3020
  9
$CMLSTYLE
  2
Standard
  9
$CMLJUST
 70
     0
  9
$CMLSCALE
 40
1.0
  9
$PROXYGRAPHICS
 70
     1
  9
$MEASUREMENT
 70
     0
  9
$CELWEIGHT
370
    -1
  9
$ENDCAPS
280
     0
  9
$JOINSTYLE
280
     0
  9
$LWDISPLAY
290
     0
  9
$INSUNITS
 70
     1
  9
$HYPERLINKBASE
  1

  9
$STYLESHEET
  1

  9
$XEDIT
290
     1
  9
$CEPSNTYPE
380
     0
  9
$PSTYLEMODE
290
     1
  9
$FINGERPRINTGUID
  2
{FDEAD576-A652-11D2-9A35-0060089B3A3F}
  9
$VERSIONGUID
  2
{FA3AB6C6-65DA-485B-8075-DC8EEA879E87}
  9
$EXTNAMES
290
     1
  9
$PSVPSCALE
 40
0.0
  9
$OLESTARTUP
290
     0
  0
ENDSEC
  0
SECTION
  2
CLASSES
  0
CLASS
  1
ACDBDICTIONARYWDFLT
  2
AcDbDictionaryWithDefault
  3
AutoCAD 2000
 90
        0
280
     0
281
     0
  0
CLASS
  1
ACDBPLACEHOLDER
  2
AcDbPlaceHolder
  3
AutoCAD 2000
 90
        0
280
     0
281
     0
  0
CLASS
  1
LAYOUT
  2
AcDbLayout
  3
AutoCAD 2000
 90
        0
280
     0
281
     0
  0
CLASS
  1
DICTIONARYVAR
  2
AcDbDictionaryVar
  3
AutoCAD 2000
 90
        0
280
     0
281
     0
  0
CLASS
  1
DIMASSOC
  2
AcDbDimAssoc
  3
"AcDbDimAssoc|Product Desc:     AcDim ARX App For Dimension|Company:          Autodesk, Inc.|WEB Address:      www.autodesk.com"
 90
        0
280
     0
281
     0
  0
ENDSEC
  0
SECTION
  2
TABLES
  0
TABLE
  2
VPORT
  5
8
330
0
100
AcDbSymbolTable
 70
     1
  0
VPORT
  5
74
330
8
100
AcDbSymbolTableRecord
100
AcDbViewportTableRecord
  2
*Active
 70
     0
 10
0.0
 20
0.0
 11
1.0
 21
1.0
 12
20.48748698095427
 22
9.784138269231398
 13
0.0
 23
0.0
 14
0.5
 24
0.5
 15
0.5
 25
0.5
 16
0.0
 26
0.0
 36
1.0
 17
0.0
 27
0.0
 37
0.0
 40
19.56827653846278
 41
2.093949044585986
 42
50.0
 43
0.0
 44
0.0
 50
0.0
 51
0.0
 71
     0
 72
   100
 73
     1
 74
     3
 75
     0
 76
     0
 77
     0
 78
     0
281
     0
 65
     1
110
0.0
120
0.0
130
0.0
111
1.0
121
0.0
131
0.0
112
0.0
122
1.0
132
0.0
 79
     0
146
0.0
  0
ENDTAB
  0
TABLE
  2
LTYPE
  5
5
330
0
100
AcDbSymbolTable
 70
     3
  0
LTYPE
  5
14
330
5
100
AcDbSymbolTableRecord
100
AcDbLinetypeTableRecord
  2
ByBlock
 70
     0
  3

 72
    65
 73
     0
 40
0.0
  0
LTYPE
  5
15
330
5
100
AcDbSymbolTableRecord
100
AcDbLinetypeTableRecord
  2
ByLayer
 70
     0
  3

 72
    65
 73
     0
 40
0.0
  0
LTYPE
  5
16
330
5
100
AcDbSymbolTableRecord
100
AcDbLinetypeTableRecord
  2
Continuous
 70
     0
  3
Solid line
 72
    65
 73
     0
 40
0.0
  0
LTYPE
  5
92
330
5
100
AcDbSymbolTableRecord
100
AcDbLinetypeTableRecord
  2
HIDDENX2
 70
     0
  3
Hidden (2x) ____ ____ ____ ____ ____ ____ ____
 72
    65
 73
     2
 40
0.75
 49
0.5
 74
     0
 49
-0.25
 74
     0
  0
LTYPE
  5
93
330
5
100
AcDbSymbolTableRecord
100
AcDbLinetypeTableRecord
  2
threads
 70
     0
  3
Zig zag /\/\/\/\/\/\/\/\/\/\/\/\/\/\/\/\/\/\/\/
 72
    65
 73
     4
 40
0.8001000000000001
 49
0.0001
 74
     0
 49
-0.2
 74
     4
 75
   131
340
91
 46
0.2
 50
0.0
 44
-0.2
 45
0.0
 49
-0.4
 74
     4
 75
   131
340
91
 46
0.2
 50
180.0
 44
0.2
 45
0.0
 49
-0.2
 74
     0
  0
ENDTAB
  0
TABLE
  2
LAYER
  5
2
330
0
100
AcDbSymbolTable
 70
     2
  0
LAYER
  5
10
330
2
100
AcDbSymbolTableRecord
100
AcDbLayerTableRecord
  2
0
 70
     0
 62
     7
  6
Continuous
370
    -3
390
F
  0
LAYER
  5
E2
330
2
100
AcDbSymbolTableRecord
100
AcDbLayerTableRecord
  2
Defpoints
 70
     0
 62
     7
  6
Continuous
290
     0
370
    -3
390
F
  0
ENDTAB
  0
TABLE
  2
STYLE
  5
3
330
0
100
AcDbSymbolTable
 70
     2
  0
STYLE
  5
11
330
3
100
AcDbSymbolTableRecord
100
AcDbTextStyleTableRecord
  2
Standard
 70
     0
 40
0.0
 41
1.0
 50
0.0
 71
     0
 42
0.2
  3
txt
  4

  0
STYLE
  5
91
330
3
100
AcDbSymbolTableRecord
100
AcDbTextStyleTableRecord
  2

 70
     1
 40
0.0
 41
1.0
 50
0.0
 71
     0
 42
0.2
  3
ltypeshp.shx
  4

  0
ENDTAB
  0
TABLE
  2
VIEW
  5
6
330
0
100
AcDbSymbolTable
 70
     0
  0
ENDTAB
  0
TABLE
  2
UCS
  5
7
330
0
100
AcDbSymbolTable
 70
     0
  0
ENDTAB
  0
TABLE
  2
APPID
  5
9
330
0
100
AcDbSymbolTable
 70
     1
  0
APPID
  5
12
330
9
100
AcDbSymbolTableRecord
100
AcDbRegAppTableRecord
  2
ACAD
 70
     0
  0
ENDTAB
  0
TABLE
  2
DIMSTYLE
  5
A
330
0
100
AcDbSymbolTable
 70
     1
100
AcDbDimStyleTable
 71
     1
340
27
  0
DIMSTYLE
105
27
102
{ACAD_REACTORS
330
E1
330
FC
330
116
330
130
330
14A
330
164
330
17E
330
194
330
1AA
330
1BE
330
1D4
330
206
330
235
102
}
330
A
100
AcDbSymbolTableRecord
100
AcDbDimStyleTableRecord
  2
Standard
 70
     0
 41
0.125
140
0.125
271
     3
272
     3
340
11
  0
ENDTAB
  0
TABLE
  2
BLOCK_RECORD
  5
1
330
0
100
AcDbSymbolTable
 70
    14
  0
BLOCK_RECORD
  5
1F
330
1
100
AcDbSymbolTableRecord
100
AcDbBlockTableRecord
  2
*Model_Space
340
22
  0
BLOCK_RECORD
  5
58
330
1
100
AcDbSymbolTableRecord
100
AcDbBlockTableRecord
  2
*Paper_Space
340
59
  0
BLOCK_RECORD
  5
5D
330
1
100
AcDbSymbolTableRecord
100
AcDbBlockTableRecord
  2
*Paper_Space0
340
5E
  0
BLOCK_RECORD
  5
E3
330
1
100
AcDbSymbolTableRecord
100
AcDbBlockTableRecord
  2
*D1
340
0
  0
BLOCK_RECORD
  5
FD
330
1
100
AcDbSymbolTableRecord
100
AcDbBlockTableRecord
  2
*D2
340
0
  0
BLOCK_RECORD
  5
117
330
1
100
AcDbSymbolTableRecord
100
AcDbBlockTableRecord
  2
*D3
340
0
  0
BLOCK_RECORD
  5
131
330
1
100
AcDbSymbolTableRecord
100
AcDbBlockTableRecord
  2
*D4
340
0
  0
BLOCK_RECORD
  5
14B
330
1
100
AcDbSymbolTableRecord
100
AcDbBlockTableRecord
  2
*D5
340
0
  0
BLOCK_RECORD
  5
165
330
1
100
AcDbSymbolTableRecord
100
AcDbBlockTableRecord
  2
*D6
340
0
  0
BLOCK_RECORD
  5
17F
330
1
100
AcDbSymbolTableRecord
100
AcDbBlockTableRecord
  2
*D7
340
0
  0
BLOCK_RECORD
  5
195
330
1
100
AcDbSymbolTableRecord
100
AcDbBlockTableRecord
  2
*D8
340
0
  0
BLOCK_RECORD
  5
1AB
330
1
100
AcDbSymbolTableRecord
100
AcDbBlockTableRecord
  2
*D9
340
0
  0
BLOCK_RECORD
  5
1BF
330
1
100
AcDbSymbolTableRecord
100
AcDbBlockTableRecord
  2
*D10
340
0
  0
BLOCK_RECORD
  5
1D5
330
1
100
AcDbSymbolTableRecord
100
AcDbBlockTableRecord
  2
*D11
340
0
  0
BLOCK_RECORD
  5
207
330
1
100
AcDbSymbolTableRecord
100
AcDbBlockTableRecord
  2
*D12
340
0
  0
BLOCK_RECORD
  5
236
330
1
100
AcDbSymbolTableRecord
100
AcDbBlockTableRecord
  2
*D13
340
0
  0
ENDTAB
  0
ENDSEC
  0
SECTION
  2
BLOCKS
  0
BLOCK
  5
20
330
1F
100
AcDbEntity
  8
0
100
AcDbBlockBegin
  2
*Model_Space
 70
     0
 10
0.0
 20
0.0
 30
0.0
  3
*Model_Space
  1

  0
ENDBLK
  5
21
330
1F
100
AcDbEntity
  8
0
100
AcDbBlockEnd
  0
BLOCK
  5
5A
330
58
100
AcDbEntity
 67
     1
  8
0
100
AcDbBlockBegin
  2
*Paper_Space
 70
     0
 10
0.0
 20
0.0
 30
0.0
  3
*Paper_Space
  1

  0
ENDBLK
  5
5B
330
58
100
AcDbEntity
 67
     1
  8
0
100
AcDbBlockEnd
  0
BLOCK
  5
5F
330
5D
100
AcDbEntity
  8
0
100
AcDbBlockBegin
  2
*Paper_Space0
 70
     0
 10
0.0
 20
0.0
 30
0.0
  3
*Paper_Space0
  1

  0
ENDBLK
  5
60
330
5D
100
AcDbEntity
  8
0
100
AcDbBlockEnd
  0
BLOCK
  5
EE
330
E3
100
AcDbEntity
  8
0
 48
0.3
100
AcDbBlockBegin
  2
*D1
 70
     1
 10
0.0
 20
0.0
 30
0.0
  3
*D1
  1

  0
LINE
  5
F1
330
E3
100
AcDbEntity
  8
0
 62
     0
 48
0.3
370
    -2
100
AcDbLine
 10
5.281587591894782
 20
1.517330320764253
 30
0.0
 11
5.281587591894782
 21
0.2410186609411011
 31
0.0
  0
LINE
  5
F2
330
E3
100
AcDbEntity
  8
0
 62
     0
 48
0.3
370
    -2
100
AcDbLine
 10
6.494587591894783
 20
2.366330320764252
 30
0.0
 11
6.494587591894783
 21
0.2410186609411009
 31
0.0
  0
LINE
  5
F3
330
E3
100
AcDbEntity
  8
0
 62
     0
 48
0.3
370
    -2
100
AcDbLine
 10
5.406587591894782
 20
0.4210186609411011
 30
0.0
 11
5.589754258561447
 21
0.4210186609411011
 31
0.0
  0
LINE
  5
F4
330
E3
100
AcDbEntity
  8
0
 62
     0
 48
0.3
370
    -2
100
AcDbLine
 10
6.369587591894783
 20
0.4210186609411011
 30
0.0
 11
6.186420925228116
 21
0.4210186609411011
 31
0.0
  0
SOLID
  5
F5
330
E3
100
AcDbEntity
  8
0
 62
     0
 48
0.3
100
AcDbTrace
 10
5.406587591894782
 20
0.4418519942744344
 30
0.0
 11
5.406587591894782
 21
0.4001853276077679
 31
0.0
 12
5.281587591894782
 22
0.4210186609411011
 32
0.0
 13
5.281587591894782
 23
0.4210186609411011
 33
0.0
  0
SOLID
  5
F6
330
E3
100
AcDbEntity
  8
0
 62
     0
 48
0.3
100
AcDbTrace
 10
6.369587591894783
 20
0.4418519942744344
 30
0.0
 11
6.369587591894783
 21
0.4001853276077679
 31
0.0
 12
6.494587591894783
 22
0.4210186609411011
 32
0.0
 13
6.494587591894783
 23
0.4210186609411011
 33
0.0
  0
MTEXT
  5
F7
330
E3
100
AcDbEntity
  8
0
 62
     0
 48
0.3
100
AcDbMText
 10
5.888087591894782
 20
0.4210186609411011
 30
0.0
 40
0.125
 41
0.0
 71
     5
 72
     1
  1
\A1;1.213
 73
     1
 44
1.0
  0
POINT
  5
F8
330
E3
100
AcDbEntity
  8
Defpoints
 62
     0
 48
0.3
100
AcDbPoint
 10
5.281587591894782
 20
1.579830320764253
 30
0.0
  0
POINT
  5
F9
330
E3
100
AcDbEntity
  8
Defpoints
 62
     0
 48
0.3
100
AcDbPoint
 10
6.494587591894783
 20
2.428830320764252
 30
0.0
  0
POINT
  5
FA
330
E3
100
AcDbEntity
  8
Defpoints
 62
     0
 48
0.3
100
AcDbPoint
 10
6.494587591894783
 20
0.4210186609411011
 30
0.0
  0
ENDBLK
  5
EF
330
E3
100
AcDbEntity
  8
0
 48
0.3
100
AcDbBlockEnd
  0
BLOCK
  5
108
330
FD
100
AcDbEntity
  8
0
 48
0.3
100
AcDbBlockBegin
  2
*D2
 70
     1
 10
0.0
 20
0.0
 30
0.0
  3
*D2
  1

  0
LINE
  5
10B
330
FD
100
AcDbEntity
  8
0
 62
     0
 48
0.3
370
    -2
100
AcDbLine
 10
5.844587591894782
 20
1.517330320764253
 30
0.0
 11
5.844587591894782
 21
1.109767858817267
 31
0.0
  0
LINE
  5
10C
330
FD
100
AcDbEntity
  8
0
 62
     0
 48
0.3
370
    -2
100
AcDbLine
 10
5.281587591894782
 20
1.517330320764253
 30
0.0
 11
5.281587591894782
 21
1.109767858817267
 31
0.0
  0
LINE
  5
10D
330
FD
100
AcDbEntity
  8
0
 62
     0
 48
0.3
370
    -2
100
AcDbLine
 10
5.719587591894782
 20
1.289767858817267
 30
0.0
 11
5.406587591894782
 21
1.289767858817267
 31
0.0
  0
LINE
  5
10E
330
FD
100
AcDbEntity
  8
0
 62
     0
 48
0.3
370
    -2
100
AcDbLine
 10
5.281587591894782
 20
1.289767858817267
 30
0.0
 11
5.156587591894782
 21
1.289767858817267
 31
0.0
  0
SOLID
  5
10F
330
FD
100
AcDbEntity
  8
0
 62
     0
 48
0.3
100
AcDbTrace
 10
5.719587591894782
 20
1.3106011921506
 30
0.0
 11
5.719587591894782
 21
1.268934525483934
 31
0.0
 12
5.844587591894782
 22
1.289767858817267
 32
0.0
 13
5.844587591894782
 23
1.289767858817267
 33
0.0
  0
SOLID
  5
110
330
FD
100
AcDbEntity
  8
0
 62
     0
 48
0.3
100
AcDbTrace
 10
5.406587591894782
 20
1.3106011921506
 30
0.0
 11
5.406587591894782
 21
1.268934525483934
 31
0.0
 12
5.281587591894782
 22
1.289767858817267
 32
0.0
 13
5.281587591894782
 23
1.289767858817267
 33
0.0
  0
MTEXT
  5
111
330
FD
100
AcDbEntity
  8
0
 62
     0
 48
0.3
100
AcDbMText
 10
4.82700425856145
 20
1.289767858817267
 30
0.0
 40
0.125
 41
0.0
 71
     5
 72
     1
  1
\A1;0.563
 73
     1
 44
1.0
  0
POINT
  5
112
330
FD
100
AcDbEntity
  8
Defpoints
 62
     0
 48
0.3
100
AcDbPoint
 10
5.844587591894782
 20
1.579830320764253
 30
0.0
  0
POINT
  5
113
330
FD
100
AcDbEntity
  8
Defpoints
 62
     0
 48
0.3
100
AcDbPoint
 10
5.281587591894782
 20
1.579830320764253
 30
0.0
  0
POINT
  5
114
330
FD
100
AcDbEntity
  8
Defpoints
 62
     0
 48
0.3
100
AcDbPoint
 10
5.281587591894782
 20
1.289767858817267
 30
0.0
  0
ENDBLK
  5
109
330
FD
100
AcDbEntity
  8
0
 48
0.3
100
AcDbBlockEnd
  0
BLOCK
  5
122
330
117
100
AcDbEntity
  8
0
 48
0.3
100
AcDbBlockBegin
  2
*D3
 70
     1
 10
0.0
 20
0.0
 30
0.0
  3
*D3
  1

  0
LINE
  5
125
330
117
100
AcDbEntity
  8
0
 62
     0
 48
0.3
370
    -2
100
AcDbLine
 10
5.844587591894782
 20
1.517330320764253
 30
0.0
 11
5.844587591894782
 21
1.109767858817267
 31
0.0
  0
LINE
  5
126
330
117
100
AcDbEntity
  8
0
 62
     0
 48
0.3
370
    -2
100
AcDbLine
 10
6.444587591894782
 20
2.090330320764251
 30
0.0
 11
6.444587591894782
 21
1.109767858817267
 31
0.0
  0
LINE
  5
127
330
117
100
AcDbEntity
  8
0
 62
     0
 48
0.3
370
    -2
100
AcDbLine
 10
5.969587591894782
 20
1.289767858817267
 30
0.0
 11
6.319587591894782
 21
1.289767858817267
 31
0.0
  0
LINE
  5
128
330
117
100
AcDbEntity
  8
0
 62
     0
 48
0.3
370
    -2
100
AcDbLine
 10
6.444587591894782
 20
1.289767858817267
 30
0.0
 11
6.569587591894782
 21
1.289767858817267
 31
0.0
  0
SOLID
  5
129
330
117
100
AcDbEntity
  8
0
 62
     0
 48
0.3
100
AcDbTrace
 10
5.969587591894782
 20
1.3106011921506
 30
0.0
 11
5.969587591894782
 21
1.268934525483934
 31
0.0
 12
5.844587591894782
 22
1.289767858817267
 32
0.0
 13
5.844587591894782
 23
1.289767858817267
 33
0.0
  0
SOLID
  5
12A
330
117
100
AcDbEntity
  8
0
 62
     0
 48
0.3
100
AcDbTrace
 10
6.319587591894782
 20
1.3106011921506
 30
0.0
 11
6.319587591894782
 21
1.268934525483934
 31
0.0
 12
6.444587591894782
 22
1.289767858817267
 32
0.0
 13
6.444587591894782
 23
1.289767858817267
 33
0.0
  0
MTEXT
  5
12B
330
117
100
AcDbEntity
  8
0
 62
     0
 48
0.3
100
AcDbMText
 10
6.878337591894783
 20
1.289767858817267
 30
0.0
 40
0.125
 41
0.0
 71
     5
 72
     1
  1
\A1;0.600
 73
     1
 44
1.0
  0
POINT
  5
12C
330
117
100
AcDbEntity
  8
Defpoints
 62
     0
 48
0.3
100
AcDbPoint
 10
5.844587591894782
 20
1.579830320764253
 30
0.0
  0
POINT
  5
12D
330
117
100
AcDbEntity
  8
Defpoints
 62
     0
 48
0.3
100
AcDbPoint
 10
6.444587591894782
 20
2.152830320764251
 30
0.0
  0
POINT
  5
12E
330
117
100
AcDbEntity
  8
Defpoints
 62
     0
 48
0.3
100
AcDbPoint
 10
6.444587591894782
 20
1.289767858817267
 30
0.0
  0
ENDBLK
  5
123
330
117
100
AcDbEntity
  8
0
 48
0.3
100
AcDbBlockEnd
  0
BLOCK
  5
13C
330
131
100
AcDbEntity
  8
0
 48
0.3
100
AcDbBlockBegin
  2
*D4
 70
     1
 10
0.0
 20
0.0
 30
0.0
  3
*D4
  1

  0
LINE
  5
13F
330
131
100
AcDbEntity
  8
0
 62
     0
 48
0.3
370
    -2
100
AcDbLine
 10
6.444587591894782
 20
2.366330320764252
 30
0.0
 11
6.444587591894782
 21
1.715259713893461
 31
0.0
  0
LINE
  5
140
330
131
100
AcDbEntity
  8
0
 62
     0
 48
0.3
370
    -2
100
AcDbLine
 10
6.494587591894783
 20
2.366330320764252
 30
0.0
 11
6.494587591894783
 21
1.715259713893461
 31
0.0
  0
LINE
  5
141
330
131
100
AcDbEntity
  8
0
 62
     0
 48
0.3
370
    -2
100
AcDbLine
 10
6.319587591894782
 20
1.895259713893461
 30
0.0
 11
6.194587591894782
 21
1.895259713893461
 31
0.0
  0
LINE
  5
142
330
131
100
AcDbEntity
  8
0
 62
     0
 48
0.3
370
    -2
100
AcDbLine
 10
6.619587591894783
 20
1.895259713893461
 30
0.0
 11
6.744587591894783
 21
1.895259713893461
 31
0.0
  0
SOLID
  5
143
330
131
100
AcDbEntity
  8
0
 62
     0
 48
0.3
100
AcDbTrace
 10
6.319587591894782
 20
1.916093047226795
 30
0.0
 11
6.319587591894782
 21
1.874426380560129
 31
0.0
 12
6.444587591894782
 22
1.895259713893461
 32
0.0
 13
6.444587591894782
 23
1.895259713893461
 33
0.0
  0
SOLID
  5
144
330
131
100
AcDbEntity
  8
0
 62
     0
 48
0.3
100
AcDbTrace
 10
6.619587591894783
 20
1.916093047226795
 30
0.0
 11
6.619587591894783
 21
1.874426380560129
 31
0.0
 12
6.494587591894783
 22
1.895259713893461
 32
0.0
 13
6.494587591894783
 23
1.895259713893461
 33
0.0
  0
MTEXT
  5
145
330
131
100
AcDbEntity
  8
0
 62
     0
 48
0.3
100
AcDbMText
 10
7.053337591894782
 20
1.895259713893461
 30
0.0
 40
0.125
 41
0.0
 71
     5
 72
     1
  1
\A1;0.050
 73
     1
 44
1.0
  0
POINT
  5
146
330
131
100
AcDbEntity
  8
Defpoints
 62
     0
 48
0.3
100
AcDbPoint
 10
6.444587591894782
 20
2.428830320764252
 30
0.0
  0
POINT
  5
147
330
131
100
AcDbEntity
  8
Defpoints
 62
     0
 48
0.3
100
AcDbPoint
 10
6.494587591894783
 20
2.428830320764252
 30
0.0
  0
POINT
  5
148
330
131
100
AcDbEntity
  8
Defpoints
 62
     0
 48
0.3
100
AcDbPoint
 10
6.494587591894783
 20
1.895259713893461
 30
0.0
  0
ENDBLK
  5
13D
330
131
100
AcDbEntity
  8
0
 48
0.3
100
AcDbBlockEnd
  0
BLOCK
  5
156
330
14B
100
AcDbEntity
  8
0
 48
0.3
100
AcDbBlockBegin
  2
*D5
 70
     1
 10
0.0
 20
0.0
 30
0.0
  3
*D5
  1

  0
LINE
  5
159
330
14B
100
AcDbEntity
  8
0
 62
     0
 48
0.3
370
    -2
100
AcDbLine
 10
5.563587591894783
 20
3.223830320764252
 30
0.0
 11
5.563587591894783
 21
5.86997131857333
 31
0.0
  0
LINE
  5
15A
330
14B
100
AcDbEntity
  8
0
 62
     0
 48
0.3
370
    -2
100
AcDbLine
 10
5.281587591894782
 20
4.805330320764253
 30
0.0
 11
5.281587591894782
 21
5.86997131857333
 31
0.0
  0
LINE
  5
15B
330
14B
100
AcDbEntity
  8
0
 62
     0
 48
0.3
370
    -2
100
AcDbLine
 10
5.688587591894783
 20
5.68997131857333
 30
0.0
 11
5.813587591894783
 21
5.68997131857333
 31
0.0
  0
LINE
  5
15C
330
14B
100
AcDbEntity
  8
0
 62
     0
 48
0.3
370
    -2
100
AcDbLine
 10
5.156587591894782
 20
5.68997131857333
 30
0.0
 11
5.031587591894782
 21
5.68997131857333
 31
0.0
  0
SOLID
  5
15D
330
14B
100
AcDbEntity
  8
0
 62
     0
 48
0.3
100
AcDbTrace
 10
5.688587591894783
 20
5.710804651906664
 30
0.0
 11
5.688587591894783
 21
5.669137985239997
 31
0.0
 12
5.563587591894783
 22
5.68997131857333
 32
0.0
 13
5.563587591894783
 23
5.68997131857333
 33
0.0
  0
SOLID
  5
15E
330
14B
100
AcDbEntity
  8
0
 62
     0
 48
0.3
100
AcDbTrace
 10
5.156587591894782
 20
5.710804651906664
 30
0.0
 11
5.156587591894782
 21
5.669137985239997
 31
0.0
 12
5.281587591894782
 22
5.68997131857333
 32
0.0
 13
5.281587591894782
 23
5.68997131857333
 33
0.0
  0
MTEXT
  5
15F
330
14B
100
AcDbEntity
  8
0
 62
     0
 48
0.3
100
AcDbMText
 10
4.70200425856145
 20
5.68997131857333
 30
0.0
 40
0.125
 41
0.0
 71
     5
 72
     1
  1
\A1;0.282
 73
     1
 44
1.0
  0
POINT
  5
160
330
14B
100
AcDbEntity
  8
Defpoints
 62
     0
 48
0.3
100
AcDbPoint
 10
5.563587591894783
 20
3.161330320764252
 30
0.0
  0
POINT
  5
161
330
14B
100
AcDbEntity
  8
Defpoints
 62
     0
 48
0.3
100
AcDbPoint
 10
5.281587591894782
 20
4.742830320764253
 30
0.0
  0
POINT
  5
162
330
14B
100
AcDbEntity
  8
Defpoints
 62
     0
 48
0.3
100
AcDbPoint
 10
5.281587591894782
 20
5.68997131857333
 30
0.0
  0
ENDBLK
  5
157
330
14B
100
AcDbEntity
  8
0
 48
0.3
100
AcDbBlockEnd
  0
BLOCK
  5
170
330
165
100
AcDbEntity
  8
0
 48
0.3
100
AcDbBlockBegin
  2
*D6
 70
     1
 10
0.0
 20
0.0
 30
0.0
  3
*D6
  1

  0
LINE
  5
173
330
165
100
AcDbEntity
  8
0
 62
     0
 48
0.3
370
    -2
100
AcDbLine
 10
5.356587591894784
 20
4.110330320764251
 30
0.0
 11
5.356587591894784
 21
5.298702906874463
 31
0.0
  0
LINE
  5
174
330
165
100
AcDbEntity
  8
0
 62
     0
 48
0.3
370
    -2
100
AcDbLine
 10
5.281587591894782
 20
4.110330320764251
 30
0.0
 11
5.281587591894782
 21
5.298702906874463
 31
0.0
  0
LINE
  5
175
330
165
100
AcDbEntity
  8
0
 62
     0
 48
0.3
370
    -2
100
AcDbLine
 10
5.481587591894784
 20
5.118702906874464
 30
0.0
 11
5.606587591894784
 21
5.118702906874464
 31
0.0
  0
LINE
  5
176
330
165
100
AcDbEntity
  8
0
 62
     0
 48
0.3
370
    -2
100
AcDbLine
 10
5.156587591894782
 20
5.118702906874464
 30
0.0
 11
5.031587591894782
 21
5.118702906874464
 31
0.0
  0
SOLID
  5
177
330
165
100
AcDbEntity
  8
0
 62
     0
 48
0.3
100
AcDbTrace
 10
5.481587591894784
 20
5.139536240207796
 30
0.0
 11
5.481587591894784
 21
5.097869573541131
 31
0.0
 12
5.356587591894784
 22
5.118702906874464
 32
0.0
 13
5.356587591894784
 23
5.118702906874464
 33
0.0
  0
SOLID
  5
178
330
165
100
AcDbEntity
  8
0
 62
     0
 48
0.3
100
AcDbTrace
 10
5.156587591894782
 20
5.139536240207796
 30
0.0
 11
5.156587591894782
 21
5.097869573541131
 31
0.0
 12
5.281587591894782
 22
5.118702906874464
 32
0.0
 13
5.281587591894782
 23
5.118702906874464
 33
0.0
  0
MTEXT
  5
179
330
165
100
AcDbEntity
  8
0
 62
     0
 48
0.3
100
AcDbMText
 10
4.712420925228117
 20
5.118702906874464
 30
0.0
 40
0.125
 41
0.0
 71
     5
 72
     1
  1
\A1;0.075
 73
     1
 44
1.0
  0
POINT
  5
17A
330
165
100
AcDbEntity
  8
Defpoints
 62
     0
 48
0.3
100
AcDbPoint
 10
5.356587591894784
 20
4.047830320764251
 30
0.0
  0
POINT
  5
17B
330
165
100
AcDbEntity
  8
Defpoints
 62
     0
 48
0.3
100
AcDbPoint
 10
5.281587591894782
 20
4.047830320764251
 30
0.0
  0
POINT
  5
17C
330
165
100
AcDbEntity
  8
Defpoints
 62
     0
 48
0.3
100
AcDbPoint
 10
5.281587591894782
 20
5.118702906874464
 30
0.0
  0
ENDBLK
  5
171
330
165
100
AcDbEntity
  8
0
 48
0.3
100
AcDbBlockEnd
  0
BLOCK
  5
188
330
17F
100
AcDbEntity
  8
0
 48
0.3
100
AcDbBlockBegin
  2
*D7
 70
     1
 10
0.0
 20
0.0
 30
0.0
  3
*D7
  1

  0
LINE
  5
18B
330
17F
100
AcDbEntity
  8
0
 62
     0
 48
0.3
370
    -2
100
AcDbLine
 10
0.6143752277325314
 20
5.339839079536615
 30
0.0
 11
0.7393752277325309
 21
5.339839079536615
 31
0.0
  0
LINE
  5
18C
330
17F
100
AcDbEntity
  8
0
 62
     0
 48
0.3
370
    -2
100
AcDbLine
 10
0.7393752277325309
 20
5.339839079536615
 30
0.0
 11
1.121132032540328
 21
4.652943246692331
 31
0.0
  0
MTEXT
  5
18D
330
17F
100
AcDbEntity
  8
0
 62
     0
 48
0.3
100
AcDbMText
 10
0.2327085610658646
 20
5.339839079536615
 30
0.0
 40
0.125
 41
0.0
 71
     5
 72
     1
  1
\A1;\U+22053.163
 73
     1
 44
1.0
  0
SOLID
  5
18E
330
17F
100
AcDbEntity
  8
0
 62
     0
 48
0.3
100
AcDbTrace
 10
1.139341976454872
 20
4.663063805985522
 30
0.0
 11
1.102922088625784
 21
4.642822687399141
 31
0.0
 12
1.181855388299464
 22
4.543683583205071
 32
0.0
 13
1.181855388299464
 23
4.543683583205071
 33
0.0
  0
LINE
  5
18F
330
17F
100
AcDbEntity
  8
0
 62
     0
 48
0.3
370
    -2
100
AcDbLine
 10
1.860127285364056
 20
3.161330320764252
 30
0.0
 11
2.040127285364055
 21
3.161330320764252
 31
0.0
  0
LINE
  5
190
330
17F
100
AcDbEntity
  8
0
 62
     0
 48
0.3
370
    -2
100
AcDbLine
 10
1.950127285364055
 20
3.071330320764253
 30
0.0
 11
1.950127285364055
 21
3.251330320764251
 31
0.0
  0
POINT
  5
191
330
17F
100
AcDbEntity
  8
Defpoints
 62
     0
 48
0.3
100
AcDbPoint
 10
1.181855388299464
 20
4.543683583205071
 30
0.0
  0
POINT
  5
192
330
17F
100
AcDbEntity
  8
Defpoints
 62
     0
 48
0.3
100
AcDbPoint
 10
2.718399182428647
 20
1.778977058323433
 30
0.0
  0
ENDBLK
  5
189
330
17F
100
AcDbEntity
  8
0
 48
0.3
100
AcDbBlockEnd
  0
BLOCK
  5
19E
330
195
100
AcDbEntity
  8
0
 48
0.3
100
AcDbBlockBegin
  2
*D8
 70
     1
 10
0.0
 20
0.0
 30
0.0
  3
*D8
  1

  0
LINE
  5
1A1
330
195
100
AcDbEntity
  8
0
 62
     0
 48
0.3
370
    -2
100
AcDbLine
 10
0.0974395907174772
 20
4.473722457247281
 30
0.0
 11
0.2224395907174781
 21
4.47372245724728
 31
0.0
  0
LINE
  5
1A2
330
195
100
AcDbEntity
  8
0
 62
     0
 48
0.3
370
    -2
100
AcDbLine
 10
0.2224395907174781
 20
4.47372245724728
 30
0.0
 11
1.047513741583892
 21
3.846976760691283
 31
0.0
  0
MTEXT
  5
1A3
330
195
100
AcDbEntity
  8
0
 62
     0
 48
0.3
100
AcDbMText
 10
-0.2738104092825226
 20
4.47372245724728
 30
0.0
 40
0.125
 41
0.0
 71
     5
 72
     1
  1
\A1;\U+22052.017
 73
     1
 44
1.0
  0
SOLID
  5
1A4
330
195
100
AcDbEntity
  8
0
 62
     0
 48
0.3
100
AcDbTrace
 10
1.060115683208781
 20
3.863566481757674
 30
0.0
 11
1.034911799959002
 21
3.830387039624893
 31
0.0
 12
1.147052067982234
 22
3.771365110941941
 32
0.0
 13
1.147052067982234
 23
3.771365110941941
 33
0.0
  0
LINE
  5
1A5
330
195
100
AcDbEntity
  8
0
 62
     0
 48
0.3
370
    -2
100
AcDbLine
 10
1.860127285364056
 20
3.161330320764252
 30
0.0
 11
2.040127285364056
 21
3.161330320764252
 31
0.0
  0
LINE
  5
1A6
330
195
100
AcDbEntity
  8
0
 62
     0
 48
0.3
370
    -2
100
AcDbLine
 10
1.950127285364055
 20
3.071330320764253
 30
0.0
 11
1.950127285364055
 21
3.251330320764251
 31
0.0
  0
POINT
  5
1A7
330
195
100
AcDbEntity
  8
Defpoints
 62
     0
 48
0.3
100
AcDbPoint
 10
1.147052067982234
 20
3.771365110941941
 30
0.0
  0
POINT
  5
1A8
330
195
100
AcDbEntity
  8
Defpoints
 62
     0
 48
0.3
100
AcDbPoint
 10
2.753202502745878
 20
2.551295530586562
 30
0.0
  0
ENDBLK
  5
19F
330
195
100
AcDbEntity
  8
0
 48
0.3
100
AcDbBlockEnd
  0
BLOCK
  5
1B3
330
1AB
100
AcDbEntity
  8
0
 48
0.3
100
AcDbBlockBegin
  2
*D9
 70
     1
 10
0.0
 20
0.0
 30
0.0
  3
*D9
  1

  0
LINE
  5
1B6
330
1AB
100
AcDbEntity
  8
0
 62
     0
 48
0.3
370
    -2
100
AcDbLine
 10
-0.2021861413729908
 20
3.644461853922101
 30
0.0
 11
0.9631862913636702
 21
3.38286976276393
 31
0.0
  0
MTEXT
  5
1B7
330
1AB
100
AcDbEntity
  8
0
 62
     0
 48
0.3
100
AcDbMText
 10
-0.5838528080396578
 20
3.644461853922101
 30
0.0
 40
0.125
 41
0.0
 71
     5
 72
     1
  1
\A1;\U+22051.773
 73
     1
 44
1.0
  0
SOLID
  5
1B8
330
1AB
100
AcDbEntity
  8
0
 62
     0
 48
0.3
100
AcDbTrace
 10
0.9677492226950196
 20
3.403197267171583
 30
0.0
 11
0.9586233600323208
 21
3.362542258356276
 31
0.0
 12
1.085151317809589
 22
3.355492174775832
 32
0.0
 13
1.085151317809589
 23
3.355492174775832
 33
0.0
  0
LINE
  5
1B9
330
1AB
100
AcDbEntity
  8
0
 62
     0
 48
0.3
370
    -2
100
AcDbLine
 10
1.860127285364056
 20
3.161330320764252
 30
0.0
 11
2.040127285364056
 21
3.161330320764253
 31
0.0
  0
LINE
  5
1BA
330
1AB
100
AcDbEntity
  8
0
 62
     0
 48
0.3
370
    -2
100
AcDbLine
 10
1.950127285364056
 20
3.071330320764253
 30
0.0
 11
1.950127285364056
 21
3.251330320764253
 31
0.0
  0
POINT
  5
1BB
330
1AB
100
AcDbEntity
  8
Defpoints
 62
     0
 48
0.3
100
AcDbPoint
 10
1.085151317809589
 20
3.355492174775832
 30
0.0
  0
POINT
  5
1BC
330
1AB
100
AcDbEntity
  8
Defpoints
 62
     0
 48
0.3
100
AcDbPoint
 10
2.815103252918524
 20
2.967168466752671
 30
0.0
  0
ENDBLK
  5
1B4
330
1AB
100
AcDbEntity
  8
0
 48
0.3
100
AcDbBlockEnd
  0
BLOCK
  5
1C8
330
1BF
100
AcDbEntity
  8
0
 48
0.3
100
AcDbBlockBegin
  2
*D10
 70
     1
 10
0.0
 20
0.0
 30
0.0
  3
*D10
  1

  0
LINE
  5
1CB
330
1BF
100
AcDbEntity
  8
0
 62
     0
 48
0.3
370
    -2
100
AcDbLine
 10
0.0420535842237101
 20
1.930656638451234
 30
0.0
 11
0.16705358422371
 21
1.930656638451234
 31
0.0
  0
LINE
  5
1CC
330
1BF
100
AcDbEntity
  8
0
 62
     0
 48
0.3
370
    -2
100
AcDbLine
 10
0.16705358422371
 20
1.930656638451234
 30
0.0
 11
1.24440137014859
 21
2.674239792634939
 31
0.0
  0
MTEXT
  5
1CD
330
1BF
100
AcDbEntity
  8
0
 62
     0
 48
0.3
100
AcDbMText
 10
-0.3396130824429566
 20
1.930656638451234
 30
0.0
 40
0.125
 41
0.0
 71
     5
 72
     1
  1
\A1;\U+22051.465
 73
     1
 44
1.0
  0
SOLID
  5
1CE
330
1BF
100
AcDbEntity
  8
0
 62
     0
 48
0.3
100
AcDbTrace
 10
1.232567295121154
 20
2.691385708942409
 30
0.0
 11
1.256235445176028
 21
2.657093876327469
 31
0.0
 12
1.34727686799341
 22
2.745244242799562
 32
0.0
 13
1.34727686799341
 23
2.745244242799562
 33
0.0
  0
LINE
  5
1CF
330
1BF
100
AcDbEntity
  8
0
 62
     0
 48
0.3
370
    -2
100
AcDbLine
 10
1.860127285364056
 20
3.161330320764252
 30
0.0
 11
2.040127285364055
 21
3.161330320764252
 31
0.0
  0
LINE
  5
1D0
330
1BF
100
AcDbEntity
  8
0
 62
     0
 48
0.3
370
    -2
100
AcDbLine
 10
1.950127285364056
 20
3.071330320764253
 30
0.0
 11
1.950127285364056
 21
3.251330320764251
 31
0.0
  0
POINT
  5
1D1
330
1BF
100
AcDbEntity
  8
Defpoints
 62
     0
 48
0.3
100
AcDbPoint
 10
1.34727686799341
 20
2.745244242799562
 30
0.0
  0
POINT
  5
1D2
330
1BF
100
AcDbEntity
  8
Defpoints
 62
     0
 48
0.3
100
AcDbPoint
 10
2.552977702734701
 20
3.577416398728941
 30
0.0
  0
ENDBLK
  5
1C9
330
1BF
100
AcDbEntity
  8
0
 48
0.3
100
AcDbBlockEnd
  0
BLOCK
  5
1DE
330
1D5
100
AcDbEntity
  8
0
 48
0.3
100
AcDbBlockBegin
  2
*D11
 70
     1
 10
0.0
 20
0.0
 30
0.0
  3
*D11
  1

  0
LINE
  5
1E1
330
1D5
100
AcDbEntity
  8
0
 62
     0
 48
0.3
370
    -2
100
AcDbLine
 10
0.8359190419108834
 20
1.230392121126353
 30
0.0
 11
0.9609190419108831
 21
1.230392121126353
 31
0.0
  0
LINE
  5
1E2
330
1D5
100
AcDbEntity
  8
0
 62
     0
 48
0.3
370
    -2
100
AcDbLine
 10
0.9609190419108831
 20
1.230392121126353
 30
0.0
 11
1.698673258886089
 21
2.670491118409735
 31
0.0
  0
MTEXT
  5
1E3
330
1D5
100
AcDbEntity
  8
0
 62
     0
 48
0.3
100
AcDbMText
 10
0.4438357085775499
 20
1.230392121126353
 30
0.0
 40
0.125
 41
0.0
 71
     5
 72
     1
  1
\A1;\U+22050.853
 73
     1
 44
1.0
  0
SOLID
  5
1E4
330
1D5
100
AcDbEntity
  8
0
 62
     0
 48
0.3
100
AcDbTrace
 10
1.680131433472273
 20
2.679989986137068
 30
0.0
 11
1.717215084299904
 21
2.660992250682401
 31
0.0
 12
1.755666465250089
 22
2.781742070892627
 32
0.0
 13
1.755666465250089
 23
2.781742070892627
 33
0.0
  0
LINE
  5
1E5
330
1D5
100
AcDbEntity
  8
0
 62
     0
 48
0.3
370
    -2
100
AcDbLine
 10
1.860127285364056
 20
3.161330320764252
 30
0.0
 11
2.040127285364055
 21
3.161330320764252
 31
0.0
  0
LINE
  5
1E6
330
1D5
100
AcDbEntity
  8
0
 62
     0
 48
0.3
370
    -2
100
AcDbLine
 10
1.950127285364055
 20
3.071330320764253
 30
0.0
 11
1.950127285364055
 21
3.251330320764251
 31
0.0
  0
POINT
  5
1E7
330
1D5
100
AcDbEntity
  8
Defpoints
 62
     0
 48
0.3
100
AcDbPoint
 10
1.755666465250089
 20
2.781742070892627
 30
0.0
  0
POINT
  5
1E8
330
1D5
100
AcDbEntity
  8
Defpoints
 62
     0
 48
0.3
100
AcDbPoint
 10
2.144588105478024
 20
3.540918570635876
 30
0.0
  0
ENDBLK
  5
1DF
330
1D5
100
AcDbEntity
  8
0
 48
0.3
100
AcDbBlockEnd
  0
BLOCK
  5
212
330
207
100
AcDbEntity
  8
0
 48
0.3
100
AcDbBlockBegin
  2
*D12
 70
     1
 10
0.0
 20
0.0
 30
0.0
  3
*D12
  1

  0
LINE
  5
220
330
207
100
AcDbEntity
  8
0
 62
     0
 48
0.3
370
    -2
100
AcDbLine
 10
3.531627285364056
 20
3.223830320764252
 30
0.0
 11
3.531627285364056
 21
3.808101454182331
 31
0.0
  0
LINE
  5
221
330
207
100
AcDbEntity
  8
0
 62
     0
 48
0.3
370
    -2
100
AcDbLine
 10
3.156627285364056
 20
3.351830320764253
 30
0.0
 11
3.156627285364056
 21
3.808101454182331
 31
0.0
  0
LINE
  5
222
330
207
100
AcDbEntity
  8
0
 62
     0
 48
0.3
370
    -2
100
AcDbLine
 10
3.031627285364056
 20
3.62810145418233
 30
0.0
 11
2.906627285364056
 21
3.62810145418233
 31
0.0
  0
LINE
  5
223
330
207
100
AcDbEntity
  8
0
 62
     0
 48
0.3
370
    -2
100
AcDbLine
 10
3.656627285364056
 20
3.62810145418233
 30
0.0
 11
3.781627285364056
 21
3.62810145418233
 31
0.0
  0
SOLID
  5
224
330
207
100
AcDbEntity
  8
0
 62
     0
 48
0.3
100
AcDbTrace
 10
3.031627285364056
 20
3.648934787515665
 30
0.0
 11
3.031627285364056
 21
3.607268120848997
 31
0.0
 12
3.156627285364056
 22
3.62810145418233
 32
0.0
 13
3.156627285364056
 23
3.62810145418233
 33
0.0
  0
SOLID
  5
225
330
207
100
AcDbEntity
  8
0
 62
     0
 48
0.3
100
AcDbTrace
 10
3.656627285364056
 20
3.648934787515665
 30
0.0
 11
3.656627285364056
 21
3.607268120848997
 31
0.0
 12
3.531627285364056
 22
3.62810145418233
 32
0.0
 13
3.531627285364056
 23
3.62810145418233
 33
0.0
  0
MTEXT
  5
226
330
207
100
AcDbEntity
  8
0
 62
     0
 48
0.3
100
AcDbMText
 10
4.11121061869739
 20
3.62810145418233
 30
0.0
 40
0.125
 41
0.0
 71
     5
 72
     1
  1
\A1;0.375
 73
     1
 44
1.0
  0
POINT
  5
227
330
207
100
AcDbEntity
  8
Defpoints
 62
     0
 48
0.3
100
AcDbPoint
 10
3.531627285364056
 20
3.161330320764252
 30
0.0
  0
POINT
  5
228
330
207
100
AcDbEntity
  8
Defpoints
 62
     0
 48
0.3
100
AcDbPoint
 10
3.156627285364056
 20
3.289330320764253
 30
0.0
  0
POINT
  5
229
330
207
100
AcDbEntity
  8
Defpoints
 62
     0
 48
0.3
100
AcDbPoint
 10
3.156627285364056
 20
3.62810145418233
 30
0.0
  0
ENDBLK
  5
213
330
207
100
AcDbEntity
  8
0
 48
0.3
100
AcDbBlockEnd
  0
BLOCK
  5
23E
330
236
100
AcDbEntity
  8
0
 48
0.3
100
AcDbBlockBegin
  2
*D13
 70
     1
 10
0.0
 20
0.0
 30
0.0
  3
*D13
  1

  0
LINE
  5
241
330
236
100
AcDbEntity
  8
0
 62
     0
 48
0.3
370
    -2
100
AcDbLine
 10
6.779066366302047
 20
2.880522897103799
 30
0.0
 11
5.810094679001375
 21
3.104380728963933
 31
0.0
  0
MTEXT
  5
242
330
236
100
AcDbEntity
  8
0
 62
     0
 48
0.3
100
AcDbMText
 10
7.171149699635379
 20
2.880522897103801
 30
0.0
 40
0.125
 41
0.0
 71
     5
 72
     1
  1
\A1;\U+22050.256
 73
     1
 44
1.0
  0
SOLID
  5
243
330
236
100
AcDbEntity
  8
0
 62
     0
 48
0.3
100
AcDbTrace
 10
5.814784204017871
 20
3.124679402144647
 30
0.0
 11
5.80540515398488
 21
3.084082055783221
 31
0.0
 12
5.688302639917091
 22
3.132517879062906
 32
0.0
 13
5.688302639917091
 23
3.132517879062906
 33
0.0
  0
LINE
  5
244
330
236
100
AcDbEntity
  8
0
 62
     0
 48
0.3
370
    -2
100
AcDbLine
 10
5.473587591894783
 20
3.161330320764252
 30
0.0
 11
5.653587591894782
 21
3.161330320764253
 31
0.0
  0
LINE
  5
245
330
236
100
AcDbEntity
  8
0
 62
     0
 48
0.3
370
    -2
100
AcDbLine
 10
5.563587591894783
 20
3.071330320764253
 30
0.0
 11
5.563587591894783
 21
3.251330320764251
 31
0.0
  0
POINT
  5
246
330
236
100
AcDbEntity
  8
Defpoints
 62
     0
 48
0.3
100
AcDbPoint
 10
5.688302639917091
 20
3.132517879062906
 30
0.0
  0
POINT
  5
247
330
236
100
AcDbEntity
  8
Defpoints
 62
     0
 48
0.3
100
AcDbPoint
 10
5.438872543872473
 20
3.190142762465598
 30
0.0
  0
ENDBLK
  5
23F
330
236
100
AcDbEntity
  8
0
 48
0.3
100
AcDbBlockEnd
  0
ENDSEC
  0
SECTION
  2
ENTITIES
  0
VIEWPORT
  5
77
330
58
100
AcDbEntity
 67
     1
  8
0
100
AcDbViewport
 10
3.702432722728629
 20
2.633961808123048
 30
0.0
 40
19.49835024238196
 41
8.305790752599071
 68
     1
 69
     1
 12
3.702432722728629
 22
2.633961808123048
 13
0.0
 23
0.0
 14
0.5
 24
0.5
 15
0.5
 25
0.5
 16
0.0
 26
0.0
 36
1.0
 17
0.0
 27
0.0
 37
0.0
 42
50.0
 43
0.0
 44
0.0
 45
8.305790752599071
 50
0.0
 51
0.0
 72
   100
 90
    32800
  1

281
     0
 71
     1
 74
     0
110
0.0
120
0.0
130
0.0
111
1.0
121
0.0
131
0.0
112
0.0
122
1.0
132
0.0
 79
     0
146
0.0
  0
LWPOLYLINE
  5
86
330
58
100
AcDbEntity
 67
     1
  8
0
100
AcDbPolyline
 90
        4
 70
     1
 43
0.0
 10
-1.439262267973588
 20
6.396855050259421
 10
8.966538218833356
 20
6.396855050259421
 10
8.966538218833356
 20
-1.41285528304607
 10
-1.439262267973588
 20
-1.41285528304607
  0
LINE
  5
8A
330
58
100
AcDbEntity
 67
     1
  8
0
100
AcDbLine
 10
8.966538218833356
 20
-1.41285528304607
 30
0.0
 11
8.966538218833356
 21
-0.4128552830460707
 31
0.0
  0
LINE
  5
8B
330
58
100
AcDbEntity
 67
     1
  8
0
100
AcDbLine
 10
8.966538218833356
 20
-0.4128552830460707
 30
0.0
 11
6.466538218833355
 21
-0.4128552830460703
 31
0.0
  0
LINE
  5
8C
330
58
100
AcDbEntity
 67
     1
  8
0
100
AcDbLine
 10
6.466538218833355
 20
-0.4128552830460703
 30
0.0
 11
4.966538218833356
 21
-0.4128552830460701
 31
0.0
  0
LINE
  5
8D
330
58
100
AcDbEntity
 67
     1
  8
0
100
AcDbLine
 10
4.966538218833356
 20
-0.4128552830460701
 30
0.0
 11
4.966538218833356
 21
-1.41285528304607
 31
0.0
  0
LINE
  5
8E
330
58
100
AcDbEntity
 67
     1
  8
0
100
AcDbLine
 10
6.466538218833355
 20
-0.4128552830460703
 30
0.0
 11
6.466538218833355
 21
-1.404250623233159
 31
0.0
  0
MTEXT
  5
8F
330
58
100
AcDbEntity
 67
     1
  8
0
100
AcDbMText
 10
5.020648721258949
 20
-0.5532836662080878
 30
0.0
 40
0.1
 41
1.5
 71
     1
 72
     5
  1
  Tolerances\P.XXXX = +/- .001\P.XXX  = +/- .005\P.XX   = +/- .015
 73
     1
 44
1.0
  0
MTEXT
  5
AA
330
58
100
AcDbEntity
 67
     1
  8
0
 48
0.3
100
AcDbMText
 10
6.604505128948594
 20
-0.5779304272488833
 30
0.0
 40
0.1
 41
2.5
 71
     1
 72
     5
  1
G0704 Belt Drive\PSpindle Timing Pulley Blank\PDaniel E. Kemp\P{\fArial|b0|i0|c0|p32;\H1.625x;©\fMS Shell Dlg|b0|i0|c0|p32;\H0.6538x; }06-16-2010
 73
     1
 44
1.0
  0
MTEXT
  5
AC
330
58
100
AcDbEntity
 67
     1
  8
0
 48
0.3
100
AcDbMText
 10
-0.8330378939457148
 20
-0.9104262006358537
 30
0.0
 40
0.1625
 41
9.997099999999999
 71
     1
 72
     5
  1
{\fArial|b0|i0|c0|p32;© Daniel E. Kemp 2010}
 73
     1
 44
1.0
  0
CIRCLE
  5
B3
102
{ACAD_REACTORS
330
193
102
}
330
58
100
AcDbEntity
 67
     1
  8
0
 48
0.3
100
AcDbCircle
 10
1.950127285364055
 20
3.161330320764252
 30
0.0
 40
1.581499999999999
  0
CIRCLE
  5
B4
102
{ACAD_REACTORS
330
1A9
102
}
330
58
100
AcDbEntity
 67
     1
  8
0
 48
0.3
100
AcDbCircle
 10
1.950127285364055
 20
3.161330320764252
 30
0.0
 40
1.008499999999999
  0
CIRCLE
  5
B5
102
{ACAD_REACTORS
330
1E9
102
}
330
58
100
AcDbEntity
 67
     1
  8
0
 48
0.3
100
AcDbCircle
 10
1.950127285364055
 20
3.161330320764252
 30
0.0
 40
0.4265
  0
CIRCLE
  5
B6
102
{ACAD_REACTORS
330
1D3
102
}
330
58
100
AcDbEntity
 67
     1
  8
0
 48
0.3
100
AcDbCircle
 10
1.950127285364055
 20
3.161330320764252
 30
0.0
 40
0.7325000000000001
  0
CIRCLE
  5
B7
102
{ACAD_REACTORS
330
1BD
102
}
330
58
100
AcDbEntity
 67
     1
  8
0
  6
HIDDENX2
 48
0.3
100
AcDbCircle
 10
1.950127285364055
 20
3.161330320764252
 30
0.0
 40
0.8865
  0
LINE
  5
B9
330
58
100
AcDbEntity
 67
     1
  8
0
 48
0.3
100
AcDbLine
 10
5.281587591894782
 20
4.742830320764253
 30
0.0
 11
5.844587591894782
 21
4.742830320764253
 31
0.0
  0
LINE
  5
BA
102
{ACAD_REACTORS
330
115
330
12F
102
}
330
58
100
AcDbEntity
 67
     1
  8
0
 48
0.3
100
AcDbLine
 10
5.844587591894782
 20
4.742830320764253
 30
0.0
 11
5.844587591894782
 21
1.579830320764253
 31
0.0
  0
LINE
  5
BB
330
58
100
AcDbEntity
 67
     1
  8
0
 48
0.3
100
AcDbLine
 10
5.844587591894782
 20
1.579830320764253
 30
0.0
 11
5.281587591894782
 21
1.579830320764253
 31
0.0
  0
LINE
  5
BC
102
{ACAD_REACTORS
330
FB
330
115
330
163
102
}
330
58
100
AcDbEntity
 67
     1
  8
0
 48
0.3
100
AcDbLine
 10
5.281587591894782
 20
1.579830320764253
 30
0.0
 11
5.281587591894782
 21
4.742830320764253
 31
0.0
  0
LINE
  5
BE
330
58
100
AcDbEntity
 67
     1
  8
0
 48
0.3
100
AcDbLine
 10
5.844587591894782
 20
4.169830320764251
 30
0.0
 11
6.444587591894782
 21
4.169830320764251
 31
0.0
  0
LINE
  5
BF
102
{ACAD_REACTORS
330
12F
102
}
330
58
100
AcDbEntity
 67
     1
  8
0
 48
0.3
100
AcDbLine
 10
6.444587591894782
 20
4.169830320764251
 30
0.0
 11
6.444587591894782
 21
2.152830320764251
 31
0.0
  0
LINE
  5
C0
330
58
100
AcDbEntity
 67
     1
  8
0
 48
0.3
100
AcDbLine
 10
6.444587591894782
 20
2.152830320764251
 30
0.0
 11
5.844587591894782
 21
2.152830320764251
 31
0.0
  0
LINE
  5
C2
330
58
100
AcDbEntity
 67
     1
  8
0
 48
0.3
100
AcDbLine
 10
6.444587591894782
 20
3.893830320764251
 30
0.0
 11
6.494587591894783
 21
3.893830320764251
 31
0.0
  0
LINE
  5
C3
102
{ACAD_REACTORS
330
FB
330
149
102
}
330
58
100
AcDbEntity
 67
     1
  8
0
 48
0.3
100
AcDbLine
 10
6.494587591894783
 20
3.893830320764251
 30
0.0
 11
6.494587591894783
 21
2.428830320764252
 31
0.0
  0
LINE
  5
C4
102
{ACAD_REACTORS
330
149
102
}
330
58
100
AcDbEntity
 67
     1
  8
0
 48
0.3
100
AcDbLine
 10
6.494587591894783
 20
2.428830320764252
 30
0.0
 11
6.444587591894782
 21
2.428830320764252
 31
0.0
  0
LINE
  5
C6
102
{ACAD_REACTORS
330
17D
102
}
330
58
100
AcDbEntity
 67
     1
  8
0
  6
HIDDENX2
 48
0.3
100
AcDbLine
 10
5.281587591894782
 20
4.047830320764251
 30
0.0
 11
5.356587591894784
 21
4.047830320764251
 31
0.0
  0
LINE
  5
C7
102
{ACAD_REACTORS
330
17D
102
}
330
58
100
AcDbEntity
 67
     1
  8
0
  6
HIDDENX2
 48
0.3
100
AcDbLine
 10
5.356587591894784
 20
4.047830320764251
 30
0.0
 11
5.356587591894784
 21
2.274830320764251
 31
0.0
  0
LINE
  5
C8
330
58
100
AcDbEntity
 67
     1
  8
0
  6
HIDDENX2
 48
0.3
100
AcDbLine
 10
5.356587591894784
 20
2.274830320764251
 30
0.0
 11
5.281587591894782
 21
2.274830320764251
 31
0.0
  0
CIRCLE
  5
CA
330
58
100
AcDbEntity
 67
     1
  8
0
 48
0.3
100
AcDbCircle
 10
5.563587591894783
 20
3.161330320764252
 30
0.0
 40
0.1
  0
CIRCLE
  5
CB
102
{ACAD_REACTORS
330
163
330
22F
330
248
102
}
330
58
100
AcDbEntity
 67
     1
  8
0
 48
0.3
100
AcDbCircle
 10
5.563587591894783
 20
3.161330320764252
 30
0.0
 40
0.128
  0
LINE
  5
D1
330
58
100
AcDbEntity
 67
     1
  8
0
  6
HIDDENX2
 48
0.3
100
AcDbLine
 10
0.7436272853640571
 20
3.161330320764253
 30
0.0
 11
0.7436272853640571
 21
3.289330320764253
 31
0.0
  0
LINE
  5
D2
330
58
100
AcDbEntity
 67
     1
  8
0
  6
HIDDENX2
 48
0.3
100
AcDbLine
 10
0.7436272853640571
 20
3.289330320764253
 30
0.0
 11
0.3738156886294521
 21
3.289330320764253
 31
0.0
  0
LINE
  5
D3
330
58
100
AcDbEntity
 67
     1
  8
0
  6
HIDDENX2
 48
0.3
100
AcDbLine
 10
0.7436272853640571
 20
3.161330320764253
 30
0.0
 11
0.7436272853640571
 21
3.033330320764253
 31
0.0
  0
LINE
  5
D4
330
58
100
AcDbEntity
 67
     1
  8
0
  6
HIDDENX2
 48
0.3
100
AcDbLine
 10
0.7436272853640571
 20
3.033330320764253
 30
0.0
 11
0.3738156886294521
 21
3.033330320764253
 31
0.0
  0
LINE
  5
D5
330
58
100
AcDbEntity
 67
     1
  8
0
  6
HIDDENX2
 48
0.3
100
AcDbLine
 10
3.156627285364056
 20
3.161330320764253
 30
0.0
 11
3.156627285364056
 21
3.289330320764253
 31
0.0
  0
LINE
  5
D6
102
{ACAD_REACTORS
330
21F
102
}
330
58
100
AcDbEntity
 67
     1
  8
0
  6
HIDDENX2
 48
0.3
100
AcDbLine
 10
3.156627285364056
 20
3.289330320764253
 30
0.0
 11
3.52643888209866
 21
3.289330320764253
 31
0.0
  0
LINE
  5
D7
330
58
100
AcDbEntity
 67
     1
  8
0
  6
HIDDENX2
 48
0.3
100
AcDbLine
 10
3.156627285364056
 20
3.161330320764253
 30
0.0
 11
3.156627285364056
 21
3.033330320764253
 31
0.0
  0
LINE
  5
D8
330
58
100
AcDbEntity
 67
     1
  8
0
  6
HIDDENX2
 48
0.3
100
AcDbLine
 10
3.156627285364056
 20
3.033330320764253
 30
0.0
 11
3.52643888209866
 21
3.033330320764253
 31
0.0
  0
LINE
  5
DA
330
58
100
AcDbEntity
 67
     1
  8
0
  6
threads
 48
0.3
100
AcDbLine
 10
3.156627285364056
 20
3.261330320764252
 30
0.0
 11
2.364738247592504
 21
3.261330320764252
 31
0.0
  0
LINE
  5
DC
330
58
100
AcDbEntity
 67
     1
  8
0
  6
threads
 48
0.3
100
AcDbLine
 10
1.535516323135608
 20
3.261330320764252
 30
0.0
 11
0.7436272853640571
 21
3.261330320764252
 31
0.0
  0
LINE
  5
DE
330
58
100
AcDbEntity
 67
     1
  8
0
  6
threads
 48
0.3
100
AcDbLine
 10
3.156627285364056
 20
3.061330320764253
 30
0.0
 11
2.364738247592504
 21
3.061330320764253
 31
0.0
  0
LINE
  5
E0
330
58
100
AcDbEntity
 67
     1
  8
0
  6
threads
 48
0.3
100
AcDbLine
 10
1.535516323135608
 20
3.061330320764253
 30
0.0
 11
0.7436272853640571
 21
3.061330320764253
 31
0.0
  0
DIMENSION
  5
E1
102
{ACAD_XDICTIONARY
360
F0
102
}
102
{ACAD_REACTORS
330
FB
102
}
330
58
100
AcDbEntity
 67
     1
  8
0
 48
0.3
100
AcDbDimension
  2
*D1
 10
6.494587591894783
 20
0.4210186609411011
 30
0.0
 11
5.888087591894782
 21
0.4210186609411011
 31
0.0
 70
    32
 71
     5
 42
1.213
  3
Standard
100
AcDbAlignedDimension
 13
5.281587591894782
 23
1.579830320764253
 33
0.0
 14
6.494587591894783
 24
2.428830320764252
 34
0.0
100
AcDbRotatedDimension
  0
DIMENSION
  5
FC
102
{ACAD_XDICTIONARY
360
10A
102
}
102
{ACAD_REACTORS
330
115
102
}
330
58
100
AcDbEntity
 67
     1
  8
0
 48
0.3
100
AcDbDimension
  2
*D2
 10
5.281587591894782
 20
1.289767858817267
 30
0.0
 11
4.82700425856145
 21
1.289767858817267
 31
0.0
 70
    32
 71
     5
 42
0.5629999999999999
  3
Standard
100
AcDbAlignedDimension
 13
5.844587591894782
 23
1.579830320764253
 33
0.0
 14
5.281587591894782
 24
1.579830320764253
 34
0.0
100
AcDbRotatedDimension
  0
DIMENSION
  5
116
102
{ACAD_XDICTIONARY
360
124
102
}
102
{ACAD_REACTORS
330
12F
102
}
330
58
100
AcDbEntity
 67
     1
  8
0
 48
0.3
100
AcDbDimension
  2
*D3
 10
6.444587591894782
 20
1.289767858817267
 30
0.0
 11
6.878337591894783
 21
1.289767858817267
 31
0.0
 70
    32
 71
     5
 42
0.6000000000000007
  3
Standard
100
AcDbAlignedDimension
 13
5.844587591894782
 23
1.579830320764253
 33
0.0
 14
6.444587591894782
 24
2.152830320764251
 34
0.0
100
AcDbRotatedDimension
  0
DIMENSION
  5
130
102
{ACAD_XDICTIONARY
360
13E
102
}
102
{ACAD_REACTORS
330
149
102
}
330
58
100
AcDbEntity
 67
     1
  8
0
 48
0.3
100
AcDbDimension
  2
*D4
 10
6.494587591894783
 20
1.895259713893461
 30
0.0
 11
7.053337591894782
 21
1.895259713893461
 31
0.0
 70
    32
 71
     5
 42
0.0499999999999998
  3
Standard
100
AcDbAlignedDimension
 13
6.444587591894782
 23
2.428830320764252
 33
0.0
 14
6.494587591894783
 24
2.428830320764252
 34
0.0
100
AcDbRotatedDimension
  0
DIMENSION
  5
14A
102
{ACAD_XDICTIONARY
360
158
102
}
102
{ACAD_REACTORS
330
163
102
}
330
58
100
AcDbEntity
 67
     1
  8
0
 48
0.3
100
AcDbDimension
  2
*D5
 10
5.281587591894782
 20
5.68997131857333
 30
0.0
 11
4.70200425856145
 21
5.68997131857333
 31
0.0
 70
    32
 71
     5
 42
0.2819999999999991
  3
Standard
100
AcDbAlignedDimension
 13
5.563587591894783
 23
3.161330320764252
 33
0.0
 14
5.281587591894782
 24
4.742830320764253
 34
0.0
100
AcDbRotatedDimension
  0
DIMENSION
  5
164
102
{ACAD_XDICTIONARY
360
172
102
}
102
{ACAD_REACTORS
330
17D
102
}
330
58
100
AcDbEntity
 67
     1
  8
0
 48
0.3
100
AcDbDimension
  2
*D6
 10
5.281587591894782
 20
5.118702906874464
 30
0.0
 11
4.712420925228117
 21
5.118702906874464
 31
0.0
 70
    32
 71
     5
 42
0.0750000000000002
  3
Standard
100
AcDbAlignedDimension
 13
5.356587591894784
 23
4.047830320764251
 33
0.0
 14
5.281587591894782
 24
4.047830320764251
 34
0.0
100
AcDbRotatedDimension
  0
DIMENSION
  5
17E
102
{ACAD_XDICTIONARY
360
18A
102
}
102
{ACAD_REACTORS
330
193
102
}
330
58
100
AcDbEntity
 67
     1
  8
0
 48
0.3
100
AcDbDimension
  2
*D7
 10
2.718399182428647
 20
1.778977058323433
 30
0.0
 11
0.2327085610658646
 21
5.339839079536615
 31
0.0
 70
   163
 71
     5
 42
3.163000000000001
  3
Standard
100
AcDbDiametricDimension
 15
1.181855388299464
 25
4.543683583205071
 35
0.0
 40
0.0
1001
ACAD
1000
DSTYLE
1002
{
1070
   288
1070
     1
1002
}
  0
DIMENSION
  5
194
102
{ACAD_XDICTIONARY
360
1A0
102
}
102
{ACAD_REACTORS
330
1A9
102
}
330
58
100
AcDbEntity
 67
     1
  8
0
 48
0.3
100
AcDbDimension
  2
*D8
 10
2.753202502745878
 20
2.551295530586562
 30
0.0
 11
-0.2738104092825226
 21
4.47372245724728
 31
0.0
 70
   163
 71
     5
 42
2.016999999999999
  3
Standard
100
AcDbDiametricDimension
 15
1.147052067982234
 25
3.771365110941941
 35
0.0
 40
0.0
1001
ACAD
1000
DSTYLE
1002
{
1070
   288
1070
     1
1002
}
  0
DIMENSION
  5
1AA
102
{ACAD_XDICTIONARY
360
1B5
102
}
102
{ACAD_REACTORS
330
1BD
102
}
330
58
100
AcDbEntity
 67
     1
  8
0
 48
0.3
100
AcDbDimension
  2
*D9
 10
2.815103252918524
 20
2.967168466752671
 30
0.0
 11
-0.2021861413729908
 21
3.644461853922101
 31
0.0
 70
   163
 71
     5
 42
1.773
  3
Standard
100
AcDbDiametricDimension
 15
1.085151317809589
 25
3.355492174775832
 35
0.0
 40
0.0
1001
ACAD
1000
DSTYLE
1002
{
1070
   288
1070
     1
1002
}
  0
DIMENSION
  5
1BE
102
{ACAD_XDICTIONARY
360
1CA
102
}
102
{ACAD_REACTORS
330
1D3
102
}
330
58
100
AcDbEntity
 67
     1
  8
0
 48
0.3
100
AcDbDimension
  2
*D10
 10
2.552977702734701
 20
3.577416398728941
 30
0.0
 11
-0.3396130824429566
 21
1.930656638451234
 31
0.0
 70
   163
 71
     5
 42
1.464999999999999
  3
Standard
100
AcDbDiametricDimension
 15
1.34727686799341
 25
2.745244242799562
 35
0.0
 40
0.0
1001
ACAD
1000
DSTYLE
1002
{
1070
   288
1070
     1
1002
}
  0
DIMENSION
  5
1D4
102
{ACAD_XDICTIONARY
360
1E0
102
}
102
{ACAD_REACTORS
330
1E9
102
}
330
58
100
AcDbEntity
 67
     1
  8
0
 48
0.3
100
AcDbDimension
  2
*D11
 10
2.144588105478024
 20
3.540918570635876
 30
0.0
 11
0.4438357085775499
 21
1.230392121126353
 31
0.0
 70
   163
 71
     5
 42
0.8529999999999995
  3
Standard
100
AcDbDiametricDimension
 15
1.755666465250089
 25
2.781742070892627
 35
0.0
 40
0.0
1001
ACAD
1000
DSTYLE
1002
{
1070
   288
1070
     1
1002
}
  0
DIMENSION
  5
206
102
{ACAD_XDICTIONARY
360
214
102
}
102
{ACAD_REACTORS
330
21F
102
}
330
58
100
AcDbEntity
 67
     1
  8
0
 48
0.3
100
AcDbDimension
  2
*D12
 10
3.156627285364056
 20
3.62810145418233
 30
0.0
 11
4.11121061869739
 21
3.62810145418233
 31
0.0
 70
   160
 71
     5
 42
0.375
  3
Standard
100
AcDbAlignedDimension
 13
3.531627285364056
 23
3.161330320764252
 33
0.0
 14
3.156627285364056
 24
3.289330320764253
 34
0.0
100
AcDbRotatedDimension
  0
LEADER
  5
22C
102
{ACAD_XDICTIONARY
360
22E
102
}
102
{ACAD_REACTORS
330
22F
102
}
330
58
100
AcDbEntity
 67
     1
  8
0
 48
0.3
100
AcDbLeader
  3
Standard
 73
     0
 40
0.125
 41
0.6458333333333334
 76
     3
 10
5.563587591894783
 20
3.161330320764252
 30
0.0
 10
6.690304374089741
 20
3.6564691885916
 30
0.0
 10
6.841877859811069
 20
3.6564691885916
 30
0.0
340
22D
213
0.0
223
-0.0625
233
0.0
1001
ACAD
1000
DSTYLE
1002
{
1070
   147
1040
0.09
1070
    77
1070
     0
1002
}
  0
MTEXT
  5
22D
102
{ACAD_REACTORS
330
22C
102
}
330
58
100
AcDbEntity
 67
     1
  8
0
 48
0.3
100
AcDbMText
 10
6.93187785981107
 20
3.7189691885916
 30
0.0
 40
0.125
 41
0.0
 71
     1
 72
     1
  1
1/4-20
 73
     1
 44
1.0
  0
LINE
  5
232
330
58
100
AcDbEntity
 67
     1
  8
0
  6
HIDDENX2
 48
0.3
100
AcDbLine
 10
5.356587591894784
 20
3.587830320764251
 30
0.0
 11
6.494587591894783
 21
3.587830320764251
 31
0.0
  0
LINE
  5
234
330
58
100
AcDbEntity
 67
     1
  8
0
  6
HIDDENX2
 48
0.3
100
AcDbLine
 10
5.356587591894784
 20
2.734830320764253
 30
0.0
 11
6.494587591894783
 21
2.734830320764253
 31
0.0
  0
DIMENSION
  5
235
102
{ACAD_XDICTIONARY
360
240
102
}
102
{ACAD_REACTORS
330
248
102
}
330
58
100
AcDbEntity
 67
     1
  8
0
 48
0.3
100
AcDbDimension
  2
*D13
 10
5.438872543872473
 20
3.190142762465598
 30
0.0
 11
6.779066366302047
 21
2.880522897103799
 31
0.0
 70
   163
 71
     5
 42
0.2560000000000011
  3
Standard
100
AcDbDiametricDimension
 15
5.688302639917091
 25
3.132517879062906
 35
0.0
 40
0.0
1001
ACAD
1000
DSTYLE
1002
{
1070
   288
1070
     1
1002
}
  0
MTEXT
  5
256
330
58
100
AcDbEntity
 67
     1
  8
0
 48
0.3
100
AcDbMText
 10
-0.6071075117464418
 20
5.430637812854634
 30
0.0
 40
0.125
 41
0.5566
 71
     1
 72
     5
  1
50T
 73
     1
 44
1.0
  0
MTEXT
  5
257
330
58
100
AcDbEntity
 67
     1
  8
0
 48
0.3
100
AcDbMText
 10
-1.062518760921101
 20
4.520875732618975
 30
0.0
 40
0.125
 41
0.4723
 71
     1
 72
     5
  1
32T
 73
     1
 44
1.0
  0
ENDSEC
  0
SECTION
  2
OBJECTS
  0
DICTIONARY
  5
C
330
0
100
AcDbDictionary
281
     1
  3
ACAD_GROUP
350
D
  3
ACAD_LAYOUT
350
1A
  3
ACAD_MLINESTYLE
350
17
  3
ACAD_PLOTSETTINGS
350
19
  3
ACAD_PLOTSTYLENAME
350
E
  3
AcadDim
350
22B
  3
AcDbVariableDictionary
350
66
  0
DICTIONARY
  5
F0
330
E1
100
AcDbDictionary
280
     1
281
     1
  3
ACAD_DIMASSOC
360
FB
  0
DICTIONARY
  5
10A
330
FC
100
AcDbDictionary
280
     1
281
     1
  3
ACAD_DIMASSOC
360
115
  0
DICTIONARY
  5
124
330
116
100
AcDbDictionary
280
     1
281
     1
  3
ACAD_DIMASSOC
360
12F
  0
DICTIONARY
  5
13E
330
130
100
AcDbDictionary
280
     1
281
     1
  3
ACAD_DIMASSOC
360
149
  0
DICTIONARY
  5
158
330
14A
100
AcDbDictionary
280
     1
281
     1
  3
ACAD_DIMASSOC
360
163
  0
DICTIONARY
  5
172
330
164
100
AcDbDictionary
280
     1
281
     1
  3
ACAD_DIMASSOC
360
17D
  0
DICTIONARY
  5
18A
330
17E
100
AcDbDictionary
280
     1
281
     1
  3
ACAD_DIMASSOC
360
193
  0
DICTIONARY
  5
1A0
330
194
100
AcDbDictionary
280
     1
281
     1
  3
ACAD_DIMASSOC
360
1A9
  0
DICTIONARY
  5
1B5
330
1AA
100
AcDbDictionary
280
     1
281
     1
  3
ACAD_DIMASSOC
360
1BD
  0
DICTIONARY
  5
1CA
330
1BE
100
AcDbDictionary
280
     1
281
     1
  3
ACAD_DIMASSOC
360
1D3
  0
DICTIONARY
  5
1E0
330
1D4
100
AcDbDictionary
280
     1
281
     1
  3
ACAD_DIMASSOC
360
1E9
  0
DICTIONARY
  5
214
330
206
100
AcDbDictionary
280
     1
281
     1
  3
ACAD_DIMASSOC
360
21F
  0
DICTIONARY
  5
22E
330
22C
100
AcDbDictionary
280
     1
281
     1
  3
ACAD_DIMASSOC
360
22F
  0
DICTIONARY
  5
240
330
235
100
AcDbDictionary
280
     1
281
     1
  3
ACAD_DIMASSOC
360
248
  0
DICTIONARY
  5
D
102
{ACAD_REACTORS
330
C
102
}
330
C
100
AcDbDictionary
281
     1
  0
DICTIONARY
  5
1A
102
{ACAD_REACTORS
330
C
102
}
330
C
100
AcDbDictionary
281
     1
  3
Layout1
350
59
  3
Layout2
350
5E
  3
Model
350
22
  0
DICTIONARY
  5
17
102
{ACAD_REACTORS
330
C
102
}
330
C
100
AcDbDictionary
281
     1
  3
Standard
350
18
  0
DICTIONARY
  5
19
102
{ACAD_REACTORS
330
C
102
}
330
C
100
AcDbDictionary
281
     1
  0
ACDBDICTIONARYWDFLT
  5
E
102
{ACAD_REACTORS
330
C
102
}
330
C
100
AcDbDictionary
281
     1
  3
Normal
350
F
100
AcDbDictionaryWithDefault
340
F
  0
XRECORD
  5
22B
102
{ACAD_REACTORS
330
C
102
}
330
C
100
AcDbXrecord
280
     1
 90
   990106
  3

 60
     0
 61
     0
 62
     1
 63
     3
 64
     0
 65
     0
 66
     0
 67
     3
 68
     1
 69
     0
 70
     0
 71
     0
 72
     0
 40
0.0
170
     0
340
22D
  0
DICTIONARY
  5
66
102
{ACAD_REACTORS
330
C
102
}
330
C
100
AcDbDictionary
281
     1
  3
DIMASSOC
350
67
  3
HIDETEXT
350
6B
  0
DIMASSOC
  5
FB
102
{ACAD_REACTORS
330
F0
102
}
330
F0
100
AcDbDimAssoc
330
E1
 90
        3
 70
     0
 71
     0
  1
AcDbOsnapPointRef
 72
    13
331
BC
 73
     2
 91
        0
 40
0.0
 10
5.281587591894782
 20
1.579830320764253
 30
0.0
 75
     0
  1
AcDbOsnapPointRef
 72
     1
331
C3
 73
     2
 91
        0
 40
0.9999999999999998
 10
6.494587591894783
 20
2.428830320764252
 30
0.0
 75
     0
  0
DIMASSOC
  5
115
102
{ACAD_REACTORS
330
10A
102
}
330
10A
100
AcDbDimAssoc
330
FC
 90
        3
 70
     0
 71
     0
  1
AcDbOsnapPointRef
 72
     1
331
BA
 73
     2
 91
        0
 40
1.0
 10
5.844587591894782
 20
1.579830320764253
 30
0.0
 75
     0
  1
AcDbOsnapPointRef
 72
    13
331
BC
 73
     2
 91
        0
 40
0.0
 10
5.281587591894782
 20
1.579830320764253
 30
0.0
 75
     0
  0
DIMASSOC
  5
12F
102
{ACAD_REACTORS
330
124
102
}
330
124
100
AcDbDimAssoc
330
116
 90
        3
 70
     0
 71
     0
  1
AcDbOsnapPointRef
 72
     1
331
BA
 73
     2
 91
        0
 40
1.0
 10
5.844587591894782
 20
1.579830320764253
 30
0.0
 75
     0
  1
AcDbOsnapPointRef
 72
     1
331
BF
 73
     2
 91
        0
 40
1.0
 10
6.444587591894782
 20
2.152830320764251
 30
0.0
 75
     0
  0
DIMASSOC
  5
149
102
{ACAD_REACTORS
330
13E
102
}
330
13E
100
AcDbDimAssoc
330
130
 90
        3
 70
     0
 71
     0
  1
AcDbOsnapPointRef
 72
     1
331
C4
 73
     2
 91
        0
 40
1.0
 10
6.444587591894782
 20
2.428830320764252
 30
0.0
 75
     0
  1
AcDbOsnapPointRef
 72
     1
331
C3
 73
     2
 91
        0
 40
0.9999999999999998
 10
6.494587591894783
 20
2.428830320764252
 30
0.0
 75
     0
  0
DIMASSOC
  5
163
102
{ACAD_REACTORS
330
158
102
}
330
158
100
AcDbDimAssoc
330
14A
 90
        3
 70
     0
 71
     0
  1
AcDbOsnapPointRef
 72
     3
331
CB
 73
     2
 91
        0
 40
0.0
 10
5.563587591894783
 20
3.161330320764252
 30
0.0
 75
     0
  1
AcDbOsnapPointRef
 72
     1
331
BC
 73
     2
 91
        0
 40
1.0
 10
5.281587591894782
 20
4.742830320764253
 30
0.0
 75
     0
  0
DIMASSOC
  5
17D
102
{ACAD_REACTORS
330
172
102
}
330
172
100
AcDbDimAssoc
330
164
 90
        3
 70
     0
 71
     0
  1
AcDbOsnapPointRef
 72
    13
331
C7
 73
     2
 91
        0
 40
0.0
 10
5.356587591894784
 20
4.047830320764251
 30
0.0
 75
     0
  1
AcDbOsnapPointRef
 72
    13
331
C6
 73
     2
 91
        0
 40
0.0
 10
5.281587591894782
 20
4.047830320764251
 30
0.0
 75
     0
  0
DIMASSOC
  5
193
102
{ACAD_REACTORS
330
18A
102
}
330
18A
100
AcDbDimAssoc
330
17E
 90
        2
 70
     0
 71
     0
  1
AcDbOsnapPointRef
 72
     3
331
B3
 73
     2
 91
        0
 40
0.0
 10
0.0
 20
0.0
 30
0.0
 75
     0
  0
DIMASSOC
  5
1A9
102
{ACAD_REACTORS
330
1A0
102
}
330
1A0
100
AcDbDimAssoc
330
194
 90
        2
 70
     0
 71
     0
  1
AcDbOsnapPointRef
 72
     3
331
B4
 73
     2
 91
        0
 40
0.0
 10
0.0
 20
0.0
 30
0.0
 75
     0
  0
DIMASSOC
  5
1BD
102
{ACAD_REACTORS
330
1B5
102
}
330
1B5
100
AcDbDimAssoc
330
1AA
 90
        2
 70
     0
 71
     0
  1
AcDbOsnapPointRef
 72
     3
331
B7
 73
     2
 91
        0
 40
0.0
 10
0.0
 20
0.0
 30
0.0
 75
     0
  0
DIMASSOC
  5
1D3
102
{ACAD_REACTORS
330
1CA
102
}
330
1CA
100
AcDbDimAssoc
330
1BE
 90
        2
 70
     0
 71
     0
  1
AcDbOsnapPointRef
 72
     3
331
B6
 73
     2
 91
        0
 40
0.0
 10
0.0
 20
0.0
 30
0.0
 75
     0
  0
DIMASSOC
  5
1E9
102
{ACAD_REACTORS
330
1E0
102
}
330
1E0
100
AcDbDimAssoc
330
1D4
 90
        2
 70
     0
 71
     0
  1
AcDbOsnapPointRef
 72
     3
331
B5
 73
     2
 91
        0
 40
0.0
 10
0.0
 20
0.0
 30
0.0
 75
     0
  0
DIMASSOC
  5
21F
102
{ACAD_REACTORS
330
214
102
}
330
214
100
AcDbDimAssoc
330
206
 90
        2
 70
     0
 71
     0
  1
AcDbOsnapPointRef
 72
    13
331
D6
 73
     2
 91
        0
 40
0.0
 10
3.156627285364056
 20
3.289330320764253
 30
0.0
 75
     0
  0
DIMASSOC
  5
22F
102
{ACAD_REACTORS
330
22E
102
}
330
22E
100
AcDbDimAssoc
330
22C
 90
        1
 70
     0
 71
     0
  1
AcDbOsnapPointRef
 72
     3
331
CB
 73
     2
 91
        0
 40
0.0
 10
5.563587591894783
 20
3.161330320764252
 30
0.0
 75
     0
  0
DIMASSOC
  5
248
102
{ACAD_REACTORS
330
240
102
}
330
240
100
AcDbDimAssoc
330
235
 90
        2
 70
     0
 71
     0
  1
AcDbOsnapPointRef
 72
     3
331
CB
 73
     2
 91
        0
 40
0.0
 10
0.0
 20
0.0
 30
0.0
 75
     0
  0
LAYOUT
  5
59
102
{ACAD_REACTORS
330
1A
102
}
330
1A
100
AcDbPlotSettings
  1

  2
none_device
  4
Letter_(8.50_x_11.00_Inches)
  6

 40
6.349999904632567
 41
6.349999904632567
 42
6.350006103515625
 43
6.350006103515625
 44
215.8999938964842
 45
279.3999938964843
 46
38.3032
 47
38.15079999999999
 48
0.0
 49
0.0
140
0.0
141
0.0
142
1.0
143
1.0
 70
   688
 72
     0
 73
     1
 74
     5
  7

 75
    16
147
1.0
148
0.0
149
0.0
100
AcDbLayout
  1
Layout1
 70
     1
 71
     1
 10
-1.75200024029589
 20
-1.757999996245375
 11
9.247999519408216
 21
6.74199976345873
 12
0.0
 22
0.0
 32
0.0
 14
-1.439262267973588
 24
-1.41285528304607
 34
0.0
 15
8.966538218833356
 25
6.396855050259421
 35
0.0
146
0.0
 13
0.0
 23
0.0
 33
0.0
 16
1.0
 26
0.0
 36
0.0
 17
0.0
 27
1.0
 37
0.0
 76
     0
330
58
331
77
  0
LAYOUT
  5
5E
102
{ACAD_REACTORS
330
1A
102
}
330
1A
100
AcDbPlotSettings
  1

  2
None
  4

  6

 40
0.0
 41
0.0
 42
0.0
 43
0.0
 44
0.0
 45
0.0
 46
0.0
 47
0.0
 48
0.0
 49
0.0
140
0.0
141
0.0
142
1.0
143
1.0
 70
   688
 72
     0
 73
     0
 74
     5
  7

 75
    16
147
1.0
148
0.0
149
0.0
100
AcDbLayout
  1
Layout2
 70
     1
 71
     2
 10
0.0
 20
0.0
 11
12.0
 21
9.0
 12
0.0
 22
0.0
 32
0.0
 14
0.0
 24
0.0
 34
0.0
 15
0.0
 25
0.0
 35
0.0
146
0.0
 13
0.0
 23
0.0
 33
0.0
 16
1.0
 26
0.0
 36
0.0
 17
0.0
 27
1.0
 37
0.0
 76
     0
330
5D
  0
LAYOUT
  5
22
102
{ACAD_REACTORS
330
1A
102
}
330
1A
100
AcDbPlotSettings
  1

  2
none_device
  4
ANSI_A_(8.50_x_11.00_Inches)
  6

 40
6.349999904632567
 41
19.04999923706053
 42
6.350006103515625
 43
19.04998779296875
 44
215.8999938964842
 45
279.3999938964843
 46
0.0
 47
0.0
 48
0.0
 49
0.0
140
0.0
141
0.0
142
1.0
143
2.584895464708373
 70
 11952
 72
     0
 73
     1
 74
     0
  7

 75
     0
147
0.3868628397755418
148
0.0
149
0.0
100
AcDbLayout
  1
Model
 70
     1
 71
     0
 10
0.0
 20
0.0
 11
12.0
 21
9.0
 12
0.0
 22
0.0
 32
0.0
 14
0.0
 24
0.0
 34
0.0
 15
0.0
 25
0.0
 35
0.0
146
0.0
 13
0.0
 23
0.0
 33
0.0
 16
1.0
 26
0.0
 36
0.0
 17
0.0
 27
1.0
 37
0.0
 76
     0
330
1F
  0
MLINESTYLE
  5
18
102
{ACAD_REACTORS
330
17
102
}
330
17
100
AcDbMlineStyle
  2
STANDARD
 70
     0
  3

 62
   256
 51
90.0
 52
90.0
 71
     2
 49
0.5
 62
   256
  6
BYLAYER
 49
-0.5
 62
   256
  6
BYLAYER
  0
ACDBPLACEHOLDER
  5
F
102
{ACAD_REACTORS
330
E
102
}
330
E
  0
DICTIONARYVAR
  5
67
102
{ACAD_REACTORS
330
66
102
}
330
66
100
DictionaryVariables
280
     0
  1
2
  0
DICTIONARYVAR
  5
6B
102
{ACAD_REACTORS
330
66
102
}
330
66
100
DictionaryVariables
280
     0
  1
1
  0
ENDSEC
  0
EOF
