  0
SECTION
  2
HEADER
  9
$ACADVER
  1
AC1015
  9
$ACADMAINTVER
 70
    13
  9
$DWGCODEPAGE
  3
ANSI_1252
  9
$INSBASE
 10
0.0
 20
0.0
 30
0.0
  9
$EXTMIN
 10
1.000000000000000E+20
 20
1.000000000000000E+20
 30
1.000000000000000E+20
  9
$EXTMAX
 10
-1.000000000000000E+20
 20
-1.000000000000000E+20
 30
-1.000000000000000E+20
  9
$LIMMIN
 10
0.0
 20
0.0
  9
$LIMMAX
 10
12.0
 20
9.0
  9
$ORTHOMODE
 70
     0
  9
$REGENMODE
 70
     1
  9
$FILLMODE
 70
     1
  9
$QTEXTMODE
 70
     0
  9
$MIRRTEXT
 70
     1
  9
$LTSCALE
 40
0.3
  9
$ATTMODE
 70
     1
  9
$TEXTSIZE
 40
0.2
  9
$TRACEWID
 40
0.05
  9
$TEXTSTYLE
  7
Standard
  9
$CLAYER
  8
0
  9
$CELTYPE
  6
ByLayer
  9
$CECOLOR
 62
   256
  9
$CELTSCALE
 40
0.3
  9
$DISPSILH
 70
     0
  9
$DIMSCALE
 40
1.0
  9
$DIMASZ
 40
0.125
  9
$DIMEXO
 40
0.0625
  9
$DIMDLI
 40
0.38
  9
$DIMRND
 40
0.0
  9
$DIMDLE
 40
0.0
  9
$DIMEXE
 40
0.18
  9
$DIMTP
 40
0.0
  9
$DIMTM
 40
0.0
  9
$DIMTXT
 40
0.125
  9
$DIMCEN
 40
0.09
  9
$DIMTSZ
 40
0.0
  9
$DIMTOL
 70
     0
  9
$DIMLIM
 70
     0
  9
$DIMTIH
 70
     1
  9
$DIMTOH
 70
     1
  9
$DIMSE1
 70
     0
  9
$DIMSE2
 70
     0
  9
$DIMTAD
 70
     0
  9
$DIMZIN
 70
     0
  9
$DIMBLK
  1

  9
$DIMASO
 70
     1
  9
$DIMSHO
 70
     1
  9
$DIMPOST
  1

  9
$DIMAPOST
  1

  9
$DIMALT
 70
     0
  9
$DIMALTD
 70
     2
  9
$DIMALTF
 40
25.4
  9
$DIMLFAC
 40
1.0
  9
$DIMTOFL
 70
     0
  9
$DIMTVP
 40
0.0
  9
$DIMTIX
 70
     0
  9
$DIMSOXD
 70
     0
  9
$DIMSAH
 70
     0
  9
$DIMBLK1
  1

  9
$DIMBLK2
  1

  9
$DIMSTYLE
  2
Standard
  9
$DIMCLRD
 70
     0
  9
$DIMCLRE
 70
     0
  9
$DIMCLRT
 70
     0
  9
$DIMTFAC
 40
1.0
  9
$DIMGAP
 40
0.09
  9
$DIMJUST
 70
     0
  9
$DIMSD1
 70
     0
  9
$DIMSD2
 70
     0
  9
$DIMTOLJ
 70
     1
  9
$DIMTZIN
 70
     0
  9
$DIMALTZ
 70
     0
  9
$DIMALTTZ
 70
     0
  9
$DIMUPT
 70
     0
  9
$DIMDEC
 70
     3
  9
$DIMTDEC
 70
     3
  9
$DIMALTU
 70
     2
  9
$DIMALTTD
 70
     2
  9
$DIMTXSTY
  7
Standard
  9
$DIMAUNIT
 70
     0
  9
$DIMADEC
 70
     0
  9
$DIMALTRND
 40
0.0
  9
$DIMAZIN
 70
     0
  9
$DIMDSEP
 70
    46
  9
$DIMATFIT
 70
     3
  9
$DIMFRAC
 70
     0
  9
$DIMLDRBLK
  1

  9
$DIMLUNIT
 70
     2
  9
$DIMLWD
 70
    -2
  9
$DIMLWE
 70
    -2
  9
$DIMTMOVE
 70
     0
  9
$LUNITS
 70
     2
  9
$LUPREC
 70
     4
  9
$SKETCHINC
 40
0.1
  9
$FILLETRAD
 40
0.5
  9
$AUNITS
 70
     0
  9
$AUPREC
 70
     0
  9
$MENU
  1
.
  9
$ELEVATION
 40
0.0
  9
$PELEVATION
 40
0.0
  9
$THICKNESS
 40
0.0
  9
$LIMCHECK
 70
     0
  9
$CHAMFERA
 40
0.5
  9
$CHAMFERB
 40
0.5
  9
$CHAMFERC
 40
1.0
  9
$CHAMFERD
 40
0.0
  9
$SKPOLY
 70
     0
  9
$TDCREATE
 40
2454293.759598379
  9
$TDUCREATE
 40
2454293.926265046
  9
$TDUPDATE
 40
2455642.682830220
  9
$TDUUPDATE
 40
2455642.849496886
  9
$TDINDWG
 40
0.0573639931
  9
$TDUSRTIMER
 40
0.0573639931
  9
$USRTIMER
 70
     1
  9
$ANGBASE
 50
0.0
  9
$ANGDIR
 70
     0
  9
$PDMODE
 70
     0
  9
$PDSIZE
 40
0.0
  9
$PLINEWID
 40
0.0
  9
$SPLFRAME
 70
     0
  9
$SPLINETYPE
 70
     6
  9
$SPLINESEGS
 70
     8
  9
$HANDSEED
  5
6E7
  9
$SURFTAB1
 70
     6
  9
$SURFTAB2
 70
     6
  9
$SURFTYPE
 70
     6
  9
$SURFU
 70
     6
  9
$SURFV
 70
     6
  9
$UCSBASE
  2

  9
$UCSNAME
  2

  9
$UCSORG
 10
0.0
 20
0.0
 30
0.0
  9
$UCSXDIR
 10
1.0
 20
0.0
 30
0.0
  9
$UCSYDIR
 10
0.0
 20
1.0
 30
0.0
  9
$UCSORTHOREF
  2

  9
$UCSORTHOVIEW
 70
     0
  9
$UCSORGTOP
 10
0.0
 20
0.0
 30
0.0
  9
$UCSORGBOTTOM
 10
0.0
 20
0.0
 30
0.0
  9
$UCSORGLEFT
 10
0.0
 20
0.0
 30
0.0
  9
$UCSORGRIGHT
 10
0.0
 20
0.0
 30
0.0
  9
$UCSORGFRONT
 10
0.0
 20
0.0
 30
0.0
  9
$UCSORGBACK
 10
0.0
 20
0.0
 30
0.0
  9
$PUCSBASE
  2

  9
$PUCSNAME
  2

  9
$PUCSORG
 10
0.0
 20
0.0
 30
0.0
  9
$PUCSXDIR
 10
1.0
 20
0.0
 30
0.0
  9
$PUCSYDIR
 10
0.0
 20
1.0
 30
0.0
  9
$PUCSORTHOREF
  2

  9
$PUCSORTHOVIEW
 70
     0
  9
$PUCSORGTOP
 10
0.0
 20
0.0
 30
0.0
  9
$PUCSORGBOTTOM
 10
0.0
 20
0.0
 30
0.0
  9
$PUCSORGLEFT
 10
0.0
 20
0.0
 30
0.0
  9
$PUCSORGRIGHT
 10
0.0
 20
0.0
 30
0.0
  9
$PUCSORGFRONT
 10
0.0
 20
0.0
 30
0.0
  9
$PUCSORGBACK
 10
0.0
 20
0.0
 30
0.0
  9
$USERI1
 70
     0
  9
$USERI2
 70
     0
  9
$USERI3
 70
     0
  9
$USERI4
 70
     0
  9
$USERI5
 70
     0
  9
$USERR1
 40
0.0
  9
$USERR2
 40
0.0
  9
$USERR3
 40
0.0
  9
$USERR4
 40
0.0
  9
$USERR5
 40
0.0
  9
$WORLDVIEW
 70
     1
  9
$SHADEDGE
 70
     3
  9
$SHADEDIF
 70
    70
  9
$TILEMODE
 70
     0
  9
$MAXACTVP
 70
    64
  9
$PINSBASE
 10
0.0
 20
0.0
 30
0.0
  9
$PLIMCHECK
 70
     0
  9
$PEXTMIN
 10
0.2965759179903777
 20
0.5900508454536873
 30
0.0
  9
$PEXTMAX
 10
20.29657591799038
 20
16.09005084545368
 30
0.0
  9
$PLIMMIN
 10
-0.7499995194082186
 20
-0.2499999962453767
  9
$PLIMMAX
 10
21.25
 20
16.74999952316284
  9
$UNITMODE
 70
     0
  9
$VISRETAIN
 70
     1
  9
$PLINEGEN
 70
     0
  9
$PSLTSCALE
 70
     0
  9
$TREEDEPTH
 70
  3020
  9
$CMLSTYLE
  2
Standard
  9
$CMLJUST
 70
     0
  9
$CMLSCALE
 40
1.0
  9
$PROXYGRAPHICS
 70
     1
  9
$MEASUREMENT
 70
     0
  9
$CELWEIGHT
370
    -1
  9
$ENDCAPS
280
     0
  9
$JOINSTYLE
280
     0
  9
$LWDISPLAY
290
     0
  9
$INSUNITS
 70
     1
  9
$HYPERLINKBASE
  1

  9
$STYLESHEET
  1

  9
$XEDIT
290
     1
  9
$CEPSNTYPE
380
     0
  9
$PSTYLEMODE
290
     1
  9
$FINGERPRINTGUID
  2
{FDEAD576-A652-11D2-9A35-0060089B3A3F}
  9
$VERSIONGUID
  2
{A5DC3E8F-4A61-4F92-AFBC-257C4C4C4068}
  9
$EXTNAMES
290
     1
  9
$PSVPSCALE
 40
0.0
  9
$OLESTARTUP
290
     0
  0
ENDSEC
  0
SECTION
  2
CLASSES
  0
CLASS
  1
ACDBDICTIONARYWDFLT
  2
AcDbDictionaryWithDefault
  3
AutoCAD 2000
 90
        0
280
     0
281
     0
  0
CLASS
  1
ACDBPLACEHOLDER
  2
AcDbPlaceHolder
  3
AutoCAD 2000
 90
        0
280
     0
281
     0
  0
CLASS
  1
LAYOUT
  2
AcDbLayout
  3
AutoCAD 2000
 90
        0
280
     0
281
     0
  0
CLASS
  1
DICTIONARYVAR
  2
AcDbDictionaryVar
  3
AutoCAD 2000
 90
        0
280
     0
281
     0
  0
CLASS
  1
DIMASSOC
  2
AcDbDimAssoc
  3
"AcDbDimAssoc|Product Desc:     AcDim ARX App For Dimension|Company:          Autodesk, Inc.|WEB Address:      www.autodesk.com"
 90
        0
280
     0
281
     0
  0
ENDSEC
  0
SECTION
  2
TABLES
  0
TABLE
  2
VPORT
  5
8
330
0
100
AcDbSymbolTable
 70
     1
  0
VPORT
  5
74
330
8
100
AcDbSymbolTableRecord
100
AcDbViewportTableRecord
  2
*Active
 70
     0
 10
0.0
 20
0.0
 11
1.0
 21
1.0
 12
17.1725029554147
 22
9.784138269231398
 13
0.0
 23
0.0
 14
0.5
 24
0.5
 15
0.5
 25
0.5
 16
0.0
 26
0.0
 36
1.0
 17
0.0
 27
0.0
 37
0.0
 40
19.56827653846279
 41
1.75513698630137
 42
50.0
 43
0.0
 44
0.0
 50
0.0
 51
0.0
 71
     0
 72
   100
 73
     1
 74
     3
 75
     0
 76
     0
 77
     0
 78
     0
281
     0
 65
     1
110
0.0
120
0.0
130
0.0
111
1.0
121
0.0
131
0.0
112
0.0
122
1.0
132
0.0
 79
     0
146
0.0
  0
ENDTAB
  0
TABLE
  2
LTYPE
  5
5
330
0
100
AcDbSymbolTable
 70
     3
  0
LTYPE
  5
14
330
5
100
AcDbSymbolTableRecord
100
AcDbLinetypeTableRecord
  2
ByBlock
 70
     0
  3

 72
    65
 73
     0
 40
0.0
  0
LTYPE
  5
15
330
5
100
AcDbSymbolTableRecord
100
AcDbLinetypeTableRecord
  2
ByLayer
 70
     0
  3

 72
    65
 73
     0
 40
0.0
  0
LTYPE
  5
16
330
5
100
AcDbSymbolTableRecord
100
AcDbLinetypeTableRecord
  2
Continuous
 70
     0
  3
Solid line
 72
    65
 73
     0
 40
0.0
  0
LTYPE
  5
7C
330
5
100
AcDbSymbolTableRecord
100
AcDbLinetypeTableRecord
  2
HIDDENX2
 70
     0
  3
Hidden (2x) ____ ____ ____ ____ ____ ____ ____
 72
    65
 73
     2
 40
0.75
 49
0.5
 74
     0
 49
-0.25
 74
     0
  0
LTYPE
  5
7D
330
5
100
AcDbSymbolTableRecord
100
AcDbLinetypeTableRecord
  2
threads
 70
     0
  3
Zig zag /\/\/\/\/\/\/\/\/\/\/\/\/\/\/\/\/\/\/\/
 72
    65
 73
     4
 40
0.8001000000000001
 49
0.0001
 74
     0
 49
-0.2
 74
     4
 75
   131
340
7B
 46
0.2
 50
0.0
 44
-0.2
 45
0.0
 49
-0.4
 74
     4
 75
   131
340
7B
 46
0.2
 50
180.0
 44
0.2
 45
0.0
 49
-0.2
 74
     0
  0
ENDTAB
  0
TABLE
  2
LAYER
  5
2
330
0
100
AcDbSymbolTable
 70
     2
  0
LAYER
  5
10
330
2
100
AcDbSymbolTableRecord
100
AcDbLayerTableRecord
  2
0
 70
     0
 62
     7
  6
Continuous
370
    -3
390
F
  0
LAYER
  5
83
330
2
100
AcDbSymbolTableRecord
100
AcDbLayerTableRecord
  2
Defpoints
 70
     0
 62
     7
  6
Continuous
290
     0
370
    -3
390
F
  0
ENDTAB
  0
TABLE
  2
STYLE
  5
3
330
0
100
AcDbSymbolTable
 70
     2
  0
STYLE
  5
11
330
3
100
AcDbSymbolTableRecord
100
AcDbTextStyleTableRecord
  2
Standard
 70
     0
 40
0.0
 41
1.0
 50
0.0
 71
     0
 42
0.2
  3
txt
  4

  0
STYLE
  5
7B
330
3
100
AcDbSymbolTableRecord
100
AcDbTextStyleTableRecord
  2

 70
     1
 40
0.0
 41
1.0
 50
0.0
 71
     0
 42
0.2
  3
ltypeshp.shx
  4

  0
ENDTAB
  0
TABLE
  2
VIEW
  5
6
330
0
100
AcDbSymbolTable
 70
     0
  0
ENDTAB
  0
TABLE
  2
UCS
  5
7
330
0
100
AcDbSymbolTable
 70
     0
  0
ENDTAB
  0
TABLE
  2
APPID
  5
9
330
0
100
AcDbSymbolTable
 70
     1
  0
APPID
  5
12
330
9
100
AcDbSymbolTableRecord
100
AcDbRegAppTableRecord
  2
ACAD
 70
     0
  0
ENDTAB
  0
TABLE
  2
DIMSTYLE
  5
A
330
0
100
AcDbSymbolTable
 70
     1
100
AcDbDimStyleTable
 71
     1
340
27
  0
DIMSTYLE
105
27
102
{ACAD_REACTORS
330
2A9
330
30B
330
34E
330
5C6
330
5EA
330
5FE
330
614
330
62E
330
648
330
67E
330
698
330
6B4
102
}
330
A
100
AcDbSymbolTableRecord
100
AcDbDimStyleTableRecord
  2
Standard
 70
     0
 41
0.125
140
0.125
271
     3
272
     3
340
11
  0
ENDTAB
  0
TABLE
  2
BLOCK_RECORD
  5
1
330
0
100
AcDbSymbolTable
 70
    29
  0
BLOCK_RECORD
  5
1F
330
1
100
AcDbSymbolTableRecord
100
AcDbBlockTableRecord
  2
*Model_Space
340
22
  0
BLOCK_RECORD
  5
58
330
1
100
AcDbSymbolTableRecord
100
AcDbBlockTableRecord
  2
*Paper_Space
340
59
  0
BLOCK_RECORD
  5
5D
330
1
100
AcDbSymbolTableRecord
100
AcDbBlockTableRecord
  2
*Paper_Space0
340
5E
  0
BLOCK_RECORD
  5
2AA
330
1
100
AcDbSymbolTableRecord
100
AcDbBlockTableRecord
  2
*D3
340
0
  0
BLOCK_RECORD
  5
30C
330
1
100
AcDbSymbolTableRecord
100
AcDbBlockTableRecord
  2
*D7
340
0
  0
BLOCK_RECORD
  5
34F
330
1
100
AcDbSymbolTableRecord
100
AcDbBlockTableRecord
  2
*D9
340
0
  0
BLOCK_RECORD
  5
5C7
330
1
100
AcDbSymbolTableRecord
100
AcDbBlockTableRecord
  2
*D20
340
0
  0
BLOCK_RECORD
  5
5EB
330
1
100
AcDbSymbolTableRecord
100
AcDbBlockTableRecord
  2
*D21
340
0
  0
BLOCK_RECORD
  5
5FF
330
1
100
AcDbSymbolTableRecord
100
AcDbBlockTableRecord
  2
*D22
340
0
  0
BLOCK_RECORD
  5
615
330
1
100
AcDbSymbolTableRecord
100
AcDbBlockTableRecord
  2
*D23
340
0
  0
BLOCK_RECORD
  5
62F
330
1
100
AcDbSymbolTableRecord
100
AcDbBlockTableRecord
  2
*D24
340
0
  0
BLOCK_RECORD
  5
649
330
1
100
AcDbSymbolTableRecord
100
AcDbBlockTableRecord
  2
*D25
340
0
  0
BLOCK_RECORD
  5
67F
330
1
100
AcDbSymbolTableRecord
100
AcDbBlockTableRecord
  2
*D26
340
0
  0
BLOCK_RECORD
  5
699
330
1
100
AcDbSymbolTableRecord
100
AcDbBlockTableRecord
  2
*D27
340
0
  0
BLOCK_RECORD
  5
6B5
330
1
100
AcDbSymbolTableRecord
100
AcDbBlockTableRecord
  2
*D28
340
0
  0
ENDTAB
  0
ENDSEC
  0
SECTION
  2
BLOCKS
  0
BLOCK
  5
20
330
1F
100
AcDbEntity
  8
0
100
AcDbBlockBegin
  2
*Model_Space
 70
     0
 10
0.0
 20
0.0
 30
0.0
  3
*Model_Space
  1

  0
ENDBLK
  5
21
330
1F
100
AcDbEntity
  8
0
100
AcDbBlockEnd
  0
BLOCK
  5
5A
330
58
100
AcDbEntity
 67
     1
  8
0
100
AcDbBlockBegin
  2
*Paper_Space
 70
     0
 10
0.0
 20
0.0
 30
0.0
  3
*Paper_Space
  1

  0
ENDBLK
  5
5B
330
58
100
AcDbEntity
 67
     1
  8
0
100
AcDbBlockEnd
  0
BLOCK
  5
5F
330
5D
100
AcDbEntity
  8
0
100
AcDbBlockBegin
  2
*Paper_Space0
 70
     0
 10
0.0
 20
0.0
 30
0.0
  3
*Paper_Space0
  1

  0
ENDBLK
  5
60
330
5D
100
AcDbEntity
  8
0
100
AcDbBlockEnd
  0
BLOCK
  5
2B5
330
2AA
100
AcDbEntity
  8
0
 48
0.3
100
AcDbBlockBegin
  2
*D3
 70
     1
 10
0.0
 20
0.0
 30
0.0
  3
*D3
  1

  0
LINE
  5
547
330
2AA
100
AcDbEntity
  8
0
 62
     0
 48
0.3
370
    -2
100
AcDbLine
 10
8.102387964327993
 20
9.426813665331021
 30
0.0
 11
8.102387964327993
 21
7.86877582730996
 31
0.0
  0
LINE
  5
548
330
2AA
100
AcDbEntity
  8
0
 62
     0
 48
0.3
370
    -2
100
AcDbLine
 10
5.852387964327992
 20
9.426813665331023
 30
0.0
 11
5.852387964327992
 21
7.86877582730996
 31
0.0
  0
LINE
  5
549
330
2AA
100
AcDbEntity
  8
0
 62
     0
 48
0.3
370
    -2
100
AcDbLine
 10
7.977387964327993
 20
8.04877582730996
 30
0.0
 11
7.306971297661327
 21
8.04877582730996
 31
0.0
  0
LINE
  5
54A
330
2AA
100
AcDbEntity
  8
0
 62
     0
 48
0.3
370
    -2
100
AcDbLine
 10
5.977387964327992
 20
8.04877582730996
 30
0.0
 11
6.647804630994659
 21
8.04877582730996
 31
0.0
  0
SOLID
  5
54B
330
2AA
100
AcDbEntity
  8
0
 62
     0
 48
0.3
100
AcDbTrace
 10
7.977387964327993
 20
8.069609160643294
 30
0.0
 11
7.977387964327993
 21
8.027942493976626
 31
0.0
 12
8.102387964327993
 22
8.04877582730996
 32
0.0
 13
8.102387964327993
 23
8.04877582730996
 33
0.0
  0
SOLID
  5
54C
330
2AA
100
AcDbEntity
  8
0
 62
     0
 48
0.3
100
AcDbTrace
 10
5.977387964327992
 20
8.069609160643294
 30
0.0
 11
5.977387964327992
 21
8.027942493976626
 31
0.0
 12
5.852387964327992
 22
8.04877582730996
 32
0.0
 13
5.852387964327992
 23
8.04877582730996
 33
0.0
  0
MTEXT
  5
54D
330
2AA
100
AcDbEntity
  8
0
 62
     0
 48
0.3
100
AcDbMText
 10
6.977387964327993
 20
8.04877582730996
 30
0.0
 40
0.125
 41
0.0
 71
     5
 72
     1
  1
\A1;2.250
 73
     1
 44
1.0
  0
POINT
  5
54E
330
2AA
100
AcDbEntity
  8
Defpoints
 62
     0
 48
0.3
100
AcDbPoint
 10
8.102387964327993
 20
9.489313665331021
 30
0.0
  0
POINT
  5
54F
330
2AA
100
AcDbEntity
  8
Defpoints
 62
     0
 48
0.3
100
AcDbPoint
 10
5.852387964327992
 20
9.489313665331023
 30
0.0
  0
POINT
  5
550
330
2AA
100
AcDbEntity
  8
Defpoints
 62
     0
 48
0.3
100
AcDbPoint
 10
5.852387964327992
 20
8.04877582730996
 30
0.0
  0
ENDBLK
  5
2B6
330
2AA
100
AcDbEntity
  8
0
 48
0.3
100
AcDbBlockEnd
  0
BLOCK
  5
314
330
30C
100
AcDbEntity
  8
0
 48
0.3
100
AcDbBlockBegin
  2
*D7
 70
     1
 10
0.0
 20
0.0
 30
0.0
  3
*D7
  1

  0
LINE
  5
5B6
330
30C
100
AcDbEntity
  8
0
 62
     0
 48
0.3
370
    -2
100
AcDbLine
 10
9.047975638275616
 20
8.746999458423799
 30
0.0
 11
8.922975638275614
 21
8.746999458423799
 31
0.0
  0
LINE
  5
5B7
330
30C
100
AcDbEntity
  8
0
 62
     0
 48
0.3
370
    -2
100
AcDbLine
 10
8.922975638275614
 20
8.746999458423799
 30
0.0
 11
8.253699255608106
 21
9.339797718363811
 31
0.0
  0
MTEXT
  5
5B8
330
30C
100
AcDbEntity
  8
0
 62
     0
 48
0.3
100
AcDbMText
 10
9.408808971608948
 20
8.746999458423799
 30
0.0
 40
0.125
 41
0.0
 71
     5
 72
     1
  1
\A1;\U+22050.201
 73
     1
 44
1.0
  0
SOLID
  5
5B9
330
30C
100
AcDbEntity
  8
0
 62
     0
 48
0.3
100
AcDbTrace
 10
8.267512628387782
 20
9.355393182775861
 30
0.0
 11
8.23988588282843
 21
9.324202253951762
 31
0.0
 12
8.160126469135811
 22
9.422677955041866
 32
0.0
 13
8.160126469135811
 23
9.422677955041866
 33
0.0
  0
LINE
  5
5BA
330
30C
100
AcDbEntity
  8
0
 62
     0
 48
0.3
370
    -2
100
AcDbLine
 10
7.994893948812086
 20
9.489313665331019
 30
0.0
 11
8.174893948812085
 21
9.489313665331021
 31
0.0
  0
LINE
  5
5BB
330
30C
100
AcDbEntity
  8
0
 62
     0
 48
0.3
370
    -2
100
AcDbLine
 10
8.084893948812085
 20
9.399313665331021
 30
0.0
 11
8.084893948812085
 21
9.579313665331021
 31
0.0
  0
POINT
  5
5BC
330
30C
100
AcDbEntity
  8
Defpoints
 62
     0
 48
0.3
100
AcDbPoint
 10
8.160126469135811
 20
9.422677955041866
 30
0.0
  0
POINT
  5
5BD
330
30C
100
AcDbEntity
  8
Defpoints
 62
     0
 48
0.3
100
AcDbPoint
 10
8.00966142848836
 20
9.555949375620176
 30
0.0
  0
ENDBLK
  5
315
330
30C
100
AcDbEntity
  8
0
 48
0.3
100
AcDbBlockEnd
  0
BLOCK
  5
358
330
34F
100
AcDbEntity
  8
0
 48
0.3
100
AcDbBlockBegin
  2
*D9
 70
     1
 10
0.0
 20
0.0
 30
0.0
  3
*D9
  1

  0
LINE
  5
35B
330
34F
100
AcDbEntity
  8
0
 62
     0
 48
0.3
370
    -2
100
AcDbLine
 10
6.283418678365664
 20
10.1745781907561
 30
0.0
 11
6.408418678365665
 21
10.1745781907561
 31
0.0
  0
LINE
  5
35C
330
34F
100
AcDbEntity
  8
0
 62
     0
 48
0.3
370
    -2
100
AcDbLine
 10
6.408418678365665
 20
10.1745781907561
 30
0.0
 11
6.81420619384993
 21
11.01417967743341
 31
0.0
  0
MTEXT
  5
35D
330
34F
100
AcDbEntity
  8
0
 62
     0
 48
0.3
100
AcDbMText
 10
5.912168678365663
 20
10.1745781907561
 30
0.0
 40
0.125
 41
0.0
 71
     5
 72
     1
  1
\A1;\U+22050.500
 73
     1
 44
1.0
  0
SOLID
  5
35E
330
34F
100
AcDbEntity
  8
0
 62
     0
 48
0.3
100
AcDbTrace
 10
6.795448750077841
 20
11.02324533134886
 30
0.0
 11
6.83296363762202
 21
11.00511402351796
 31
0.0
 12
6.868600117342619
 22
11.12672434006594
 32
0.0
 13
6.868600117342619
 23
11.12672434006594
 33
0.0
  0
LINE
  5
35F
330
34F
100
AcDbEntity
  8
0
 62
     0
 48
0.3
370
    -2
100
AcDbLine
 10
6.887387964327993
 20
11.35181366533102
 30
0.0
 11
7.067387964327992
 21
11.35181366533102
 31
0.0
  0
LINE
  5
360
330
34F
100
AcDbEntity
  8
0
 62
     0
 48
0.3
370
    -2
100
AcDbLine
 10
6.977387964327994
 20
11.26181366533102
 30
0.0
 11
6.977387964327993
 21
11.44181366533101
 31
0.0
  0
POINT
  5
361
330
34F
100
AcDbEntity
  8
Defpoints
 62
     0
 48
0.3
100
AcDbPoint
 10
6.868600117342619
 20
11.12672434006594
 30
0.0
  0
POINT
  5
362
330
34F
100
AcDbEntity
  8
Defpoints
 62
     0
 48
0.3
100
AcDbPoint
 10
7.086175811313371
 20
11.57690299059609
 30
0.0
  0
ENDBLK
  5
359
330
34F
100
AcDbEntity
  8
0
 48
0.3
100
AcDbBlockEnd
  0
BLOCK
  5
5CF
330
5C7
100
AcDbEntity
  8
0
 48
0.3
100
AcDbBlockBegin
  2
*D20
 70
     1
 10
0.0
 20
0.0
 30
0.0
  3
*D20
  1

  0
LINE
  5
5D2
330
5C7
100
AcDbEntity
  8
0
 62
     0
 48
0.3
370
    -2
100
AcDbLine
 10
9.303965060126117
 20
9.225789102783821
 30
0.0
 11
8.37710861845696
 21
9.429063149192538
 31
0.0
  0
MTEXT
  5
5D3
330
5C7
100
AcDbEntity
  8
0
 62
     0
 48
0.3
100
AcDbMText
 10
9.675215060126117
 20
9.225789102783823
 30
0.0
 40
0.125
 41
0.0
 71
     5
 72
     1
  1
\A1;\U+22050.313
 73
     1
 44
1.0
  0
SOLID
  5
5D4
330
5C7
100
AcDbEntity
  8
0
 62
     0
 48
0.3
100
AcDbTrace
 10
8.381571619652403
 20
9.449412827276166
 30
0.0
 11
8.372645617261516
 21
9.40871347110891
 31
0.0
 12
8.255010549955198
 22
9.455841156365197
 32
0.0
 13
8.255010549955198
 23
9.455841156365197
 33
0.0
  0
LINE
  5
5D5
330
5C7
100
AcDbEntity
  8
0
 62
     0
 48
0.3
370
    -2
100
AcDbLine
 10
8.012387964327992
 20
9.489313665331019
 30
0.0
 11
8.192387964327991
 21
9.489313665331021
 31
0.0
  0
LINE
  5
5D6
330
5C7
100
AcDbEntity
  8
0
 62
     0
 48
0.3
370
    -2
100
AcDbLine
 10
8.102387964327993
 20
9.399313665331021
 30
0.0
 11
8.102387964327993
 21
9.579313665331019
 31
0.0
  0
POINT
  5
5D7
330
5C7
100
AcDbEntity
  8
Defpoints
 62
     0
 48
0.3
100
AcDbPoint
 10
8.255010549955198
 20
9.455841156365197
 30
0.0
  0
POINT
  5
5D8
330
5C7
100
AcDbEntity
  8
Defpoints
 62
     0
 48
0.3
100
AcDbPoint
 10
7.94976537870079
 20
9.522786174296843
 30
0.0
  0
ENDBLK
  5
5D0
330
5C7
100
AcDbEntity
  8
0
 48
0.3
100
AcDbBlockEnd
  0
BLOCK
  5
5F3
330
5EB
100
AcDbEntity
  8
0
 48
0.3
100
AcDbBlockBegin
  2
*D21
 70
     1
 10
0.0
 20
0.0
 30
0.0
  3
*D21
  1

  0
LINE
  5
5F6
330
5EB
100
AcDbEntity
  8
0
 62
     0
 48
0.3
370
    -2
100
AcDbLine
 10
10.07122277645403
 20
10.855271216752
 30
0.0
 11
8.070894035019506
 21
11.17631231672991
 31
0.0
  0
MTEXT
  5
5F7
330
5EB
100
AcDbEntity
  8
0
 62
     0
 48
0.3
100
AcDbMText
 10
10.4528894431207
 20
10.855271216752
 30
0.0
 40
0.125
 41
0.0
 71
     5
 72
     1
  1
\A1;\U+22051.965
 73
     1
 44
1.0
  0
SOLID
  5
5F8
330
5EB
100
AcDbEntity
  8
0
 62
     0
 48
0.3
100
AcDbTrace
 10
8.074195414790031
 20
11.19688240835315
 30
0.0
 11
8.067592655248981
 21
11.15574222510667
 31
0.0
 12
7.947473485280058
 22
11.19612059535306
 32
0.0
 13
7.947473485280058
 23
11.19612059535306
 33
0.0
  0
LINE
  5
5F9
330
5EB
100
AcDbEntity
  8
0
 62
     0
 48
0.3
370
    -2
100
AcDbLine
 10
6.887387964327994
 20
11.35181366533102
 30
0.0
 11
7.067387964327993
 21
11.35181366533102
 31
0.0
  0
LINE
  5
5FA
330
5EB
100
AcDbEntity
  8
0
 62
     0
 48
0.3
370
    -2
100
AcDbLine
 10
6.977387964327993
 20
11.26181366533102
 30
0.0
 11
6.977387964327994
 21
11.44181366533102
 31
0.0
  0
POINT
  5
5FB
330
5EB
100
AcDbEntity
  8
Defpoints
 62
     0
 48
0.3
100
AcDbPoint
 10
7.947473485280058
 20
11.19612059535306
 30
0.0
  0
POINT
  5
5FC
330
5EB
100
AcDbEntity
  8
Defpoints
 62
     0
 48
0.3
100
AcDbPoint
 10
6.007302443375929
 20
11.50750673530898
 30
0.0
  0
ENDBLK
  5
5F4
330
5EB
100
AcDbEntity
  8
0
 48
0.3
100
AcDbBlockEnd
  0
BLOCK
  5
608
330
5FF
100
AcDbEntity
  8
0
 48
0.3
100
AcDbBlockBegin
  2
*D22
 70
     1
 10
0.0
 20
0.0
 30
0.0
  3
*D22
  1

  0
LINE
  5
60B
330
5FF
100
AcDbEntity
  8
0
 62
     0
 48
0.3
370
    -2
100
AcDbLine
 10
10.61855262640487
 20
12.35204479403585
 30
0.0
 11
10.49355262640486
 21
12.35204479403585
 31
0.0
  0
LINE
  5
60C
330
5FF
100
AcDbEntity
  8
0
 62
     0
 48
0.3
370
    -2
100
AcDbLine
 10
10.49355262640486
 20
12.35204479403585
 30
0.0
 11
9.502218826106457
 21
12.07004351670942
 31
0.0
  0
MTEXT
  5
60D
330
5FF
100
AcDbEntity
  8
0
 62
     0
 48
0.3
100
AcDbMText
 10
10.98980262640487
 20
12.35204479403585
 30
0.0
 40
0.125
 41
0.0
 71
     5
 72
     1
  1
\A1;\U+22055.000
 73
     1
 44
1.0
  0
SOLID
  5
60E
330
5FF
100
AcDbEntity
  8
0
 62
     0
 48
0.3
100
AcDbTrace
 10
9.496518589190754
 20
12.09008185688227
 30
0.0
 11
9.507919063022157
 21
12.05000517653658
 31
0.0
 12
9.381988785069387
 22
12.03584209521521
 32
0.0
 13
9.381988785069387
 23
12.03584209521521
 33
0.0
  0
LINE
  5
60F
330
5FF
100
AcDbEntity
  8
0
 62
     0
 48
0.3
370
    -2
100
AcDbLine
 10
6.887387964327999
 20
11.35181366533102
 30
0.0
 11
7.067387964327997
 21
11.35181366533102
 31
0.0
  0
LINE
  5
610
330
5FF
100
AcDbEntity
  8
0
 62
     0
 48
0.3
370
    -2
100
AcDbLine
 10
6.977387964327999
 20
11.26181366533102
 30
0.0
 11
6.977387964327997
 21
11.44181366533102
 31
0.0
  0
POINT
  5
611
330
5FF
100
AcDbEntity
  8
Defpoints
 62
     0
 48
0.3
100
AcDbPoint
 10
9.381988785069387
 20
12.03584209521521
 30
0.0
  0
POINT
  5
612
330
5FF
100
AcDbEntity
  8
Defpoints
 62
     0
 48
0.3
100
AcDbPoint
 10
4.572787143586605
 20
10.66778523544683
 30
0.0
  0
ENDBLK
  5
609
330
5FF
100
AcDbEntity
  8
0
 48
0.3
100
AcDbBlockEnd
  0
BLOCK
  5
620
330
615
100
AcDbEntity
  8
0
 48
0.3
100
AcDbBlockBegin
  2
*D23
 70
     1
 10
0.0
 20
0.0
 30
0.0
  3
*D23
  1

  0
LINE
  5
623
330
615
100
AcDbEntity
  8
0
 62
     0
 48
0.3
370
    -2
100
AcDbLine
 10
5.789887964327993
 20
13.21431366533102
 30
0.0
 11
2.55577397639447
 21
13.21431366533102
 31
0.0
  0
LINE
  5
624
330
615
100
AcDbEntity
  8
0
 62
     0
 48
0.3
370
    -2
100
AcDbLine
 10
5.789887964327992
 20
9.489313665331023
 30
0.0
 11
2.555773976394469
 21
9.489313665331025
 31
0.0
  0
LINE
  5
625
330
615
100
AcDbEntity
  8
0
 62
     0
 48
0.3
370
    -2
100
AcDbLine
 10
2.73577397639447
 20
13.08931366533102
 30
0.0
 11
2.735773976394469
 21
11.50431366533102
 31
0.0
  0
LINE
  5
626
330
615
100
AcDbEntity
  8
0
 62
     0
 48
0.3
370
    -2
100
AcDbLine
 10
2.735773976394469
 20
9.614313665331025
 30
0.0
 11
2.735773976394469
 21
11.19931366533102
 31
0.0
  0
SOLID
  5
627
330
615
100
AcDbEntity
  8
0
 62
     0
 48
0.3
100
AcDbTrace
 10
2.714940643061136
 20
13.08931366533102
 30
0.0
 11
2.756607309727803
 21
13.08931366533102
 31
0.0
 12
2.73577397639447
 22
13.21431366533102
 32
0.0
 13
2.73577397639447
 23
13.21431366533102
 33
0.0
  0
SOLID
  5
628
330
615
100
AcDbEntity
  8
0
 62
     0
 48
0.3
100
AcDbTrace
 10
2.714940643061135
 20
9.614313665331025
 30
0.0
 11
2.756607309727802
 21
9.614313665331025
 31
0.0
 12
2.735773976394469
 22
9.489313665331025
 32
0.0
 13
2.735773976394469
 23
9.489313665331025
 33
0.0
  0
MTEXT
  5
629
330
615
100
AcDbEntity
  8
0
 62
     0
 48
0.3
100
AcDbMText
 10
2.735773976394467
 20
11.35181366533102
 30
0.0
 40
0.125
 41
0.0
 71
     5
 72
     1
  1
\A1;3.725
 73
     1
 44
1.0
  0
POINT
  5
62A
330
615
100
AcDbEntity
  8
Defpoints
 62
     0
 48
0.3
100
AcDbPoint
 10
5.852387964327993
 20
13.21431366533102
 30
0.0
  0
POINT
  5
62B
330
615
100
AcDbEntity
  8
Defpoints
 62
     0
 48
0.3
100
AcDbPoint
 10
5.852387964327992
 20
9.489313665331023
 30
0.0
  0
POINT
  5
62C
330
615
100
AcDbEntity
  8
Defpoints
 62
     0
 48
0.3
100
AcDbPoint
 10
2.735773976394469
 20
9.489313665331025
 30
0.0
  0
ENDBLK
  5
621
330
615
100
AcDbEntity
  8
0
 48
0.3
100
AcDbBlockEnd
  0
BLOCK
  5
63A
330
62F
100
AcDbEntity
  8
0
 48
0.3
100
AcDbBlockBegin
  2
*D24
 70
     1
 10
0.0
 20
0.0
 30
0.0
  3
*D24
  1

  0
LINE
  5
63D
330
62F
100
AcDbEntity
  8
0
 62
     0
 48
0.3
370
    -2
100
AcDbLine
 10
6.914887964327993
 20
11.35181366533102
 30
0.0
 11
3.450042420288574
 21
11.35181366533102
 31
0.0
  0
LINE
  5
63E
330
62F
100
AcDbEntity
  8
0
 62
     0
 48
0.3
370
    -2
100
AcDbLine
 10
5.789887964327993
 20
13.21431366533102
 30
0.0
 11
3.450042420288575
 21
13.21431366533102
 31
0.0
  0
LINE
  5
63F
330
62F
100
AcDbEntity
  8
0
 62
     0
 48
0.3
370
    -2
100
AcDbLine
 10
3.630042420288575
 20
11.47681366533102
 30
0.0
 11
3.630042420288575
 21
12.13056366533102
 31
0.0
  0
LINE
  5
640
330
62F
100
AcDbEntity
  8
0
 62
     0
 48
0.3
370
    -2
100
AcDbLine
 10
3.630042420288575
 20
13.08931366533102
 30
0.0
 11
3.630042420288575
 21
12.43556366533102
 31
0.0
  0
SOLID
  5
641
330
62F
100
AcDbEntity
  8
0
 62
     0
 48
0.3
100
AcDbTrace
 10
3.609209086955241
 20
11.47681366533102
 30
0.0
 11
3.650875753621908
 21
11.47681366533102
 31
0.0
 12
3.630042420288575
 22
11.35181366533102
 32
0.0
 13
3.630042420288575
 23
11.35181366533102
 33
0.0
  0
SOLID
  5
642
330
62F
100
AcDbEntity
  8
0
 62
     0
 48
0.3
100
AcDbTrace
 10
3.609209086955242
 20
13.08931366533102
 30
0.0
 11
3.650875753621908
 21
13.08931366533102
 31
0.0
 12
3.630042420288575
 22
13.21431366533102
 32
0.0
 13
3.630042420288575
 23
13.21431366533102
 33
0.0
  0
MTEXT
  5
643
330
62F
100
AcDbEntity
  8
0
 62
     0
 48
0.3
100
AcDbMText
 10
3.630042420288573
 20
12.28306366533102
 30
0.0
 40
0.125
 41
0.0
 71
     5
 72
     1
  1
\A1;1.862
 73
     1
 44
1.0
  0
POINT
  5
644
330
62F
100
AcDbEntity
  8
Defpoints
 62
     0
 48
0.3
100
AcDbPoint
 10
6.977387964327993
 20
11.35181366533102
 30
0.0
  0
POINT
  5
645
330
62F
100
AcDbEntity
  8
Defpoints
 62
     0
 48
0.3
100
AcDbPoint
 10
5.852387964327993
 20
13.21431366533102
 30
0.0
  0
POINT
  5
646
330
62F
100
AcDbEntity
  8
Defpoints
 62
     0
 48
0.3
100
AcDbPoint
 10
3.630042420288575
 20
13.21431366533102
 30
0.0
  0
ENDBLK
  5
63B
330
62F
100
AcDbEntity
  8
0
 48
0.3
100
AcDbBlockEnd
  0
BLOCK
  5
654
330
649
100
AcDbEntity
  8
0
 48
0.3
100
AcDbBlockBegin
  2
*D25
 70
     1
 10
0.0
 20
0.0
 30
0.0
  3
*D25
  1

  0
LINE
  5
657
330
649
100
AcDbEntity
  8
0
 62
     0
 48
0.3
370
    -2
100
AcDbLine
 10
6.977387964327998
 20
11.28931366533102
 30
0.0
 11
6.977387964327998
 21
8.287269654305077
 31
0.0
  0
LINE
  5
658
330
649
100
AcDbEntity
  8
0
 62
     0
 48
0.3
370
    -2
100
AcDbLine
 10
5.852387964327992
 20
9.426813665331023
 30
0.0
 11
5.852387964327992
 21
8.287269654305077
 31
0.0
  0
LINE
  5
659
330
649
100
AcDbEntity
  8
0
 62
     0
 48
0.3
370
    -2
100
AcDbLine
 10
6.852387964327998
 20
8.467269654305077
 30
0.0
 11
6.713221297661329
 21
8.467269654305077
 31
0.0
  0
LINE
  5
65A
330
649
100
AcDbEntity
  8
0
 62
     0
 48
0.3
370
    -2
100
AcDbLine
 10
5.977387964327992
 20
8.467269654305077
 30
0.0
 11
6.116554630994661
 21
8.467269654305077
 31
0.0
  0
SOLID
  5
65B
330
649
100
AcDbEntity
  8
0
 62
     0
 48
0.3
100
AcDbTrace
 10
6.852387964327998
 20
8.488102987638411
 30
0.0
 11
6.852387964327998
 21
8.446436320971743
 31
0.0
 12
6.977387964327998
 22
8.467269654305077
 32
0.0
 13
6.977387964327998
 23
8.467269654305077
 33
0.0
  0
SOLID
  5
65C
330
649
100
AcDbEntity
  8
0
 62
     0
 48
0.3
100
AcDbTrace
 10
5.977387964327992
 20
8.488102987638411
 30
0.0
 11
5.977387964327992
 21
8.446436320971743
 31
0.0
 12
5.852387964327992
 22
8.467269654305077
 32
0.0
 13
5.852387964327992
 23
8.467269654305077
 33
0.0
  0
MTEXT
  5
65D
330
649
100
AcDbEntity
  8
0
 62
     0
 48
0.3
100
AcDbMText
 10
6.414887964327995
 20
8.467269654305077
 30
0.0
 40
0.125
 41
0.0
 71
     5
 72
     1
  1
\A1;1.125
 73
     1
 44
1.0
  0
POINT
  5
65E
330
649
100
AcDbEntity
  8
Defpoints
 62
     0
 48
0.3
100
AcDbPoint
 10
6.977387964327998
 20
11.35181366533102
 30
0.0
  0
POINT
  5
65F
330
649
100
AcDbEntity
  8
Defpoints
 62
     0
 48
0.3
100
AcDbPoint
 10
5.852387964327992
 20
9.489313665331023
 30
0.0
  0
POINT
  5
660
330
649
100
AcDbEntity
  8
Defpoints
 62
     0
 48
0.3
100
AcDbPoint
 10
5.852387964327992
 20
8.467269654305077
 30
0.0
  0
ENDBLK
  5
655
330
649
100
AcDbEntity
  8
0
 48
0.3
100
AcDbBlockEnd
  0
BLOCK
  5
68A
330
67F
100
AcDbEntity
  8
0
 48
0.3
100
AcDbBlockBegin
  2
*D26
 70
     1
 10
0.0
 20
0.0
 30
0.0
  3
*D26
  1

  0
LINE
  5
68D
330
67F
100
AcDbEntity
  8
0
 62
     0
 48
0.3
370
    -2
100
AcDbLine
 10
9.538267439107595
 20
6.097911020147416
 30
0.0
 11
11.62714508118585
 21
6.097911020147415
 31
0.0
  0
LINE
  5
68E
330
67F
100
AcDbEntity
  8
0
 62
     0
 48
0.3
370
    -2
100
AcDbLine
 10
9.538267439107595
 20
3.597911020147415
 30
0.0
 11
11.62714508118585
 21
3.597911020147415
 31
0.0
  0
LINE
  5
68F
330
67F
100
AcDbEntity
  8
0
 62
     0
 48
0.3
370
    -2
100
AcDbLine
 10
11.44714508118585
 20
5.972911020147415
 30
0.0
 11
11.44714508118585
 21
5.000411020147415
 31
0.0
  0
LINE
  5
690
330
67F
100
AcDbEntity
  8
0
 62
     0
 48
0.3
370
    -2
100
AcDbLine
 10
11.44714508118584
 20
3.722911020147415
 30
0.0
 11
11.44714508118585
 21
4.695411020147415
 31
0.0
  0
SOLID
  5
691
330
67F
100
AcDbEntity
  8
0
 62
     0
 48
0.3
100
AcDbTrace
 10
11.42631174785251
 20
5.972911020147415
 30
0.0
 11
11.46797841451918
 21
5.972911020147415
 31
0.0
 12
11.44714508118585
 22
6.097911020147415
 32
0.0
 13
11.44714508118585
 23
6.097911020147415
 33
0.0
  0
SOLID
  5
692
330
67F
100
AcDbEntity
  8
0
 62
     0
 48
0.3
100
AcDbTrace
 10
11.42631174785251
 20
3.722911020147415
 30
0.0
 11
11.46797841451918
 21
3.722911020147415
 31
0.0
 12
11.44714508118584
 22
3.597911020147415
 32
0.0
 13
11.44714508118584
 23
3.597911020147415
 33
0.0
  0
MTEXT
  5
693
330
67F
100
AcDbEntity
  8
0
 62
     0
 48
0.3
100
AcDbMText
 10
11.44714508118584
 20
4.847911020147416
 30
0.0
 40
0.125
 41
0.0
 71
     5
 72
     1
  1
\A1;2.500
 73
     1
 44
1.0
  0
POINT
  5
694
330
67F
100
AcDbEntity
  8
Defpoints
 62
     0
 48
0.3
100
AcDbPoint
 10
9.475767439107595
 20
6.097911020147416
 30
0.0
  0
POINT
  5
695
330
67F
100
AcDbEntity
  8
Defpoints
 62
     0
 48
0.3
100
AcDbPoint
 10
9.475767439107595
 20
3.597911020147415
 30
0.0
  0
POINT
  5
696
330
67F
100
AcDbEntity
  8
Defpoints
 62
     0
 48
0.3
100
AcDbPoint
 10
11.44714508118584
 20
3.597911020147415
 30
0.0
  0
ENDBLK
  5
68B
330
67F
100
AcDbEntity
  8
0
 48
0.3
100
AcDbBlockEnd
  0
BLOCK
  5
6A5
330
699
100
AcDbEntity
  8
0
 48
0.3
100
AcDbBlockBegin
  2
*D27
 70
     1
 10
0.0
 20
0.0
 30
0.0
  3
*D27
  1

  0
LINE
  5
6D8
330
699
100
AcDbEntity
  8
0
 62
     0
 48
0.3
370
    -2
100
AcDbLine
 10
8.334887964327993
 20
6.097911020147416
 30
0.0
 11
10.42274046094477
 21
6.097911020147415
 31
0.0
  0
LINE
  5
6D9
330
699
100
AcDbEntity
  8
0
 62
     0
 48
0.3
370
    -2
100
AcDbLine
 10
8.334887964327993
 20
5.597911020147414
 30
0.0
 11
10.42274046094477
 21
5.597911020147413
 31
0.0
  0
LINE
  5
6DA
330
699
100
AcDbEntity
  8
0
 62
     0
 48
0.3
370
    -2
100
AcDbLine
 10
10.24274046094477
 20
6.222911020147415
 30
0.0
 11
10.24274046094477
 21
6.347911020147415
 31
0.0
  0
LINE
  5
6DB
330
699
100
AcDbEntity
  8
0
 62
     0
 48
0.3
370
    -2
100
AcDbLine
 10
10.24274046094477
 20
5.472911020147413
 30
0.0
 11
10.24274046094477
 21
5.347911020147413
 31
0.0
  0
SOLID
  5
6DC
330
699
100
AcDbEntity
  8
0
 62
     0
 48
0.3
100
AcDbTrace
 10
10.22190712761144
 20
6.222911020147415
 30
0.0
 11
10.2635737942781
 21
6.222911020147415
 31
0.0
 12
10.24274046094477
 22
6.097911020147415
 32
0.0
 13
10.24274046094477
 23
6.097911020147415
 33
0.0
  0
SOLID
  5
6DD
330
699
100
AcDbEntity
  8
0
 62
     0
 48
0.3
100
AcDbTrace
 10
10.22190712761144
 20
5.472911020147413
 30
0.0
 11
10.2635737942781
 21
5.472911020147413
 31
0.0
 12
10.24274046094477
 22
5.597911020147413
 32
0.0
 13
10.24274046094477
 23
5.597911020147413
 33
0.0
  0
MTEXT
  5
6DE
330
699
100
AcDbEntity
  8
0
 62
     0
 48
0.3
100
AcDbMText
 10
10.24274046094477
 20
5.847911020147414
 30
0.0
 40
0.125
 41
0.0
 71
     5
 72
     1
  1
\A1;0.500
 73
     1
 44
1.0
  0
POINT
  5
6DF
330
699
100
AcDbEntity
  8
Defpoints
 62
     0
 48
0.3
100
AcDbPoint
 10
8.272387964327993
 20
6.097911020147416
 30
0.0
  0
POINT
  5
6E0
330
699
100
AcDbEntity
  8
Defpoints
 62
     0
 48
0.3
100
AcDbPoint
 10
8.272387964327993
 20
5.597911020147414
 30
0.0
  0
POINT
  5
6E1
330
699
100
AcDbEntity
  8
Defpoints
 62
     0
 48
0.3
100
AcDbPoint
 10
10.24274046094477
 20
5.597911020147413
 30
0.0
  0
ENDBLK
  5
6A6
330
699
100
AcDbEntity
  8
0
 48
0.3
100
AcDbBlockEnd
  0
BLOCK
  5
6C0
330
6B5
100
AcDbEntity
  8
0
 48
0.3
100
AcDbBlockBegin
  2
*D28
 70
     1
 10
0.0
 20
0.0
 30
0.0
  3
*D28
  1

  0
LINE
  5
6C3
330
6B5
100
AcDbEntity
  8
0
 62
     0
 48
0.3
370
    -2
100
AcDbLine
 10
5.932387964327992
 20
6.097911020147415
 30
0.0
 11
3.340983594467665
 21
6.097911020147415
 31
0.0
  0
LINE
  5
6C4
330
6B5
100
AcDbEntity
  8
0
 62
     0
 48
0.3
370
    -2
100
AcDbLine
 10
5.932387964327992
 20
5.347911020147415
 30
0.0
 11
3.340983594467665
 21
5.347911020147415
 31
0.0
  0
LINE
  5
6C5
330
6B5
100
AcDbEntity
  8
0
 62
     0
 48
0.3
370
    -2
100
AcDbLine
 10
3.520983594467665
 20
5.972911020147415
 30
0.0
 11
3.520983594467665
 21
5.875411020147415
 31
0.0
  0
LINE
  5
6C6
330
6B5
100
AcDbEntity
  8
0
 62
     0
 48
0.3
370
    -2
100
AcDbLine
 10
3.520983594467665
 20
5.472911020147415
 30
0.0
 11
3.520983594467665
 21
5.570411020147415
 31
0.0
  0
SOLID
  5
6C7
330
6B5
100
AcDbEntity
  8
0
 62
     0
 48
0.3
100
AcDbTrace
 10
3.500150261134332
 20
5.972911020147415
 30
0.0
 11
3.541816927800998
 21
5.972911020147415
 31
0.0
 12
3.520983594467665
 22
6.097911020147415
 32
0.0
 13
3.520983594467665
 23
6.097911020147415
 33
0.0
  0
SOLID
  5
6C8
330
6B5
100
AcDbEntity
  8
0
 62
     0
 48
0.3
100
AcDbTrace
 10
3.500150261134332
 20
5.472911020147415
 30
0.0
 11
3.541816927800998
 21
5.472911020147415
 31
0.0
 12
3.520983594467665
 22
5.347911020147415
 32
0.0
 13
3.520983594467665
 23
5.347911020147415
 33
0.0
  0
MTEXT
  5
6C9
330
6B5
100
AcDbEntity
  8
0
 62
     0
 48
0.3
100
AcDbMText
 10
3.520983594467664
 20
5.722911020147416
 30
0.0
 40
0.125
 41
0.0
 71
     5
 72
     1
  1
\A1;0.750
 73
     1
 44
1.0
  0
POINT
  5
6CA
330
6B5
100
AcDbEntity
  8
Defpoints
 62
     0
 48
0.3
100
AcDbPoint
 10
5.994887964327992
 20
6.097911020147415
 30
0.0
  0
POINT
  5
6CB
330
6B5
100
AcDbEntity
  8
Defpoints
 62
     0
 48
0.3
100
AcDbPoint
 10
5.994887964327992
 20
5.347911020147415
 30
0.0
  0
POINT
  5
6CC
330
6B5
100
AcDbEntity
  8
Defpoints
 62
     0
 48
0.3
100
AcDbPoint
 10
3.520983594467665
 20
5.347911020147415
 30
0.0
  0
ENDBLK
  5
6C1
330
6B5
100
AcDbEntity
  8
0
 48
0.3
100
AcDbBlockEnd
  0
ENDSEC
  0
SECTION
  2
ENTITIES
  0
VIEWPORT
  5
77
330
58
100
AcDbEntity
 67
     1
  8
0
100
AcDbViewport
 10
10.54680173315777
 20
7.972030424071443
 30
0.0
 40
38.52965108573692
 41
16.546066613442
 68
     1
 69
     1
 12
10.54680173315777
 22
7.972030424071443
 13
0.0
 23
0.0
 14
0.5
 24
0.5
 15
0.5
 25
0.5
 16
0.0
 26
0.0
 36
1.0
 17
0.0
 27
0.0
 37
0.0
 42
50.0
 43
0.0
 44
0.0
 45
16.546066613442
 50
0.0
 51
0.0
 72
   100
 90
    32800
  1

281
     0
 71
     1
 74
     0
110
0.0
120
0.0
130
0.0
111
1.0
121
0.0
131
0.0
112
0.0
122
1.0
132
0.0
 79
     0
146
0.0
  0
LINE
  5
AC
330
58
100
AcDbEntity
 67
     1
  8
0
 48
0.3
100
AcDbLine
 10
0.2965759179903813
 20
16.09005084545368
 30
0.0
 11
20.29657591799038
 21
16.09005084545368
 31
0.0
  0
LINE
  5
AD
330
58
100
AcDbEntity
 67
     1
  8
0
 48
0.3
100
AcDbLine
 10
20.29657591799038
 20
16.09005084545368
 30
0.0
 11
20.29657591799038
 21
0.5900508454536873
 31
0.0
  0
LINE
  5
AE
330
58
100
AcDbEntity
 67
     1
  8
0
 48
0.3
100
AcDbLine
 10
20.29657591799038
 20
0.5900508454536873
 30
0.0
 11
0.2965759179903777
 21
0.5900508454536898
 31
0.0
  0
LINE
  5
AF
330
58
100
AcDbEntity
 67
     1
  8
0
 48
0.3
100
AcDbLine
 10
0.2965759179903777
 20
0.5900508454536898
 30
0.0
 11
0.2965759179903813
 21
16.09005084545368
 31
0.0
  0
LINE
  5
B0
330
58
100
AcDbEntity
 67
     1
  8
0
 48
0.3
100
AcDbLine
 10
20.29657591799038
 20
0.5900508454536873
 30
0.0
 11
20.29657591799038
 21
1.590050845453687
 31
0.0
  0
LINE
  5
B1
330
58
100
AcDbEntity
 67
     1
  8
0
 48
0.3
100
AcDbLine
 10
20.29657591799038
 20
1.590050845453687
 30
0.0
 11
17.29657591799037
 21
1.590050845453687
 31
0.0
  0
LINE
  5
B2
330
58
100
AcDbEntity
 67
     1
  8
0
 48
0.3
100
AcDbLine
 10
17.29657591799037
 20
1.590050845453687
 30
0.0
 11
17.29657591799037
 21
0.5900508454536876
 31
0.0
  0
LINE
  5
B7
330
58
100
AcDbEntity
 67
     1
  8
0
 48
0.3
100
AcDbLine
 10
17.29657591799037
 20
1.590050845453687
 30
0.0
 11
15.29657591799037
 21
1.590050845453687
 31
0.0
  0
LINE
  5
B8
330
58
100
AcDbEntity
 67
     1
  8
0
 48
0.3
100
AcDbLine
 10
15.29657591799037
 20
1.590050845453687
 30
0.0
 11
15.29657591799037
 21
0.590050845453688
 31
0.0
  0
MTEXT
  5
BE
330
58
100
AcDbEntity
 67
     1
  8
0
100
AcDbMText
 10
15.62142945844486
 20
1.384490141010731
 30
0.0
 40
0.1
 41
1.5
 71
     1
 72
     5
  1
  Tolerances\P.XXXX = +/- .001\P.XXX  = +/- .005\P.XX   = +/- .015
 73
     1
 44
1.0
  0
CIRCLE
  5
E3
102
{ACAD_REACTORS
330
5FD
330
647
102
}
330
58
100
AcDbEntity
 67
     1
  8
0
 48
0.3
100
AcDbCircle
 10
6.977387964327993
 20
11.35181366533102
 30
0.0
 40
0.9825000000000001
  0
CIRCLE
  5
EC
330
58
100
AcDbEntity
 67
     1
  8
0
 48
0.3
100
AcDbCircle
 10
7.724387964327993
 20
12.64565561858497
 30
0.0
 40
0.234
  0
CIRCLE
  5
ED
330
58
100
AcDbEntity
 67
     1
  8
0
 48
0.3
100
AcDbCircle
 10
7.724387964327993
 20
10.05797171207706
 30
0.0
 40
0.234
  0
CIRCLE
  5
EE
330
58
100
AcDbEntity
 67
     1
  8
0
 48
0.3
100
AcDbCircle
 10
5.483387964327993
 20
11.35181366533102
 30
0.0
 40
0.234
  0
CIRCLE
  5
FC
330
58
100
AcDbEntity
 67
     1
  8
0
 48
0.3
100
AcDbCircle
 10
5.852387964327993
 20
13.21431366533102
 30
0.0
 40
0.1005
  0
CIRCLE
  5
FD
330
58
100
AcDbEntity
 67
     1
  8
0
 48
0.3
100
AcDbCircle
 10
8.102387964327993
 20
13.21431366533102
 30
0.0
 40
0.1005
  0
CIRCLE
  5
100
330
58
100
AcDbEntity
 67
     1
  8
0
 48
0.3
100
AcDbCircle
 10
8.102387964327993
 20
9.489313665331021
 30
0.0
 40
0.1005
  0
CIRCLE
  5
101
102
{ACAD_REACTORS
330
62D
330
661
102
}
330
58
100
AcDbEntity
 67
     1
  8
0
 48
0.3
100
AcDbCircle
 10
5.852387964327992
 20
9.489313665331023
 30
0.0
 40
0.1005
  0
CIRCLE
  5
102
102
{ACAD_REACTORS
330
62D
330
647
102
}
330
58
100
AcDbEntity
 67
     1
  8
0
 48
0.3
100
AcDbCircle
 10
5.852387964327993
 20
13.21431366533102
 30
0.0
 40
0.15625
  0
CIRCLE
  5
103
330
58
100
AcDbEntity
 67
     1
  8
0
 48
0.3
100
AcDbCircle
 10
8.102387964327993
 20
13.21431366533102
 30
0.0
 40
0.15625
  0
CIRCLE
  5
106
102
{ACAD_REACTORS
330
2C2
330
5D9
102
}
330
58
100
AcDbEntity
 67
     1
  8
0
 48
0.3
100
AcDbCircle
 10
8.102387964327993
 20
9.489313665331021
 30
0.0
 40
0.15625
  0
CIRCLE
  5
107
102
{ACAD_REACTORS
330
2C2
102
}
330
58
100
AcDbEntity
 67
     1
  8
0
 48
0.3
100
AcDbCircle
 10
5.852387964327992
 20
9.489313665331023
 30
0.0
 40
0.15625
  0
LINE
  5
132
330
58
100
AcDbEntity
 67
     1
  8
0
  6
HIDDENX2
 48
0.3
100
AcDbLine
 10
7.959887964327992
 20
6.097911020147415
 30
0.0
 11
7.959887964327992
 21
5.347911020147415
 31
0.0
  0
LINE
  5
133
102
{ACAD_REACTORS
330
6CD
102
}
330
58
100
AcDbEntity
 67
     1
  8
0
  6
HIDDENX2
 48
0.3
100
AcDbLine
 10
7.959887964327992
 20
5.347911020147415
 30
0.0
 11
5.994887964327992
 21
5.347911020147415
 31
0.0
  0
LINE
  5
134
102
{ACAD_REACTORS
330
6CD
102
}
330
58
100
AcDbEntity
 67
     1
  8
0
  6
HIDDENX2
 48
0.3
100
AcDbLine
 10
5.994887964327992
 20
5.347911020147415
 30
0.0
 11
5.994887964327992
 21
6.097911020147415
 31
0.0
  0
LINE
  5
136
330
58
100
AcDbEntity
 67
     1
  8
0
  6
HIDDENX2
 48
0.3
100
AcDbLine
 10
5.249387964327993
 20
6.097911020147415
 30
0.0
 11
5.249387964327993
 21
3.597911020147415
 31
0.0
  0
LINE
  5
138
330
58
100
AcDbEntity
 67
     1
  8
0
  6
HIDDENX2
 48
0.3
100
AcDbLine
 10
5.717387964327993
 20
6.097911020147415
 30
0.0
 11
5.717387964327992
 21
3.597911020147415
 31
0.0
  0
LINE
  5
13F
102
{ACAD_REACTORS
330
6B3
102
}
330
58
100
AcDbEntity
 67
     1
  8
0
  6
HIDDENX2
 48
0.3
100
AcDbLine
 10
8.272387964327993
 20
5.597911020147414
 30
0.0
 11
7.959887964327992
 21
5.597911020147414
 31
0.0
  0
DIMENSION
  5
2A9
102
{ACAD_XDICTIONARY
360
2B7
102
}
102
{ACAD_REACTORS
330
2C2
102
}
330
58
100
AcDbEntity
 67
     1
  8
0
 48
0.3
100
AcDbDimension
  2
*D3
 10
5.852387964327992
 20
8.04877582730996
 30
0.0
 11
6.977387964327993
 21
8.04877582730996
 31
0.0
 70
    32
 71
     5
 42
2.25
  3
Standard
100
AcDbAlignedDimension
 13
8.102387964327993
 23
9.489313665331021
 33
0.0
 14
5.852387964327992
 24
9.489313665331023
 34
0.0
100
AcDbRotatedDimension
  0
LEADER
  5
2F3
330
58
100
AcDbEntity
 67
     1
  8
0
 48
0.3
100
AcDbLeader
  3
Standard
 73
     0
 74
     0
 75
     1
 40
0.2666666666666666
 41
1.2
 76
     4
 10
7.940893948812085
 20
12.64565561858497
 30
0.0
 10
8.445709509680185
 20
12.88831462584189
 30
0.0
 10
9.490276568524382
 20
13.47234905473482
 30
0.0
 10
9.615276568524382
 20
13.47234905473482
 30
0.0
340
2F4
213
0.0
223
-0.0625
233
0.0
1001
ACAD
1000
DSTYLE
1002
{
1070
   147
1040
0.09
1070
    77
1070
     0
1002
}
  0
MTEXT
  5
2F4
102
{ACAD_REACTORS
330
2F3
102
}
330
58
100
AcDbEntity
 67
     1
  8
0
 48
0.3
100
AcDbMText
 10
9.705276568524382
 20
13.53484905473482
 30
0.0
 40
0.1
 41
0.0
 71
     1
 72
     1
  1
3@ %%c.468 thru \Pon 2.988 B.C.
 73
     1
 44
1.0
  0
DIMENSION
  5
30B
330
58
100
AcDbEntity
 67
     1
  8
0
 48
0.3
100
AcDbDimension
  2
*D7
 10
8.00966142848836
 20
9.555949375620176
 30
0.0
 11
9.408808971608948
 21
8.746999458423799
 31
0.0
 70
   163
 71
     5
 42
0.2009999999999996
  3
Standard
100
AcDbDiametricDimension
 15
8.160126469135811
 25
9.422677955041866
 35
0.0
 40
0.0
1001
ACAD
1000
DSTYLE
1002
{
1070
   288
1070
     1
1002
}
  0
CIRCLE
  5
335
102
{ACAD_REACTORS
330
363
102
}
330
58
100
AcDbEntity
 67
     1
  8
0
 48
0.3
100
AcDbCircle
 10
6.977387964327995
 20
11.35181366533102
 30
0.0
 40
0.25
  0
LINE
  5
337
330
58
100
AcDbEntity
 67
     1
  8
0
  6
HIDDENX2
 48
0.3
100
AcDbLine
 10
7.227387964327995
 20
5.347911020147415
 30
0.0
 11
7.227387964327995
 21
3.597911020147415
 31
0.0
  0
LINE
  5
339
330
58
100
AcDbEntity
 67
     1
  8
0
  6
HIDDENX2
 48
0.3
100
AcDbLine
 10
6.727387964327994
 20
5.347911020147415
 30
0.0
 11
6.727387964327994
 21
3.597911020147415
 31
0.0
  0
DIMENSION
  5
34E
102
{ACAD_XDICTIONARY
360
35A
102
}
102
{ACAD_REACTORS
330
363
102
}
330
58
100
AcDbEntity
 67
     1
  8
0
 48
0.3
100
AcDbDimension
  2
*D9
 10
7.086175811313371
 20
11.57690299059609
 30
0.0
 11
5.912168678365663
 21
10.1745781907561
 31
0.0
 70
   163
 71
     5
 42
0.4999999999999983
  3
Standard
100
AcDbDiametricDimension
 15
6.868600117342619
 25
11.12672434006594
 35
0.0
 40
0.0
1001
ACAD
1000
DSTYLE
1002
{
1070
   288
1070
     1
1002
}
  0
MTEXT
  5
364
330
58
100
AcDbEntity
 67
     1
  8
0
 48
0.3
100
AcDbMText
 10
17.51707573917449
 20
1.527123234326053
 30
0.0
 40
0.1
 41
3.0
 71
     1
 72
     5
  1
G0704 Y Axis Extension\PBasic Head Spacer for\PZ Axis Flip Mod Rev B\PDaniel E. Kemp\P{\fArial|b0|i0|c0|p32;\H1.625x;©\fMS Shell Dlg|b0|i0|c0|p32;\H0.6538x; \Ftxt.shx;\H1.177x;03-14-2011}
 73
     1
 44
1.0
  0
MTEXT
  5
366
330
58
100
AcDbEntity
 67
     1
  8
0
 48
0.3
100
AcDbMText
 10
1.808574528830671
 20
1.458247940086742
 30
0.0
 40
0.1625
 41
5.331404642746068
 71
     1
 72
     5
  1
{\fArial|b0|i0|c0|p32;© Daniel E. Kemp 2011}
 73
     1
 44
1.0
  0
LINE
  5
3BA
102
{ACAD_REACTORS
330
6B3
102
}
330
58
100
AcDbEntity
 67
     1
  8
0
  6
HIDDENX2
 48
0.3
100
AcDbLine
 10
8.272387964327993
 20
5.597911020147414
 30
0.0
 11
8.272387964327993
 21
6.097911020147414
 31
0.0
  0
LINE
  5
3BB
330
58
100
AcDbEntity
 67
     1
  8
0
  6
HIDDENX2
 48
0.3
100
AcDbLine
 10
7.959887964327992
 20
5.597911020147414
 30
0.0
 11
7.959887964327992
 21
6.097911020147414
 31
0.0
  0
LINE
  5
3BC
330
58
100
AcDbEntity
 67
     1
  8
0
  6
HIDDENX2
 48
0.3
100
AcDbLine
 10
8.015637964327993
 20
5.597911020147414
 30
0.0
 11
8.015637964327993
 21
3.597911020147415
 31
0.0
  0
LINE
  5
3BD
330
58
100
AcDbEntity
 67
     1
  8
0
  6
HIDDENX2
 48
0.3
100
AcDbLine
 10
8.216637964327993
 20
5.597911020147414
 30
0.0
 11
8.216637964327993
 21
3.597911020147415
 31
0.0
  0
CIRCLE
  5
4E3
102
{ACAD_REACTORS
330
613
102
}
330
58
100
AcDbEntity
 67
     1
  8
0
 48
0.3
100
AcDbCircle
 10
6.977387964327995
 20
11.35181366533102
 30
0.0
 40
2.5
  0
DIMENSION
  5
5C6
102
{ACAD_XDICTIONARY
360
5D1
102
}
102
{ACAD_REACTORS
330
5D9
102
}
330
58
100
AcDbEntity
 67
     1
  8
0
 48
0.3
100
AcDbDimension
  2
*D20
 10
7.94976537870079
 20
9.522786174296843
 30
0.0
 11
9.303965060126117
 21
9.225789102783821
 31
0.0
 70
   163
 71
     5
 42
0.3125000000000018
  3
Standard
100
AcDbDiametricDimension
 15
8.255010549955198
 25
9.455841156365197
 35
0.0
 40
0.0
1001
ACAD
1000
DSTYLE
1002
{
1070
   288
1070
     1
1002
}
  0
DIMENSION
  5
5EA
102
{ACAD_XDICTIONARY
360
5F5
102
}
102
{ACAD_REACTORS
330
5FD
102
}
330
58
100
AcDbEntity
 67
     1
  8
0
 48
0.3
100
AcDbDimension
  2
*D21
 10
6.007302443375929
 20
11.50750673530898
 30
0.0
 11
10.07122277645403
 21
10.855271216752
 31
0.0
 70
   163
 71
     5
 42
1.965
  3
Standard
100
AcDbDiametricDimension
 15
7.947473485280058
 25
11.19612059535306
 35
0.0
 40
0.0
1001
ACAD
1000
DSTYLE
1002
{
1070
   288
1070
     1
1002
}
  0
DIMENSION
  5
5FE
102
{ACAD_XDICTIONARY
360
60A
102
}
102
{ACAD_REACTORS
330
613
102
}
330
58
100
AcDbEntity
 67
     1
  8
0
 48
0.3
100
AcDbDimension
  2
*D22
 10
4.572787143586605
 20
10.66778523544683
 30
0.0
 11
10.98980262640487
 21
12.35204479403585
 31
0.0
 70
   163
 71
     5
 42
5.0
  3
Standard
100
AcDbDiametricDimension
 15
9.381988785069387
 25
12.03584209521521
 35
0.0
 40
0.0
1001
ACAD
1000
DSTYLE
1002
{
1070
   288
1070
     1
1002
}
  0
DIMENSION
  5
614
102
{ACAD_XDICTIONARY
360
622
102
}
102
{ACAD_REACTORS
330
62D
102
}
330
58
100
AcDbEntity
 67
     1
  8
0
 48
0.3
100
AcDbDimension
  2
*D23
 10
2.735773976394469
 20
9.489313665331025
 30
0.0
 11
2.735773976394467
 21
11.35181366533102
 31
0.0
 70
    32
 71
     5
 42
3.724999999999996
  3
Standard
100
AcDbAlignedDimension
 13
5.852387964327993
 23
13.21431366533102
 33
0.0
 14
5.852387964327992
 24
9.489313665331023
 34
0.0
 50
90.0
100
AcDbRotatedDimension
  0
DIMENSION
  5
62E
102
{ACAD_XDICTIONARY
360
63C
102
}
102
{ACAD_REACTORS
330
647
102
}
330
58
100
AcDbEntity
 67
     1
  8
0
 48
0.3
100
AcDbDimension
  2
*D24
 10
3.630042420288575
 20
13.21431366533102
 30
0.0
 11
3.630042420288573
 21
12.28306366533102
 31
0.0
 70
    32
 71
     5
 42
1.862499999999997
  3
Standard
100
AcDbAlignedDimension
 13
6.977387964327993
 23
11.35181366533102
 33
0.0
 14
5.852387964327993
 24
13.21431366533102
 34
0.0
 50
90.0
100
AcDbRotatedDimension
  0
DIMENSION
  5
648
102
{ACAD_XDICTIONARY
360
656
102
}
102
{ACAD_REACTORS
330
661
102
}
330
58
100
AcDbEntity
 67
     1
  8
0
 48
0.3
100
AcDbDimension
  2
*D25
 10
5.852387964327992
 20
8.467269654305077
 30
0.0
 11
6.414887964327995
 21
8.467269654305077
 31
0.0
 70
    32
 71
     5
 42
1.125000000000005
  3
Standard
100
AcDbAlignedDimension
 13
6.977387964327998
 23
11.35181366533102
 33
0.0
 14
5.852387964327992
 24
9.489313665331023
 34
0.0
100
AcDbRotatedDimension
  0
LINE
  5
663
330
58
100
AcDbEntity
 67
     1
  8
0
 48
0.3
100
AcDbLine
 10
4.477387964327994
 20
6.097911020147416
 30
0.0
 11
4.477387964327993
 21
3.597911020147416
 31
0.0
  0
LINE
  5
666
330
58
100
AcDbEntity
 67
     1
  8
0
 48
0.3
100
AcDbLine
 10
9.475767439107595
 20
6.097911020147414
 30
0.0
 11
9.475767439107595
 21
3.597911020147415
 31
0.0
  0
LINE
  5
67B
102
{ACAD_REACTORS
330
697
330
6B3
102
}
330
58
100
AcDbEntity
 67
     1
  8
0
 48
0.3
100
AcDbLine
 10
4.477387964327994
 20
6.097911020147416
 30
0.0
 11
9.475767439107595
 21
6.097911020147416
 31
0.0
  0
LINE
  5
67C
102
{ACAD_REACTORS
330
697
102
}
330
58
100
AcDbEntity
 67
     1
  8
0
 48
0.3
100
AcDbLine
 10
4.477387964327993
 20
3.597911020147416
 30
0.0
 11
9.475767439107595
 21
3.597911020147415
 31
0.0
  0
DIMENSION
  5
67E
102
{ACAD_XDICTIONARY
360
68C
102
}
102
{ACAD_REACTORS
330
697
102
}
330
58
100
AcDbEntity
 67
     1
  8
0
 48
0.3
100
AcDbDimension
  2
*D26
 10
11.44714508118584
 20
3.597911020147415
 30
0.0
 11
11.44714508118584
 21
4.847911020147416
 31
0.0
 70
    32
 71
     5
 42
2.5
  3
Standard
100
AcDbAlignedDimension
 13
9.475767439107595
 23
6.097911020147416
 33
0.0
 14
9.475767439107595
 24
3.597911020147415
 34
0.0
 50
90.0
100
AcDbRotatedDimension
  0
DIMENSION
  5
698
102
{ACAD_XDICTIONARY
360
6A7
102
}
102
{ACAD_REACTORS
330
6B3
102
}
330
58
100
AcDbEntity
 67
     1
  8
0
 48
0.3
100
AcDbDimension
  2
*D27
 10
10.24274046094477
 20
5.597911020147413
 30
0.0
 11
10.24274046094477
 21
5.847911020147414
 31
0.0
 70
   160
 71
     5
 42
0.5000000000000018
  3
Standard
100
AcDbAlignedDimension
 13
8.272387964327993
 23
6.097911020147416
 33
0.0
 14
8.272387964327993
 24
5.597911020147414
 34
0.0
 50
90.0
100
AcDbRotatedDimension
  0
DIMENSION
  5
6B4
102
{ACAD_XDICTIONARY
360
6C2
102
}
102
{ACAD_REACTORS
330
6CD
102
}
330
58
100
AcDbEntity
 67
     1
  8
0
 48
0.3
100
AcDbDimension
  2
*D28
 10
3.520983594467665
 20
5.347911020147415
 30
0.0
 11
3.520983594467664
 21
5.722911020147416
 31
0.0
 70
    32
 71
     5
 42
0.75
  3
Standard
100
AcDbAlignedDimension
 13
5.994887964327992
 23
6.097911020147415
 33
0.0
 14
5.994887964327992
 24
5.347911020147415
 34
0.0
 50
90.0
100
AcDbRotatedDimension
  0
ENDSEC
  0
SECTION
  2
OBJECTS
  0
DICTIONARY
  5
C
330
0
100
AcDbDictionary
281
     1
  3
ACAD_GROUP
350
D
  3
ACAD_LAYOUT
350
1A
  3
ACAD_MLINESTYLE
350
17
  3
ACAD_PLOTSETTINGS
350
19
  3
ACAD_PLOTSTYLENAME
350
E
  3
AcDbVariableDictionary
350
66
  0
DICTIONARY
  5
2B7
330
2A9
100
AcDbDictionary
280
     1
281
     1
  3
ACAD_DIMASSOC
360
2C2
  0
DICTIONARY
  5
35A
330
34E
100
AcDbDictionary
280
     1
281
     1
  3
ACAD_DIMASSOC
360
363
  0
DICTIONARY
  5
5D1
330
5C6
100
AcDbDictionary
280
     1
281
     1
  3
ACAD_DIMASSOC
360
5D9
  0
DICTIONARY
  5
5F5
330
5EA
100
AcDbDictionary
280
     1
281
     1
  3
ACAD_DIMASSOC
360
5FD
  0
DICTIONARY
  5
60A
330
5FE
100
AcDbDictionary
280
     1
281
     1
  3
ACAD_DIMASSOC
360
613
  0
DICTIONARY
  5
622
330
614
100
AcDbDictionary
280
     1
281
     1
  3
ACAD_DIMASSOC
360
62D
  0
DICTIONARY
  5
63C
330
62E
100
AcDbDictionary
280
     1
281
     1
  3
ACAD_DIMASSOC
360
647
  0
DICTIONARY
  5
656
330
648
100
AcDbDictionary
280
     1
281
     1
  3
ACAD_DIMASSOC
360
661
  0
DICTIONARY
  5
68C
330
67E
100
AcDbDictionary
280
     1
281
     1
  3
ACAD_DIMASSOC
360
697
  0
DICTIONARY
  5
6A7
330
698
100
AcDbDictionary
280
     1
281
     1
  3
ACAD_DIMASSOC
360
6B3
  0
DICTIONARY
  5
6C2
330
6B4
100
AcDbDictionary
280
     1
281
     1
  3
ACAD_DIMASSOC
360
6CD
  0
DICTIONARY
  5
D
102
{ACAD_REACTORS
330
C
102
}
330
C
100
AcDbDictionary
281
     1
  0
DICTIONARY
  5
1A
102
{ACAD_REACTORS
330
C
102
}
330
C
100
AcDbDictionary
281
     1
  3
Layout1
350
59
  3
Layout2
350
5E
  3
Model
350
22
  0
DICTIONARY
  5
17
102
{ACAD_REACTORS
330
C
102
}
330
C
100
AcDbDictionary
281
     1
  3
Standard
350
18
  0
DICTIONARY
  5
19
102
{ACAD_REACTORS
330
C
102
}
330
C
100
AcDbDictionary
281
     1
  0
ACDBDICTIONARYWDFLT
  5
E
102
{ACAD_REACTORS
330
C
102
}
330
C
100
AcDbDictionary
281
     1
  3
Normal
350
F
100
AcDbDictionaryWithDefault
340
F
  0
DICTIONARY
  5
66
102
{ACAD_REACTORS
330
C
102
}
330
C
100
AcDbDictionary
281
     1
  3
DIMASSOC
350
67
  3
HIDETEXT
350
6B
  0
DIMASSOC
  5
2C2
102
{ACAD_REACTORS
330
2B7
102
}
330
2B7
100
AcDbDimAssoc
330
2A9
 90
        3
 70
     0
 71
     0
  1
AcDbOsnapPointRef
 72
     3
331
106
 73
     2
 91
        0
 40
0.0
 10
8.102387964327993
 20
9.489313665331021
 30
0.0
 75
     0
  1
AcDbOsnapPointRef
 72
     3
331
107
 73
     2
 91
        0
 40
0.0
 10
5.852387964327992
 20
9.489313665331023
 30
0.0
 75
     0
  0
DIMASSOC
  5
363
102
{ACAD_REACTORS
330
35A
102
}
330
35A
100
AcDbDimAssoc
330
34E
 90
        2
 70
     0
 71
     0
  1
AcDbOsnapPointRef
 72
     3
331
335
 73
     2
 91
        0
 40
0.0
 10
0.0
 20
0.0
 30
0.0
 75
     0
  0
DIMASSOC
  5
5D9
102
{ACAD_REACTORS
330
5D1
102
}
330
5D1
100
AcDbDimAssoc
330
5C6
 90
        2
 70
     0
 71
     0
  1
AcDbOsnapPointRef
 72
     3
331
106
 73
     2
 91
        0
 40
0.0
 10
0.0
 20
0.0
 30
0.0
 75
     0
  0
DIMASSOC
  5
5FD
102
{ACAD_REACTORS
330
5F5
102
}
330
5F5
100
AcDbDimAssoc
330
5EA
 90
        2
 70
     0
 71
     0
  1
AcDbOsnapPointRef
 72
     3
331
E3
 73
     2
 91
        0
 40
0.0
 10
0.0
 20
0.0
 30
0.0
 75
     0
  0
DIMASSOC
  5
613
102
{ACAD_REACTORS
330
60A
102
}
330
60A
100
AcDbDimAssoc
330
5FE
 90
        2
 70
     0
 71
     0
  1
AcDbOsnapPointRef
 72
     3
331
4E3
 73
     2
 91
        0
 40
0.0
 10
0.0
 20
0.0
 30
0.0
 75
     0
  0
DIMASSOC
  5
62D
102
{ACAD_REACTORS
330
622
102
}
330
622
100
AcDbDimAssoc
330
614
 90
        3
 70
     0
 71
     0
  1
AcDbOsnapPointRef
 72
     3
331
102
 73
     2
 91
        0
 40
0.0
 10
5.852387964327993
 20
13.21431366533102
 30
0.0
 75
     0
  1
AcDbOsnapPointRef
 72
     3
331
101
 73
     2
 91
        0
 40
0.0
 10
5.852387964327992
 20
9.489313665331023
 30
0.0
 75
     0
  0
DIMASSOC
  5
647
102
{ACAD_REACTORS
330
63C
102
}
330
63C
100
AcDbDimAssoc
330
62E
 90
        3
 70
     0
 71
     0
  1
AcDbOsnapPointRef
 72
     3
331
E3
 73
     2
 91
        0
 40
0.0
 10
6.977387964327993
 20
11.35181366533102
 30
0.0
 75
     0
  1
AcDbOsnapPointRef
 72
     3
331
102
 73
     2
 91
        0
 40
0.0
 10
5.852387964327993
 20
13.21431366533102
 30
0.0
 75
     0
  0
DIMASSOC
  5
661
102
{ACAD_REACTORS
330
656
102
}
330
656
100
AcDbDimAssoc
330
648
 90
        2
 70
     0
 71
     0
  1
AcDbOsnapPointRef
 72
     3
331
101
 73
     2
 91
        0
 40
0.0
 10
5.852387964327992
 20
9.489313665331023
 30
0.0
 75
     0
  0
DIMASSOC
  5
697
102
{ACAD_REACTORS
330
68C
102
}
330
68C
100
AcDbDimAssoc
330
67E
 90
        3
 70
     0
 71
     0
  1
AcDbOsnapPointRef
 72
     1
331
67B
 73
     2
 91
        0
 40
1.0
 10
9.475767439107595
 20
6.097911020147416
 30
0.0
 75
     0
  1
AcDbOsnapPointRef
 72
     1
331
67C
 73
     2
 91
        0
 40
1.0
 10
9.475767439107595
 20
3.597911020147415
 30
0.0
 75
     0
  0
DIMASSOC
  5
6B3
102
{ACAD_REACTORS
330
6A7
102
}
330
6A7
100
AcDbDimAssoc
330
698
 90
        3
 70
     0
 71
     0
  1
AcDbOsnapPointRef
 72
     6
331
67B
 73
     2
 91
        0
 40
0.7592460754827615
 10
8.272387964327993
 20
6.097911020147416
 30
0.0
332
3BA
 74
     2
 92
        0
 75
     0
  1
AcDbOsnapPointRef
 72
    13
331
13F
 73
     2
 91
        0
 40
0.0
 10
8.272387964327993
 20
5.597911020147414
 30
0.0
 75
     0
  0
DIMASSOC
  5
6CD
102
{ACAD_REACTORS
330
6C2
102
}
330
6C2
100
AcDbDimAssoc
330
6B4
 90
        3
 70
     0
 71
     0
  1
AcDbOsnapPointRef
 72
     1
331
134
 73
     2
 91
        0
 40
1.0
 10
5.994887964327992
 20
6.097911020147415
 30
0.0
 75
     0
  1
AcDbOsnapPointRef
 72
     1
331
133
 73
     2
 91
        0
 40
1.0
 10
5.994887964327992
 20
5.347911020147415
 30
0.0
 75
     0
  0
LAYOUT
  5
59
102
{ACAD_REACTORS
330
1A
102
}
330
1A
100
AcDbPlotSettings
  1

  2
none_device
  4
ANSI_C_(17.00_x_22.00_Inches)
  6

 40
6.349999904632568
 41
19.04999923706054
 42
6.350006103515625
 43
19.04998779296875
 44
431.7999877929687
 45
558.7999877929687
 46
0.0
 47
0.0
 48
0.0
 49
0.0
140
0.0
141
0.0
142
1.0
143
1.0
 70
   688
 72
     0
 73
     1
 74
     5
  7

 75
    16
147
1.0
148
0.0
149
0.0
100
AcDbLayout
  1
Layout1
 70
     0
 71
     1
 10
-0.7499995194082186
 20
-0.2499999962453767
 11
21.25
 21
16.74999952316284
 12
0.0
 22
0.0
 32
0.0
 14
0.2965759179903777
 24
0.5900508454536873
 34
0.0
 15
20.29657591799038
 25
16.09005084545368
 35
0.0
146
0.0
 13
0.0
 23
0.0
 33
0.0
 16
1.0
 26
0.0
 36
0.0
 17
0.0
 27
1.0
 37
0.0
 76
     0
330
58
331
77
  0
LAYOUT
  5
5E
102
{ACAD_REACTORS
330
1A
102
}
330
1A
100
AcDbPlotSettings
  1

  2
None
  4

  6

 40
0.0
 41
0.0
 42
0.0
 43
0.0
 44
0.0
 45
0.0
 46
0.0
 47
0.0
 48
0.0
 49
0.0
140
0.0
141
0.0
142
1.0
143
1.0
 70
   688
 72
     0
 73
     0
 74
     5
  7

 75
    16
147
1.0
148
0.0
149
0.0
100
AcDbLayout
  1
Layout2
 70
     1
 71
     2
 10
0.0
 20
0.0
 11
12.0
 21
9.0
 12
0.0
 22
0.0
 32
0.0
 14
0.0
 24
0.0
 34
0.0
 15
0.0
 25
0.0
 35
0.0
146
0.0
 13
0.0
 23
0.0
 33
0.0
 16
1.0
 26
0.0
 36
0.0
 17
0.0
 27
1.0
 37
0.0
 76
     0
330
5D
  0
LAYOUT
  5
22
102
{ACAD_REACTORS
330
1A
102
}
330
1A
100
AcDbPlotSettings
  1

  2
none_device
  4
ANSI_A_(8.50_x_11.00_Inches)
  6

 40
6.349999904632568
 41
19.04999923706054
 42
6.350006103515625
 43
19.04998779296875
 44
215.8999938964843
 45
279.3999938964843
 46
0.0
 47
0.0
 48
0.0
 49
0.0
140
0.0
141
0.0
142
1.0
143
2.584895464708373
 70
 11952
 72
     0
 73
     1
 74
     0
  7

 75
     0
147
0.3868628397755418
148
0.0
149
0.0
100
AcDbLayout
  1
Model
 70
     1
 71
     0
 10
0.0
 20
0.0
 11
12.0
 21
9.0
 12
0.0
 22
0.0
 32
0.0
 14
0.0
 24
0.0
 34
0.0
 15
0.0
 25
0.0
 35
0.0
146
0.0
 13
0.0
 23
0.0
 33
0.0
 16
1.0
 26
0.0
 36
0.0
 17
0.0
 27
1.0
 37
0.0
 76
     0
330
1F
  0
MLINESTYLE
  5
18
102
{ACAD_REACTORS
330
17
102
}
330
17
100
AcDbMlineStyle
  2
STANDARD
 70
     0
  3

 62
   256
 51
90.0
 52
90.0
 71
     2
 49
0.5
 62
   256
  6
BYLAYER
 49
-0.5
 62
   256
  6
BYLAYER
  0
ACDBPLACEHOLDER
  5
F
102
{ACAD_REACTORS
330
E
102
}
330
E
  0
DICTIONARYVAR
  5
67
102
{ACAD_REACTORS
330
66
102
}
330
66
100
DictionaryVariables
280
     0
  1
2
  0
DICTIONARYVAR
  5
6B
102
{ACAD_REACTORS
330
66
102
}
330
66
100
DictionaryVariables
280
     0
  1
1
  0
ENDSEC
  0
EOF
