  0
SECTION
  2
HEADER
  9
$ACADVER
  1
AC1015
  9
$ACADMAINTVER
 70
    13
  9
$DWGCODEPAGE
  3
ANSI_1252
  9
$INSBASE
 10
0.0
 20
0.0
 30
0.0
  9
$EXTMIN
 10
1.000000000000000E+20
 20
1.000000000000000E+20
 30
1.000000000000000E+20
  9
$EXTMAX
 10
-1.000000000000000E+20
 20
-1.000000000000000E+20
 30
-1.000000000000000E+20
  9
$LIMMIN
 10
0.0
 20
0.0
  9
$LIMMAX
 10
12.0
 20
9.0
  9
$ORTHOMODE
 70
     0
  9
$REGENMODE
 70
     1
  9
$FILLMODE
 70
     1
  9
$QTEXTMODE
 70
     0
  9
$MIRRTEXT
 70
     1
  9
$LTSCALE
 40
0.3
  9
$ATTMODE
 70
     1
  9
$TEXTSIZE
 40
0.2
  9
$TRACEWID
 40
0.05
  9
$TEXTSTYLE
  7
Standard
  9
$CLAYER
  8
0
  9
$CELTYPE
  6
ByLayer
  9
$CECOLOR
 62
   256
  9
$CELTSCALE
 40
0.3
  9
$DISPSILH
 70
     0
  9
$DIMSCALE
 40
1.0
  9
$DIMASZ
 40
0.125
  9
$DIMEXO
 40
0.0625
  9
$DIMDLI
 40
0.38
  9
$DIMRND
 40
0.0
  9
$DIMDLE
 40
0.0
  9
$DIMEXE
 40
0.18
  9
$DIMTP
 40
0.0
  9
$DIMTM
 40
0.0
  9
$DIMTXT
 40
0.125
  9
$DIMCEN
 40
0.09
  9
$DIMTSZ
 40
0.0
  9
$DIMTOL
 70
     0
  9
$DIMLIM
 70
     0
  9
$DIMTIH
 70
     1
  9
$DIMTOH
 70
     1
  9
$DIMSE1
 70
     0
  9
$DIMSE2
 70
     0
  9
$DIMTAD
 70
     0
  9
$DIMZIN
 70
     0
  9
$DIMBLK
  1

  9
$DIMASO
 70
     1
  9
$DIMSHO
 70
     1
  9
$DIMPOST
  1

  9
$DIMAPOST
  1

  9
$DIMALT
 70
     0
  9
$DIMALTD
 70
     2
  9
$DIMALTF
 40
25.4
  9
$DIMLFAC
 40
1.0
  9
$DIMTOFL
 70
     0
  9
$DIMTVP
 40
0.0
  9
$DIMTIX
 70
     0
  9
$DIMSOXD
 70
     0
  9
$DIMSAH
 70
     0
  9
$DIMBLK1
  1

  9
$DIMBLK2
  1

  9
$DIMSTYLE
  2
Standard
  9
$DIMCLRD
 70
     0
  9
$DIMCLRE
 70
     0
  9
$DIMCLRT
 70
     0
  9
$DIMTFAC
 40
1.0
  9
$DIMGAP
 40
0.09
  9
$DIMJUST
 70
     0
  9
$DIMSD1
 70
     0
  9
$DIMSD2
 70
     0
  9
$DIMTOLJ
 70
     1
  9
$DIMTZIN
 70
     0
  9
$DIMALTZ
 70
     0
  9
$DIMALTTZ
 70
     0
  9
$DIMUPT
 70
     0
  9
$DIMDEC
 70
     3
  9
$DIMTDEC
 70
     3
  9
$DIMALTU
 70
     2
  9
$DIMALTTD
 70
     2
  9
$DIMTXSTY
  7
Standard
  9
$DIMAUNIT
 70
     0
  9
$DIMADEC
 70
     0
  9
$DIMALTRND
 40
0.0
  9
$DIMAZIN
 70
     0
  9
$DIMDSEP
 70
    46
  9
$DIMATFIT
 70
     3
  9
$DIMFRAC
 70
     0
  9
$DIMLDRBLK
  1

  9
$DIMLUNIT
 70
     2
  9
$DIMLWD
 70
    -2
  9
$DIMLWE
 70
    -2
  9
$DIMTMOVE
 70
     0
  9
$LUNITS
 70
     2
  9
$LUPREC
 70
     4
  9
$SKETCHINC
 40
0.1
  9
$FILLETRAD
 40
0.5
  9
$AUNITS
 70
     0
  9
$AUPREC
 70
     0
  9
$MENU
  1
.
  9
$ELEVATION
 40
0.0
  9
$PELEVATION
 40
0.0
  9
$THICKNESS
 40
0.0
  9
$LIMCHECK
 70
     0
  9
$CHAMFERA
 40
0.5
  9
$CHAMFERB
 40
0.5
  9
$CHAMFERC
 40
1.0
  9
$CHAMFERD
 40
0.0
  9
$SKPOLY
 70
     0
  9
$TDCREATE
 40
2454412.621520173
  9
$TDUCREATE
 40
2454412.788186840
  9
$TDUPDATE
 40
2455642.683567708
  9
$TDUUPDATE
 40
2455642.850234375
  9
$TDINDWG
 40
0.4371377778
  9
$TDUSRTIMER
 40
0.4371377778
  9
$USRTIMER
 70
     1
  9
$ANGBASE
 50
0.0
  9
$ANGDIR
 70
     0
  9
$PDMODE
 70
     0
  9
$PDSIZE
 40
0.0
  9
$PLINEWID
 40
0.0
  9
$SPLFRAME
 70
     0
  9
$SPLINETYPE
 70
     6
  9
$SPLINESEGS
 70
     8
  9
$HANDSEED
  5
622
  9
$SURFTAB1
 70
     6
  9
$SURFTAB2
 70
     6
  9
$SURFTYPE
 70
     6
  9
$SURFU
 70
     6
  9
$SURFV
 70
     6
  9
$UCSBASE
  2

  9
$UCSNAME
  2

  9
$UCSORG
 10
0.0
 20
0.0
 30
0.0
  9
$UCSXDIR
 10
1.0
 20
0.0
 30
0.0
  9
$UCSYDIR
 10
0.0
 20
1.0
 30
0.0
  9
$UCSORTHOREF
  2

  9
$UCSORTHOVIEW
 70
     0
  9
$UCSORGTOP
 10
0.0
 20
0.0
 30
0.0
  9
$UCSORGBOTTOM
 10
0.0
 20
0.0
 30
0.0
  9
$UCSORGLEFT
 10
0.0
 20
0.0
 30
0.0
  9
$UCSORGRIGHT
 10
0.0
 20
0.0
 30
0.0
  9
$UCSORGFRONT
 10
0.0
 20
0.0
 30
0.0
  9
$UCSORGBACK
 10
0.0
 20
0.0
 30
0.0
  9
$PUCSBASE
  2

  9
$PUCSNAME
  2

  9
$PUCSORG
 10
0.0
 20
0.0
 30
0.0
  9
$PUCSXDIR
 10
1.0
 20
0.0
 30
0.0
  9
$PUCSYDIR
 10
0.0
 20
1.0
 30
0.0
  9
$PUCSORTHOREF
  2

  9
$PUCSORTHOVIEW
 70
     0
  9
$PUCSORGTOP
 10
0.0
 20
0.0
 30
0.0
  9
$PUCSORGBOTTOM
 10
0.0
 20
0.0
 30
0.0
  9
$PUCSORGLEFT
 10
0.0
 20
0.0
 30
0.0
  9
$PUCSORGRIGHT
 10
0.0
 20
0.0
 30
0.0
  9
$PUCSORGFRONT
 10
0.0
 20
0.0
 30
0.0
  9
$PUCSORGBACK
 10
0.0
 20
0.0
 30
0.0
  9
$USERI1
 70
     0
  9
$USERI2
 70
     0
  9
$USERI3
 70
     0
  9
$USERI4
 70
     0
  9
$USERI5
 70
     0
  9
$USERR1
 40
0.0
  9
$USERR2
 40
0.0
  9
$USERR3
 40
0.0
  9
$USERR4
 40
0.0
  9
$USERR5
 40
0.0
  9
$WORLDVIEW
 70
     1
  9
$SHADEDGE
 70
     3
  9
$SHADEDIF
 70
    70
  9
$TILEMODE
 70
     0
  9
$MAXACTVP
 70
    64
  9
$PINSBASE
 10
0.0
 20
0.0
 30
0.0
  9
$PLIMCHECK
 70
     0
  9
$PEXTMIN
 10
-1.439262267973589
 20
-1.41285528304607
 30
0.0
  9
$PEXTMAX
 10
8.966538218833356
 20
6.396855050259421
 30
0.0
  9
$PLIMMIN
 10
-1.75200024029589
 20
-1.757999996245376
  9
$PLIMMAX
 10
9.247999519408217
 20
6.741999763458731
  9
$UNITMODE
 70
     0
  9
$VISRETAIN
 70
     1
  9
$PLINEGEN
 70
     0
  9
$PSLTSCALE
 70
     1
  9
$TREEDEPTH
 70
  3020
  9
$CMLSTYLE
  2
Standard
  9
$CMLJUST
 70
     0
  9
$CMLSCALE
 40
1.0
  9
$PROXYGRAPHICS
 70
     1
  9
$MEASUREMENT
 70
     0
  9
$CELWEIGHT
370
    -1
  9
$ENDCAPS
280
     0
  9
$JOINSTYLE
280
     0
  9
$LWDISPLAY
290
     0
  9
$INSUNITS
 70
     1
  9
$HYPERLINKBASE
  1

  9
$STYLESHEET
  1

  9
$XEDIT
290
     1
  9
$CEPSNTYPE
380
     0
  9
$PSTYLEMODE
290
     1
  9
$FINGERPRINTGUID
  2
{FDEAD576-A652-11D2-9A35-0060089B3A3F}
  9
$VERSIONGUID
  2
{D3647DA9-FF67-4C5B-B618-A75EFD3825DF}
  9
$EXTNAMES
290
     1
  9
$PSVPSCALE
 40
0.0
  9
$OLESTARTUP
290
     0
  0
ENDSEC
  0
SECTION
  2
CLASSES
  0
CLASS
  1
ACDBDICTIONARYWDFLT
  2
AcDbDictionaryWithDefault
  3
AutoCAD 2000
 90
        0
280
     0
281
     0
  0
CLASS
  1
ACDBPLACEHOLDER
  2
AcDbPlaceHolder
  3
AutoCAD 2000
 90
        0
280
     0
281
     0
  0
CLASS
  1
LAYOUT
  2
AcDbLayout
  3
AutoCAD 2000
 90
        0
280
     0
281
     0
  0
CLASS
  1
DICTIONARYVAR
  2
AcDbDictionaryVar
  3
AutoCAD 2000
 90
        0
280
     0
281
     0
  0
CLASS
  1
DIMASSOC
  2
AcDbDimAssoc
  3
"AcDbDimAssoc|Product Desc:     AcDim ARX App For Dimension|Company:          Autodesk, Inc.|WEB Address:      www.autodesk.com"
 90
        0
280
     0
281
     0
  0
ENDSEC
  0
SECTION
  2
TABLES
  0
TABLE
  2
VPORT
  5
8
330
0
100
AcDbSymbolTable
 70
     1
  0
VPORT
  5
74
330
8
100
AcDbSymbolTableRecord
100
AcDbViewportTableRecord
  2
*Active
 70
     0
 10
0.0
 20
0.0
 11
1.0
 21
1.0
 12
20.48748698095427
 22
9.784138269231398
 13
0.0
 23
0.0
 14
0.5
 24
0.5
 15
0.5
 25
0.5
 16
0.0
 26
0.0
 36
1.0
 17
0.0
 27
0.0
 37
0.0
 40
19.56827653846279
 41
2.093949044585987
 42
50.0
 43
0.0
 44
0.0
 50
0.0
 51
0.0
 71
     0
 72
   100
 73
     1
 74
     3
 75
     0
 76
     0
 77
     0
 78
     0
281
     0
 65
     1
110
0.0
120
0.0
130
0.0
111
1.0
121
0.0
131
0.0
112
0.0
122
1.0
132
0.0
 79
     0
146
0.0
  0
ENDTAB
  0
TABLE
  2
LTYPE
  5
5
330
0
100
AcDbSymbolTable
 70
     3
  0
LTYPE
  5
14
330
5
100
AcDbSymbolTableRecord
100
AcDbLinetypeTableRecord
  2
ByBlock
 70
     0
  3

 72
    65
 73
     0
 40
0.0
  0
LTYPE
  5
15
330
5
100
AcDbSymbolTableRecord
100
AcDbLinetypeTableRecord
  2
ByLayer
 70
     0
  3

 72
    65
 73
     0
 40
0.0
  0
LTYPE
  5
16
330
5
100
AcDbSymbolTableRecord
100
AcDbLinetypeTableRecord
  2
Continuous
 70
     0
  3
Solid line
 72
    65
 73
     0
 40
0.0
  0
LTYPE
  5
92
330
5
100
AcDbSymbolTableRecord
100
AcDbLinetypeTableRecord
  2
HIDDENX2
 70
     0
  3
Hidden (2x) ____ ____ ____ ____ ____ ____ ____
 72
    65
 73
     2
 40
0.75
 49
0.5
 74
     0
 49
-0.25
 74
     0
  0
LTYPE
  5
93
330
5
100
AcDbSymbolTableRecord
100
AcDbLinetypeTableRecord
  2
threads
 70
     0
  3
Zig zag /\/\/\/\/\/\/\/\/\/\/\/\/\/\/\/\/\/\/\/
 72
    65
 73
     4
 40
0.8001000000000001
 49
0.0001
 74
     0
 49
-0.2
 74
     4
 75
   131
340
91
 46
0.2
 50
0.0
 44
-0.2
 45
0.0
 49
-0.4
 74
     4
 75
   131
340
91
 46
0.2
 50
180.0
 44
0.2
 45
0.0
 49
-0.2
 74
     0
  0
ENDTAB
  0
TABLE
  2
LAYER
  5
2
330
0
100
AcDbSymbolTable
 70
     2
  0
LAYER
  5
10
330
2
100
AcDbSymbolTableRecord
100
AcDbLayerTableRecord
  2
0
 70
     0
 62
     7
  6
Continuous
370
    -3
390
F
  0
LAYER
  5
FC
330
2
100
AcDbSymbolTableRecord
100
AcDbLayerTableRecord
  2
Defpoints
 70
     0
 62
     7
  6
Continuous
290
     0
370
    -3
390
F
  0
ENDTAB
  0
TABLE
  2
STYLE
  5
3
330
0
100
AcDbSymbolTable
 70
     2
  0
STYLE
  5
11
330
3
100
AcDbSymbolTableRecord
100
AcDbTextStyleTableRecord
  2
Standard
 70
     0
 40
0.0
 41
1.0
 50
0.0
 71
     0
 42
0.2
  3
txt
  4

  0
STYLE
  5
91
330
3
100
AcDbSymbolTableRecord
100
AcDbTextStyleTableRecord
  2

 70
     1
 40
0.0
 41
1.0
 50
0.0
 71
     0
 42
0.2
  3
ltypeshp.shx
  4

  0
ENDTAB
  0
TABLE
  2
VIEW
  5
6
330
0
100
AcDbSymbolTable
 70
     0
  0
ENDTAB
  0
TABLE
  2
UCS
  5
7
330
0
100
AcDbSymbolTable
 70
     0
  0
ENDTAB
  0
TABLE
  2
APPID
  5
9
330
0
100
AcDbSymbolTable
 70
     1
  0
APPID
  5
12
330
9
100
AcDbSymbolTableRecord
100
AcDbRegAppTableRecord
  2
ACAD
 70
     0
  0
ENDTAB
  0
TABLE
  2
DIMSTYLE
  5
A
330
0
100
AcDbSymbolTable
 70
     1
100
AcDbDimStyleTable
 71
     1
340
27
  0
DIMSTYLE
105
27
102
{ACAD_REACTORS
330
14A
330
164
330
17E
330
1B8
330
23C
330
288
330
3B2
330
3CC
330
3E6
330
525
330
53F
330
5B4
330
5D8
330
607
102
}
330
A
100
AcDbSymbolTableRecord
100
AcDbDimStyleTableRecord
  2
Standard
 70
     0
 41
0.125
140
0.125
271
     3
272
     3
340
11
  0
ENDTAB
  0
TABLE
  2
BLOCK_RECORD
  5
1
330
0
100
AcDbSymbolTable
 70
    15
  0
BLOCK_RECORD
  5
1F
330
1
100
AcDbSymbolTableRecord
100
AcDbBlockTableRecord
  2
*Model_Space
340
22
  0
BLOCK_RECORD
  5
58
330
1
100
AcDbSymbolTableRecord
100
AcDbBlockTableRecord
  2
*Paper_Space
340
59
  0
BLOCK_RECORD
  5
5D
330
1
100
AcDbSymbolTableRecord
100
AcDbBlockTableRecord
  2
*Paper_Space0
340
5E
  0
BLOCK_RECORD
  5
14B
330
1
100
AcDbSymbolTableRecord
100
AcDbBlockTableRecord
  2
*D1
340
0
  0
BLOCK_RECORD
  5
165
330
1
100
AcDbSymbolTableRecord
100
AcDbBlockTableRecord
  2
*D2
340
0
  0
BLOCK_RECORD
  5
17F
330
1
100
AcDbSymbolTableRecord
100
AcDbBlockTableRecord
  2
*D3
340
0
  0
BLOCK_RECORD
  5
1B9
330
1
100
AcDbSymbolTableRecord
100
AcDbBlockTableRecord
  2
*D4
340
0
  0
BLOCK_RECORD
  5
23D
330
1
100
AcDbSymbolTableRecord
100
AcDbBlockTableRecord
  2
*D5
340
0
  0
BLOCK_RECORD
  5
289
330
1
100
AcDbSymbolTableRecord
100
AcDbBlockTableRecord
  2
*D6
340
0
  0
BLOCK_RECORD
  5
3B3
330
1
100
AcDbSymbolTableRecord
100
AcDbBlockTableRecord
  2
*D7
340
0
  0
BLOCK_RECORD
  5
3CD
330
1
100
AcDbSymbolTableRecord
100
AcDbBlockTableRecord
  2
*D8
340
0
  0
BLOCK_RECORD
  5
3E7
330
1
100
AcDbSymbolTableRecord
100
AcDbBlockTableRecord
  2
*D9
340
0
  0
BLOCK_RECORD
  5
526
330
1
100
AcDbSymbolTableRecord
100
AcDbBlockTableRecord
  2
*D10
340
0
  0
BLOCK_RECORD
  5
540
330
1
100
AcDbSymbolTableRecord
100
AcDbBlockTableRecord
  2
*D11
340
0
  0
BLOCK_RECORD
  5
5B5
330
1
100
AcDbSymbolTableRecord
100
AcDbBlockTableRecord
  2
*D12
340
0
  0
BLOCK_RECORD
  5
5D9
330
1
100
AcDbSymbolTableRecord
100
AcDbBlockTableRecord
  2
*D13
340
0
  0
BLOCK_RECORD
  5
608
330
1
100
AcDbSymbolTableRecord
100
AcDbBlockTableRecord
  2
*D14
340
0
  0
ENDTAB
  0
ENDSEC
  0
SECTION
  2
BLOCKS
  0
BLOCK
  5
20
330
1F
100
AcDbEntity
  8
0
100
AcDbBlockBegin
  2
*Model_Space
 70
     0
 10
0.0
 20
0.0
 30
0.0
  3
*Model_Space
  1

  0
ENDBLK
  5
21
330
1F
100
AcDbEntity
  8
0
100
AcDbBlockEnd
  0
BLOCK
  5
5A
330
58
100
AcDbEntity
 67
     1
  8
0
100
AcDbBlockBegin
  2
*Paper_Space
 70
     0
 10
0.0
 20
0.0
 30
0.0
  3
*Paper_Space
  1

  0
ENDBLK
  5
5B
330
58
100
AcDbEntity
 67
     1
  8
0
100
AcDbBlockEnd
  0
BLOCK
  5
5F
330
5D
100
AcDbEntity
  8
0
100
AcDbBlockBegin
  2
*Paper_Space0
 70
     0
 10
0.0
 20
0.0
 30
0.0
  3
*Paper_Space0
  1

  0
ENDBLK
  5
60
330
5D
100
AcDbEntity
  8
0
100
AcDbBlockEnd
  0
BLOCK
  5
156
330
14B
100
AcDbEntity
  8
0
 48
0.3
100
AcDbBlockBegin
  2
*D1
 70
     1
 10
0.0
 20
0.0
 30
0.0
  3
*D1
  1

  0
LINE
  5
380
330
14B
100
AcDbEntity
  8
0
 62
     0
 48
0.3
370
    -2
100
AcDbLine
 10
1.225204074332254
 20
2.831362552132029
 30
0.0
 11
1.225204074332254
 21
3.895659642066214
 31
0.0
  0
LINE
  5
381
330
14B
100
AcDbEntity
  8
0
 62
     0
 48
0.3
370
    -2
100
AcDbLine
 10
1.925204074332254
 20
2.831362552132029
 30
0.0
 11
1.925204074332254
 21
3.895659642066214
 31
0.0
  0
LINE
  5
382
330
14B
100
AcDbEntity
  8
0
 62
     0
 48
0.3
370
    -2
100
AcDbLine
 10
1.100204074332254
 20
3.715659642066214
 30
0.0
 11
0.9752040743322547
 21
3.715659642066214
 31
0.0
  0
LINE
  5
383
330
14B
100
AcDbEntity
  8
0
 62
     0
 48
0.3
370
    -2
100
AcDbLine
 10
2.050204074332254
 20
3.715659642066214
 30
0.0
 11
2.175204074332254
 21
3.715659642066214
 31
0.0
  0
SOLID
  5
384
330
14B
100
AcDbEntity
  8
0
 62
     0
 48
0.3
100
AcDbTrace
 10
1.100204074332254
 20
3.736492975399547
 30
0.0
 11
1.100204074332254
 21
3.69482630873288
 31
0.0
 12
1.225204074332254
 22
3.715659642066214
 32
0.0
 13
1.225204074332254
 23
3.715659642066214
 33
0.0
  0
SOLID
  5
385
330
14B
100
AcDbEntity
  8
0
 62
     0
 48
0.3
100
AcDbTrace
 10
2.050204074332254
 20
3.736492975399547
 30
0.0
 11
2.050204074332254
 21
3.69482630873288
 31
0.0
 12
1.925204074332254
 22
3.715659642066214
 32
0.0
 13
1.925204074332254
 23
3.715659642066214
 33
0.0
  0
MTEXT
  5
386
330
14B
100
AcDbEntity
  8
0
 62
     0
 48
0.3
100
AcDbMText
 10
1.575204074332254
 20
3.715659642066214
 30
0.0
 40
0.125
 41
0.0
 71
     5
 72
     1
  1
\A1;0.700
 73
     1
 44
1.0
  0
POINT
  5
387
330
14B
100
AcDbEntity
  8
Defpoints
 62
     0
 48
0.3
100
AcDbPoint
 10
1.225204074332254
 20
2.768862552132029
 30
0.0
  0
POINT
  5
388
330
14B
100
AcDbEntity
  8
Defpoints
 62
     0
 48
0.3
100
AcDbPoint
 10
1.925204074332254
 20
2.768862552132029
 30
0.0
  0
POINT
  5
389
330
14B
100
AcDbEntity
  8
Defpoints
 62
     0
 48
0.3
100
AcDbPoint
 10
1.925204074332254
 20
3.715659642066214
 30
0.0
  0
ENDBLK
  5
157
330
14B
100
AcDbEntity
  8
0
 48
0.3
100
AcDbBlockEnd
  0
BLOCK
  5
170
330
165
100
AcDbEntity
  8
0
 48
0.3
100
AcDbBlockBegin
  2
*D2
 70
     1
 10
0.0
 20
0.0
 30
0.0
  3
*D2
  1

  0
LINE
  5
38A
330
165
100
AcDbEntity
  8
0
 62
     0
 48
0.3
370
    -2
100
AcDbLine
 10
5.400204074332254
 20
2.831362552132029
 30
0.0
 11
5.400204074332254
 21
3.895659642066214
 31
0.0
  0
LINE
  5
38B
330
165
100
AcDbEntity
  8
0
 62
     0
 48
0.3
370
    -2
100
AcDbLine
 10
5.975204074332252
 20
2.831362552132027
 30
0.0
 11
5.975204074332252
 21
3.895659642066214
 31
0.0
  0
LINE
  5
38C
330
165
100
AcDbEntity
  8
0
 62
     0
 48
0.3
370
    -2
100
AcDbLine
 10
5.525204074332254
 20
3.715659642066214
 30
0.0
 11
5.850204074332252
 21
3.715659642066214
 31
0.0
  0
LINE
  5
38D
330
165
100
AcDbEntity
  8
0
 62
     0
 48
0.3
370
    -2
100
AcDbLine
 10
5.975204074332252
 20
3.715659642066214
 30
0.0
 11
6.100204074332252
 21
3.715659642066214
 31
0.0
  0
SOLID
  5
38E
330
165
100
AcDbEntity
  8
0
 62
     0
 48
0.3
100
AcDbTrace
 10
5.525204074332254
 20
3.736492975399547
 30
0.0
 11
5.525204074332254
 21
3.69482630873288
 31
0.0
 12
5.400204074332254
 22
3.715659642066214
 32
0.0
 13
5.400204074332254
 23
3.715659642066214
 33
0.0
  0
SOLID
  5
38F
330
165
100
AcDbEntity
  8
0
 62
     0
 48
0.3
100
AcDbTrace
 10
5.850204074332252
 20
3.736492975399547
 30
0.0
 11
5.850204074332252
 21
3.69482630873288
 31
0.0
 12
5.975204074332252
 22
3.715659642066214
 32
0.0
 13
5.975204074332252
 23
3.715659642066214
 33
0.0
  0
MTEXT
  5
390
330
165
100
AcDbEntity
  8
0
 62
     0
 48
0.3
100
AcDbMText
 10
6.429787407665585
 20
3.715659642066214
 30
0.0
 40
0.125
 41
0.0
 71
     5
 72
     1
  1
\A1;0.575
 73
     1
 44
1.0
  0
POINT
  5
391
330
165
100
AcDbEntity
  8
Defpoints
 62
     0
 48
0.3
100
AcDbPoint
 10
5.400204074332254
 20
2.768862552132029
 30
0.0
  0
POINT
  5
392
330
165
100
AcDbEntity
  8
Defpoints
 62
     0
 48
0.3
100
AcDbPoint
 10
5.975204074332252
 20
2.768862552132028
 30
0.0
  0
POINT
  5
393
330
165
100
AcDbEntity
  8
Defpoints
 62
     0
 48
0.3
100
AcDbPoint
 10
5.975204074332252
 20
3.715659642066214
 30
0.0
  0
ENDBLK
  5
171
330
165
100
AcDbEntity
  8
0
 48
0.3
100
AcDbBlockEnd
  0
BLOCK
  5
18B
330
17F
100
AcDbEntity
  8
0
 48
0.3
100
AcDbBlockBegin
  2
*D3
 70
     1
 10
0.0
 20
0.0
 30
0.0
  3
*D3
  1

  0
LINE
  5
394
330
17F
100
AcDbEntity
  8
0
 62
     0
 48
0.3
370
    -2
100
AcDbLine
 10
5.462704074332254
 20
3.393862552132029
 30
0.0
 11
7.046641485505404
 21
3.393862552132029
 31
0.0
  0
LINE
  5
395
330
17F
100
AcDbEntity
  8
0
 62
     0
 48
0.3
370
    -2
100
AcDbLine
 10
6.037704074332252
 20
2.768862552132028
 30
0.0
 11
7.046641485505404
 21
2.768862552132027
 31
0.0
  0
LINE
  5
396
330
17F
100
AcDbEntity
  8
0
 62
     0
 48
0.3
370
    -2
100
AcDbLine
 10
6.866641485505404
 20
3.268862552132029
 30
0.0
 11
6.866641485505404
 21
3.207633131434152
 31
0.0
  0
LINE
  5
397
330
17F
100
AcDbEntity
  8
0
 62
     0
 48
0.3
370
    -2
100
AcDbLine
 10
6.866641485505404
 20
2.893862552132027
 30
0.0
 11
6.866641485505404
 21
2.902633131434153
 31
0.0
  0
SOLID
  5
398
330
17F
100
AcDbEntity
  8
0
 62
     0
 48
0.3
100
AcDbTrace
 10
6.845808152172071
 20
3.268862552132029
 30
0.0
 11
6.887474818838737
 21
3.268862552132029
 31
0.0
 12
6.866641485505404
 22
3.393862552132029
 32
0.0
 13
6.866641485505404
 23
3.393862552132029
 33
0.0
  0
SOLID
  5
399
330
17F
100
AcDbEntity
  8
0
 62
     0
 48
0.3
100
AcDbTrace
 10
6.845808152172071
 20
2.893862552132027
 30
0.0
 11
6.887474818838737
 21
2.893862552132027
 31
0.0
 12
6.866641485505404
 22
2.768862552132028
 32
0.0
 13
6.866641485505404
 23
2.768862552132028
 33
0.0
  0
MTEXT
  5
39A
330
17F
100
AcDbEntity
  8
0
 62
     0
 48
0.3
100
AcDbMText
 10
6.866641485505403
 20
3.055133131434153
 30
0.0
 40
0.125
 41
0.0
 71
     5
 72
     1
  1
\A1;0.625
 73
     1
 44
1.0
  0
POINT
  5
39B
330
17F
100
AcDbEntity
  8
Defpoints
 62
     0
 48
0.3
100
AcDbPoint
 10
5.400204074332254
 20
3.393862552132029
 30
0.0
  0
POINT
  5
39C
330
17F
100
AcDbEntity
  8
Defpoints
 62
     0
 48
0.3
100
AcDbPoint
 10
5.975204074332252
 20
2.768862552132028
 30
0.0
  0
POINT
  5
39D
330
17F
100
AcDbEntity
  8
Defpoints
 62
     0
 48
0.3
100
AcDbPoint
 10
6.866641485505404
 20
2.768862552132028
 30
0.0
  0
ENDBLK
  5
18C
330
17F
100
AcDbEntity
  8
0
 48
0.3
100
AcDbBlockEnd
  0
BLOCK
  5
1C5
330
1B9
100
AcDbEntity
  8
0
 48
0.3
100
AcDbBlockBegin
  2
*D4
 70
     1
 10
0.0
 20
0.0
 30
0.0
  3
*D4
  1

  0
LINE
  5
362
330
1B9
100
AcDbEntity
  8
0
 62
     0
 48
0.3
370
    -2
100
AcDbLine
 10
1.162704074332253
 20
0.5188625521320298
 30
0.0
 11
-0.1311489145123298
 21
0.5188625521320302
 31
0.0
  0
LINE
  5
363
330
1B9
100
AcDbEntity
  8
0
 62
     0
 48
0.3
370
    -2
100
AcDbLine
 10
2.224704074332254
 20
1.169862552132027
 30
0.0
 11
-0.1311489145123297
 21
1.169862552132028
 31
0.0
  0
LINE
  5
364
330
1B9
100
AcDbEntity
  8
0
 62
     0
 48
0.3
370
    -2
100
AcDbLine
 10
0.0488510854876702
 20
0.3938625521320302
 30
0.0
 11
0.0488510854876701
 21
0.2688625521320302
 31
0.0
  0
LINE
  5
365
330
1B9
100
AcDbEntity
  8
0
 62
     0
 48
0.3
370
    -2
100
AcDbLine
 10
0.0488510854876704
 20
1.294862552132028
 30
0.0
 11
0.0488510854876704
 21
1.419862552132028
 31
0.0
  0
SOLID
  5
366
330
1B9
100
AcDbEntity
  8
0
 62
     0
 48
0.3
100
AcDbTrace
 10
0.0280177521543368
 20
0.3938625521320302
 30
0.0
 11
0.0696844188210035
 21
0.3938625521320302
 31
0.0
 12
0.0488510854876702
 22
0.5188625521320302
 32
0.0
 13
0.0488510854876702
 23
0.5188625521320302
 33
0.0
  0
SOLID
  5
367
330
1B9
100
AcDbEntity
  8
0
 62
     0
 48
0.3
100
AcDbTrace
 10
0.028017752154337
 20
1.294862552132028
 30
0.0
 11
0.0696844188210037
 21
1.294862552132028
 31
0.0
 12
0.0488510854876703
 22
1.169862552132028
 32
0.0
 13
0.0488510854876703
 23
1.169862552132028
 33
0.0
  0
MTEXT
  5
368
330
1B9
100
AcDbEntity
  8
0
 62
     0
 48
0.3
100
AcDbMText
 10
0.0488510854876701
 20
0.7621692867166492
 30
0.0
 40
0.125
 41
0.0
 71
     5
 72
     1
  1
\A1;0.650
 73
     1
 44
1.0
  0
POINT
  5
369
330
1B9
100
AcDbEntity
  8
Defpoints
 62
     0
 48
0.3
100
AcDbPoint
 10
1.225204074332253
 20
0.5188625521320298
 30
0.0
  0
POINT
  5
36A
330
1B9
100
AcDbEntity
  8
Defpoints
 62
     0
 48
0.3
100
AcDbPoint
 10
2.287204074332254
 20
1.169862552132027
 30
0.0
  0
POINT
  5
36B
330
1B9
100
AcDbEntity
  8
Defpoints
 62
     0
 48
0.3
100
AcDbPoint
 10
0.0488510854876703
 20
1.169862552132028
 30
0.0
  0
ENDBLK
  5
1C6
330
1B9
100
AcDbEntity
  8
0
 48
0.3
100
AcDbBlockEnd
  0
BLOCK
  5
248
330
23D
100
AcDbEntity
  8
0
 48
0.3
100
AcDbBlockBegin
  2
*D5
 70
     1
 10
0.0
 20
0.0
 30
0.0
  3
*D5
  1

  0
LINE
  5
573
330
23D
100
AcDbEntity
  8
0
 62
     0
 48
0.3
370
    -2
100
AcDbLine
 10
2.224704074332254
 20
1.169862552132027
 30
0.0
 11
-0.416058200672915
 21
1.169862552132028
 31
0.0
  0
LINE
  5
574
330
23D
100
AcDbEntity
  8
0
 62
     0
 48
0.3
370
    -2
100
AcDbLine
 10
3.487704074332254
 20
2.468862552132029
 30
0.0
 11
-0.4160582006729147
 21
2.46886255213203
 31
0.0
  0
LINE
  5
575
330
23D
100
AcDbEntity
  8
0
 62
     0
 48
0.3
370
    -2
100
AcDbLine
 10
-0.2360582006729149
 20
1.294862552132028
 30
0.0
 11
-0.2360582006729148
 21
1.666862552132029
 31
0.0
  0
LINE
  5
576
330
23D
100
AcDbEntity
  8
0
 62
     0
 48
0.3
370
    -2
100
AcDbLine
 10
-0.2360582006729146
 20
2.34386255213203
 30
0.0
 11
-0.2360582006729147
 21
1.971862552132029
 31
0.0
  0
SOLID
  5
577
330
23D
100
AcDbEntity
  8
0
 62
     0
 48
0.3
100
AcDbTrace
 10
-0.2568915340062482
 20
1.294862552132028
 30
0.0
 11
-0.2152248673395815
 21
1.294862552132028
 31
0.0
 12
-0.2360582006729149
 22
1.169862552132028
 32
0.0
 13
-0.2360582006729149
 23
1.169862552132028
 33
0.0
  0
SOLID
  5
578
330
23D
100
AcDbEntity
  8
0
 62
     0
 48
0.3
100
AcDbTrace
 10
-0.256891534006248
 20
2.34386255213203
 30
0.0
 11
-0.2152248673395813
 21
2.34386255213203
 31
0.0
 12
-0.2360582006729146
 22
2.46886255213203
 32
0.0
 13
-0.2360582006729146
 23
2.46886255213203
 33
0.0
  0
MTEXT
  5
579
330
23D
100
AcDbEntity
  8
0
 62
     0
 48
0.3
100
AcDbMText
 10
-0.236058200672915
 20
1.819362552132029
 30
0.0
 40
0.125
 41
0.0
 71
     5
 72
     1
  1
\A1;1.300
 73
     1
 44
1.0
  0
POINT
  5
57A
330
23D
100
AcDbEntity
  8
Defpoints
 62
     0
 48
0.3
100
AcDbPoint
 10
2.287204074332254
 20
1.169862552132027
 30
0.0
  0
POINT
  5
57B
330
23D
100
AcDbEntity
  8
Defpoints
 62
     0
 48
0.3
100
AcDbPoint
 10
3.550204074332254
 20
2.468862552132029
 30
0.0
  0
POINT
  5
57C
330
23D
100
AcDbEntity
  8
Defpoints
 62
     0
 48
0.3
100
AcDbPoint
 10
-0.2360582006729146
 20
2.46886255213203
 30
0.0
  0
ENDBLK
  5
249
330
23D
100
AcDbEntity
  8
0
 48
0.3
100
AcDbBlockEnd
  0
BLOCK
  5
294
330
289
100
AcDbEntity
  8
0
 48
0.3
100
AcDbBlockBegin
  2
*D6
 70
     1
 10
0.0
 20
0.0
 30
0.0
  3
*D6
  1

  0
LINE
  5
36C
330
289
100
AcDbEntity
  8
0
 62
     0
 48
0.3
370
    -2
100
AcDbLine
 10
1.225204074332253
 20
0.4563625521320298
 30
0.0
 11
1.225204074332253
 21
0.0864669349417541
 31
0.0
  0
LINE
  5
36D
330
289
100
AcDbEntity
  8
0
 62
     0
 48
0.3
370
    -2
100
AcDbLine
 10
2.287204074332254
 20
1.107362552132027
 30
0.0
 11
2.287204074332254
 21
0.0864669349417542
 31
0.0
  0
LINE
  5
36E
330
289
100
AcDbEntity
  8
0
 62
     0
 48
0.3
370
    -2
100
AcDbLine
 10
1.350204074332253
 20
0.2664669349417541
 30
0.0
 11
1.447454074332254
 21
0.2664669349417541
 31
0.0
  0
LINE
  5
36F
330
289
100
AcDbEntity
  8
0
 62
     0
 48
0.3
370
    -2
100
AcDbLine
 10
2.162204074332254
 20
0.2664669349417541
 30
0.0
 11
2.064954074332253
 21
0.2664669349417541
 31
0.0
  0
SOLID
  5
370
330
289
100
AcDbEntity
  8
0
 62
     0
 48
0.3
100
AcDbTrace
 10
1.350204074332253
 20
0.2873002682750874
 30
0.0
 11
1.350204074332253
 21
0.2456336016084208
 31
0.0
 12
1.225204074332253
 22
0.2664669349417541
 32
0.0
 13
1.225204074332253
 23
0.2664669349417541
 33
0.0
  0
SOLID
  5
371
330
289
100
AcDbEntity
  8
0
 62
     0
 48
0.3
100
AcDbTrace
 10
2.162204074332254
 20
0.2873002682750874
 30
0.0
 11
2.162204074332254
 21
0.2456336016084208
 31
0.0
 12
2.287204074332254
 22
0.2664669349417541
 32
0.0
 13
2.287204074332254
 23
0.2664669349417541
 33
0.0
  0
MTEXT
  5
372
330
289
100
AcDbEntity
  8
0
 62
     0
 48
0.3
100
AcDbMText
 10
1.756204074332254
 20
0.2664669349417541
 30
0.0
 40
0.125
 41
0.0
 71
     5
 72
     1
  1
\A1;1.062
 73
     1
 44
1.0
  0
POINT
  5
373
330
289
100
AcDbEntity
  8
Defpoints
 62
     0
 48
0.3
100
AcDbPoint
 10
1.225204074332253
 20
0.5188625521320298
 30
0.0
  0
POINT
  5
374
330
289
100
AcDbEntity
  8
Defpoints
 62
     0
 48
0.3
100
AcDbPoint
 10
2.287204074332254
 20
1.169862552132027
 30
0.0
  0
POINT
  5
375
330
289
100
AcDbEntity
  8
Defpoints
 62
     0
 48
0.3
100
AcDbPoint
 10
2.287204074332254
 20
0.2664669349417541
 30
0.0
  0
ENDBLK
  5
295
330
289
100
AcDbEntity
  8
0
 48
0.3
100
AcDbBlockEnd
  0
BLOCK
  5
3BE
330
3B3
100
AcDbEntity
  8
0
 48
0.3
100
AcDbBlockBegin
  2
*D7
 70
     1
 10
0.0
 20
0.0
 30
0.0
  3
*D7
  1

  0
LINE
  5
3C1
330
3B3
100
AcDbEntity
  8
0
 62
     0
 48
0.3
370
    -2
100
AcDbLine
 10
5.975204074332253
 20
0.4563625521320298
 30
0.0
 11
5.975204074332253
 21
-0.341806992118727
 31
0.0
  0
LINE
  5
3C2
330
3B3
100
AcDbEntity
  8
0
 62
     0
 48
0.3
370
    -2
100
AcDbLine
 10
1.225204074332253
 20
0.4563625521320298
 30
0.0
 11
1.225204074332253
 21
-0.341806992118727
 31
0.0
  0
LINE
  5
3C3
330
3B3
100
AcDbEntity
  8
0
 62
     0
 48
0.3
370
    -2
100
AcDbLine
 10
5.850204074332253
 20
-0.1618069921187271
 30
0.0
 11
3.929787407665587
 21
-0.1618069921187271
 31
0.0
  0
LINE
  5
3C4
330
3B3
100
AcDbEntity
  8
0
 62
     0
 48
0.3
370
    -2
100
AcDbLine
 10
1.350204074332253
 20
-0.1618069921187271
 30
0.0
 11
3.27062074099892
 21
-0.1618069921187271
 31
0.0
  0
SOLID
  5
3C5
330
3B3
100
AcDbEntity
  8
0
 62
     0
 48
0.3
100
AcDbTrace
 10
5.850204074332253
 20
-0.1409736587853937
 30
0.0
 11
5.850204074332253
 21
-0.1826403254520604
 31
0.0
 12
5.975204074332253
 22
-0.1618069921187271
 32
0.0
 13
5.975204074332253
 23
-0.1618069921187271
 33
0.0
  0
SOLID
  5
3C6
330
3B3
100
AcDbEntity
  8
0
 62
     0
 48
0.3
100
AcDbTrace
 10
1.350204074332253
 20
-0.1409736587853937
 30
0.0
 11
1.350204074332253
 21
-0.1826403254520604
 31
0.0
 12
1.225204074332253
 22
-0.1618069921187271
 32
0.0
 13
1.225204074332253
 23
-0.1618069921187271
 33
0.0
  0
MTEXT
  5
3C7
330
3B3
100
AcDbEntity
  8
0
 62
     0
 48
0.3
100
AcDbMText
 10
3.600204074332253
 20
-0.1618069921187271
 30
0.0
 40
0.125
 41
0.0
 71
     5
 72
     1
  1
\A1;4.750
 73
     1
 44
1.0
  0
POINT
  5
3C8
330
3B3
100
AcDbEntity
  8
Defpoints
 62
     0
 48
0.3
100
AcDbPoint
 10
5.975204074332253
 20
0.5188625521320298
 30
0.0
  0
POINT
  5
3C9
330
3B3
100
AcDbEntity
  8
Defpoints
 62
     0
 48
0.3
100
AcDbPoint
 10
1.225204074332253
 20
0.5188625521320298
 30
0.0
  0
POINT
  5
3CA
330
3B3
100
AcDbEntity
  8
Defpoints
 62
     0
 48
0.3
100
AcDbPoint
 10
1.225204074332253
 20
-0.1618069921187271
 30
0.0
  0
ENDBLK
  5
3BF
330
3B3
100
AcDbEntity
  8
0
 48
0.3
100
AcDbBlockEnd
  0
BLOCK
  5
3D8
330
3CD
100
AcDbEntity
  8
0
 48
0.3
100
AcDbBlockBegin
  2
*D8
 70
     1
 10
0.0
 20
0.0
 30
0.0
  3
*D8
  1

  0
LINE
  5
3DB
330
3CD
100
AcDbEntity
  8
0
 62
     0
 48
0.3
370
    -2
100
AcDbLine
 10
4.859204074332254
 20
1.107362552132027
 30
0.0
 11
4.859204074332254
 21
0.0914121015161944
 31
0.0
  0
LINE
  5
3DC
330
3CD
100
AcDbEntity
  8
0
 62
     0
 48
0.3
370
    -2
100
AcDbLine
 10
5.975204074332253
 20
0.4563625521320298
 30
0.0
 11
5.975204074332253
 21
0.0914121015161943
 31
0.0
  0
LINE
  5
3DD
330
3CD
100
AcDbEntity
  8
0
 62
     0
 48
0.3
370
    -2
100
AcDbLine
 10
4.984204074332254
 20
0.2714121015161943
 30
0.0
 11
5.139704074332254
 21
0.2714121015161943
 31
0.0
  0
LINE
  5
3DE
330
3CD
100
AcDbEntity
  8
0
 62
     0
 48
0.3
370
    -2
100
AcDbLine
 10
5.850204074332253
 20
0.2714121015161943
 30
0.0
 11
5.694704074332253
 21
0.2714121015161943
 31
0.0
  0
SOLID
  5
3DF
330
3CD
100
AcDbEntity
  8
0
 62
     0
 48
0.3
100
AcDbTrace
 10
4.984204074332254
 20
0.2922454348495276
 30
0.0
 11
4.984204074332254
 21
0.250578768182861
 31
0.0
 12
4.859204074332254
 22
0.2714121015161943
 32
0.0
 13
4.859204074332254
 23
0.2714121015161943
 33
0.0
  0
SOLID
  5
3E0
330
3CD
100
AcDbEntity
  8
0
 62
     0
 48
0.3
100
AcDbTrace
 10
5.850204074332253
 20
0.2922454348495276
 30
0.0
 11
5.850204074332253
 21
0.250578768182861
 31
0.0
 12
5.975204074332253
 22
0.2714121015161943
 32
0.0
 13
5.975204074332253
 23
0.2714121015161943
 33
0.0
  0
MTEXT
  5
3E1
330
3CD
100
AcDbEntity
  8
0
 62
     0
 48
0.3
100
AcDbMText
 10
5.417204074332254
 20
0.2714121015161943
 30
0.0
 40
0.125
 41
0.0
 71
     5
 72
     1
  1
\A1;1.116
 73
     1
 44
1.0
  0
POINT
  5
3E2
330
3CD
100
AcDbEntity
  8
Defpoints
 62
     0
 48
0.3
100
AcDbPoint
 10
4.859204074332254
 20
1.169862552132027
 30
0.0
  0
POINT
  5
3E3
330
3CD
100
AcDbEntity
  8
Defpoints
 62
     0
 48
0.3
100
AcDbPoint
 10
5.975204074332253
 20
0.5188625521320298
 30
0.0
  0
POINT
  5
3E4
330
3CD
100
AcDbEntity
  8
Defpoints
 62
     0
 48
0.3
100
AcDbPoint
 10
5.975204074332253
 20
0.2714121015161943
 30
0.0
  0
ENDBLK
  5
3D9
330
3CD
100
AcDbEntity
  8
0
 48
0.3
100
AcDbBlockEnd
  0
BLOCK
  5
3EF
330
3E7
100
AcDbEntity
  8
0
 48
0.3
100
AcDbBlockBegin
  2
*D9
 70
     1
 10
0.0
 20
0.0
 30
0.0
  3
*D9
  1

  0
LINE
  5
3F2
330
3E7
100
AcDbEntity
  8
0
 62
     0
 48
0.3
370
    -2
100
AcDbLine
 10
6.373789130746486
 20
2.281548766058319
 30
0.0
 11
5.293361161754314
 21
2.415882246082566
 31
0.0
  0
MTEXT
  5
3F3
330
3E7
100
AcDbEntity
  8
0
 62
     0
 48
0.3
100
AcDbMText
 10
6.76587246407982
 20
2.281548766058319
 30
0.0
 40
0.125
 41
0.0
 71
     5
 72
     1
  1
\A1;\U+22050.625
 73
     1
 44
1.0
  0
SOLID
  5
3F4
330
3E7
100
AcDbEntity
  8
0
 62
     0
 48
0.3
100
AcDbTrace
 10
5.295931652518574
 20
2.436556393102664
 30
0.0
 11
5.290790670990054
 21
2.395208099062467
 31
0.0
 12
5.169316279633726
 22
2.431305190668126
 32
0.0
 13
5.169316279633726
 23
2.431305190668126
 33
0.0
  0
LINE
  5
3F5
330
3E7
100
AcDbEntity
  8
0
 62
     0
 48
0.3
370
    -2
100
AcDbLine
 10
4.769204074332254
 20
2.469862552132028
 30
0.0
 11
4.949204074332254
 21
2.469862552132028
 31
0.0
  0
LINE
  5
3F6
330
3E7
100
AcDbEntity
  8
0
 62
     0
 48
0.3
370
    -2
100
AcDbLine
 10
4.859204074332255
 20
2.379862552132028
 30
0.0
 11
4.859204074332254
 21
2.559862552132027
 31
0.0
  0
POINT
  5
3F7
330
3E7
100
AcDbEntity
  8
Defpoints
 62
     0
 48
0.3
100
AcDbPoint
 10
5.169316279633726
 20
2.431305190668126
 30
0.0
  0
POINT
  5
3F8
330
3E7
100
AcDbEntity
  8
Defpoints
 62
     0
 48
0.3
100
AcDbPoint
 10
4.549091869030782
 20
2.508419913595929
 30
0.0
  0
ENDBLK
  5
3F0
330
3E7
100
AcDbEntity
  8
0
 48
0.3
100
AcDbBlockEnd
  0
BLOCK
  5
531
330
526
100
AcDbEntity
  8
0
 48
0.3
100
AcDbBlockBegin
  2
*D10
 70
     1
 10
0.0
 20
0.0
 30
0.0
  3
*D10
  1

  0
LINE
  5
534
330
526
100
AcDbEntity
  8
0
 62
     0
 48
0.3
370
    -2
100
AcDbLine
 10
6.037704074332249
 20
6.180524919571616
 30
0.0
 11
7.542663954506466
 21
6.180524919571616
 31
0.0
  0
LINE
  5
535
330
526
100
AcDbEntity
  8
0
 62
     0
 48
0.3
370
    -2
100
AcDbLine
 10
6.037704074332249
 20
4.180524919571616
 30
0.0
 11
7.542663954506465
 21
4.180524919571616
 31
0.0
  0
LINE
  5
536
330
526
100
AcDbEntity
  8
0
 62
     0
 48
0.3
370
    -2
100
AcDbLine
 10
7.362663954506467
 20
6.055524919571616
 30
0.0
 11
7.362663954506466
 21
5.333024919571616
 31
0.0
  0
LINE
  5
537
330
526
100
AcDbEntity
  8
0
 62
     0
 48
0.3
370
    -2
100
AcDbLine
 10
7.362663954506466
 20
4.305524919571616
 30
0.0
 11
7.362663954506466
 21
5.028024919571616
 31
0.0
  0
SOLID
  5
538
330
526
100
AcDbEntity
  8
0
 62
     0
 48
0.3
100
AcDbTrace
 10
7.341830621173134
 20
6.055524919571616
 30
0.0
 11
7.3834972878398
 21
6.055524919571616
 31
0.0
 12
7.362663954506467
 22
6.180524919571616
 32
0.0
 13
7.362663954506467
 23
6.180524919571616
 33
0.0
  0
SOLID
  5
539
330
526
100
AcDbEntity
  8
0
 62
     0
 48
0.3
100
AcDbTrace
 10
7.341830621173133
 20
4.305524919571616
 30
0.0
 11
7.383497287839799
 21
4.305524919571616
 31
0.0
 12
7.362663954506466
 22
4.180524919571616
 32
0.0
 13
7.362663954506466
 23
4.180524919571616
 33
0.0
  0
MTEXT
  5
53A
330
526
100
AcDbEntity
  8
0
 62
     0
 48
0.3
100
AcDbMText
 10
7.362663954506465
 20
5.180524919571617
 30
0.0
 40
0.125
 41
0.0
 71
     5
 72
     1
  1
\A1;2.000
 73
     1
 44
1.0
  0
POINT
  5
53B
330
526
100
AcDbEntity
  8
Defpoints
 62
     0
 48
0.3
100
AcDbPoint
 10
5.975204074332249
 20
6.180524919571617
 30
0.0
  0
POINT
  5
53C
330
526
100
AcDbEntity
  8
Defpoints
 62
     0
 48
0.3
100
AcDbPoint
 10
5.975204074332249
 20
4.180524919571617
 30
0.0
  0
POINT
  5
53D
330
526
100
AcDbEntity
  8
Defpoints
 62
     0
 48
0.3
100
AcDbPoint
 10
7.362663954506466
 20
4.180524919571616
 30
0.0
  0
ENDBLK
  5
532
330
526
100
AcDbEntity
  8
0
 48
0.3
100
AcDbBlockEnd
  0
BLOCK
  5
54B
330
540
100
AcDbEntity
  8
0
 48
0.3
100
AcDbBlockBegin
  2
*D11
 70
     1
 10
0.0
 20
0.0
 30
0.0
  3
*D11
  1

  0
LINE
  5
54E
330
540
100
AcDbEntity
  8
0
 62
     0
 48
0.3
370
    -2
100
AcDbLine
 10
5.462704074332254
 20
3.393862552132029
 30
0.0
 11
7.785545478515765
 21
3.393862552132029
 31
0.0
  0
LINE
  5
54F
330
540
100
AcDbEntity
  8
0
 62
     0
 48
0.3
370
    -2
100
AcDbLine
 10
6.037704074332253
 20
0.5188625521320298
 30
0.0
 11
7.785545478515764
 21
0.5188625521320293
 31
0.0
  0
LINE
  5
550
330
540
100
AcDbEntity
  8
0
 62
     0
 48
0.3
370
    -2
100
AcDbLine
 10
7.605545478515765
 20
3.268862552132029
 30
0.0
 11
7.605545478515765
 21
2.108862552132029
 31
0.0
  0
LINE
  5
551
330
540
100
AcDbEntity
  8
0
 62
     0
 48
0.3
370
    -2
100
AcDbLine
 10
7.605545478515765
 20
0.6438625521320294
 30
0.0
 11
7.605545478515765
 21
1.803862552132029
 31
0.0
  0
SOLID
  5
552
330
540
100
AcDbEntity
  8
0
 62
     0
 48
0.3
100
AcDbTrace
 10
7.584712145182432
 20
3.268862552132029
 30
0.0
 11
7.626378811849098
 21
3.268862552132029
 31
0.0
 12
7.605545478515765
 22
3.393862552132029
 32
0.0
 13
7.605545478515765
 23
3.393862552132029
 33
0.0
  0
SOLID
  5
553
330
540
100
AcDbEntity
  8
0
 62
     0
 48
0.3
100
AcDbTrace
 10
7.584712145182431
 20
0.6438625521320294
 30
0.0
 11
7.626378811849098
 21
0.6438625521320294
 31
0.0
 12
7.605545478515765
 22
0.5188625521320294
 32
0.0
 13
7.605545478515765
 23
0.5188625521320294
 33
0.0
  0
MTEXT
  5
554
330
540
100
AcDbEntity
  8
0
 62
     0
 48
0.3
100
AcDbMText
 10
7.605545478515765
 20
1.95636255213203
 30
0.0
 40
0.125
 41
0.0
 71
     5
 72
     1
  1
\A1;2.875
 73
     1
 44
1.0
  0
POINT
  5
555
330
540
100
AcDbEntity
  8
Defpoints
 62
     0
 48
0.3
100
AcDbPoint
 10
5.400204074332254
 20
3.393862552132029
 30
0.0
  0
POINT
  5
556
330
540
100
AcDbEntity
  8
Defpoints
 62
     0
 48
0.3
100
AcDbPoint
 10
5.975204074332253
 20
0.5188625521320298
 30
0.0
  0
POINT
  5
557
330
540
100
AcDbEntity
  8
Defpoints
 62
     0
 48
0.3
100
AcDbPoint
 10
7.605545478515765
 20
0.5188625521320294
 30
0.0
  0
ENDBLK
  5
54C
330
540
100
AcDbEntity
  8
0
 48
0.3
100
AcDbBlockEnd
  0
BLOCK
  5
5C0
330
5B5
100
AcDbEntity
  8
0
 48
0.3
100
AcDbBlockBegin
  2
*D12
 70
     1
 10
0.0
 20
0.0
 30
0.0
  3
*D12
  1

  0
LINE
  5
5CE
330
5B5
100
AcDbEntity
  8
0
 62
     0
 48
0.3
370
    -2
100
AcDbLine
 10
2.287204074332254
 20
1.107362552132027
 30
0.0
 11
2.287204074332254
 21
0.0968430224654176
 31
0.0
  0
LINE
  5
5CF
330
5B5
100
AcDbEntity
  8
0
 62
     0
 48
0.3
370
    -2
100
AcDbLine
 10
3.573204074332255
 20
2.406362552132029
 30
0.0
 11
3.573204074332255
 21
0.0968430224654173
 31
0.0
  0
LINE
  5
5D0
330
5B5
100
AcDbEntity
  8
0
 62
     0
 48
0.3
370
    -2
100
AcDbLine
 10
2.412204074332254
 20
0.2768430224654175
 30
0.0
 11
2.611037407665588
 21
0.2768430224654175
 31
0.0
  0
LINE
  5
5D1
330
5B5
100
AcDbEntity
  8
0
 62
     0
 48
0.3
370
    -2
100
AcDbLine
 10
3.448204074332255
 20
0.2768430224654175
 30
0.0
 11
3.249370740998921
 21
0.2768430224654175
 31
0.0
  0
SOLID
  5
5D2
330
5B5
100
AcDbEntity
  8
0
 62
     0
 48
0.3
100
AcDbTrace
 10
2.412204074332254
 20
0.2976763557987508
 30
0.0
 11
2.412204074332254
 21
0.2560096891320842
 31
0.0
 12
2.287204074332254
 22
0.2768430224654175
 32
0.0
 13
2.287204074332254
 23
0.2768430224654175
 33
0.0
  0
SOLID
  5
5D3
330
5B5
100
AcDbEntity
  8
0
 62
     0
 48
0.3
100
AcDbTrace
 10
3.448204074332255
 20
0.2976763557987508
 30
0.0
 11
3.448204074332255
 21
0.2560096891320842
 31
0.0
 12
3.573204074332255
 22
0.2768430224654175
 32
0.0
 13
3.573204074332255
 23
0.2768430224654175
 33
0.0
  0
MTEXT
  5
5D4
330
5B5
100
AcDbEntity
  8
0
 62
     0
 48
0.3
100
AcDbMText
 10
2.930204074332254
 20
0.2768430224654175
 30
0.0
 40
0.125
 41
0.0
 71
     5
 72
     1
  1
\A1;1.286
 73
     1
 44
1.0
  0
POINT
  5
5D5
330
5B5
100
AcDbEntity
  8
Defpoints
 62
     0
 48
0.3
100
AcDbPoint
 10
2.287204074332254
 20
1.169862552132027
 30
0.0
  0
POINT
  5
5D6
330
5B5
100
AcDbEntity
  8
Defpoints
 62
     0
 48
0.3
100
AcDbPoint
 10
3.573204074332255
 20
2.468862552132029
 30
0.0
  0
POINT
  5
5D7
330
5B5
100
AcDbEntity
  8
Defpoints
 62
     0
 48
0.3
100
AcDbPoint
 10
3.573204074332255
 20
0.2768430224654175
 30
0.0
  0
ENDBLK
  5
5C1
330
5B5
100
AcDbEntity
  8
0
 48
0.3
100
AcDbBlockEnd
  0
BLOCK
  5
5E4
330
5D9
100
AcDbEntity
  8
0
 48
0.3
100
AcDbBlockBegin
  2
*D13
 70
     1
 10
0.0
 20
0.0
 30
0.0
  3
*D13
  1

  0
LINE
  5
5E7
330
5D9
100
AcDbEntity
  8
0
 62
     0
 48
0.3
370
    -2
100
AcDbLine
 10
3.573204074332255
 20
2.406362552132029
 30
0.0
 11
3.573204074332255
 21
0.0968430224654173
 31
0.0
  0
LINE
  5
5E8
330
5D9
100
AcDbEntity
  8
0
 62
     0
 48
0.3
370
    -2
100
AcDbLine
 10
4.859204074332254
 20
1.107362552132027
 30
0.0
 11
4.859204074332254
 21
0.0968430224654176
 31
0.0
  0
LINE
  5
5E9
330
5D9
100
AcDbEntity
  8
0
 62
     0
 48
0.3
370
    -2
100
AcDbLine
 10
3.698204074332255
 20
0.2768430224654175
 30
0.0
 11
3.897037407665587
 21
0.2768430224654175
 31
0.0
  0
LINE
  5
5EA
330
5D9
100
AcDbEntity
  8
0
 62
     0
 48
0.3
370
    -2
100
AcDbLine
 10
4.734204074332254
 20
0.2768430224654175
 30
0.0
 11
4.535370740998921
 21
0.2768430224654175
 31
0.0
  0
SOLID
  5
5EB
330
5D9
100
AcDbEntity
  8
0
 62
     0
 48
0.3
100
AcDbTrace
 10
3.698204074332255
 20
0.2976763557987508
 30
0.0
 11
3.698204074332255
 21
0.2560096891320842
 31
0.0
 12
3.573204074332255
 22
0.2768430224654175
 32
0.0
 13
3.573204074332255
 23
0.2768430224654175
 33
0.0
  0
SOLID
  5
5EC
330
5D9
100
AcDbEntity
  8
0
 62
     0
 48
0.3
100
AcDbTrace
 10
4.734204074332254
 20
0.2976763557987508
 30
0.0
 11
4.734204074332254
 21
0.2560096891320842
 31
0.0
 12
4.859204074332254
 22
0.2768430224654175
 32
0.0
 13
4.859204074332254
 23
0.2768430224654175
 33
0.0
  0
MTEXT
  5
5ED
330
5D9
100
AcDbEntity
  8
0
 62
     0
 48
0.3
100
AcDbMText
 10
4.216204074332254
 20
0.2768430224654175
 30
0.0
 40
0.125
 41
0.0
 71
     5
 72
     1
  1
\A1;1.286
 73
     1
 44
1.0
  0
POINT
  5
5EE
330
5D9
100
AcDbEntity
  8
Defpoints
 62
     0
 48
0.3
100
AcDbPoint
 10
3.573204074332255
 20
2.468862552132029
 30
0.0
  0
POINT
  5
5EF
330
5D9
100
AcDbEntity
  8
Defpoints
 62
     0
 48
0.3
100
AcDbPoint
 10
4.859204074332254
 20
1.169862552132027
 30
0.0
  0
POINT
  5
5F0
330
5D9
100
AcDbEntity
  8
Defpoints
 62
     0
 48
0.3
100
AcDbPoint
 10
4.859204074332254
 20
0.2768430224654175
 30
0.0
  0
ENDBLK
  5
5E5
330
5D9
100
AcDbEntity
  8
0
 48
0.3
100
AcDbBlockEnd
  0
BLOCK
  5
611
330
608
100
AcDbEntity
  8
0
 48
0.3
100
AcDbBlockBegin
  2
*D14
 70
     1
 10
0.0
 20
0.0
 30
0.0
  3
*D14
  1

  0
LINE
  5
614
330
608
100
AcDbEntity
  8
0
 62
     0
 48
0.3
370
    -2
100
AcDbLine
 10
4.124136507627071
 20
3.739701051047816
 30
0.0
 11
3.999136507627071
 21
3.739701051047816
 31
0.0
  0
LINE
  5
615
330
608
100
AcDbEntity
  8
0
 62
     0
 48
0.3
370
    -2
100
AcDbLine
 10
3.999136507627071
 20
3.739701051047816
 30
0.0
 11
3.771819644437706
 21
3.061464320026529
 31
0.0
  0
MTEXT
  5
616
330
608
100
AcDbEntity
  8
0
 62
     0
 48
0.3
100
AcDbMText
 10
4.474553174293737
 20
3.739701051047816
 30
0.0
 40
0.125
 41
0.0
 71
     5
 72
     1
  1
\A1;\U+22051.000
 73
     1
 44
1.0
  0
SOLID
  5
617
330
608
100
AcDbEntity
  8
0
 62
     0
 48
0.3
100
AcDbTrace
 10
3.752066252174555
 20
3.068084839030044
 30
0.0
 11
3.791573036700856
 21
3.054843801023014
 31
0.0
 12
3.732096530416616
 22
2.942943966447629
 32
0.0
 13
3.732096530416616
 23
2.942943966447629
 33
0.0
  0
LINE
  5
618
330
608
100
AcDbEntity
  8
0
 62
     0
 48
0.3
370
    -2
100
AcDbLine
 10
3.483204074332256
 20
2.468862552132028
 30
0.0
 11
3.663204074332255
 21
2.468862552132029
 31
0.0
  0
LINE
  5
619
330
608
100
AcDbEntity
  8
0
 62
     0
 48
0.3
370
    -2
100
AcDbLine
 10
3.573204074332255
 20
2.378862552132028
 30
0.0
 11
3.573204074332255
 21
2.558862552132028
 31
0.0
  0
POINT
  5
61A
330
608
100
AcDbEntity
  8
Defpoints
 62
     0
 48
0.3
100
AcDbPoint
 10
3.732096530416616
 20
2.942943966447629
 30
0.0
  0
POINT
  5
61B
330
608
100
AcDbEntity
  8
Defpoints
 62
     0
 48
0.3
100
AcDbPoint
 10
3.414311618247895
 20
1.994781137816429
 30
0.0
  0
ENDBLK
  5
612
330
608
100
AcDbEntity
  8
0
 48
0.3
100
AcDbBlockEnd
  0
ENDSEC
  0
SECTION
  2
ENTITIES
  0
VIEWPORT
  5
77
330
58
100
AcDbEntity
 67
     1
  8
0
100
AcDbViewport
 10
4.007920597295804
 20
2.406052355879783
 30
0.0
 40
20.30881329032428
 41
8.721360512554845
 68
     1
 69
     1
 12
4.007920597295804
 22
2.406052355879783
 13
0.0
 23
0.0
 14
0.5
 24
0.5
 15
0.5
 25
0.5
 16
0.0
 26
0.0
 36
1.0
 17
0.0
 27
0.0
 37
0.0
 42
50.0
 43
0.0
 44
0.0
 45
8.721360512554845
 50
0.0
 51
0.0
 72
   100
 90
    32800
  1

281
     0
 71
     1
 74
     0
110
0.0
120
0.0
130
0.0
111
1.0
121
0.0
131
0.0
112
0.0
122
1.0
132
0.0
 79
     0
146
0.0
  0
LWPOLYLINE
  5
86
330
58
100
AcDbEntity
 67
     1
  8
0
100
AcDbPolyline
 90
        4
 70
     1
 43
0.0
 10
-1.439262267973589
 20
6.396855050259421
 10
8.966538218833356
 20
6.396855050259421
 10
8.966538218833356
 20
-1.41285528304607
 10
-1.439262267973589
 20
-1.41285528304607
  0
LINE
  5
8A
330
58
100
AcDbEntity
 67
     1
  8
0
100
AcDbLine
 10
8.966538218833356
 20
-1.41285528304607
 30
0.0
 11
8.966538218833356
 21
-0.4128552830460706
 31
0.0
  0
LINE
  5
8B
330
58
100
AcDbEntity
 67
     1
  8
0
100
AcDbLine
 10
8.966538218833356
 20
-0.4128552830460706
 30
0.0
 11
6.466538218833356
 21
-0.4128552830460703
 31
0.0
  0
LINE
  5
8C
330
58
100
AcDbEntity
 67
     1
  8
0
100
AcDbLine
 10
6.466538218833356
 20
-0.4128552830460703
 30
0.0
 11
4.966538218833356
 21
-0.4128552830460701
 31
0.0
  0
LINE
  5
8D
330
58
100
AcDbEntity
 67
     1
  8
0
100
AcDbLine
 10
4.966538218833356
 20
-0.4128552830460701
 30
0.0
 11
4.966538218833356
 21
-1.41285528304607
 31
0.0
  0
LINE
  5
8E
330
58
100
AcDbEntity
 67
     1
  8
0
100
AcDbLine
 10
6.466538218833356
 20
-0.4128552830460703
 30
0.0
 11
6.466538218833356
 21
-1.40425062323316
 31
0.0
  0
MTEXT
  5
8F
330
58
100
AcDbEntity
 67
     1
  8
0
100
AcDbMText
 10
5.02064872125895
 20
-0.5532836662080878
 30
0.0
 40
0.1
 41
1.5
 71
     1
 72
     5
  1
  Tolerances\P.XXXX = +/- .001\P.XXX  = +/- .005\P.XX   = +/- .015
 73
     1
 44
1.0
  0
MTEXT
  5
AA
330
58
100
AcDbEntity
 67
     1
  8
0
 48
0.3
100
AcDbMText
 10
6.688767870543038
 20
-0.5779304272488833
 30
0.0
 40
0.1
 41
2.5
 71
     1
 72
     5
  1
G0704 Y Axis Extension\PColumn Spacer rev b\PDaniel E. Kemp\P{\fArial|b0|i0|c0|p32;\H1.625x;©\fMS Shell Dlg|b0|i0|c0|p32;\H0.6538x; }03-12-2011
 73
     1
 44
1.0
  0
MTEXT
  5
AC
330
58
100
AcDbEntity
 67
     1
  8
0
 48
0.3
100
AcDbMText
 10
-0.8330378939457148
 20
-0.9104262006358538
 30
0.0
 40
0.1625
 41
9.997099999999999
 71
     1
 72
     5
  1
{\fArial|b0|i0|c0|p32;© Daniel E. Kemp 2011}
 73
     1
 44
1.0
  0
LINE
  5
C9
102
{ACAD_REACTORS
330
163
102
}
330
58
100
AcDbEntity
 67
     1
  8
0
 48
0.3
100
AcDbLine
 10
1.225204074332254
 20
2.768862552132029
 30
0.0
 11
1.225204074332253
 21
0.5188625521320298
 31
0.0
  0
LINE
  5
CA
330
58
100
AcDbEntity
 67
     1
  8
0
 48
0.3
100
AcDbLine
 10
1.925204074332254
 20
2.768862552132029
 30
0.0
 11
1.225204074332254
 21
2.768862552132029
 31
0.0
  0
LINE
  5
CB
102
{ACAD_REACTORS
330
163
102
}
330
58
100
AcDbEntity
 67
     1
  8
0
 48
0.3
100
AcDbLine
 10
1.925204074332254
 20
3.393862552132029
 30
0.0
 11
1.925204074332254
 21
2.768862552132029
 31
0.0
  0
LINE
  5
CC
330
58
100
AcDbEntity
 67
     1
  8
0
 48
0.3
100
AcDbLine
 10
3.550204074332254
 20
3.393862552132029
 30
0.0
 11
1.925204074332254
 21
3.393862552132029
 31
0.0
  0
LINE
  5
CD
102
{ACAD_REACTORS
330
199
330
558
102
}
330
58
100
AcDbEntity
 67
     1
  8
0
 48
0.3
100
AcDbLine
 10
3.550204074332254
 20
3.393862552132029
 30
0.0
 11
5.400204074332254
 21
3.393862552132029
 31
0.0
  0
LINE
  5
CE
330
58
100
AcDbEntity
 67
     1
  8
0
 48
0.3
100
AcDbLine
 10
5.400204074332254
 20
3.393862552132029
 30
0.0
 11
5.400204074332254
 21
2.768862552132029
 31
0.0
  0
LINE
  5
CF
102
{ACAD_REACTORS
330
17D
102
}
330
58
100
AcDbEntity
 67
     1
  8
0
 48
0.3
100
AcDbLine
 10
5.975204074332252
 20
2.768862552132028
 30
0.0
 11
5.400204074332254
 21
2.768862552132029
 31
0.0
  0
LINE
  5
D0
102
{ACAD_REACTORS
330
17D
330
199
102
}
330
58
100
AcDbEntity
 67
     1
  8
0
 48
0.3
100
AcDbLine
 10
5.975204074332253
 20
0.5188625521320298
 30
0.0
 11
5.975204074332252
 21
2.768862552132028
 31
0.0
  0
LINE
  5
D1
102
{ACAD_REACTORS
330
1D3
330
2A1
330
3CB
330
3E5
330
558
102
}
330
58
100
AcDbEntity
 67
     1
  8
0
 48
0.3
100
AcDbLine
 10
1.225204074332253
 20
0.5188625521320298
 30
0.0
 11
5.975204074332253
 21
0.5188625521320298
 31
0.0
  0
LINE
  5
D7
330
58
100
AcDbEntity
 67
     1
  8
0
 48
0.3
100
AcDbLine
 10
1.225204074332255
 20
4.180524919571617
 30
0.0
 11
1.225204074332255
 21
6.180524919571617
 31
0.0
  0
LINE
  5
D8
102
{ACAD_REACTORS
330
53E
102
}
330
58
100
AcDbEntity
 67
     1
  8
0
 48
0.3
100
AcDbLine
 10
1.225204074332255
 20
6.180524919571617
 30
0.0
 11
5.975204074332249
 21
6.180524919571617
 31
0.0
  0
LINE
  5
D9
330
58
100
AcDbEntity
 67
     1
  8
0
 48
0.3
100
AcDbLine
 10
5.975204074332249
 20
6.180524919571617
 30
0.0
 11
5.975204074332249
 21
4.180524919571617
 31
0.0
  0
LINE
  5
DA
102
{ACAD_REACTORS
330
53E
102
}
330
58
100
AcDbEntity
 67
     1
  8
0
 48
0.3
100
AcDbLine
 10
5.975204074332249
 20
4.180524919571617
 30
0.0
 11
1.225204074332255
 21
4.180524919571617
 31
0.0
  0
LINE
  5
DB
330
58
100
AcDbEntity
 67
     1
  8
0
 48
0.3
100
AcDbLine
 10
1.925204074332254
 20
4.180524919571617
 30
0.0
 11
1.925204074332255
 21
6.180524919571617
 31
0.0
  0
LINE
  5
DC
330
58
100
AcDbEntity
 67
     1
  8
0
 48
0.3
100
AcDbLine
 10
5.400204074332254
 20
4.180524919571617
 30
0.0
 11
5.400204074332254
 21
6.180524919571617
 31
0.0
  0
CIRCLE
  5
116
330
58
100
AcDbEntity
 67
     1
  8
0
 48
0.3
100
AcDbCircle
 10
2.287204074332254
 20
2.469862552132028
 30
0.0
 40
0.3125
  0
CIRCLE
  5
117
102
{ACAD_REACTORS
330
3F9
102
}
330
58
100
AcDbEntity
 67
     1
  8
0
 48
0.3
100
AcDbCircle
 10
4.859204074332254
 20
2.469862552132028
 30
0.0
 40
0.3125
  0
CIRCLE
  5
118
102
{ACAD_REACTORS
330
3E5
330
5F1
102
}
330
58
100
AcDbEntity
 67
     1
  8
0
 48
0.3
100
AcDbCircle
 10
4.859204074332254
 20
1.169862552132027
 30
0.0
 40
0.3125
  0
CIRCLE
  5
119
102
{ACAD_REACTORS
330
1D3
330
2A1
330
5CD
102
}
330
58
100
AcDbEntity
 67
     1
  8
0
 48
0.3
100
AcDbCircle
 10
2.287204074332254
 20
1.169862552132027
 30
0.0
 40
0.3125
  0
LINE
  5
125
330
58
100
AcDbEntity
 67
     1
  8
0
  6
HIDDENX2
 48
0.3
100
AcDbLine
 10
1.974704074332254
 20
4.180524919571617
 30
0.0
 11
1.974704074332254
 21
6.180524919571617
 31
0.0
  0
LINE
  5
127
330
58
100
AcDbEntity
 67
     1
  8
0
  6
HIDDENX2
 48
0.3
100
AcDbLine
 10
2.599704074332254
 20
4.180524919571617
 30
0.0
 11
2.599704074332254
 21
6.180524919571617
 31
0.0
  0
DIMENSION
  5
14A
102
{ACAD_XDICTIONARY
360
158
102
}
102
{ACAD_REACTORS
330
163
102
}
330
58
100
AcDbEntity
 67
     1
  8
0
 48
0.3
100
AcDbDimension
  2
*D1
 10
1.925204074332254
 20
3.715659642066214
 30
0.0
 11
1.575204074332254
 21
3.715659642066214
 31
0.0
 70
    32
 71
     5
 42
0.7000000000000002
  3
Standard
100
AcDbAlignedDimension
 13
1.225204074332254
 23
2.768862552132029
 33
0.0
 14
1.925204074332254
 24
2.768862552132029
 34
0.0
100
AcDbRotatedDimension
  0
DIMENSION
  5
164
102
{ACAD_XDICTIONARY
360
172
102
}
102
{ACAD_REACTORS
330
17D
102
}
330
58
100
AcDbEntity
 67
     1
  8
0
 48
0.3
100
AcDbDimension
  2
*D2
 10
5.975204074332252
 20
3.715659642066214
 30
0.0
 11
6.429787407665585
 21
3.715659642066214
 31
0.0
 70
    32
 71
     5
 42
0.5749999999999976
  3
Standard
100
AcDbAlignedDimension
 13
5.400204074332254
 23
2.768862552132029
 33
0.0
 14
5.975204074332252
 24
2.768862552132028
 34
0.0
100
AcDbRotatedDimension
  0
DIMENSION
  5
17E
102
{ACAD_XDICTIONARY
360
18D
102
}
102
{ACAD_REACTORS
330
199
102
}
330
58
100
AcDbEntity
 67
     1
  8
0
 48
0.3
100
AcDbDimension
  2
*D3
 10
6.866641485505404
 20
2.768862552132028
 30
0.0
 11
6.866641485505403
 21
3.055133131434153
 31
0.0
 70
   160
 71
     5
 42
0.6250000000000018
  3
Standard
100
AcDbAlignedDimension
 13
5.400204074332254
 23
3.393862552132029
 33
0.0
 14
5.975204074332252
 24
2.768862552132028
 34
0.0
 50
90.0
100
AcDbRotatedDimension
  0
DIMENSION
  5
1B8
102
{ACAD_XDICTIONARY
360
1C7
102
}
102
{ACAD_REACTORS
330
1D3
102
}
330
58
100
AcDbEntity
 67
     1
  8
0
 48
0.3
100
AcDbDimension
  2
*D4
 10
0.0488510854876703
 20
1.169862552132028
 30
0.0
 11
0.0488510854876701
 21
0.7621692867166492
 31
0.0
 70
   160
  1
0.650
 71
     5
 42
0.6509999999999982
  3
Standard
100
AcDbAlignedDimension
 13
1.225204074332253
 23
0.5188625521320298
 33
0.0
 14
2.287204074332254
 24
1.169862552132027
 34
0.0
 50
90.0
100
AcDbRotatedDimension
  0
DIMENSION
  5
23C
330
58
100
AcDbEntity
 67
     1
  8
0
 48
0.3
100
AcDbDimension
  2
*D5
 10
-0.2360582006729146
 20
2.46886255213203
 30
0.0
 11
-0.236058200672915
 21
1.819362552132029
 31
0.0
 70
    32
  1
1.300
 71
     5
 42
1.299000000000001
  3
Standard
100
AcDbAlignedDimension
 13
2.287204074332254
 23
1.169862552132027
 33
0.0
 14
3.550204074332254
 24
2.468862552132029
 34
0.0
 50
90.0
100
AcDbRotatedDimension
  0
DIMENSION
  5
288
102
{ACAD_XDICTIONARY
360
296
102
}
102
{ACAD_REACTORS
330
2A1
102
}
330
58
100
AcDbEntity
 67
     1
  8
0
 48
0.3
100
AcDbDimension
  2
*D6
 10
2.287204074332254
 20
0.2664669349417541
 30
0.0
 11
1.756204074332254
 21
0.2664669349417541
 31
0.0
 70
    32
 71
     5
 42
1.062
  3
Standard
100
AcDbAlignedDimension
 13
1.225204074332253
 23
0.5188625521320298
 33
0.0
 14
2.287204074332254
 24
1.169862552132027
 34
0.0
100
AcDbRotatedDimension
  0
DIMENSION
  5
3B2
102
{ACAD_XDICTIONARY
360
3C0
102
}
102
{ACAD_REACTORS
330
3CB
102
}
330
58
100
AcDbEntity
 67
     1
  8
0
 48
0.3
100
AcDbDimension
  2
*D7
 10
1.225204074332253
 20
-0.1618069921187271
 30
0.0
 11
3.600204074332253
 21
-0.1618069921187271
 31
0.0
 70
    32
 71
     5
 42
4.75
  3
Standard
100
AcDbAlignedDimension
 13
5.975204074332253
 23
0.5188625521320298
 33
0.0
 14
1.225204074332253
 24
0.5188625521320298
 34
0.0
100
AcDbRotatedDimension
  0
DIMENSION
  5
3CC
102
{ACAD_XDICTIONARY
360
3DA
102
}
102
{ACAD_REACTORS
330
3E5
102
}
330
58
100
AcDbEntity
 67
     1
  8
0
 48
0.3
100
AcDbDimension
  2
*D8
 10
5.975204074332253
 20
0.2714121015161943
 30
0.0
 11
5.417204074332254
 21
0.2714121015161943
 31
0.0
 70
    32
 71
     5
 42
1.115999999999999
  3
Standard
100
AcDbAlignedDimension
 13
4.859204074332254
 23
1.169862552132027
 33
0.0
 14
5.975204074332253
 24
0.5188625521320298
 34
0.0
100
AcDbRotatedDimension
  0
DIMENSION
  5
3E6
102
{ACAD_XDICTIONARY
360
3F1
102
}
102
{ACAD_REACTORS
330
3F9
102
}
330
58
100
AcDbEntity
 67
     1
  8
0
 48
0.3
100
AcDbDimension
  2
*D9
 10
4.549091869030782
 20
2.508419913595929
 30
0.0
 11
6.373789130746486
 21
2.281548766058319
 31
0.0
 70
   163
 71
     5
 42
0.6250000000000009
  3
Standard
100
AcDbDiametricDimension
 15
5.169316279633726
 25
2.431305190668126
 35
0.0
 40
0.0
1001
ACAD
1000
DSTYLE
1002
{
1070
   288
1070
     1
1002
}
  0
DIMENSION
  5
525
102
{ACAD_XDICTIONARY
360
533
102
}
102
{ACAD_REACTORS
330
53E
102
}
330
58
100
AcDbEntity
 67
     1
  8
0
 48
0.3
100
AcDbDimension
  2
*D10
 10
7.362663954506466
 20
4.180524919571616
 30
0.0
 11
7.362663954506465
 21
5.180524919571617
 31
0.0
 70
    32
 71
     5
 42
2.0
  3
Standard
100
AcDbAlignedDimension
 13
5.975204074332249
 23
6.180524919571617
 33
0.0
 14
5.975204074332249
 24
4.180524919571617
 34
0.0
 50
90.0
100
AcDbRotatedDimension
  0
DIMENSION
  5
53F
102
{ACAD_XDICTIONARY
360
54D
102
}
102
{ACAD_REACTORS
330
558
102
}
330
58
100
AcDbEntity
 67
     1
  8
0
 48
0.3
100
AcDbDimension
  2
*D11
 10
7.605545478515765
 20
0.5188625521320294
 30
0.0
 11
7.605545478515765
 21
1.95636255213203
 31
0.0
 70
    32
 71
     5
 42
2.875
  3
Standard
100
AcDbAlignedDimension
 13
5.400204074332254
 23
3.393862552132029
 33
0.0
 14
5.975204074332253
 24
0.5188625521320298
 34
0.0
 50
90.0
100
AcDbRotatedDimension
  0
CIRCLE
  5
55E
102
{ACAD_REACTORS
330
5CD
330
5F1
330
61C
102
}
330
58
100
AcDbEntity
 67
     1
  8
0
 48
0.3
100
AcDbCircle
 10
3.573204074332255
 20
2.468862552132029
 30
0.0
 40
0.5
  0
LINE
  5
57D
330
58
100
AcDbEntity
 67
     1
  8
0
  6
HIDDENX2
 48
0.3
100
AcDbLine
 10
3.050204074332254
 20
4.180524919571617
 30
0.0
 11
3.050204074332254
 21
6.180524919571617
 31
0.0
  0
LINE
  5
57F
330
58
100
AcDbEntity
 67
     1
  8
0
  6
HIDDENX2
 48
0.3
100
AcDbLine
 10
4.050204074332254
 20
4.180524919571617
 30
0.0
 11
4.050204074332254
 21
6.180524919571617
 31
0.0
  0
DIMENSION
  5
5B4
102
{ACAD_XDICTIONARY
360
5C2
102
}
102
{ACAD_REACTORS
330
5CD
102
}
330
58
100
AcDbEntity
 67
     1
  8
0
 48
0.3
100
AcDbDimension
  2
*D12
 10
3.573204074332255
 20
0.2768430224654175
 30
0.0
 11
2.930204074332254
 21
0.2768430224654175
 31
0.0
 70
    32
 71
     5
 42
1.286
  3
Standard
100
AcDbAlignedDimension
 13
2.287204074332254
 23
1.169862552132027
 33
0.0
 14
3.573204074332255
 24
2.468862552132029
 34
0.0
100
AcDbRotatedDimension
  0
DIMENSION
  5
5D8
102
{ACAD_XDICTIONARY
360
5E6
102
}
102
{ACAD_REACTORS
330
5F1
102
}
330
58
100
AcDbEntity
 67
     1
  8
0
 48
0.3
100
AcDbDimension
  2
*D13
 10
4.859204074332254
 20
0.2768430224654175
 30
0.0
 11
4.216204074332254
 21
0.2768430224654175
 31
0.0
 70
    32
 71
     5
 42
1.285999999999999
  3
Standard
100
AcDbAlignedDimension
 13
3.573204074332255
 23
2.468862552132029
 33
0.0
 14
4.859204074332254
 24
1.169862552132027
 34
0.0
100
AcDbRotatedDimension
  0
DIMENSION
  5
607
102
{ACAD_XDICTIONARY
360
613
102
}
102
{ACAD_REACTORS
330
61C
102
}
330
58
100
AcDbEntity
 67
     1
  8
0
 48
0.3
100
AcDbDimension
  2
*D14
 10
3.414311618247895
 20
1.994781137816429
 30
0.0
 11
4.474553174293737
 21
3.739701051047816
 31
0.0
 70
   163
 71
     5
 42
1.0
  3
Standard
100
AcDbDiametricDimension
 15
3.732096530416616
 25
2.942943966447629
 35
0.0
 40
0.0
1001
ACAD
1000
DSTYLE
1002
{
1070
   288
1070
     1
1002
}
  0
ENDSEC
  0
SECTION
  2
OBJECTS
  0
DICTIONARY
  5
C
330
0
100
AcDbDictionary
281
     1
  3
ACAD_GROUP
350
D
  3
ACAD_LAYOUT
350
1A
  3
ACAD_MLINESTYLE
350
17
  3
ACAD_PLOTSETTINGS
350
19
  3
ACAD_PLOTSTYLENAME
350
E
  3
AcDbVariableDictionary
350
66
  0
DICTIONARY
  5
158
330
14A
100
AcDbDictionary
280
     1
281
     1
  3
ACAD_DIMASSOC
360
163
  0
DICTIONARY
  5
172
330
164
100
AcDbDictionary
280
     1
281
     1
  3
ACAD_DIMASSOC
360
17D
  0
DICTIONARY
  5
18D
330
17E
100
AcDbDictionary
280
     1
281
     1
  3
ACAD_DIMASSOC
360
199
  0
DICTIONARY
  5
1C7
330
1B8
100
AcDbDictionary
280
     1
281
     1
  3
ACAD_DIMASSOC
360
1D3
  0
DICTIONARY
  5
296
330
288
100
AcDbDictionary
280
     1
281
     1
  3
ACAD_DIMASSOC
360
2A1
  0
DICTIONARY
  5
3C0
330
3B2
100
AcDbDictionary
280
     1
281
     1
  3
ACAD_DIMASSOC
360
3CB
  0
DICTIONARY
  5
3DA
330
3CC
100
AcDbDictionary
280
     1
281
     1
  3
ACAD_DIMASSOC
360
3E5
  0
DICTIONARY
  5
3F1
330
3E6
100
AcDbDictionary
280
     1
281
     1
  3
ACAD_DIMASSOC
360
3F9
  0
DICTIONARY
  5
533
330
525
100
AcDbDictionary
280
     1
281
     1
  3
ACAD_DIMASSOC
360
53E
  0
DICTIONARY
  5
54D
330
53F
100
AcDbDictionary
280
     1
281
     1
  3
ACAD_DIMASSOC
360
558
  0
DICTIONARY
  5
5C2
330
5B4
100
AcDbDictionary
280
     1
281
     1
  3
ACAD_DIMASSOC
360
5CD
  0
DICTIONARY
  5
5E6
330
5D8
100
AcDbDictionary
280
     1
281
     1
  3
ACAD_DIMASSOC
360
5F1
  0
DICTIONARY
  5
613
330
607
100
AcDbDictionary
280
     1
281
     1
  3
ACAD_DIMASSOC
360
61C
  0
DICTIONARY
  5
D
102
{ACAD_REACTORS
330
C
102
}
330
C
100
AcDbDictionary
281
     1
  0
DICTIONARY
  5
1A
102
{ACAD_REACTORS
330
C
102
}
330
C
100
AcDbDictionary
281
     1
  3
Layout1
350
59
  3
Layout2
350
5E
  3
Model
350
22
  0
DICTIONARY
  5
17
102
{ACAD_REACTORS
330
C
102
}
330
C
100
AcDbDictionary
281
     1
  3
Standard
350
18
  0
DICTIONARY
  5
19
102
{ACAD_REACTORS
330
C
102
}
330
C
100
AcDbDictionary
281
     1
  0
ACDBDICTIONARYWDFLT
  5
E
102
{ACAD_REACTORS
330
C
102
}
330
C
100
AcDbDictionary
281
     1
  3
Normal
350
F
100
AcDbDictionaryWithDefault
340
F
  0
DICTIONARY
  5
66
102
{ACAD_REACTORS
330
C
102
}
330
C
100
AcDbDictionary
281
     1
  3
DIMASSOC
350
67
  3
HIDETEXT
350
6B
  0
DIMASSOC
  5
163
102
{ACAD_REACTORS
330
158
102
}
330
158
100
AcDbDimAssoc
330
14A
 90
        3
 70
     0
 71
     0
  1
AcDbOsnapPointRef
 72
    13
331
C9
 73
     2
 91
        0
 40
0.0
 10
1.225204074332254
 20
2.768862552132029
 30
0.0
 75
     0
  1
AcDbOsnapPointRef
 72
     1
331
CB
 73
     2
 91
        0
 40
1.0
 10
1.925204074332254
 20
2.768862552132029
 30
0.0
 75
     0
  0
DIMASSOC
  5
17D
102
{ACAD_REACTORS
330
172
102
}
330
172
100
AcDbDimAssoc
330
164
 90
        3
 70
     0
 71
     0
  1
AcDbOsnapPointRef
 72
     1
331
CF
 73
     2
 91
        0
 40
1.0
 10
5.400204074332254
 20
2.768862552132029
 30
0.0
 75
     0
  1
AcDbOsnapPointRef
 72
     1
331
D0
 73
     2
 91
        0
 40
1.0
 10
5.975204074332252
 20
2.768862552132028
 30
0.0
 75
     0
  0
DIMASSOC
  5
199
102
{ACAD_REACTORS
330
18D
102
}
330
18D
100
AcDbDimAssoc
330
17E
 90
        3
 70
     0
 71
     0
  1
AcDbOsnapPointRef
 72
     1
331
CD
 73
     2
 91
        0
 40
1.0
 10
5.400204074332254
 20
3.393862552132029
 30
0.0
 75
     0
  1
AcDbOsnapPointRef
 72
     1
331
D0
 73
     2
 91
        0
 40
1.0
 10
5.975204074332252
 20
2.768862552132028
 30
0.0
 75
     0
  0
DIMASSOC
  5
1D3
102
{ACAD_REACTORS
330
1C7
102
}
330
1C7
100
AcDbDimAssoc
330
1B8
 90
        3
 70
     0
 71
     0
  1
AcDbOsnapPointRef
 72
    13
331
D1
 73
     2
 91
        0
 40
0.0
 10
1.225204074332253
 20
0.5188625521320298
 30
0.0
 75
     0
  1
AcDbOsnapPointRef
 72
     3
331
119
 73
     2
 91
        0
 40
0.0
 10
2.287204074332254
 20
1.169862552132027
 30
0.0
 75
     0
  0
DIMASSOC
  5
2A1
102
{ACAD_REACTORS
330
296
102
}
330
296
100
AcDbDimAssoc
330
288
 90
        3
 70
     0
 71
     0
  1
AcDbOsnapPointRef
 72
    13
331
D1
 73
     2
 91
        0
 40
0.0
 10
1.225204074332253
 20
0.5188625521320298
 30
0.0
 75
     0
  1
AcDbOsnapPointRef
 72
     3
331
119
 73
     2
 91
        0
 40
0.0
 10
2.287204074332254
 20
1.169862552132027
 30
0.0
 75
     0
  0
DIMASSOC
  5
3CB
102
{ACAD_REACTORS
330
3C0
102
}
330
3C0
100
AcDbDimAssoc
330
3B2
 90
        3
 70
     0
 71
     0
  1
AcDbOsnapPointRef
 72
     1
331
D1
 73
     2
 91
        0
 40
1.0
 10
5.975204074332253
 20
0.5188625521320298
 30
0.0
 75
     0
  1
AcDbOsnapPointRef
 72
    13
331
D1
 73
     2
 91
        0
 40
0.0
 10
1.225204074332253
 20
0.5188625521320298
 30
0.0
 75
     0
  0
DIMASSOC
  5
3E5
102
{ACAD_REACTORS
330
3DA
102
}
330
3DA
100
AcDbDimAssoc
330
3CC
 90
        3
 70
     0
 71
     0
  1
AcDbOsnapPointRef
 72
     3
331
118
 73
     2
 91
        0
 40
0.0
 10
4.859204074332254
 20
1.169862552132027
 30
0.0
 75
     0
  1
AcDbOsnapPointRef
 72
     1
331
D1
 73
     2
 91
        0
 40
1.0
 10
5.975204074332253
 20
0.5188625521320298
 30
0.0
 75
     0
  0
DIMASSOC
  5
3F9
102
{ACAD_REACTORS
330
3F1
102
}
330
3F1
100
AcDbDimAssoc
330
3E6
 90
        2
 70
     0
 71
     0
  1
AcDbOsnapPointRef
 72
     3
331
117
 73
     2
 91
        0
 40
0.0
 10
0.0
 20
0.0
 30
0.0
 75
     0
  0
DIMASSOC
  5
53E
102
{ACAD_REACTORS
330
533
102
}
330
533
100
AcDbDimAssoc
330
525
 90
        3
 70
     0
 71
     0
  1
AcDbOsnapPointRef
 72
     1
331
D8
 73
     2
 91
        0
 40
1.0
 10
5.975204074332249
 20
6.180524919571617
 30
0.0
 75
     0
  1
AcDbOsnapPointRef
 72
    13
331
DA
 73
     2
 91
        0
 40
0.0
 10
5.975204074332249
 20
4.180524919571617
 30
0.0
 75
     0
  0
DIMASSOC
  5
558
102
{ACAD_REACTORS
330
54D
102
}
330
54D
100
AcDbDimAssoc
330
53F
 90
        3
 70
     0
 71
     0
  1
AcDbOsnapPointRef
 72
     1
331
CD
 73
     2
 91
        0
 40
1.0
 10
5.400204074332254
 20
3.393862552132029
 30
0.0
 75
     0
  1
AcDbOsnapPointRef
 72
     1
331
D1
 73
     2
 91
        0
 40
1.0
 10
5.975204074332253
 20
0.5188625521320298
 30
0.0
 75
     0
  0
DIMASSOC
  5
5CD
102
{ACAD_REACTORS
330
5C2
102
}
330
5C2
100
AcDbDimAssoc
330
5B4
 90
        3
 70
     0
 71
     0
  1
AcDbOsnapPointRef
 72
     3
331
119
 73
     2
 91
        0
 40
0.0
 10
2.287204074332254
 20
1.169862552132027
 30
0.0
 75
     0
  1
AcDbOsnapPointRef
 72
     3
331
55E
 73
     2
 91
        0
 40
0.0
 10
3.573204074332255
 20
2.468862552132029
 30
0.0
 75
     0
  0
DIMASSOC
  5
5F1
102
{ACAD_REACTORS
330
5E6
102
}
330
5E6
100
AcDbDimAssoc
330
5D8
 90
        3
 70
     0
 71
     0
  1
AcDbOsnapPointRef
 72
     3
331
55E
 73
     2
 91
        0
 40
0.0
 10
3.573204074332255
 20
2.468862552132029
 30
0.0
 75
     0
  1
AcDbOsnapPointRef
 72
     3
331
118
 73
     2
 91
        0
 40
0.0
 10
4.859204074332254
 20
1.169862552132027
 30
0.0
 75
     0
  0
DIMASSOC
  5
61C
102
{ACAD_REACTORS
330
613
102
}
330
613
100
AcDbDimAssoc
330
607
 90
        2
 70
     0
 71
     0
  1
AcDbOsnapPointRef
 72
     3
331
55E
 73
     2
 91
        0
 40
0.0
 10
0.0
 20
0.0
 30
0.0
 75
     0
  0
LAYOUT
  5
59
102
{ACAD_REACTORS
330
1A
102
}
330
1A
100
AcDbPlotSettings
  1

  2
none_device
  4
Letter_(8.50_x_11.00_Inches)
  6

 40
6.349999904632568
 41
6.349999904632568
 42
6.350006103515625
 43
6.350006103515625
 44
215.8999938964843
 45
279.3999938964843
 46
38.3032
 47
38.15079999999999
 48
0.0
 49
0.0
140
0.0
141
0.0
142
1.0
143
1.0
 70
   688
 72
     0
 73
     1
 74
     5
  7

 75
    16
147
1.0
148
0.0
149
0.0
100
AcDbLayout
  1
Layout1
 70
     1
 71
     1
 10
-1.75200024029589
 20
-1.757999996245376
 11
9.247999519408217
 21
6.741999763458731
 12
0.0
 22
0.0
 32
0.0
 14
-1.439262267973589
 24
-1.41285528304607
 34
0.0
 15
8.966538218833356
 25
6.396855050259421
 35
0.0
146
0.0
 13
0.0
 23
0.0
 33
0.0
 16
1.0
 26
0.0
 36
0.0
 17
0.0
 27
1.0
 37
0.0
 76
     0
330
58
331
77
  0
LAYOUT
  5
5E
102
{ACAD_REACTORS
330
1A
102
}
330
1A
100
AcDbPlotSettings
  1

  2
None
  4

  6

 40
0.0
 41
0.0
 42
0.0
 43
0.0
 44
0.0
 45
0.0
 46
0.0
 47
0.0
 48
0.0
 49
0.0
140
0.0
141
0.0
142
1.0
143
1.0
 70
   688
 72
     0
 73
     0
 74
     5
  7

 75
    16
147
1.0
148
0.0
149
0.0
100
AcDbLayout
  1
Layout2
 70
     1
 71
     2
 10
0.0
 20
0.0
 11
12.0
 21
9.0
 12
0.0
 22
0.0
 32
0.0
 14
0.0
 24
0.0
 34
0.0
 15
0.0
 25
0.0
 35
0.0
146
0.0
 13
0.0
 23
0.0
 33
0.0
 16
1.0
 26
0.0
 36
0.0
 17
0.0
 27
1.0
 37
0.0
 76
     0
330
5D
  0
LAYOUT
  5
22
102
{ACAD_REACTORS
330
1A
102
}
330
1A
100
AcDbPlotSettings
  1

  2
none_device
  4
ANSI_A_(8.50_x_11.00_Inches)
  6

 40
6.349999904632568
 41
19.04999923706054
 42
6.350006103515625
 43
19.04998779296875
 44
215.8999938964843
 45
279.3999938964843
 46
0.0
 47
0.0
 48
0.0
 49
0.0
140
0.0
141
0.0
142
1.0
143
2.584895464708373
 70
 11952
 72
     0
 73
     1
 74
     0
  7

 75
     0
147
0.3868628397755418
148
0.0
149
0.0
100
AcDbLayout
  1
Model
 70
     1
 71
     0
 10
0.0
 20
0.0
 11
12.0
 21
9.0
 12
0.0
 22
0.0
 32
0.0
 14
0.0
 24
0.0
 34
0.0
 15
0.0
 25
0.0
 35
0.0
146
0.0
 13
0.0
 23
0.0
 33
0.0
 16
1.0
 26
0.0
 36
0.0
 17
0.0
 27
1.0
 37
0.0
 76
     0
330
1F
  0
MLINESTYLE
  5
18
102
{ACAD_REACTORS
330
17
102
}
330
17
100
AcDbMlineStyle
  2
STANDARD
 70
     0
  3

 62
   256
 51
90.0
 52
90.0
 71
     2
 49
0.5
 62
   256
  6
BYLAYER
 49
-0.5
 62
   256
  6
BYLAYER
  0
ACDBPLACEHOLDER
  5
F
102
{ACAD_REACTORS
330
E
102
}
330
E
  0
DICTIONARYVAR
  5
67
102
{ACAD_REACTORS
330
66
102
}
330
66
100
DictionaryVariables
280
     0
  1
2
  0
DICTIONARYVAR
  5
6B
102
{ACAD_REACTORS
330
66
102
}
330
66
100
DictionaryVariables
280
     0
  1
1
  0
ENDSEC
  0
EOF
