  0
SECTION
  2
HEADER
  9
$ACADVER
  1
AC1015
  9
$ACADMAINTVER
 70
    13
  9
$DWGCODEPAGE
  3
ANSI_1252
  9
$INSBASE
 10
0.0
 20
0.0
 30
0.0
  9
$EXTMIN
 10
1.000000000000000E+20
 20
1.000000000000000E+20
 30
1.000000000000000E+20
  9
$EXTMAX
 10
-1.000000000000000E+20
 20
-1.000000000000000E+20
 30
-1.000000000000000E+20
  9
$LIMMIN
 10
0.0
 20
0.0
  9
$LIMMAX
 10
12.0
 20
9.0
  9
$ORTHOMODE
 70
     0
  9
$REGENMODE
 70
     1
  9
$FILLMODE
 70
     1
  9
$QTEXTMODE
 70
     0
  9
$MIRRTEXT
 70
     1
  9
$LTSCALE
 40
0.3
  9
$ATTMODE
 70
     1
  9
$TEXTSIZE
 40
0.2
  9
$TRACEWID
 40
0.05
  9
$TEXTSTYLE
  7
Standard
  9
$CLAYER
  8
0
  9
$CELTYPE
  6
ByLayer
  9
$CECOLOR
 62
   256
  9
$CELTSCALE
 40
0.3
  9
$DISPSILH
 70
     0
  9
$DIMSCALE
 40
1.0
  9
$DIMASZ
 40
0.125
  9
$DIMEXO
 40
0.0625
  9
$DIMDLI
 40
0.38
  9
$DIMRND
 40
0.0
  9
$DIMDLE
 40
0.0
  9
$DIMEXE
 40
0.18
  9
$DIMTP
 40
0.0
  9
$DIMTM
 40
0.0
  9
$DIMTXT
 40
0.125
  9
$DIMCEN
 40
0.09
  9
$DIMTSZ
 40
0.0
  9
$DIMTOL
 70
     0
  9
$DIMLIM
 70
     0
  9
$DIMTIH
 70
     1
  9
$DIMTOH
 70
     1
  9
$DIMSE1
 70
     0
  9
$DIMSE2
 70
     0
  9
$DIMTAD
 70
     0
  9
$DIMZIN
 70
     0
  9
$DIMBLK
  1

  9
$DIMASO
 70
     1
  9
$DIMSHO
 70
     1
  9
$DIMPOST
  1

  9
$DIMAPOST
  1

  9
$DIMALT
 70
     0
  9
$DIMALTD
 70
     2
  9
$DIMALTF
 40
25.4
  9
$DIMLFAC
 40
1.0
  9
$DIMTOFL
 70
     0
  9
$DIMTVP
 40
0.0
  9
$DIMTIX
 70
     0
  9
$DIMSOXD
 70
     0
  9
$DIMSAH
 70
     0
  9
$DIMBLK1
  1

  9
$DIMBLK2
  1

  9
$DIMSTYLE
  2
Standard
  9
$DIMCLRD
 70
     0
  9
$DIMCLRE
 70
     0
  9
$DIMCLRT
 70
     0
  9
$DIMTFAC
 40
1.0
  9
$DIMGAP
 40
0.09
  9
$DIMJUST
 70
     0
  9
$DIMSD1
 70
     0
  9
$DIMSD2
 70
     0
  9
$DIMTOLJ
 70
     1
  9
$DIMTZIN
 70
     0
  9
$DIMALTZ
 70
     0
  9
$DIMALTTZ
 70
     0
  9
$DIMUPT
 70
     0
  9
$DIMDEC
 70
     3
  9
$DIMTDEC
 70
     3
  9
$DIMALTU
 70
     2
  9
$DIMALTTD
 70
     2
  9
$DIMTXSTY
  7
Standard
  9
$DIMAUNIT
 70
     0
  9
$DIMADEC
 70
     0
  9
$DIMALTRND
 40
0.0
  9
$DIMAZIN
 70
     0
  9
$DIMDSEP
 70
    46
  9
$DIMATFIT
 70
     3
  9
$DIMFRAC
 70
     0
  9
$DIMLDRBLK
  1

  9
$DIMLUNIT
 70
     2
  9
$DIMLWD
 70
    -2
  9
$DIMLWE
 70
    -2
  9
$DIMTMOVE
 70
     0
  9
$LUNITS
 70
     2
  9
$LUPREC
 70
     4
  9
$SKETCHINC
 40
0.1
  9
$FILLETRAD
 40
0.125
  9
$AUNITS
 70
     0
  9
$AUPREC
 70
     0
  9
$MENU
  1
.
  9
$ELEVATION
 40
0.0
  9
$PELEVATION
 40
0.0
  9
$THICKNESS
 40
0.0
  9
$LIMCHECK
 70
     0
  9
$CHAMFERA
 40
0.5
  9
$CHAMFERB
 40
0.5
  9
$CHAMFERC
 40
1.0
  9
$CHAMFERD
 40
0.0
  9
$SKPOLY
 70
     0
  9
$TDCREATE
 40
2454412.621520173
  9
$TDUCREATE
 40
2454412.788186840
  9
$TDUPDATE
 40
2455646.339844467
  9
$TDUUPDATE
 40
2455646.506511134
  9
$TDINDWG
 40
0.4065314005
  9
$TDUSRTIMER
 40
0.4065312153
  9
$USRTIMER
 70
     1
  9
$ANGBASE
 50
0.0
  9
$ANGDIR
 70
     0
  9
$PDMODE
 70
     0
  9
$PDSIZE
 40
0.0
  9
$PLINEWID
 40
0.0
  9
$SPLFRAME
 70
     0
  9
$SPLINETYPE
 70
     6
  9
$SPLINESEGS
 70
     8
  9
$HANDSEED
  5
523
  9
$SURFTAB1
 70
     6
  9
$SURFTAB2
 70
     6
  9
$SURFTYPE
 70
     6
  9
$SURFU
 70
     6
  9
$SURFV
 70
     6
  9
$UCSBASE
  2

  9
$UCSNAME
  2

  9
$UCSORG
 10
0.0
 20
0.0
 30
0.0
  9
$UCSXDIR
 10
1.0
 20
0.0
 30
0.0
  9
$UCSYDIR
 10
0.0
 20
1.0
 30
0.0
  9
$UCSORTHOREF
  2

  9
$UCSORTHOVIEW
 70
     0
  9
$UCSORGTOP
 10
0.0
 20
0.0
 30
0.0
  9
$UCSORGBOTTOM
 10
0.0
 20
0.0
 30
0.0
  9
$UCSORGLEFT
 10
0.0
 20
0.0
 30
0.0
  9
$UCSORGRIGHT
 10
0.0
 20
0.0
 30
0.0
  9
$UCSORGFRONT
 10
0.0
 20
0.0
 30
0.0
  9
$UCSORGBACK
 10
0.0
 20
0.0
 30
0.0
  9
$PUCSBASE
  2

  9
$PUCSNAME
  2

  9
$PUCSORG
 10
0.0
 20
0.0
 30
0.0
  9
$PUCSXDIR
 10
1.0
 20
0.0
 30
0.0
  9
$PUCSYDIR
 10
0.0
 20
1.0
 30
0.0
  9
$PUCSORTHOREF
  2

  9
$PUCSORTHOVIEW
 70
     0
  9
$PUCSORGTOP
 10
0.0
 20
0.0
 30
0.0
  9
$PUCSORGBOTTOM
 10
0.0
 20
0.0
 30
0.0
  9
$PUCSORGLEFT
 10
0.0
 20
0.0
 30
0.0
  9
$PUCSORGRIGHT
 10
0.0
 20
0.0
 30
0.0
  9
$PUCSORGFRONT
 10
0.0
 20
0.0
 30
0.0
  9
$PUCSORGBACK
 10
0.0
 20
0.0
 30
0.0
  9
$USERI1
 70
     0
  9
$USERI2
 70
     0
  9
$USERI3
 70
     0
  9
$USERI4
 70
     0
  9
$USERI5
 70
     0
  9
$USERR1
 40
0.0
  9
$USERR2
 40
0.0
  9
$USERR3
 40
0.0
  9
$USERR4
 40
0.0
  9
$USERR5
 40
0.0
  9
$WORLDVIEW
 70
     1
  9
$SHADEDGE
 70
     3
  9
$SHADEDIF
 70
    70
  9
$TILEMODE
 70
     0
  9
$MAXACTVP
 70
    64
  9
$PINSBASE
 10
0.0
 20
0.0
 30
0.0
  9
$PLIMCHECK
 70
     0
  9
$PEXTMIN
 10
-1.439262267973588
 20
-1.41285528304607
 30
0.0
  9
$PEXTMAX
 10
8.966538218833356
 20
6.396855050259421
 30
0.0
  9
$PLIMMIN
 10
-1.75200024029589
 20
-1.757999996245375
  9
$PLIMMAX
 10
9.247999519408216
 20
6.74199976345873
  9
$UNITMODE
 70
     0
  9
$VISRETAIN
 70
     1
  9
$PLINEGEN
 70
     0
  9
$PSLTSCALE
 70
     1
  9
$TREEDEPTH
 70
  3020
  9
$CMLSTYLE
  2
Standard
  9
$CMLJUST
 70
     0
  9
$CMLSCALE
 40
1.0
  9
$PROXYGRAPHICS
 70
     1
  9
$MEASUREMENT
 70
     0
  9
$CELWEIGHT
370
    -1
  9
$ENDCAPS
280
     0
  9
$JOINSTYLE
280
     0
  9
$LWDISPLAY
290
     0
  9
$INSUNITS
 70
     1
  9
$HYPERLINKBASE
  1

  9
$STYLESHEET
  1

  9
$XEDIT
290
     1
  9
$CEPSNTYPE
380
     0
  9
$PSTYLEMODE
290
     1
  9
$FINGERPRINTGUID
  2
{FDEAD576-A652-11D2-9A35-0060089B3A3F}
  9
$VERSIONGUID
  2
{799181F4-11F5-42A4-A2B5-2728B018CA9F}
  9
$EXTNAMES
290
     1
  9
$PSVPSCALE
 40
0.0
  9
$OLESTARTUP
290
     0
  0
ENDSEC
  0
SECTION
  2
CLASSES
  0
CLASS
  1
ACDBDICTIONARYWDFLT
  2
AcDbDictionaryWithDefault
  3
AutoCAD 2000
 90
        0
280
     0
281
     0
  0
CLASS
  1
ACDBPLACEHOLDER
  2
AcDbPlaceHolder
  3
AutoCAD 2000
 90
        0
280
     0
281
     0
  0
CLASS
  1
LAYOUT
  2
AcDbLayout
  3
AutoCAD 2000
 90
        0
280
     0
281
     0
  0
CLASS
  1
DICTIONARYVAR
  2
AcDbDictionaryVar
  3
AutoCAD 2000
 90
        0
280
     0
281
     0
  0
CLASS
  1
DIMASSOC
  2
AcDbDimAssoc
  3
"AcDbDimAssoc|Product Desc:     AcDim ARX App For Dimension|Company:          Autodesk, Inc.|WEB Address:      www.autodesk.com"
 90
        0
280
     0
281
     0
  0
ENDSEC
  0
SECTION
  2
TABLES
  0
TABLE
  2
VPORT
  5
8
330
0
100
AcDbSymbolTable
 70
     1
  0
VPORT
  5
74
330
8
100
AcDbSymbolTableRecord
100
AcDbViewportTableRecord
  2
*Active
 70
     0
 10
0.0
 20
0.0
 11
1.0
 21
1.0
 12
20.48748698095427
 22
9.784138269231398
 13
0.0
 23
0.0
 14
0.5
 24
0.5
 15
0.5
 25
0.5
 16
0.0
 26
0.0
 36
1.0
 17
0.0
 27
0.0
 37
0.0
 40
19.56827653846278
 41
2.093949044585986
 42
50.0
 43
0.0
 44
0.0
 50
0.0
 51
0.0
 71
     0
 72
   100
 73
     1
 74
     3
 75
     0
 76
     0
 77
     0
 78
     0
281
     0
 65
     1
110
0.0
120
0.0
130
0.0
111
1.0
121
0.0
131
0.0
112
0.0
122
1.0
132
0.0
 79
     0
146
0.0
  0
ENDTAB
  0
TABLE
  2
LTYPE
  5
5
330
0
100
AcDbSymbolTable
 70
     3
  0
LTYPE
  5
14
330
5
100
AcDbSymbolTableRecord
100
AcDbLinetypeTableRecord
  2
ByBlock
 70
     0
  3

 72
    65
 73
     0
 40
0.0
  0
LTYPE
  5
15
330
5
100
AcDbSymbolTableRecord
100
AcDbLinetypeTableRecord
  2
ByLayer
 70
     0
  3

 72
    65
 73
     0
 40
0.0
  0
LTYPE
  5
16
330
5
100
AcDbSymbolTableRecord
100
AcDbLinetypeTableRecord
  2
Continuous
 70
     0
  3
Solid line
 72
    65
 73
     0
 40
0.0
  0
LTYPE
  5
92
330
5
100
AcDbSymbolTableRecord
100
AcDbLinetypeTableRecord
  2
HIDDENX2
 70
     0
  3
Hidden (2x) ____ ____ ____ ____ ____ ____ ____
 72
    65
 73
     2
 40
0.75
 49
0.5
 74
     0
 49
-0.25
 74
     0
  0
LTYPE
  5
93
330
5
100
AcDbSymbolTableRecord
100
AcDbLinetypeTableRecord
  2
threads
 70
     0
  3
Zig zag /\/\/\/\/\/\/\/\/\/\/\/\/\/\/\/\/\/\/\/
 72
    65
 73
     4
 40
0.8001000000000001
 49
0.0001
 74
     0
 49
-0.2
 74
     4
 75
   131
340
91
 46
0.2
 50
0.0
 44
-0.2
 45
0.0
 49
-0.4
 74
     4
 75
   131
340
91
 46
0.2
 50
180.0
 44
0.2
 45
0.0
 49
-0.2
 74
     0
  0
ENDTAB
  0
TABLE
  2
LAYER
  5
2
330
0
100
AcDbSymbolTable
 70
     2
  0
LAYER
  5
10
330
2
100
AcDbSymbolTableRecord
100
AcDbLayerTableRecord
  2
0
 70
     0
 62
     7
  6
Continuous
370
    -3
390
F
  0
LAYER
  5
EC
330
2
100
AcDbSymbolTableRecord
100
AcDbLayerTableRecord
  2
Defpoints
 70
     0
 62
     7
  6
Continuous
290
     0
370
    -3
390
F
  0
ENDTAB
  0
TABLE
  2
STYLE
  5
3
330
0
100
AcDbSymbolTable
 70
     2
  0
STYLE
  5
11
330
3
100
AcDbSymbolTableRecord
100
AcDbTextStyleTableRecord
  2
Standard
 70
     0
 40
0.0
 41
1.0
 50
0.0
 71
     0
 42
0.2
  3
txt
  4

  0
STYLE
  5
91
330
3
100
AcDbSymbolTableRecord
100
AcDbTextStyleTableRecord
  2

 70
     1
 40
0.0
 41
1.0
 50
0.0
 71
     0
 42
0.2
  3
ltypeshp.shx
  4

  0
ENDTAB
  0
TABLE
  2
VIEW
  5
6
330
0
100
AcDbSymbolTable
 70
     0
  0
ENDTAB
  0
TABLE
  2
UCS
  5
7
330
0
100
AcDbSymbolTable
 70
     0
  0
ENDTAB
  0
TABLE
  2
APPID
  5
9
330
0
100
AcDbSymbolTable
 70
     1
  0
APPID
  5
12
330
9
100
AcDbSymbolTableRecord
100
AcDbRegAppTableRecord
  2
ACAD
 70
     0
  0
ENDTAB
  0
TABLE
  2
DIMSTYLE
  5
A
330
0
100
AcDbSymbolTable
 70
     1
100
AcDbDimStyleTable
 71
     1
340
27
  0
DIMSTYLE
105
27
102
{ACAD_REACTORS
330
EB
330
106
330
16A
330
19E
330
1B8
330
1D2
330
1EC
330
33D
330
3CD
330
3F9
330
40F
330
42B
330
445
330
475
330
48F
330
4A9
330
4C3
330
4DD
330
4F1
330
507
102
}
330
A
100
AcDbSymbolTableRecord
100
AcDbDimStyleTableRecord
  2
Standard
 70
     0
 41
0.125
140
0.125
271
     3
272
     3
340
11
  0
ENDTAB
  0
TABLE
  2
BLOCK_RECORD
  5
1
330
0
100
AcDbSymbolTable
 70
    34
  0
BLOCK_RECORD
  5
1F
330
1
100
AcDbSymbolTableRecord
100
AcDbBlockTableRecord
  2
*Model_Space
340
22
  0
BLOCK_RECORD
  5
58
330
1
100
AcDbSymbolTableRecord
100
AcDbBlockTableRecord
  2
*Paper_Space
340
59
  0
BLOCK_RECORD
  5
5D
330
1
100
AcDbSymbolTableRecord
100
AcDbBlockTableRecord
  2
*Paper_Space0
340
5E
  0
BLOCK_RECORD
  5
ED
330
1
100
AcDbSymbolTableRecord
100
AcDbBlockTableRecord
  2
*D1
340
0
  0
BLOCK_RECORD
  5
107
330
1
100
AcDbSymbolTableRecord
100
AcDbBlockTableRecord
  2
*D2
340
0
  0
BLOCK_RECORD
  5
121
330
1
100
AcDbSymbolTableRecord
100
AcDbBlockTableRecord
  2
*D3
340
0
  0
BLOCK_RECORD
  5
151
330
1
100
AcDbSymbolTableRecord
100
AcDbBlockTableRecord
  2
*D4
340
0
  0
BLOCK_RECORD
  5
16B
330
1
100
AcDbSymbolTableRecord
100
AcDbBlockTableRecord
  2
*D5
340
0
  0
BLOCK_RECORD
  5
185
330
1
100
AcDbSymbolTableRecord
100
AcDbBlockTableRecord
  2
*D6
340
0
  0
BLOCK_RECORD
  5
19F
330
1
100
AcDbSymbolTableRecord
100
AcDbBlockTableRecord
  2
*D7
340
0
  0
BLOCK_RECORD
  5
1B9
330
1
100
AcDbSymbolTableRecord
100
AcDbBlockTableRecord
  2
*D8
340
0
  0
BLOCK_RECORD
  5
1D3
330
1
100
AcDbSymbolTableRecord
100
AcDbBlockTableRecord
  2
*D9
340
0
  0
BLOCK_RECORD
  5
1ED
330
1
100
AcDbSymbolTableRecord
100
AcDbBlockTableRecord
  2
*D10
340
0
  0
BLOCK_RECORD
  5
207
330
1
100
AcDbSymbolTableRecord
100
AcDbBlockTableRecord
  2
*D11
340
0
  0
BLOCK_RECORD
  5
21D
330
1
100
AcDbSymbolTableRecord
100
AcDbBlockTableRecord
  2
*D12
340
0
  0
BLOCK_RECORD
  5
233
330
1
100
AcDbSymbolTableRecord
100
AcDbBlockTableRecord
  2
*D13
340
0
  0
BLOCK_RECORD
  5
2E1
330
1
100
AcDbSymbolTableRecord
100
AcDbBlockTableRecord
  2
*D14
340
0
  0
BLOCK_RECORD
  5
2EE
330
1
100
AcDbSymbolTableRecord
100
AcDbBlockTableRecord
  2
*D15
340
0
  0
BLOCK_RECORD
  5
2F9
330
1
100
AcDbSymbolTableRecord
100
AcDbBlockTableRecord
  2
*D16
340
0
  0
BLOCK_RECORD
  5
352
330
1
100
AcDbSymbolTableRecord
100
AcDbBlockTableRecord
  2
*D17
340
0
  0
BLOCK_RECORD
  5
35D
330
1
100
AcDbSymbolTableRecord
100
AcDbBlockTableRecord
  2
*D18
340
0
  0
BLOCK_RECORD
  5
368
330
1
100
AcDbSymbolTableRecord
100
AcDbBlockTableRecord
  2
*D19
340
0
  0
BLOCK_RECORD
  5
3CE
330
1
100
AcDbSymbolTableRecord
100
AcDbBlockTableRecord
  2
*D20
340
0
  0
BLOCK_RECORD
  5
3E4
330
1
100
AcDbSymbolTableRecord
100
AcDbBlockTableRecord
  2
*D21
340
0
  0
BLOCK_RECORD
  5
3FA
330
1
100
AcDbSymbolTableRecord
100
AcDbBlockTableRecord
  2
*D22
340
0
  0
BLOCK_RECORD
  5
410
330
1
100
AcDbSymbolTableRecord
100
AcDbBlockTableRecord
  2
*D23
340
0
  0
BLOCK_RECORD
  5
42C
330
1
100
AcDbSymbolTableRecord
100
AcDbBlockTableRecord
  2
*D24
340
0
  0
BLOCK_RECORD
  5
446
330
1
100
AcDbSymbolTableRecord
100
AcDbBlockTableRecord
  2
*D25
340
0
  0
BLOCK_RECORD
  5
45C
330
1
100
AcDbSymbolTableRecord
100
AcDbBlockTableRecord
  2
*D26
340
0
  0
BLOCK_RECORD
  5
476
330
1
100
AcDbSymbolTableRecord
100
AcDbBlockTableRecord
  2
*D27
340
0
  0
BLOCK_RECORD
  5
490
330
1
100
AcDbSymbolTableRecord
100
AcDbBlockTableRecord
  2
*D28
340
0
  0
BLOCK_RECORD
  5
4AA
330
1
100
AcDbSymbolTableRecord
100
AcDbBlockTableRecord
  2
*D29
340
0
  0
BLOCK_RECORD
  5
4C4
330
1
100
AcDbSymbolTableRecord
100
AcDbBlockTableRecord
  2
*D30
340
0
  0
BLOCK_RECORD
  5
4DE
330
1
100
AcDbSymbolTableRecord
100
AcDbBlockTableRecord
  2
*D31
340
0
  0
BLOCK_RECORD
  5
4F2
330
1
100
AcDbSymbolTableRecord
100
AcDbBlockTableRecord
  2
*D32
340
0
  0
BLOCK_RECORD
  5
508
330
1
100
AcDbSymbolTableRecord
100
AcDbBlockTableRecord
  2
*D33
340
0
  0
ENDTAB
  0
ENDSEC
  0
SECTION
  2
BLOCKS
  0
BLOCK
  5
20
330
1F
100
AcDbEntity
  8
0
100
AcDbBlockBegin
  2
*Model_Space
 70
     0
 10
0.0
 20
0.0
 30
0.0
  3
*Model_Space
  1

  0
ENDBLK
  5
21
330
1F
100
AcDbEntity
  8
0
100
AcDbBlockEnd
  0
BLOCK
  5
5A
330
58
100
AcDbEntity
 67
     1
  8
0
100
AcDbBlockBegin
  2
*Paper_Space
 70
     0
 10
0.0
 20
0.0
 30
0.0
  3
*Paper_Space
  1

  0
ENDBLK
  5
5B
330
58
100
AcDbEntity
 67
     1
  8
0
100
AcDbBlockEnd
  0
BLOCK
  5
5F
330
5D
100
AcDbEntity
  8
0
100
AcDbBlockBegin
  2
*Paper_Space0
 70
     0
 10
0.0
 20
0.0
 30
0.0
  3
*Paper_Space0
  1

  0
ENDBLK
  5
60
330
5D
100
AcDbEntity
  8
0
100
AcDbBlockEnd
  0
BLOCK
  5
F8
330
ED
100
AcDbEntity
  8
0
 48
0.3
100
AcDbBlockBegin
  2
*D1
 70
     1
 10
0.0
 20
0.0
 30
0.0
  3
*D1
  1

  0
LINE
  5
3AE
330
ED
100
AcDbEntity
  8
0
 62
     0
 48
0.3
370
    -2
100
AcDbLine
 10
1.642409095495369
 20
3.818337409486072
 30
0.0
 11
0.043069144018409
 21
3.818337409486073
 31
0.0
  0
LINE
  5
3AF
330
ED
100
AcDbEntity
  8
0
 62
     0
 48
0.3
370
    -2
100
AcDbLine
 10
1.517409095495368
 20
0.8183374094860694
 30
0.0
 11
0.0430691440184083
 21
0.8183374094860697
 31
0.0
  0
LINE
  5
3B0
330
ED
100
AcDbEntity
  8
0
 62
     0
 48
0.3
370
    -2
100
AcDbLine
 10
0.2230691440184089
 20
3.693337409486073
 30
0.0
 11
0.2230691440184086
 21
2.47083740948607
 31
0.0
  0
LINE
  5
3B1
330
ED
100
AcDbEntity
  8
0
 62
     0
 48
0.3
370
    -2
100
AcDbLine
 10
0.2230691440184083
 20
0.9433374094860695
 30
0.0
 11
0.2230691440184085
 21
2.165837409486071
 31
0.0
  0
SOLID
  5
3B2
330
ED
100
AcDbEntity
  8
0
 62
     0
 48
0.3
100
AcDbTrace
 10
0.2022358106850755
 20
3.693337409486073
 30
0.0
 11
0.2439024773517422
 21
3.693337409486073
 31
0.0
 12
0.2230691440184089
 22
3.818337409486073
 32
0.0
 13
0.2230691440184089
 23
3.818337409486073
 33
0.0
  0
SOLID
  5
3B3
330
ED
100
AcDbEntity
  8
0
 62
     0
 48
0.3
100
AcDbTrace
 10
0.202235810685075
 20
0.9433374094860695
 30
0.0
 11
0.2439024773517416
 21
0.9433374094860695
 31
0.0
 12
0.2230691440184083
 22
0.8183374094860697
 32
0.0
 13
0.2230691440184083
 23
0.8183374094860697
 33
0.0
  0
MTEXT
  5
3B4
330
ED
100
AcDbEntity
  8
0
 62
     0
 48
0.3
100
AcDbMText
 10
0.2230691440184082
 20
2.31833740948607
 30
0.0
 40
0.125
 41
0.0
 71
     5
 72
     1
  1
\A1;3.000
 73
     1
 44
1.0
  0
POINT
  5
3B5
330
ED
100
AcDbEntity
  8
Defpoints
 62
     0
 48
0.3
100
AcDbPoint
 10
1.704909095495369
 20
3.818337409486072
 30
0.0
  0
POINT
  5
3B6
330
ED
100
AcDbEntity
  8
Defpoints
 62
     0
 48
0.3
100
AcDbPoint
 10
1.579909095495368
 20
0.8183374094860694
 30
0.0
  0
POINT
  5
3B7
330
ED
100
AcDbEntity
  8
Defpoints
 62
     0
 48
0.3
100
AcDbPoint
 10
0.2230691440184083
 20
0.8183374094860697
 30
0.0
  0
ENDBLK
  5
F9
330
ED
100
AcDbEntity
  8
0
 48
0.3
100
AcDbBlockEnd
  0
BLOCK
  5
112
330
107
100
AcDbEntity
  8
0
 48
0.3
100
AcDbBlockBegin
  2
*D2
 70
     1
 10
0.0
 20
0.0
 30
0.0
  3
*D2
  1

  0
LINE
  5
39C
330
107
100
AcDbEntity
  8
0
 62
     0
 48
0.3
370
    -2
100
AcDbLine
 10
1.579909095495368
 20
0.7558374094860695
 30
0.0
 11
1.579909095495368
 21
-0.3671421330737012
 31
0.0
  0
LINE
  5
39D
330
107
100
AcDbEntity
  8
0
 62
     0
 48
0.3
370
    -2
100
AcDbLine
 10
4.579909095495367
 20
0.7558374094860695
 30
0.0
 11
4.579909095495367
 21
-0.3671421330737012
 31
0.0
  0
LINE
  5
39E
330
107
100
AcDbEntity
  8
0
 62
     0
 48
0.3
370
    -2
100
AcDbLine
 10
1.704909095495368
 20
-0.1871421330737013
 30
0.0
 11
2.771159095495368
 21
-0.1871421330737013
 31
0.0
  0
LINE
  5
39F
330
107
100
AcDbEntity
  8
0
 62
     0
 48
0.3
370
    -2
100
AcDbLine
 10
4.454909095495367
 20
-0.1871421330737013
 30
0.0
 11
3.388659095495368
 21
-0.1871421330737013
 31
0.0
  0
SOLID
  5
3A0
330
107
100
AcDbEntity
  8
0
 62
     0
 48
0.3
100
AcDbTrace
 10
1.704909095495368
 20
-0.166308799740368
 30
0.0
 11
1.704909095495368
 21
-0.2079754664070347
 31
0.0
 12
1.579909095495368
 22
-0.1871421330737013
 32
0.0
 13
1.579909095495368
 23
-0.1871421330737013
 33
0.0
  0
SOLID
  5
3A1
330
107
100
AcDbEntity
  8
0
 62
     0
 48
0.3
100
AcDbTrace
 10
4.454909095495367
 20
-0.166308799740368
 30
0.0
 11
4.454909095495367
 21
-0.2079754664070347
 31
0.0
 12
4.579909095495367
 22
-0.1871421330737013
 32
0.0
 13
4.579909095495367
 23
-0.1871421330737013
 33
0.0
  0
MTEXT
  5
3A2
330
107
100
AcDbEntity
  8
0
 62
     0
 48
0.3
100
AcDbMText
 10
3.079909095495368
 20
-0.1871421330737013
 30
0.0
 40
0.125
 41
0.0
 71
     5
 72
     1
  1
\A1;3.000
 73
     1
 44
1.0
  0
POINT
  5
3A3
330
107
100
AcDbEntity
  8
Defpoints
 62
     0
 48
0.3
100
AcDbPoint
 10
1.579909095495368
 20
0.8183374094860694
 30
0.0
  0
POINT
  5
3A4
330
107
100
AcDbEntity
  8
Defpoints
 62
     0
 48
0.3
100
AcDbPoint
 10
4.579909095495367
 20
0.8183374094860694
 30
0.0
  0
POINT
  5
3A5
330
107
100
AcDbEntity
  8
Defpoints
 62
     0
 48
0.3
100
AcDbPoint
 10
4.579909095495367
 20
-0.1871421330737013
 30
0.0
  0
ENDBLK
  5
113
330
107
100
AcDbEntity
  8
0
 48
0.3
100
AcDbBlockEnd
  0
BLOCK
  5
12D
330
121
100
AcDbEntity
  8
0
 48
0.3
100
AcDbBlockBegin
  2
*D3
 70
     1
 10
0.0
 20
0.0
 30
0.0
  3
*D3
  1

  0
LINE
  5
294
330
121
100
AcDbEntity
  8
0
 62
     0
 48
0.3
370
    -2
100
AcDbLine
 10
2.017409095495368
 20
3.193337409486069
 30
0.0
 11
0.7187696091124336
 21
3.193337409486069
 31
0.0
  0
LINE
  5
295
330
121
100
AcDbEntity
  8
0
 62
     0
 48
0.3
370
    -2
100
AcDbLine
 10
1.51740909549537
 20
3.818337409486073
 30
0.0
 11
0.7187696091124339
 21
3.818337409486073
 31
0.0
  0
LINE
  5
296
330
121
100
AcDbEntity
  8
0
 62
     0
 48
0.3
370
    -2
100
AcDbLine
 10
0.8987696091124334
 20
3.068337409486069
 30
0.0
 11
0.8987696091124334
 21
2.943337409486069
 31
0.0
  0
LINE
  5
297
330
121
100
AcDbEntity
  8
0
 62
     0
 48
0.3
370
    -2
100
AcDbLine
 10
0.8987696091124337
 20
3.943337409486073
 30
0.0
 11
0.8987696091124337
 21
4.068337409486073
 31
0.0
  0
SOLID
  5
298
330
121
100
AcDbEntity
  8
0
 62
     0
 48
0.3
100
AcDbTrace
 10
0.8779362757791002
 20
3.068337409486069
 30
0.0
 11
0.9196029424457668
 21
3.068337409486069
 31
0.0
 12
0.8987696091124334
 22
3.193337409486069
 32
0.0
 13
0.8987696091124334
 23
3.193337409486069
 33
0.0
  0
SOLID
  5
299
330
121
100
AcDbEntity
  8
0
 62
     0
 48
0.3
100
AcDbTrace
 10
0.8779362757791004
 20
3.943337409486073
 30
0.0
 11
0.9196029424457671
 21
3.943337409486073
 31
0.0
 12
0.8987696091124337
 22
3.818337409486073
 32
0.0
 13
0.8987696091124337
 23
3.818337409486073
 33
0.0
  0
MTEXT
  5
29A
330
121
100
AcDbEntity
  8
0
 62
     0
 48
0.3
100
AcDbMText
 10
0.898769609112433
 20
3.557083100329553
 30
0.0
 40
0.125
 41
0.0
 71
     5
 72
     1
  1
\A1;0.625
 73
     1
 44
1.0
  0
POINT
  5
29B
330
121
100
AcDbEntity
  8
Defpoints
 62
     0
 48
0.3
100
AcDbPoint
 10
2.079909095495368
 20
3.193337409486069
 30
0.0
  0
POINT
  5
29C
330
121
100
AcDbEntity
  8
Defpoints
 62
     0
 48
0.3
100
AcDbPoint
 10
1.57990909549537
 20
3.818337409486073
 30
0.0
  0
POINT
  5
29D
330
121
100
AcDbEntity
  8
Defpoints
 62
     0
 48
0.3
100
AcDbPoint
 10
0.8987696091124337
 20
3.818337409486073
 30
0.0
  0
ENDBLK
  5
12E
330
121
100
AcDbEntity
  8
0
 48
0.3
100
AcDbBlockEnd
  0
BLOCK
  5
15C
330
151
100
AcDbEntity
  8
0
 48
0.3
100
AcDbBlockBegin
  2
*D4
 70
     1
 10
0.0
 20
0.0
 30
0.0
  3
*D4
  1

  0
LINE
  5
276
330
151
100
AcDbEntity
  8
0
 62
     0
 48
0.3
370
    -2
100
AcDbLine
 10
2.017409095495368
 20
3.193337409486069
 30
0.0
 11
0.7187696091124334
 21
3.193337409486069
 31
0.0
  0
LINE
  5
277
330
151
100
AcDbEntity
  8
0
 62
     0
 48
0.3
370
    -2
100
AcDbLine
 10
2.017409095495368
 20
1.443337409486069
 30
0.0
 11
0.7187696091124332
 21
1.443337409486069
 31
0.0
  0
LINE
  5
278
330
151
100
AcDbEntity
  8
0
 62
     0
 48
0.3
370
    -2
100
AcDbLine
 10
0.8987696091124332
 20
3.068337409486069
 30
0.0
 11
0.898769609112433
 21
2.470837409486069
 31
0.0
  0
LINE
  5
279
330
151
100
AcDbEntity
  8
0
 62
     0
 48
0.3
370
    -2
100
AcDbLine
 10
0.8987696091124329
 20
1.568337409486069
 30
0.0
 11
0.8987696091124329
 21
2.16583740948607
 31
0.0
  0
SOLID
  5
27A
330
151
100
AcDbEntity
  8
0
 62
     0
 48
0.3
100
AcDbTrace
 10
0.8779362757790998
 20
3.068337409486069
 30
0.0
 11
0.9196029424457666
 21
3.068337409486069
 31
0.0
 12
0.8987696091124332
 22
3.193337409486069
 32
0.0
 13
0.8987696091124332
 23
3.193337409486069
 33
0.0
  0
SOLID
  5
27B
330
151
100
AcDbEntity
  8
0
 62
     0
 48
0.3
100
AcDbTrace
 10
0.8779362757790995
 20
1.568337409486069
 30
0.0
 11
0.9196029424457663
 21
1.568337409486069
 31
0.0
 12
0.8987696091124329
 22
1.443337409486069
 32
0.0
 13
0.8987696091124329
 23
1.443337409486069
 33
0.0
  0
MTEXT
  5
27C
330
151
100
AcDbEntity
  8
0
 62
     0
 48
0.3
100
AcDbMText
 10
0.8987696091124327
 20
2.318337409486069
 30
0.0
 40
0.125
 41
0.0
 71
     5
 72
     1
  1
\A1;1.750
 73
     1
 44
1.0
  0
POINT
  5
27D
330
151
100
AcDbEntity
  8
Defpoints
 62
     0
 48
0.3
100
AcDbPoint
 10
2.079909095495368
 20
3.193337409486069
 30
0.0
  0
POINT
  5
27E
330
151
100
AcDbEntity
  8
Defpoints
 62
     0
 48
0.3
100
AcDbPoint
 10
2.079909095495368
 20
1.443337409486069
 30
0.0
  0
POINT
  5
27F
330
151
100
AcDbEntity
  8
Defpoints
 62
     0
 48
0.3
100
AcDbPoint
 10
0.8987696091124329
 20
1.443337409486069
 30
0.0
  0
ENDBLK
  5
15D
330
151
100
AcDbEntity
  8
0
 48
0.3
100
AcDbBlockEnd
  0
BLOCK
  5
176
330
16B
100
AcDbEntity
  8
0
 48
0.3
100
AcDbBlockBegin
  2
*D5
 70
     1
 10
0.0
 20
0.0
 30
0.0
  3
*D5
  1

  0
LINE
  5
3B9
330
16B
100
AcDbEntity
  8
0
 62
     0
 48
0.3
370
    -2
100
AcDbLine
 10
2.079909095495366
 20
1.606837409486065
 30
0.0
 11
2.079909095495366
 21
0.275643309212819
 31
0.0
  0
LINE
  5
3BA
330
16B
100
AcDbEntity
  8
0
 62
     0
 48
0.3
370
    -2
100
AcDbLine
 10
1.579909095495368
 20
0.7558374094860695
 30
0.0
 11
1.579909095495368
 21
0.275643309212819
 31
0.0
  0
LINE
  5
3BB
330
16B
100
AcDbEntity
  8
0
 62
     0
 48
0.3
370
    -2
100
AcDbLine
 10
1.954909095495366
 20
0.455643309212819
 30
0.0
 11
1.704909095495368
 21
0.455643309212819
 31
0.0
  0
LINE
  5
3BC
330
16B
100
AcDbEntity
  8
0
 62
     0
 48
0.3
370
    -2
100
AcDbLine
 10
1.579909095495368
 20
0.455643309212819
 30
0.0
 11
1.454909095495368
 21
0.455643309212819
 31
0.0
  0
SOLID
  5
3BD
330
16B
100
AcDbEntity
  8
0
 62
     0
 48
0.3
100
AcDbTrace
 10
1.954909095495366
 20
0.4764766425461523
 30
0.0
 11
1.954909095495366
 21
0.4348099758794856
 31
0.0
 12
2.079909095495366
 22
0.455643309212819
 32
0.0
 13
2.079909095495366
 23
0.455643309212819
 33
0.0
  0
SOLID
  5
3BE
330
16B
100
AcDbEntity
  8
0
 62
     0
 48
0.3
100
AcDbTrace
 10
1.704909095495368
 20
0.4764766425461523
 30
0.0
 11
1.704909095495368
 21
0.4348099758794856
 31
0.0
 12
1.579909095495368
 22
0.455643309212819
 32
0.0
 13
1.579909095495368
 23
0.455643309212819
 33
0.0
  0
MTEXT
  5
3BF
330
16B
100
AcDbEntity
  8
0
 62
     0
 48
0.3
100
AcDbMText
 10
1.146159095495367
 20
0.455643309212819
 30
0.0
 40
0.125
 41
0.0
 71
     5
 72
     1
  1
\A1;0.500
 73
     1
 44
1.0
  0
POINT
  5
3C0
330
16B
100
AcDbEntity
  8
Defpoints
 62
     0
 48
0.3
100
AcDbPoint
 10
2.079909095495366
 20
1.669337409486065
 30
0.0
  0
POINT
  5
3C1
330
16B
100
AcDbEntity
  8
Defpoints
 62
     0
 48
0.3
100
AcDbPoint
 10
1.579909095495368
 20
0.8183374094860694
 30
0.0
  0
POINT
  5
3C2
330
16B
100
AcDbEntity
  8
Defpoints
 62
     0
 48
0.3
100
AcDbPoint
 10
1.579909095495368
 20
0.455643309212819
 30
0.0
  0
ENDBLK
  5
177
330
16B
100
AcDbEntity
  8
0
 48
0.3
100
AcDbBlockEnd
  0
BLOCK
  5
190
330
185
100
AcDbEntity
  8
0
 48
0.3
100
AcDbBlockBegin
  2
*D6
 70
     1
 10
0.0
 20
0.0
 30
0.0
  3
*D6
  1

  0
LINE
  5
2A6
330
185
100
AcDbEntity
  8
0
 62
     0
 48
0.3
370
    -2
100
AcDbLine
 10
2.079909095495368
 20
1.380837409486069
 30
0.0
 11
2.079909095495368
 21
0.275643309212819
 31
0.0
  0
LINE
  5
2A7
330
185
100
AcDbEntity
  8
0
 62
     0
 48
0.3
370
    -2
100
AcDbLine
 10
4.079909095495367
 20
1.380837409486069
 30
0.0
 11
4.079909095495367
 21
0.275643309212819
 31
0.0
  0
LINE
  5
2A8
330
185
100
AcDbEntity
  8
0
 62
     0
 48
0.3
370
    -2
100
AcDbLine
 10
2.204909095495368
 20
0.455643309212819
 30
0.0
 11
2.771159095495368
 21
0.455643309212819
 31
0.0
  0
LINE
  5
2A9
330
185
100
AcDbEntity
  8
0
 62
     0
 48
0.3
370
    -2
100
AcDbLine
 10
3.954909095495368
 20
0.455643309212819
 30
0.0
 11
3.388659095495368
 21
0.455643309212819
 31
0.0
  0
SOLID
  5
2AA
330
185
100
AcDbEntity
  8
0
 62
     0
 48
0.3
100
AcDbTrace
 10
2.204909095495368
 20
0.4764766425461523
 30
0.0
 11
2.204909095495368
 21
0.4348099758794856
 31
0.0
 12
2.079909095495368
 22
0.455643309212819
 32
0.0
 13
2.079909095495368
 23
0.455643309212819
 33
0.0
  0
SOLID
  5
2AB
330
185
100
AcDbEntity
  8
0
 62
     0
 48
0.3
100
AcDbTrace
 10
3.954909095495368
 20
0.4764766425461523
 30
0.0
 11
3.954909095495368
 21
0.4348099758794856
 31
0.0
 12
4.079909095495367
 22
0.455643309212819
 32
0.0
 13
4.079909095495367
 23
0.455643309212819
 33
0.0
  0
MTEXT
  5
2AC
330
185
100
AcDbEntity
  8
0
 62
     0
 48
0.3
100
AcDbMText
 10
3.079909095495368
 20
0.455643309212819
 30
0.0
 40
0.125
 41
0.0
 71
     5
 72
     1
  1
\A1;2.000
 73
     1
 44
1.0
  0
POINT
  5
2AD
330
185
100
AcDbEntity
  8
Defpoints
 62
     0
 48
0.3
100
AcDbPoint
 10
2.079909095495368
 20
1.443337409486069
 30
0.0
  0
POINT
  5
2AE
330
185
100
AcDbEntity
  8
Defpoints
 62
     0
 48
0.3
100
AcDbPoint
 10
4.079909095495367
 20
1.443337409486069
 30
0.0
  0
POINT
  5
2AF
330
185
100
AcDbEntity
  8
Defpoints
 62
     0
 48
0.3
100
AcDbPoint
 10
4.079909095495367
 20
0.455643309212819
 30
0.0
  0
ENDBLK
  5
191
330
185
100
AcDbEntity
  8
0
 48
0.3
100
AcDbBlockEnd
  0
BLOCK
  5
1AA
330
19F
100
AcDbEntity
  8
0
 48
0.3
100
AcDbBlockBegin
  2
*D7
 70
     1
 10
0.0
 20
0.0
 30
0.0
  3
*D7
  1

  0
LINE
  5
26C
330
19F
100
AcDbEntity
  8
0
 62
     0
 48
0.3
370
    -2
100
AcDbLine
 10
3.142409095495368
 20
2.318337409486068
 30
0.0
 11
5.422558103212791
 21
2.318337409486068
 31
0.0
  0
LINE
  5
26D
330
19F
100
AcDbEntity
  8
0
 62
     0
 48
0.3
370
    -2
100
AcDbLine
 10
4.642409095495367
 20
0.8183374094860694
 30
0.0
 11
5.42255810321279
 21
0.8183374094860692
 31
0.0
  0
LINE
  5
26E
330
19F
100
AcDbEntity
  8
0
 62
     0
 48
0.3
370
    -2
100
AcDbLine
 10
5.242558103212791
 20
2.193337409486069
 30
0.0
 11
5.242558103212791
 21
1.720837409486069
 31
0.0
  0
LINE
  5
26F
330
19F
100
AcDbEntity
  8
0
 62
     0
 48
0.3
370
    -2
100
AcDbLine
 10
5.242558103212791
 20
0.9433374094860692
 30
0.0
 11
5.242558103212791
 21
1.415837409486069
 31
0.0
  0
SOLID
  5
270
330
19F
100
AcDbEntity
  8
0
 62
     0
 48
0.3
100
AcDbTrace
 10
5.221724769879458
 20
2.193337409486069
 30
0.0
 11
5.263391436546124
 21
2.193337409486069
 31
0.0
 12
5.242558103212791
 22
2.318337409486068
 32
0.0
 13
5.242558103212791
 23
2.318337409486068
 33
0.0
  0
SOLID
  5
271
330
19F
100
AcDbEntity
  8
0
 62
     0
 48
0.3
100
AcDbTrace
 10
5.221724769879457
 20
0.9433374094860692
 30
0.0
 11
5.263391436546124
 21
0.9433374094860692
 31
0.0
 12
5.242558103212791
 22
0.8183374094860692
 32
0.0
 13
5.242558103212791
 23
0.8183374094860692
 33
0.0
  0
MTEXT
  5
272
330
19F
100
AcDbEntity
  8
0
 62
     0
 48
0.3
100
AcDbMText
 10
5.242558103212791
 20
1.56833740948607
 30
0.0
 40
0.125
 41
0.0
 71
     5
 72
     1
  1
\A1;1.500
 73
     1
 44
1.0
  0
POINT
  5
273
330
19F
100
AcDbEntity
  8
Defpoints
 62
     0
 48
0.3
100
AcDbPoint
 10
3.079909095495368
 20
2.318337409486068
 30
0.0
  0
POINT
  5
274
330
19F
100
AcDbEntity
  8
Defpoints
 62
     0
 48
0.3
100
AcDbPoint
 10
4.579909095495367
 20
0.8183374094860694
 30
0.0
  0
POINT
  5
275
330
19F
100
AcDbEntity
  8
Defpoints
 62
     0
 48
0.3
100
AcDbPoint
 10
5.242558103212791
 20
0.8183374094860692
 30
0.0
  0
ENDBLK
  5
1AB
330
19F
100
AcDbEntity
  8
0
 48
0.3
100
AcDbBlockEnd
  0
BLOCK
  5
1C4
330
1B9
100
AcDbEntity
  8
0
 48
0.3
100
AcDbBlockBegin
  2
*D8
 70
     1
 10
0.0
 20
0.0
 30
0.0
  3
*D8
  1

  0
LINE
  5
262
330
1B9
100
AcDbEntity
  8
0
 62
     0
 48
0.3
370
    -2
100
AcDbLine
 10
3.654409095495368
 20
5.232653845994287
 30
0.0
 11
5.583439155036029
 21
5.232653845994287
 31
0.0
  0
LINE
  5
263
330
1B9
100
AcDbEntity
  8
0
 62
     0
 48
0.3
370
    -2
100
AcDbLine
 10
3.654409095495368
 20
5.582653845994287
 30
0.0
 11
5.583439155036029
 21
5.582653845994287
 31
0.0
  0
LINE
  5
264
330
1B9
100
AcDbEntity
  8
0
 62
     0
 48
0.3
370
    -2
100
AcDbLine
 10
5.403439155036029
 20
5.107653845994287
 30
0.0
 11
5.403439155036029
 21
4.982653845994287
 31
0.0
  0
LINE
  5
265
330
1B9
100
AcDbEntity
  8
0
 62
     0
 48
0.3
370
    -2
100
AcDbLine
 10
5.403439155036029
 20
5.707653845994286
 30
0.0
 11
5.403439155036029
 21
5.832653845994286
 31
0.0
  0
SOLID
  5
266
330
1B9
100
AcDbEntity
  8
0
 62
     0
 48
0.3
100
AcDbTrace
 10
5.382605821702696
 20
5.107653845994287
 30
0.0
 11
5.424272488369363
 21
5.107653845994287
 31
0.0
 12
5.403439155036029
 22
5.232653845994287
 32
0.0
 13
5.403439155036029
 23
5.232653845994287
 33
0.0
  0
SOLID
  5
267
330
1B9
100
AcDbEntity
  8
0
 62
     0
 48
0.3
100
AcDbTrace
 10
5.382605821702696
 20
5.707653845994286
 30
0.0
 11
5.424272488369363
 21
5.707653845994286
 31
0.0
 12
5.403439155036029
 22
5.582653845994287
 32
0.0
 13
5.403439155036029
 23
5.582653845994287
 33
0.0
  0
MTEXT
  5
268
330
1B9
100
AcDbEntity
  8
0
 62
     0
 48
0.3
100
AcDbMText
 10
5.403439155036029
 20
5.407653845994288
 30
0.0
 40
0.125
 41
0.0
 71
     5
 72
     1
  1
\A1;0.350
 73
     1
 44
1.0
  0
POINT
  5
269
330
1B9
100
AcDbEntity
  8
Defpoints
 62
     0
 48
0.3
100
AcDbPoint
 10
3.591909095495368
 20
5.232653845994287
 30
0.0
  0
POINT
  5
26A
330
1B9
100
AcDbEntity
  8
Defpoints
 62
     0
 48
0.3
100
AcDbPoint
 10
3.591909095495368
 20
5.582653845994287
 30
0.0
  0
POINT
  5
26B
330
1B9
100
AcDbEntity
  8
Defpoints
 62
     0
 48
0.3
100
AcDbPoint
 10
5.403439155036029
 20
5.582653845994287
 30
0.0
  0
ENDBLK
  5
1C5
330
1B9
100
AcDbEntity
  8
0
 48
0.3
100
AcDbBlockEnd
  0
BLOCK
  5
1DE
330
1D3
100
AcDbEntity
  8
0
 48
0.3
100
AcDbBlockBegin
  2
*D9
 70
     1
 10
0.0
 20
0.0
 30
0.0
  3
*D9
  1

  0
LINE
  5
258
330
1D3
100
AcDbEntity
  8
0
 62
     0
 48
0.3
370
    -2
100
AcDbLine
 10
3.654409095495368
 20
4.932653845994288
 30
0.0
 11
5.583439155036029
 21
4.932653845994288
 31
0.0
  0
LINE
  5
259
330
1D3
100
AcDbEntity
  8
0
 62
     0
 48
0.3
370
    -2
100
AcDbLine
 10
3.654409095495368
 20
4.582653845994288
 30
0.0
 11
5.583439155036029
 21
4.582653845994288
 31
0.0
  0
LINE
  5
25A
330
1D3
100
AcDbEntity
  8
0
 62
     0
 48
0.3
370
    -2
100
AcDbLine
 10
5.403439155036029
 20
5.057653845994288
 30
0.0
 11
5.403439155036029
 21
5.182653845994288
 31
0.0
  0
LINE
  5
25B
330
1D3
100
AcDbEntity
  8
0
 62
     0
 48
0.3
370
    -2
100
AcDbLine
 10
5.403439155036029
 20
4.457653845994288
 30
0.0
 11
5.403439155036029
 21
4.332653845994288
 31
0.0
  0
SOLID
  5
25C
330
1D3
100
AcDbEntity
  8
0
 62
     0
 48
0.3
100
AcDbTrace
 10
5.382605821702696
 20
5.057653845994288
 30
0.0
 11
5.424272488369363
 21
5.057653845994288
 31
0.0
 12
5.403439155036029
 22
4.932653845994288
 32
0.0
 13
5.403439155036029
 23
4.932653845994288
 33
0.0
  0
SOLID
  5
25D
330
1D3
100
AcDbEntity
  8
0
 62
     0
 48
0.3
100
AcDbTrace
 10
5.382605821702696
 20
4.457653845994288
 30
0.0
 11
5.424272488369363
 21
4.457653845994288
 31
0.0
 12
5.403439155036029
 22
4.582653845994288
 32
0.0
 13
5.403439155036029
 23
4.582653845994288
 33
0.0
  0
MTEXT
  5
25E
330
1D3
100
AcDbEntity
  8
0
 62
     0
 48
0.3
100
AcDbMText
 10
5.403439155036029
 20
4.757653845994289
 30
0.0
 40
0.125
 41
0.0
 71
     5
 72
     1
  1
\A1;0.350
 73
     1
 44
1.0
  0
POINT
  5
25F
330
1D3
100
AcDbEntity
  8
Defpoints
 62
     0
 48
0.3
100
AcDbPoint
 10
3.591909095495368
 20
4.932653845994288
 30
0.0
  0
POINT
  5
260
330
1D3
100
AcDbEntity
  8
Defpoints
 62
     0
 48
0.3
100
AcDbPoint
 10
3.591909095495368
 20
4.582653845994288
 30
0.0
  0
POINT
  5
261
330
1D3
100
AcDbEntity
  8
Defpoints
 62
     0
 48
0.3
100
AcDbPoint
 10
5.403439155036029
 20
4.582653845994288
 30
0.0
  0
ENDBLK
  5
1DF
330
1D3
100
AcDbEntity
  8
0
 48
0.3
100
AcDbBlockEnd
  0
BLOCK
  5
1F8
330
1ED
100
AcDbEntity
  8
0
 48
0.3
100
AcDbBlockBegin
  2
*D10
 70
     1
 10
0.0
 20
0.0
 30
0.0
  3
*D10
  1

  0
LINE
  5
28A
330
1ED
100
AcDbEntity
  8
0
 62
     0
 48
0.3
370
    -2
100
AcDbLine
 10
1.51740909549537
 20
5.582653845994287
 30
0.0
 11
0.7187696091124333
 21
5.582653845994287
 31
0.0
  0
LINE
  5
28B
330
1ED
100
AcDbEntity
  8
0
 62
     0
 48
0.3
370
    -2
100
AcDbLine
 10
1.51740909549537
 20
4.582653845994288
 30
0.0
 11
0.7187696091124332
 21
4.582653845994288
 31
0.0
  0
LINE
  5
28C
330
1ED
100
AcDbEntity
  8
0
 62
     0
 48
0.3
370
    -2
100
AcDbLine
 10
0.8987696091124332
 20
5.457653845994287
 30
0.0
 11
0.898769609112433
 21
5.235153845994288
 31
0.0
  0
LINE
  5
28D
330
1ED
100
AcDbEntity
  8
0
 62
     0
 48
0.3
370
    -2
100
AcDbLine
 10
0.8987696091124329
 20
4.707653845994288
 30
0.0
 11
0.898769609112433
 21
4.930153845994288
 31
0.0
  0
SOLID
  5
28E
330
1ED
100
AcDbEntity
  8
0
 62
     0
 48
0.3
100
AcDbTrace
 10
0.8779362757790998
 20
5.457653845994287
 30
0.0
 11
0.9196029424457666
 21
5.457653845994287
 31
0.0
 12
0.8987696091124332
 22
5.582653845994287
 32
0.0
 13
0.8987696091124332
 23
5.582653845994287
 33
0.0
  0
SOLID
  5
28F
330
1ED
100
AcDbEntity
  8
0
 62
     0
 48
0.3
100
AcDbTrace
 10
0.8779362757790995
 20
4.707653845994288
 30
0.0
 11
0.9196029424457663
 21
4.707653845994288
 31
0.0
 12
0.8987696091124329
 22
4.582653845994288
 32
0.0
 13
0.8987696091124329
 23
4.582653845994288
 33
0.0
  0
MTEXT
  5
290
330
1ED
100
AcDbEntity
  8
0
 62
     0
 48
0.3
100
AcDbMText
 10
0.8987696091124323
 20
5.082653845994288
 30
0.0
 40
0.125
 41
0.0
 71
     5
 72
     1
  1
\A1;1.000
 73
     1
 44
1.0
  0
POINT
  5
291
330
1ED
100
AcDbEntity
  8
Defpoints
 62
     0
 48
0.3
100
AcDbPoint
 10
1.57990909549537
 20
5.582653845994287
 30
0.0
  0
POINT
  5
292
330
1ED
100
AcDbEntity
  8
Defpoints
 62
     0
 48
0.3
100
AcDbPoint
 10
1.57990909549537
 20
4.582653845994288
 30
0.0
  0
POINT
  5
293
330
1ED
100
AcDbEntity
  8
Defpoints
 62
     0
 48
0.3
100
AcDbPoint
 10
0.8987696091124329
 20
4.582653845994288
 30
0.0
  0
ENDBLK
  5
1F9
330
1ED
100
AcDbEntity
  8
0
 48
0.3
100
AcDbBlockEnd
  0
BLOCK
  5
210
330
207
100
AcDbEntity
  8
0
 48
0.3
100
AcDbBlockBegin
  2
*D11
 70
     1
 10
0.0
 20
0.0
 30
0.0
  3
*D11
  1

  0
LINE
  5
2D4
330
207
100
AcDbEntity
  8
0
 62
     0
 48
0.3
370
    -2
100
AcDbLine
 10
3.750069115278823
 20
4.167729279668683
 30
0.0
 11
3.875069115278828
 21
4.167729279668683
 31
0.0
  0
LINE
  5
2D5
330
207
100
AcDbEntity
  8
0
 62
     0
 48
0.3
370
    -2
100
AcDbLine
 10
3.875069115278828
 20
4.167729279668683
 30
0.0
 11
4.02786025937589
 21
3.440925613281418
 31
0.0
  0
MTEXT
  5
2D6
330
207
100
AcDbEntity
  8
0
 62
     0
 48
0.3
100
AcDbMText
 10
3.357985781945489
 20
4.167729279668683
 30
0.0
 40
0.125
 41
0.0
 71
     5
 72
     1
  1
\A1;\U+22050.256
 73
     1
 44
1.0
  0
SOLID
  5
2D7
330
207
100
AcDbEntity
  8
0
 62
     0
 48
0.3
100
AcDbTrace
 10
4.048247957316877
 20
3.445211584635131
 30
0.0
 11
4.007472561434902
 21
3.436639641927706
 31
0.0
 12
4.053576087498162
 22
3.318599425635496
 32
0.0
 13
4.053576087498162
 23
3.318599425635496
 33
0.0
  0
LINE
  5
2D8
330
207
100
AcDbEntity
  8
0
 62
     0
 48
0.3
370
    -2
100
AcDbLine
 10
3.989909095495368
 20
3.193337409486069
 30
0.0
 11
4.169909095495368
 21
3.193337409486069
 31
0.0
  0
LINE
  5
2D9
330
207
100
AcDbEntity
  8
0
 62
     0
 48
0.3
370
    -2
100
AcDbLine
 10
4.079909095495367
 20
3.103337409486069
 30
0.0
 11
4.079909095495367
 21
3.283337409486069
 31
0.0
  0
POINT
  5
2DA
330
207
100
AcDbEntity
  8
Defpoints
 62
     0
 48
0.3
100
AcDbPoint
 10
4.053576087498162
 20
3.318599425635496
 30
0.0
  0
POINT
  5
2DB
330
207
100
AcDbEntity
  8
Defpoints
 62
     0
 48
0.3
100
AcDbPoint
 10
4.106242103492576
 20
3.068075393336644
 30
0.0
  0
ENDBLK
  5
211
330
207
100
AcDbEntity
  8
0
 48
0.3
100
AcDbBlockEnd
  0
BLOCK
  5
226
330
21D
100
AcDbEntity
  8
0
 48
0.3
100
AcDbBlockBegin
  2
*D12
 70
     1
 10
0.0
 20
0.0
 30
0.0
  3
*D12
  1

  0
LINE
  5
2C4
330
21D
100
AcDbEntity
  8
0
 62
     0
 48
0.3
370
    -2
100
AcDbLine
 10
5.142324630660252
 20
3.380317113376968
 30
0.0
 11
5.017324630660253
 21
3.380317113376968
 31
0.0
  0
LINE
  5
2C5
330
21D
100
AcDbEntity
  8
0
 62
     0
 48
0.3
370
    -2
100
AcDbLine
 10
5.017324630660253
 20
3.380317113376968
 30
0.0
 11
3.638496203630495
 21
2.624522717143432
 31
0.0
  0
MTEXT
  5
2C6
330
21D
100
AcDbEntity
  8
0
 62
     0
 48
0.3
100
AcDbMText
 10
5.513574630660252
 20
3.380317113376968
 30
0.0
 40
0.125
 41
0.0
 71
     5
 72
     1
  1
\A1;\U+22051.024
 73
     1
 44
1.0
  0
SOLID
  5
2C7
330
21D
100
AcDbEntity
  8
0
 62
     0
 48
0.3
100
AcDbTrace
 10
3.628482293777755
 20
2.642791526279196
 30
0.0
 11
3.648510113483234
 21
2.606253908007667
 31
0.0
 12
3.52888334881591
 22
2.564439258026995
 32
0.0
 13
3.52888334881591
 23
2.564439258026995
 33
0.0
  0
LINE
  5
2C8
330
21D
100
AcDbEntity
  8
0
 62
     0
 48
0.3
370
    -2
100
AcDbLine
 10
2.98990909549537
 20
2.318337409486069
 30
0.0
 11
3.169909095495369
 21
2.318337409486069
 31
0.0
  0
LINE
  5
2C9
330
21D
100
AcDbEntity
  8
0
 62
     0
 48
0.3
370
    -2
100
AcDbLine
 10
3.079909095495368
 20
2.228337409486069
 30
0.0
 11
3.079909095495368
 21
2.408337409486069
 31
0.0
  0
POINT
  5
2CA
330
21D
100
AcDbEntity
  8
Defpoints
 62
     0
 48
0.3
100
AcDbPoint
 10
3.52888334881591
 20
2.564439258026995
 30
0.0
  0
POINT
  5
2CB
330
21D
100
AcDbEntity
  8
Defpoints
 62
     0
 48
0.3
100
AcDbPoint
 10
2.630934842174826
 20
2.072235560945143
 30
0.0
  0
ENDBLK
  5
227
330
21D
100
AcDbEntity
  8
0
 48
0.3
100
AcDbBlockEnd
  0
BLOCK
  5
23C
330
233
100
AcDbEntity
  8
0
 48
0.3
100
AcDbBlockBegin
  2
*D13
 70
     1
 10
0.0
 20
0.0
 30
0.0
  3
*D13
  1

  0
LINE
  5
2CC
330
233
100
AcDbEntity
  8
0
 62
     0
 48
0.3
370
    -2
100
AcDbLine
 10
5.12623652547794
 20
2.850019111777283
 30
0.0
 11
5.00123652547794
 21
2.850019111777283
 31
0.0
  0
LINE
  5
2CD
330
233
100
AcDbEntity
  8
0
 62
     0
 48
0.3
370
    -2
100
AcDbLine
 10
5.00123652547794
 20
2.850019111777283
 30
0.0
 11
3.396028541916127
 21
2.405815953110395
 31
0.0
  0
MTEXT
  5
2CE
330
233
100
AcDbEntity
  8
0
 62
     0
 48
0.3
100
AcDbMText
 10
5.507903192144605
 20
2.850019111777283
 30
0.0
 40
0.125
 41
0.0
 71
     5
 72
     1
  1
\A1;\U+22050.406
 73
     1
 44
1.0
  0
SOLID
  5
2CF
330
233
100
AcDbEntity
  8
0
 62
     0
 48
0.3
100
AcDbTrace
 10
3.390472231980638
 20
2.425894678111713
 30
0.0
 11
3.401584851851615
 21
2.385737228109076
 31
0.0
 12
3.275556191908216
 22
2.372478093497465
 32
0.0
 13
3.275556191908216
 23
2.372478093497465
 33
0.0
  0
LINE
  5
2D0
330
233
100
AcDbEntity
  8
0
 62
     0
 48
0.3
370
    -2
100
AcDbLine
 10
2.989909095495366
 20
2.318337409486068
 30
0.0
 11
3.169909095495366
 21
2.318337409486068
 31
0.0
  0
LINE
  5
2D1
330
233
100
AcDbEntity
  8
0
 62
     0
 48
0.3
370
    -2
100
AcDbLine
 10
3.079909095495366
 20
2.228337409486068
 30
0.0
 11
3.079909095495366
 21
2.408337409486068
 31
0.0
  0
POINT
  5
2D2
330
233
100
AcDbEntity
  8
Defpoints
 62
     0
 48
0.3
100
AcDbPoint
 10
3.275556191908216
 20
2.372478093497465
 30
0.0
  0
POINT
  5
2D3
330
233
100
AcDbEntity
  8
Defpoints
 62
     0
 48
0.3
100
AcDbPoint
 10
2.884261999082521
 20
2.264196725474671
 30
0.0
  0
ENDBLK
  5
23D
330
233
100
AcDbEntity
  8
0
 48
0.3
100
AcDbBlockEnd
  0
BLOCK
  5
2EC
330
2E1
100
AcDbEntity
  8
0
 48
0.3
100
AcDbBlockBegin
  2
*D14
 70
     1
 10
0.0
 20
0.0
 30
0.0
  3
*D14
  1

  0
LINE
  5
2E2
330
2E1
100
AcDbEntity
  8
0
 62
     0
 48
0.3
370
    -2
100
AcDbLine
 10
1.262380571626021
 20
1.770966721678474
 30
0.0
 11
1.262380571626021
 21
-0.2025516859547527
 31
0.0
  0
LINE
  5
2E3
330
2E1
100
AcDbEntity
  8
0
 62
     0
 48
0.3
370
    -2
100
AcDbLine
 10
-0.2376194283739785
 20
0.2709667216784748
 30
0.0
 11
-0.2376194283739786
 21
-0.2025516859547525
 31
0.0
  0
LINE
  5
2E4
330
2E1
100
AcDbEntity
  8
0
 62
     0
 48
0.3
370
    -2
100
AcDbLine
 10
1.137380571626021
 20
-0.0225516859547526
 30
0.0
 11
0.8107139049593545
 21
-0.0225516859547526
 31
0.0
  0
LINE
  5
2E5
330
2E1
100
AcDbEntity
  8
0
 62
     0
 48
0.3
370
    -2
100
AcDbLine
 10
-0.1126194283739786
 20
-0.0225516859547526
 30
0.0
 11
0.2140472382926881
 21
-0.0225516859547526
 31
0.0
  0
SOLID
  5
2E6
330
2E1
100
AcDbEntity
  8
0
 62
     0
 48
0.3
100
AcDbTrace
 10
1.137380571626021
 20
-0.0017183526214192
 30
0.0
 11
1.137380571626021
 21
-0.0433850192880859
 31
0.0
 12
1.262380571626021
 22
-0.0225516859547526
 32
0.0
 13
1.262380571626021
 23
-0.0225516859547526
 33
0.0
  0
SOLID
  5
2E7
330
2E1
100
AcDbEntity
  8
0
 62
     0
 48
0.3
100
AcDbTrace
 10
-0.1126194283739786
 20
-0.0017183526214192
 30
0.0
 11
-0.1126194283739786
 21
-0.0433850192880859
 31
0.0
 12
-0.2376194283739786
 22
-0.0225516859547526
 32
0.0
 13
-0.2376194283739786
 23
-0.0225516859547526
 33
0.0
  0
MTEXT
  5
2E8
330
2E1
100
AcDbEntity
  8
0
 62
     0
 48
0.3
100
AcDbMText
 10
0.5123805716260214
 20
-0.0225516859547526
 30
0.0
 40
0.125
 41
0.0
 71
     5
 72
     1
  1
\A1;1.500
 73
     1
 44
1.0
  0
POINT
  5
2E9
330
2E1
100
AcDbEntity
  8
Defpoints
 62
     0
 48
0.3
100
AcDbPoint
 10
1.262380571626021
 20
1.833466721678474
 30
0.0
  0
POINT
  5
2EA
330
2E1
100
AcDbEntity
  8
Defpoints
 62
     0
 48
0.3
100
AcDbPoint
 10
-0.2376194283739785
 20
0.3334667216784748
 30
0.0
  0
POINT
  5
2EB
330
2E1
100
AcDbEntity
  8
Defpoints
 62
     0
 48
0.3
100
AcDbPoint
 10
-0.2376194283739786
 20
-0.0225516859547526
 30
0.0
  0
ENDBLK
  5
2ED
330
2E1
100
AcDbEntity
  8
0
 48
0.3
100
AcDbBlockEnd
  0
BLOCK
  5
2F7
330
2EE
100
AcDbEntity
  8
0
 48
0.3
100
AcDbBlockBegin
  2
*D15
 70
     1
 10
0.0
 20
0.0
 30
0.0
  3
*D15
  1

  0
LINE
  5
2EF
330
2EE
100
AcDbEntity
  8
0
 62
     0
 48
0.3
370
    -2
100
AcDbLine
 10
2.681384123536979
 20
2.788801666423593
 30
0.0
 11
2.556384123536979
 21
2.788801666423593
 31
0.0
  0
LINE
  5
2F0
330
2EE
100
AcDbEntity
  8
0
 62
     0
 48
0.3
370
    -2
100
AcDbLine
 10
2.556384123536979
 20
2.788801666423593
 30
0.0
 11
2.437864890934699
 21
2.665714502671193
 31
0.0
  0
MTEXT
  5
2F1
330
2EE
100
AcDbEntity
  8
0
 62
     0
 48
0.3
100
AcDbMText
 10
3.073467456870312
 20
2.788801666423593
 30
0.0
 40
0.125
 41
0.0
 71
     5
 72
     1
  1
\A1;\U+22050.256
 73
     1
 44
1.0
  0
SOLID
  5
2F2
330
2EE
100
AcDbEntity
  8
0
 62
     0
 48
0.3
100
AcDbTrace
 10
2.422857662592083
 20
2.680164792469337
 30
0.0
 11
2.452872119277313
 21
2.651264212873047
 31
0.0
 12
2.351163152145826
 22
2.575671132615501
 32
0.0
 13
2.351163152145826
 23
2.575671132615501
 33
0.0
  0
LINE
  5
2F3
330
2EE
100
AcDbEntity
  8
0
 62
     0
 48
0.3
370
    -2
100
AcDbLine
 10
2.172380571626021
 20
2.483466721678474
 30
0.0
 11
2.35238057162602
 21
2.483466721678474
 31
0.0
  0
LINE
  5
2F4
330
2EE
100
AcDbEntity
  8
0
 62
     0
 48
0.3
370
    -2
100
AcDbLine
 10
2.262380571626021
 20
2.393466721678474
 30
0.0
 11
2.262380571626021
 21
2.573466721678474
 31
0.0
  0
POINT
  5
2F5
330
2EE
100
AcDbEntity
  8
Defpoints
 62
     0
 48
0.3
100
AcDbPoint
 10
2.351163152145826
 20
2.575671132615501
 30
0.0
  0
POINT
  5
2F6
330
2EE
100
AcDbEntity
  8
Defpoints
 62
     0
 48
0.3
100
AcDbPoint
 10
2.173597991106215
 20
2.391262310741447
 30
0.0
  0
ENDBLK
  5
2F8
330
2EE
100
AcDbEntity
  8
0
 48
0.3
100
AcDbBlockEnd
  0
BLOCK
  5
302
330
2F9
100
AcDbEntity
  8
0
 48
0.3
100
AcDbBlockBegin
  2
*D16
 70
     1
 10
0.0
 20
0.0
 30
0.0
  3
*D16
  1

  0
LINE
  5
2FA
330
2F9
100
AcDbEntity
  8
0
 62
     0
 48
0.3
370
    -2
100
AcDbLine
 10
2.899244707498143
 20
2.342700124810738
 30
0.0
 11
2.774244707498142
 21
2.342700124810738
 31
0.0
  0
LINE
  5
2FB
330
2F9
100
AcDbEntity
  8
0
 62
     0
 48
0.3
370
    -2
100
AcDbLine
 10
2.774244707498142
 20
2.342700124810738
 30
0.0
 11
2.563694160965154
 21
2.400603153811962
 31
0.0
  0
MTEXT
  5
2FC
330
2F9
100
AcDbEntity
  8
0
 62
     0
 48
0.3
100
AcDbMText
 10
3.291328040831476
 20
2.342700124810738
 30
0.0
 40
0.125
 41
0.0
 71
     5
 72
     1
  1
\A1;\U+22050.375
 73
     1
 44
1.0
  0
SOLID
  5
2FD
330
2F9
100
AcDbEntity
  8
0
 62
     0
 48
0.3
100
AcDbTrace
 10
2.569218398822922
 20
2.420690726434571
 30
0.0
 11
2.558169923107386
 21
2.380515581189353
 31
0.0
 12
2.4431687252295
 22
2.433748580958567
 32
0.0
 13
2.4431687252295
 23
2.433748580958567
 33
0.0
  0
LINE
  5
2FE
330
2F9
100
AcDbEntity
  8
0
 62
     0
 48
0.3
370
    -2
100
AcDbLine
 10
2.172380571626021
 20
2.483466721678472
 30
0.0
 11
2.352380571626019
 21
2.483466721678474
 31
0.0
  0
LINE
  5
2FF
330
2F9
100
AcDbEntity
  8
0
 62
     0
 48
0.3
370
    -2
100
AcDbLine
 10
2.262380571626021
 20
2.393466721678474
 30
0.0
 11
2.262380571626021
 21
2.573466721678474
 31
0.0
  0
POINT
  5
300
330
2F9
100
AcDbEntity
  8
Defpoints
 62
     0
 48
0.3
100
AcDbPoint
 10
2.4431687252295
 20
2.433748580958567
 30
0.0
  0
POINT
  5
301
330
2F9
100
AcDbEntity
  8
Defpoints
 62
     0
 48
0.3
100
AcDbPoint
 10
2.081592418022539
 20
2.533184862398381
 30
0.0
  0
ENDBLK
  5
303
330
2F9
100
AcDbEntity
  8
0
 48
0.3
100
AcDbBlockEnd
  0
BLOCK
  5
35B
330
352
100
AcDbEntity
  8
0
 48
0.3
100
AcDbBlockBegin
  2
*D17
 70
     1
 10
0.0
 20
0.0
 30
0.0
  3
*D17
  1

  0
LINE
  5
375
330
352
100
AcDbEntity
  8
0
 62
     0
 48
0.3
370
    -2
100
AcDbLine
 10
4.71677323136749
 20
2.827570812618331
 30
0.0
 11
4.591773231367488
 21
2.827570812618331
 31
0.0
  0
LINE
  5
376
330
352
100
AcDbEntity
  8
0
 62
     0
 48
0.3
370
    -2
100
AcDbLine
 10
4.591773231367488
 20
2.827570812618331
 30
0.0
 11
4.381222684834502
 21
2.885473841619556
 31
0.0
  0
MTEXT
  5
377
330
352
100
AcDbEntity
  8
0
 62
     0
 48
0.3
100
AcDbMText
 10
5.108856564700824
 20
2.827570812618331
 30
0.0
 40
0.125
 41
0.0
 71
     5
 72
     1
  1
\A1;\U+22050.375
 73
     1
 44
1.0
  0
SOLID
  5
378
330
352
100
AcDbEntity
  8
0
 62
     0
 48
0.3
100
AcDbTrace
 10
4.386746922692267
 20
2.905561414242166
 30
0.0
 11
4.375698446976732
 21
2.865386268996947
 31
0.0
 12
4.260697249098845
 22
2.918619268766161
 32
0.0
 13
4.260697249098845
 23
2.918619268766161
 33
0.0
  0
LINE
  5
379
330
352
100
AcDbEntity
  8
0
 62
     0
 48
0.3
370
    -2
100
AcDbLine
 10
3.989909095495366
 20
2.968337409486068
 30
0.0
 11
4.169909095495366
 21
2.968337409486068
 31
0.0
  0
LINE
  5
37A
330
352
100
AcDbEntity
  8
0
 62
     0
 48
0.3
370
    -2
100
AcDbLine
 10
4.079909095495366
 20
2.878337409486068
 30
0.0
 11
4.079909095495366
 21
3.058337409486068
 31
0.0
  0
POINT
  5
37B
330
352
100
AcDbEntity
  8
Defpoints
 62
     0
 48
0.3
100
AcDbPoint
 10
4.260697249098845
 20
2.918619268766161
 30
0.0
  0
POINT
  5
37C
330
352
100
AcDbEntity
  8
Defpoints
 62
     0
 48
0.3
100
AcDbPoint
 10
3.899120941891886
 20
3.018055550205973
 30
0.0
  0
ENDBLK
  5
35C
330
352
100
AcDbEntity
  8
0
 48
0.3
100
AcDbBlockEnd
  0
BLOCK
  5
366
330
35D
100
AcDbEntity
  8
0
 48
0.3
100
AcDbBlockBegin
  2
*D18
 70
     1
 10
0.0
 20
0.0
 30
0.0
  3
*D18
  1

  0
LINE
  5
37D
330
35D
100
AcDbEntity
  8
0
 62
     0
 48
0.3
370
    -2
100
AcDbLine
 10
4.498912647406328
 20
3.273672354231186
 30
0.0
 11
4.373912647406328
 21
3.273672354231186
 31
0.0
  0
LINE
  5
37E
330
35D
100
AcDbEntity
  8
0
 62
     0
 48
0.3
370
    -2
100
AcDbLine
 10
4.373912647406328
 20
3.273672354231186
 30
0.0
 11
4.255393414804045
 21
3.150585190478786
 31
0.0
  0
MTEXT
  5
37F
330
35D
100
AcDbEntity
  8
0
 62
     0
 48
0.3
100
AcDbMText
 10
4.890995980739661
 20
3.273672354231186
 30
0.0
 40
0.125
 41
0.0
 71
     5
 72
     1
  1
\A1;\U+22050.256
 73
     1
 44
1.0
  0
SOLID
  5
380
330
35D
100
AcDbEntity
  8
0
 62
     0
 48
0.3
100
AcDbTrace
 10
4.240386186461431
 20
3.165035480276931
 30
0.0
 11
4.270400643146659
 21
3.13613490068064
 31
0.0
 12
4.168691676015173
 22
3.060541820423095
 32
0.0
 13
4.168691676015173
 23
3.060541820423095
 33
0.0
  0
LINE
  5
381
330
35D
100
AcDbEntity
  8
0
 62
     0
 48
0.3
370
    -2
100
AcDbLine
 10
3.989909095495368
 20
2.968337409486069
 30
0.0
 11
4.169909095495366
 21
2.968337409486068
 31
0.0
  0
LINE
  5
382
330
35D
100
AcDbEntity
  8
0
 62
     0
 48
0.3
370
    -2
100
AcDbLine
 10
4.079909095495367
 20
2.878337409486069
 30
0.0
 11
4.079909095495367
 21
3.058337409486068
 31
0.0
  0
POINT
  5
383
330
35D
100
AcDbEntity
  8
Defpoints
 62
     0
 48
0.3
100
AcDbPoint
 10
4.168691676015173
 20
3.060541820423095
 30
0.0
  0
POINT
  5
384
330
35D
100
AcDbEntity
  8
Defpoints
 62
     0
 48
0.3
100
AcDbPoint
 10
3.991126514975562
 20
2.876132998549041
 30
0.0
  0
ENDBLK
  5
367
330
35D
100
AcDbEntity
  8
0
 48
0.3
100
AcDbBlockEnd
  0
BLOCK
  5
373
330
368
100
AcDbEntity
  8
0
 48
0.3
100
AcDbBlockBegin
  2
*D19
 70
     1
 10
0.0
 20
0.0
 30
0.0
  3
*D19
  1

  0
LINE
  5
3C3
330
368
100
AcDbEntity
  8
0
 62
     0
 48
0.3
370
    -2
100
AcDbLine
 10
3.079909095495366
 20
2.255837409486068
 30
0.0
 11
3.079909095495366
 21
0.2823190018528412
 31
0.0
  0
LINE
  5
3C4
330
368
100
AcDbEntity
  8
0
 62
     0
 48
0.3
370
    -2
100
AcDbLine
 10
1.579909095495366
 20
0.7558374094860687
 30
0.0
 11
1.579909095495366
 21
0.2823190018528414
 31
0.0
  0
LINE
  5
3C5
330
368
100
AcDbEntity
  8
0
 62
     0
 48
0.3
370
    -2
100
AcDbLine
 10
2.954909095495366
 20
0.4623190018528415
 30
0.0
 11
2.836575762162033
 21
0.4623190018528415
 31
0.0
  0
LINE
  5
3C6
330
368
100
AcDbEntity
  8
0
 62
     0
 48
0.3
370
    -2
100
AcDbLine
 10
1.704909095495366
 20
0.4623190018528415
 30
0.0
 11
2.239909095495366
 21
0.4623190018528415
 31
0.0
  0
SOLID
  5
3C7
330
368
100
AcDbEntity
  8
0
 62
     0
 48
0.3
100
AcDbTrace
 10
2.954909095495366
 20
0.4831523351861747
 30
0.0
 11
2.954909095495366
 21
0.4414856685195082
 31
0.0
 12
3.079909095495366
 22
0.4623190018528415
 32
0.0
 13
3.079909095495366
 23
0.4623190018528415
 33
0.0
  0
SOLID
  5
3C8
330
368
100
AcDbEntity
  8
0
 62
     0
 48
0.3
100
AcDbTrace
 10
1.704909095495366
 20
0.4831523351861747
 30
0.0
 11
1.704909095495366
 21
0.4414856685195082
 31
0.0
 12
1.579909095495366
 22
0.4623190018528415
 32
0.0
 13
1.579909095495366
 23
0.4623190018528415
 33
0.0
  0
MTEXT
  5
3C9
330
368
100
AcDbEntity
  8
0
 62
     0
 48
0.3
100
AcDbMText
 10
2.538242428828699
 20
0.4623190018528415
 30
0.0
 40
0.125
 41
0.0
 71
     5
 72
     1
  1
\A1;1.500
 73
     1
 44
1.0
  0
POINT
  5
3CA
330
368
100
AcDbEntity
  8
Defpoints
 62
     0
 48
0.3
100
AcDbPoint
 10
3.079909095495366
 20
2.318337409486068
 30
0.0
  0
POINT
  5
3CB
330
368
100
AcDbEntity
  8
Defpoints
 62
     0
 48
0.3
100
AcDbPoint
 10
1.579909095495366
 20
0.8183374094860687
 30
0.0
  0
POINT
  5
3CC
330
368
100
AcDbEntity
  8
Defpoints
 62
     0
 48
0.3
100
AcDbPoint
 10
1.579909095495366
 20
0.4623190018528415
 30
0.0
  0
ENDBLK
  5
374
330
368
100
AcDbEntity
  8
0
 48
0.3
100
AcDbBlockEnd
  0
BLOCK
  5
3D7
330
3CE
100
AcDbEntity
  8
0
 48
0.3
100
AcDbBlockBegin
  2
*D20
 70
     1
 10
0.0
 20
0.0
 30
0.0
  3
*D20
  1

  0
LINE
  5
3DA
330
3CE
100
AcDbEntity
  8
0
 62
     0
 48
0.3
370
    -2
100
AcDbLine
 10
3.751185659331333
 20
3.561047868784707
 30
0.0
 11
3.876185659331334
 21
3.561047868784707
 31
0.0
  0
LINE
  5
3DB
330
3CE
100
AcDbEntity
  8
0
 62
     0
 48
0.3
370
    -2
100
AcDbLine
 10
3.876185659331334
 20
3.561047868784707
 30
0.0
 11
3.99767141750158
 21
3.207598698285969
 31
0.0
  0
MTEXT
  5
3DC
330
3CE
100
AcDbEntity
  8
0
 62
     0
 48
0.3
100
AcDbMText
 10
3.359102325997999
 20
3.561047868784707
 30
0.0
 40
0.125
 41
0.0
 71
     5
 72
     1
  1
\A1;\U+22050.256
 73
     1
 44
1.0
  0
SOLID
  5
3DD
330
3CE
100
AcDbEntity
  8
0
 62
     0
 48
0.3
100
AcDbTrace
 10
4.017373434036485
 20
3.214370575591122
 30
0.0
 11
3.977969400966673
 21
3.200826820980816
 31
0.0
 12
4.038302681332503
 22
3.089386599076531
 32
0.0
 13
4.038302681332503
 23
3.089386599076531
 33
0.0
  0
LINE
  5
3DE
330
3CE
100
AcDbEntity
  8
0
 62
     0
 48
0.3
370
    -2
100
AcDbLine
 10
3.989909095495366
 20
2.968337409486068
 30
0.0
 11
4.169909095495366
 21
2.968337409486068
 31
0.0
  0
LINE
  5
3DF
330
3CE
100
AcDbEntity
  8
0
 62
     0
 48
0.3
370
    -2
100
AcDbLine
 10
4.079909095495366
 20
2.878337409486068
 30
0.0
 11
4.079909095495366
 21
3.058337409486068
 31
0.0
  0
POINT
  5
3E0
330
3CE
100
AcDbEntity
  8
Defpoints
 62
     0
 48
0.3
100
AcDbPoint
 10
4.038302681332503
 20
3.089386599076531
 30
0.0
  0
POINT
  5
3E1
330
3CE
100
AcDbEntity
  8
Defpoints
 62
     0
 48
0.3
100
AcDbPoint
 10
4.121515509658231
 20
2.847288219895602
 30
0.0
  0
ENDBLK
  5
3D8
330
3CE
100
AcDbEntity
  8
0
 48
0.3
100
AcDbBlockEnd
  0
BLOCK
  5
3ED
330
3E4
100
AcDbEntity
  8
0
 48
0.3
100
AcDbBlockBegin
  2
*D21
 70
     1
 10
0.0
 20
0.0
 30
0.0
  3
*D21
  1

  0
LINE
  5
3F0
330
3E4
100
AcDbEntity
  8
0
 62
     0
 48
0.3
370
    -2
100
AcDbLine
 10
2.727125655402204
 20
3.425666109428206
 30
0.0
 11
2.852125655402203
 21
3.425666109428206
 31
0.0
  0
LINE
  5
3F1
330
3E4
100
AcDbEntity
  8
0
 62
     0
 48
0.3
370
    -2
100
AcDbLine
 10
2.852125655402203
 20
3.425666109428206
 30
0.0
 11
2.951562133269936
 21
2.942273349537212
 31
0.0
  0
MTEXT
  5
3F2
330
3E4
100
AcDbEntity
  8
0
 62
     0
 48
0.3
100
AcDbMText
 10
2.355875655402203
 20
3.425666109428206
 30
0.0
 40
0.125
 41
0.0
 71
     5
 72
     1
  1
\A1;\U+22051.024
 73
     1
 44
1.0
  0
SOLID
  5
3F3
330
3E4
100
AcDbEntity
  8
0
 62
     0
 48
0.3
100
AcDbTrace
 10
2.971968201429639
 20
2.946470986972633
 30
0.0
 11
2.931156065110229
 21
2.93807571210179
 31
0.0
 12
2.976747957882461
 22
2.819836940578981
 32
0.0
 13
2.976747957882461
 23
2.819836940578981
 33
0.0
  0
LINE
  5
3F4
330
3E4
100
AcDbEntity
  8
0
 62
     0
 48
0.3
370
    -2
100
AcDbLine
 10
2.989909095495368
 20
2.318337409486068
 30
0.0
 11
3.169909095495368
 21
2.318337409486068
 31
0.0
  0
LINE
  5
3F5
330
3E4
100
AcDbEntity
  8
0
 62
     0
 48
0.3
370
    -2
100
AcDbLine
 10
3.079909095495368
 20
2.228337409486068
 30
0.0
 11
3.079909095495368
 21
2.408337409486069
 31
0.0
  0
POINT
  5
3F6
330
3E4
100
AcDbEntity
  8
Defpoints
 62
     0
 48
0.3
100
AcDbPoint
 10
2.976747957882461
 20
2.819836940578981
 30
0.0
  0
POINT
  5
3F7
330
3E4
100
AcDbEntity
  8
Defpoints
 62
     0
 48
0.3
100
AcDbPoint
 10
3.183070233108276
 20
1.816837878393157
 30
0.0
  0
ENDBLK
  5
3EE
330
3E4
100
AcDbEntity
  8
0
 48
0.3
100
AcDbBlockEnd
  0
BLOCK
  5
403
330
3FA
100
AcDbEntity
  8
0
 48
0.3
100
AcDbBlockBegin
  2
*D22
 70
     1
 10
0.0
 20
0.0
 30
0.0
  3
*D22
  1

  0
LINE
  5
406
330
3FA
100
AcDbEntity
  8
0
 62
     0
 48
0.3
370
    -2
100
AcDbLine
 10
3.407909095495368
 20
1.394939781749761
 30
0.0
 11
3.282909095495366
 21
1.394939781749761
 31
0.0
  0
LINE
  5
407
330
3FA
100
AcDbEntity
  8
0
 62
     0
 48
0.3
370
    -2
100
AcDbLine
 10
3.282909095495366
 20
1.394939781749761
 30
0.0
 11
3.150334957502828
 21
1.99798729170787
 31
0.0
  0
MTEXT
  5
408
330
3FA
100
AcDbEntity
  8
0
 62
     0
 48
0.3
100
AcDbMText
 10
3.789575762162034
 20
1.394939781749761
 30
0.0
 40
0.125
 41
0.0
 71
     5
 72
     1
  1
\A1;\U+22050.406
 73
     1
 44
1.0
  0
SOLID
  5
409
330
3FA
100
AcDbEntity
  8
0
 62
     0
 48
0.3
100
AcDbTrace
 10
3.170682398926749
 20
2.002460479081311
 30
0.0
 11
3.129987516078908
 21
1.993514104334428
 31
0.0
 12
3.123495833262182
 22
2.120071940251391
 32
0.0
 13
3.123495833262182
 23
2.120071940251391
 33
0.0
  0
LINE
  5
40A
330
3FA
100
AcDbEntity
  8
0
 62
     0
 48
0.3
370
    -2
100
AcDbLine
 10
2.989909095495368
 20
2.318337409486068
 30
0.0
 11
3.169909095495369
 21
2.318337409486068
 31
0.0
  0
LINE
  5
40B
330
3FA
100
AcDbEntity
  8
0
 62
     0
 48
0.3
370
    -2
100
AcDbLine
 10
3.079909095495368
 20
2.228337409486068
 30
0.0
 11
3.079909095495368
 21
2.408337409486069
 31
0.0
  0
POINT
  5
40C
330
3FA
100
AcDbEntity
  8
Defpoints
 62
     0
 48
0.3
100
AcDbPoint
 10
3.123495833262182
 20
2.120071940251391
 30
0.0
  0
POINT
  5
40D
330
3FA
100
AcDbEntity
  8
Defpoints
 62
     0
 48
0.3
100
AcDbPoint
 10
3.036322357728556
 20
2.516602878720747
 30
0.0
  0
ENDBLK
  5
404
330
3FA
100
AcDbEntity
  8
0
 48
0.3
100
AcDbBlockEnd
  0
BLOCK
  5
41C
330
410
100
AcDbEntity
  8
0
 48
0.3
100
AcDbBlockBegin
  2
*D23
 70
     1
 10
0.0
 20
0.0
 30
0.0
  3
*D23
  1

  0
LINE
  5
41F
330
410
100
AcDbEntity
  8
0
 62
     0
 48
0.3
370
    -2
100
AcDbLine
 10
1.754409095495367
 20
1.019337409486064
 30
0.0
 11
0.4884682647530596
 21
1.019337409486065
 31
0.0
  0
LINE
  5
420
330
410
100
AcDbEntity
  8
0
 62
     0
 48
0.3
370
    -2
100
AcDbLine
 10
1.517409095495368
 20
0.8183374094860694
 30
0.0
 11
0.4884682647530595
 21
0.8183374094860697
 31
0.0
  0
LINE
  5
421
330
410
100
AcDbEntity
  8
0
 62
     0
 48
0.3
370
    -2
100
AcDbLine
 10
0.6684682647530594
 20
1.144337409486064
 30
0.0
 11
0.6684682647530594
 21
1.269337409486064
 31
0.0
  0
LINE
  5
422
330
410
100
AcDbEntity
  8
0
 62
     0
 48
0.3
370
    -2
100
AcDbLine
 10
0.6684682647530594
 20
0.6933374094860697
 30
0.0
 11
0.6684682647530594
 21
0.5683374094860697
 31
0.0
  0
LINE
  5
423
330
410
100
AcDbEntity
  8
0
 62
     0
 48
0.3
370
    -2
100
AcDbLine
 10
0.6684682647530594
 20
0.5683374094860697
 30
0.0
 11
0.5434682647530594
 21
0.5683374094860697
 31
0.0
  0
SOLID
  5
424
330
410
100
AcDbEntity
  8
0
 62
     0
 48
0.3
100
AcDbTrace
 10
0.6476349314197261
 20
1.144337409486064
 30
0.0
 11
0.6893015980863927
 21
1.144337409486064
 31
0.0
 12
0.6684682647530594
 22
1.019337409486064
 32
0.0
 13
0.6684682647530594
 23
1.019337409486064
 33
0.0
  0
SOLID
  5
425
330
410
100
AcDbEntity
  8
0
 62
     0
 48
0.3
100
AcDbTrace
 10
0.647634931419726
 20
0.6933374094860697
 30
0.0
 11
0.6893015980863926
 21
0.6933374094860697
 31
0.0
 12
0.6684682647530594
 22
0.8183374094860697
 32
0.0
 13
0.6684682647530594
 23
0.8183374094860697
 33
0.0
  0
MTEXT
  5
426
330
410
100
AcDbEntity
  8
0
 62
     0
 48
0.3
100
AcDbMText
 10
0.2451349314197258
 20
0.5683374094860698
 30
0.0
 40
0.125
 41
0.0
 71
     5
 72
     1
  1
\A1;0.201
 73
     1
 44
1.0
  0
POINT
  5
427
330
410
100
AcDbEntity
  8
Defpoints
 62
     0
 48
0.3
100
AcDbPoint
 10
1.816909095495367
 20
1.019337409486064
 30
0.0
  0
POINT
  5
428
330
410
100
AcDbEntity
  8
Defpoints
 62
     0
 48
0.3
100
AcDbPoint
 10
1.579909095495368
 20
0.8183374094860694
 30
0.0
  0
POINT
  5
429
330
410
100
AcDbEntity
  8
Defpoints
 62
     0
 48
0.3
100
AcDbPoint
 10
0.6684682647530594
 20
0.8183374094860697
 30
0.0
  0
ENDBLK
  5
41D
330
410
100
AcDbEntity
  8
0
 48
0.3
100
AcDbBlockEnd
  0
BLOCK
  5
437
330
42C
100
AcDbEntity
  8
0
 48
0.3
100
AcDbBlockBegin
  2
*D24
 70
     1
 10
0.0
 20
0.0
 30
0.0
  3
*D24
  1

  0
LINE
  5
43A
330
42C
100
AcDbEntity
  8
0
 62
     0
 48
0.3
370
    -2
100
AcDbLine
 10
1.816909095495367
 20
0.9568374094860654
 30
0.0
 11
1.816909095495367
 21
-0.0321545560579042
 31
0.0
  0
LINE
  5
43B
330
42C
100
AcDbEntity
  8
0
 62
     0
 48
0.3
370
    -2
100
AcDbLine
 10
1.579909095495368
 20
0.7558374094860695
 30
0.0
 11
1.579909095495368
 21
-0.0321545560579043
 31
0.0
  0
LINE
  5
43C
330
42C
100
AcDbEntity
  8
0
 62
     0
 48
0.3
370
    -2
100
AcDbLine
 10
1.941909095495367
 20
0.1478454439420957
 30
0.0
 11
2.066909095495367
 21
0.1478454439420957
 31
0.0
  0
LINE
  5
43D
330
42C
100
AcDbEntity
  8
0
 62
     0
 48
0.3
370
    -2
100
AcDbLine
 10
1.454909095495368
 20
0.1478454439420957
 30
0.0
 11
1.329909095495367
 21
0.1478454439420957
 31
0.0
  0
SOLID
  5
43E
330
42C
100
AcDbEntity
  8
0
 62
     0
 48
0.3
100
AcDbTrace
 10
1.941909095495367
 20
0.1686787772754291
 30
0.0
 11
1.941909095495367
 21
0.1270121106087624
 31
0.0
 12
1.816909095495367
 22
0.1478454439420957
 32
0.0
 13
1.816909095495367
 23
0.1478454439420957
 33
0.0
  0
SOLID
  5
43F
330
42C
100
AcDbEntity
  8
0
 62
     0
 48
0.3
100
AcDbTrace
 10
1.454909095495368
 20
0.1686787772754291
 30
0.0
 11
1.454909095495368
 21
0.1270121106087624
 31
0.0
 12
1.579909095495368
 22
0.1478454439420957
 32
0.0
 13
1.579909095495368
 23
0.1478454439420957
 33
0.0
  0
MTEXT
  5
440
330
42C
100
AcDbEntity
  8
0
 62
     0
 48
0.3
100
AcDbMText
 10
1.000325762162035
 20
0.1478454439420957
 30
0.0
 40
0.125
 41
0.0
 71
     5
 72
     1
  1
\A1;0.237
 73
     1
 44
1.0
  0
POINT
  5
441
330
42C
100
AcDbEntity
  8
Defpoints
 62
     0
 48
0.3
100
AcDbPoint
 10
1.816909095495367
 20
1.019337409486064
 30
0.0
  0
POINT
  5
442
330
42C
100
AcDbEntity
  8
Defpoints
 62
     0
 48
0.3
100
AcDbPoint
 10
1.579909095495368
 20
0.8183374094860694
 30
0.0
  0
POINT
  5
443
330
42C
100
AcDbEntity
  8
Defpoints
 62
     0
 48
0.3
100
AcDbPoint
 10
1.579909095495368
 20
0.1478454439420957
 30
0.0
  0
ENDBLK
  5
438
330
42C
100
AcDbEntity
  8
0
 48
0.3
100
AcDbBlockEnd
  0
BLOCK
  5
44F
330
446
100
AcDbEntity
  8
0
 48
0.3
100
AcDbBlockBegin
  2
*D25
 70
     1
 10
0.0
 20
0.0
 30
0.0
  3
*D25
  1

  0
LINE
  5
452
330
446
100
AcDbEntity
  8
0
 62
     0
 48
0.3
370
    -2
100
AcDbLine
 10
4.977567935377043
 20
3.818337409486073
 30
0.0
 11
4.852567935377042
 21
3.818337409486073
 31
0.0
  0
LINE
  5
453
330
446
100
AcDbEntity
  8
0
 62
     0
 48
0.3
370
    -2
100
AcDbLine
 10
4.852567935377042
 20
3.818337409486073
 30
0.0
 11
4.693403834884542
 21
3.768305798048785
 31
0.0
  0
MTEXT
  5
454
330
446
100
AcDbEntity
  8
0
 62
     0
 48
0.3
100
AcDbMText
 10
5.348817935377041
 20
3.818337409486073
 30
0.0
 40
0.125
 41
0.0
 71
     5
 72
     1
  1
\A1;R0.125
 73
     1
 44
1.0
  0
SOLID
  5
455
330
446
100
AcDbEntity
  8
0
 62
     0
 48
0.3
100
AcDbTrace
 10
4.687156469170983
 20
3.788180359664548
 30
0.0
 11
4.699651200598103
 21
3.74843123643302
 31
0.0
 12
4.574156465189957
 22
3.730821603767426
 32
0.0
 13
4.574156465189957
 23
3.730821603767426
 33
0.0
  0
LINE
  5
456
330
446
100
AcDbEntity
  8
0
 62
     0
 48
0.3
370
    -2
100
AcDbLine
 10
4.364909095495369
 20
3.693337409486071
 30
0.0
 11
4.544909095495368
 21
3.693337409486069
 31
0.0
  0
LINE
  5
457
330
446
100
AcDbEntity
  8
0
 62
     0
 48
0.3
370
    -2
100
AcDbLine
 10
4.454909095495367
 20
3.603337409486069
 30
0.0
 11
4.454909095495367
 21
3.783337409486069
 31
0.0
  0
POINT
  5
458
330
446
100
AcDbEntity
  8
Defpoints
 62
     0
 48
0.3
100
AcDbPoint
 10
4.574156465189957
 20
3.730821603767426
 30
0.0
  0
POINT
  5
459
330
446
100
AcDbEntity
  8
Defpoints
 62
     0
 48
0.3
100
AcDbPoint
 10
4.454909095495367
 20
3.693337409486069
 30
0.0
  0
ENDBLK
  5
450
330
446
100
AcDbEntity
  8
0
 48
0.3
100
AcDbBlockEnd
  0
BLOCK
  5
467
330
45C
100
AcDbEntity
  8
0
 48
0.3
100
AcDbBlockBegin
  2
*D26
 70
     1
 10
0.0
 20
0.0
 30
0.0
  3
*D26
  1

  0
LINE
  5
46A
330
45C
100
AcDbEntity
  8
0
 62
     0
 48
0.3
370
    -2
100
AcDbLine
 10
2.017409095495366
 20
2.968337409486068
 30
0.0
 11
0.878399101628254
 21
2.968337409486069
 31
0.0
  0
LINE
  5
46B
330
45C
100
AcDbEntity
  8
0
 62
     0
 48
0.3
370
    -2
100
AcDbLine
 10
2.017409095495366
 20
1.669337409486065
 30
0.0
 11
0.8783991016282538
 21
1.669337409486065
 31
0.0
  0
LINE
  5
46C
330
45C
100
AcDbEntity
  8
0
 62
     0
 48
0.3
370
    -2
100
AcDbLine
 10
1.058399101628254
 20
2.843337409486068
 30
0.0
 11
1.058399101628252
 21
2.471337409486065
 31
0.0
  0
LINE
  5
46D
330
45C
100
AcDbEntity
  8
0
 62
     0
 48
0.3
370
    -2
100
AcDbLine
 10
1.058399101628252
 20
1.794337409486065
 30
0.0
 11
1.058399101628252
 21
2.166337409486066
 31
0.0
  0
SOLID
  5
46E
330
45C
100
AcDbEntity
  8
0
 62
     0
 48
0.3
100
AcDbTrace
 10
1.037565768294919
 20
2.843337409486068
 30
0.0
 11
1.079232434961586
 21
2.843337409486068
 31
0.0
 12
1.058399101628254
 22
2.968337409486068
 32
0.0
 13
1.058399101628254
 23
2.968337409486068
 33
0.0
  0
SOLID
  5
46F
330
45C
100
AcDbEntity
  8
0
 62
     0
 48
0.3
100
AcDbTrace
 10
1.037565768294919
 20
1.794337409486065
 30
0.0
 11
1.079232434961586
 21
1.794337409486065
 31
0.0
 12
1.058399101628252
 22
1.669337409486065
 32
0.0
 13
1.058399101628252
 23
1.669337409486065
 33
0.0
  0
MTEXT
  5
470
330
45C
100
AcDbEntity
  8
0
 62
     0
 48
0.3
100
AcDbMText
 10
1.058399101628252
 20
2.318837409486067
 30
0.0
 40
0.125
 41
0.0
 71
     5
 72
     1
  1
\A1;1.299
 73
     1
 44
1.0
  0
POINT
  5
471
330
45C
100
AcDbEntity
  8
Defpoints
 62
     0
 48
0.3
100
AcDbPoint
 10
2.079909095495366
 20
2.968337409486068
 30
0.0
  0
POINT
  5
472
330
45C
100
AcDbEntity
  8
Defpoints
 62
     0
 48
0.3
100
AcDbPoint
 10
2.079909095495366
 20
1.669337409486065
 30
0.0
  0
POINT
  5
473
330
45C
100
AcDbEntity
  8
Defpoints
 62
     0
 48
0.3
100
AcDbPoint
 10
1.058399101628252
 20
1.669337409486065
 30
0.0
  0
ENDBLK
  5
468
330
45C
100
AcDbEntity
  8
0
 48
0.3
100
AcDbBlockEnd
  0
BLOCK
  5
481
330
476
100
AcDbEntity
  8
0
 48
0.3
100
AcDbBlockBegin
  2
*D27
 70
     1
 10
0.0
 20
0.0
 30
0.0
  3
*D27
  1

  0
LINE
  5
484
330
476
100
AcDbEntity
  8
0
 62
     0
 48
0.3
370
    -2
100
AcDbLine
 10
2.017409095495366
 20
1.668337409486065
 30
0.0
 11
0.8509051263345806
 21
1.668337409486065
 31
0.0
  0
LINE
  5
485
330
476
100
AcDbEntity
  8
0
 62
     0
 48
0.3
370
    -2
100
AcDbLine
 10
2.017409095495366
 20
2.968337409486068
 30
0.0
 11
0.8509051263345808
 21
2.968337409486069
 31
0.0
  0
LINE
  5
486
330
476
100
AcDbEntity
  8
0
 62
     0
 48
0.3
370
    -2
100
AcDbLine
 10
1.030905126334579
 20
1.793337409486065
 30
0.0
 11
1.030905126334579
 21
2.165837409486067
 31
0.0
  0
LINE
  5
487
330
476
100
AcDbEntity
  8
0
 62
     0
 48
0.3
370
    -2
100
AcDbLine
 10
1.030905126334579
 20
2.843337409486068
 30
0.0
 11
1.030905126334579
 21
2.470837409486066
 31
0.0
  0
SOLID
  5
488
330
476
100
AcDbEntity
  8
0
 62
     0
 48
0.3
100
AcDbTrace
 10
1.010071793001247
 20
1.793337409486065
 30
0.0
 11
1.051738459667914
 21
1.793337409486065
 31
0.0
 12
1.030905126334579
 22
1.668337409486065
 32
0.0
 13
1.030905126334579
 23
1.668337409486065
 33
0.0
  0
SOLID
  5
489
330
476
100
AcDbEntity
  8
0
 62
     0
 48
0.3
100
AcDbTrace
 10
1.010071793001247
 20
2.843337409486068
 30
0.0
 11
1.051738459667914
 21
2.843337409486068
 31
0.0
 12
1.030905126334579
 22
2.968337409486068
 32
0.0
 13
1.030905126334579
 23
2.968337409486068
 33
0.0
  0
MTEXT
  5
48A
330
476
100
AcDbEntity
  8
0
 62
     0
 48
0.3
100
AcDbMText
 10
1.030905126334579
 20
2.318337409486066
 30
0.0
 40
0.125
 41
0.0
 71
     5
 72
     1
  1
\A1;1.300
 73
     1
 44
1.0
  0
POINT
  5
48B
330
476
100
AcDbEntity
  8
Defpoints
 62
     0
 48
0.3
100
AcDbPoint
 10
2.079909095495366
 20
1.668337409486065
 30
0.0
  0
POINT
  5
48C
330
476
100
AcDbEntity
  8
Defpoints
 62
     0
 48
0.3
100
AcDbPoint
 10
2.079909095495366
 20
2.968337409486068
 30
0.0
  0
POINT
  5
48D
330
476
100
AcDbEntity
  8
Defpoints
 62
     0
 48
0.3
100
AcDbPoint
 10
1.030905126334579
 20
2.968337409486068
 30
0.0
  0
ENDBLK
  5
482
330
476
100
AcDbEntity
  8
0
 48
0.3
100
AcDbBlockEnd
  0
BLOCK
  5
49B
330
490
100
AcDbEntity
  8
0
 48
0.3
100
AcDbBlockBegin
  2
*D28
 70
     1
 10
0.0
 20
0.0
 30
0.0
  3
*D28
  1

  0
LINE
  5
49E
330
490
100
AcDbEntity
  8
0
 62
     0
 48
0.3
370
    -2
100
AcDbLine
 10
2.017409095495366
 20
2.968337409486068
 30
0.0
 11
0.8646521139814137
 21
2.968337409486069
 31
0.0
  0
LINE
  5
49F
330
490
100
AcDbEntity
  8
0
 62
     0
 48
0.3
370
    -2
100
AcDbLine
 10
2.017409095495366
 20
3.818337409486072
 30
0.0
 11
0.8646521139814138
 21
3.818337409486073
 31
0.0
  0
LINE
  5
4A0
330
490
100
AcDbEntity
  8
0
 62
     0
 48
0.3
370
    -2
100
AcDbLine
 10
1.044652113981412
 20
3.093337409486068
 30
0.0
 11
1.044652113981412
 21
3.240837409486069
 31
0.0
  0
LINE
  5
4A1
330
490
100
AcDbEntity
  8
0
 62
     0
 48
0.3
370
    -2
100
AcDbLine
 10
1.044652113981412
 20
3.693337409486072
 30
0.0
 11
1.044652113981412
 21
3.545837409486069
 31
0.0
  0
SOLID
  5
4A2
330
490
100
AcDbEntity
  8
0
 62
     0
 48
0.3
100
AcDbTrace
 10
1.023818780648079
 20
3.093337409486068
 30
0.0
 11
1.065485447314745
 21
3.093337409486068
 31
0.0
 12
1.044652113981412
 22
2.968337409486068
 32
0.0
 13
1.044652113981412
 23
2.968337409486068
 33
0.0
  0
SOLID
  5
4A3
330
490
100
AcDbEntity
  8
0
 62
     0
 48
0.3
100
AcDbTrace
 10
1.023818780648079
 20
3.693337409486072
 30
0.0
 11
1.065485447314747
 21
3.693337409486072
 31
0.0
 12
1.044652113981412
 22
3.818337409486072
 32
0.0
 13
1.044652113981412
 23
3.818337409486072
 33
0.0
  0
MTEXT
  5
4A4
330
490
100
AcDbEntity
  8
0
 62
     0
 48
0.3
100
AcDbMText
 10
1.044652113981412
 20
3.393337409486071
 30
0.0
 40
0.125
 41
0.0
 71
     5
 72
     1
  1
\A1;0.850
 73
     1
 44
1.0
  0
POINT
  5
4A5
330
490
100
AcDbEntity
  8
Defpoints
 62
     0
 48
0.3
100
AcDbPoint
 10
2.079909095495366
 20
2.968337409486068
 30
0.0
  0
POINT
  5
4A6
330
490
100
AcDbEntity
  8
Defpoints
 62
     0
 48
0.3
100
AcDbPoint
 10
2.079909095495366
 20
3.818337409486072
 30
0.0
  0
POINT
  5
4A7
330
490
100
AcDbEntity
  8
Defpoints
 62
     0
 48
0.3
100
AcDbPoint
 10
1.044652113981412
 20
3.818337409486072
 30
0.0
  0
ENDBLK
  5
49C
330
490
100
AcDbEntity
  8
0
 48
0.3
100
AcDbBlockEnd
  0
BLOCK
  5
4B5
330
4AA
100
AcDbEntity
  8
0
 48
0.3
100
AcDbBlockBegin
  2
*D29
 70
     1
 10
0.0
 20
0.0
 30
0.0
  3
*D29
  1

  0
LINE
  5
4B8
330
4AA
100
AcDbEntity
  8
0
 62
     0
 48
0.3
370
    -2
100
AcDbLine
 10
2.079909095495366
 20
3.030837409486068
 30
0.0
 11
2.079909095495366
 21
4.319957216089465
 31
0.0
  0
LINE
  5
4B9
330
4AA
100
AcDbEntity
  8
0
 62
     0
 48
0.3
370
    -2
100
AcDbLine
 10
1.579909095495369
 20
3.030837409486068
 30
0.0
 11
1.579909095495369
 21
4.319957216089465
 31
0.0
  0
LINE
  5
4BA
330
4AA
100
AcDbEntity
  8
0
 62
     0
 48
0.3
370
    -2
100
AcDbLine
 10
1.954909095495366
 20
4.139957216089467
 30
0.0
 11
1.704909095495369
 21
4.139957216089467
 31
0.0
  0
LINE
  5
4BB
330
4AA
100
AcDbEntity
  8
0
 62
     0
 48
0.3
370
    -2
100
AcDbLine
 10
1.579909095495369
 20
4.139957216089467
 30
0.0
 11
1.454909095495369
 21
4.139957216089467
 31
0.0
  0
SOLID
  5
4BC
330
4AA
100
AcDbEntity
  8
0
 62
     0
 48
0.3
100
AcDbTrace
 10
1.954909095495366
 20
4.1607905494228
 30
0.0
 11
1.954909095495366
 21
4.119123882756134
 31
0.0
 12
2.079909095495366
 22
4.139957216089467
 32
0.0
 13
2.079909095495366
 23
4.139957216089467
 33
0.0
  0
SOLID
  5
4BD
330
4AA
100
AcDbEntity
  8
0
 62
     0
 48
0.3
100
AcDbTrace
 10
1.704909095495369
 20
4.1607905494228
 30
0.0
 11
1.704909095495369
 21
4.119123882756134
 31
0.0
 12
1.579909095495369
 22
4.139957216089467
 32
0.0
 13
1.579909095495369
 23
4.139957216089467
 33
0.0
  0
MTEXT
  5
4BE
330
4AA
100
AcDbEntity
  8
0
 62
     0
 48
0.3
100
AcDbMText
 10
1.146159095495369
 20
4.139957216089467
 30
0.0
 40
0.125
 41
0.0
 71
     5
 72
     1
  1
\A1;0.500
 73
     1
 44
1.0
  0
POINT
  5
4BF
330
4AA
100
AcDbEntity
  8
Defpoints
 62
     0
 48
0.3
100
AcDbPoint
 10
2.079909095495366
 20
2.968337409486068
 30
0.0
  0
POINT
  5
4C0
330
4AA
100
AcDbEntity
  8
Defpoints
 62
     0
 48
0.3
100
AcDbPoint
 10
1.579909095495369
 20
2.968337409486068
 30
0.0
  0
POINT
  5
4C1
330
4AA
100
AcDbEntity
  8
Defpoints
 62
     0
 48
0.3
100
AcDbPoint
 10
1.579909095495369
 20
4.139957216089467
 30
0.0
  0
ENDBLK
  5
4B6
330
4AA
100
AcDbEntity
  8
0
 48
0.3
100
AcDbBlockEnd
  0
BLOCK
  5
4CF
330
4C4
100
AcDbEntity
  8
0
 48
0.3
100
AcDbBlockBegin
  2
*D30
 70
     1
 10
0.0
 20
0.0
 30
0.0
  3
*D30
  1

  0
LINE
  5
4D2
330
4C4
100
AcDbEntity
  8
0
 62
     0
 48
0.3
370
    -2
100
AcDbLine
 10
2.079909095495366
 20
3.030837409486068
 30
0.0
 11
2.079909095495366
 21
4.319957216089465
 31
0.0
  0
LINE
  5
4D3
330
4C4
100
AcDbEntity
  8
0
 62
     0
 48
0.3
370
    -2
100
AcDbLine
 10
4.079909095495366
 20
3.030837409486068
 30
0.0
 11
4.079909095495366
 21
4.319957216089465
 31
0.0
  0
LINE
  5
4D4
330
4C4
100
AcDbEntity
  8
0
 62
     0
 48
0.3
370
    -2
100
AcDbLine
 10
2.204909095495366
 20
4.139957216089467
 30
0.0
 11
2.771159095495366
 21
4.139957216089467
 31
0.0
  0
LINE
  5
4D5
330
4C4
100
AcDbEntity
  8
0
 62
     0
 48
0.3
370
    -2
100
AcDbLine
 10
3.954909095495366
 20
4.139957216089467
 30
0.0
 11
3.388659095495366
 21
4.139957216089467
 31
0.0
  0
SOLID
  5
4D6
330
4C4
100
AcDbEntity
  8
0
 62
     0
 48
0.3
100
AcDbTrace
 10
2.204909095495366
 20
4.1607905494228
 30
0.0
 11
2.204909095495366
 21
4.119123882756134
 31
0.0
 12
2.079909095495366
 22
4.139957216089467
 32
0.0
 13
2.079909095495366
 23
4.139957216089467
 33
0.0
  0
SOLID
  5
4D7
330
4C4
100
AcDbEntity
  8
0
 62
     0
 48
0.3
100
AcDbTrace
 10
3.954909095495366
 20
4.1607905494228
 30
0.0
 11
3.954909095495366
 21
4.119123882756134
 31
0.0
 12
4.079909095495366
 22
4.139957216089467
 32
0.0
 13
4.079909095495366
 23
4.139957216089467
 33
0.0
  0
MTEXT
  5
4D8
330
4C4
100
AcDbEntity
  8
0
 62
     0
 48
0.3
100
AcDbMText
 10
3.079909095495366
 20
4.139957216089467
 30
0.0
 40
0.125
 41
0.0
 71
     5
 72
     1
  1
\A1;2.000
 73
     1
 44
1.0
  0
POINT
  5
4D9
330
4C4
100
AcDbEntity
  8
Defpoints
 62
     0
 48
0.3
100
AcDbPoint
 10
2.079909095495366
 20
2.968337409486068
 30
0.0
  0
POINT
  5
4DA
330
4C4
100
AcDbEntity
  8
Defpoints
 62
     0
 48
0.3
100
AcDbPoint
 10
4.079909095495366
 20
2.968337409486068
 30
0.0
  0
POINT
  5
4DB
330
4C4
100
AcDbEntity
  8
Defpoints
 62
     0
 48
0.3
100
AcDbPoint
 10
4.079909095495366
 20
4.139957216089467
 30
0.0
  0
ENDBLK
  5
4D0
330
4C4
100
AcDbEntity
  8
0
 48
0.3
100
AcDbBlockEnd
  0
BLOCK
  5
4E6
330
4DE
100
AcDbEntity
  8
0
 48
0.3
100
AcDbBlockBegin
  2
*D31
 70
     1
 10
0.0
 20
0.0
 30
0.0
  3
*D31
  1

  0
LINE
  5
4E9
330
4DE
100
AcDbEntity
  8
0
 62
     0
 48
0.3
370
    -2
100
AcDbLine
 10
5.155001712251816
 20
2.629524453795837
 30
0.0
 11
3.70986497428721
 21
2.41280746175449
 31
0.0
  0
MTEXT
  5
4EA
330
4DE
100
AcDbEntity
  8
0
 62
     0
 48
0.3
100
AcDbMText
 10
5.526251712251816
 20
2.629524453795837
 30
0.0
 40
0.125
 41
0.0
 71
     5
 72
     1
  1
\A1;\U+22051.024
 73
     1
 44
1.0
  0
SOLID
  5
4EB
330
4DE
100
AcDbEntity
  8
0
 62
     0
 48
0.3
100
AcDbTrace
 10
3.706775294398787
 20
2.433410414357572
 30
0.0
 11
3.712954654175633
 21
2.392204509151408
 31
0.0
 12
3.586247258668716
 22
2.394269382423951
 32
0.0
 13
3.586247258668716
 23
2.394269382423951
 33
0.0
  0
LINE
  5
4EC
330
4DE
100
AcDbEntity
  8
0
 62
     0
 48
0.3
370
    -2
100
AcDbLine
 10
2.989909095495368
 20
2.318337409486068
 30
0.0
 11
3.169909095495368
 21
2.318337409486068
 31
0.0
  0
LINE
  5
4ED
330
4DE
100
AcDbEntity
  8
0
 62
     0
 48
0.3
370
    -2
100
AcDbLine
 10
3.079909095495368
 20
2.228337409486069
 30
0.0
 11
3.079909095495368
 21
2.408337409486069
 31
0.0
  0
POINT
  5
4EE
330
4DE
100
AcDbEntity
  8
Defpoints
 62
     0
 48
0.3
100
AcDbPoint
 10
3.586247258668716
 20
2.394269382423951
 30
0.0
  0
POINT
  5
4EF
330
4DE
100
AcDbEntity
  8
Defpoints
 62
     0
 48
0.3
100
AcDbPoint
 10
2.573570932322019
 20
2.242405436548185
 30
0.0
  0
ENDBLK
  5
4E7
330
4DE
100
AcDbEntity
  8
0
 48
0.3
100
AcDbBlockEnd
  0
BLOCK
  5
4FB
330
4F2
100
AcDbEntity
  8
0
 48
0.3
100
AcDbBlockBegin
  2
*D32
 70
     1
 10
0.0
 20
0.0
 30
0.0
  3
*D32
  1

  0
LINE
  5
4FE
330
4F2
100
AcDbEntity
  8
0
 62
     0
 48
0.3
370
    -2
100
AcDbLine
 10
2.750555790656386
 20
3.055191878689076
 30
0.0
 11
2.625555790656385
 21
3.055191878689076
 31
0.0
  0
LINE
  5
4FF
330
4F2
100
AcDbEntity
  8
0
 62
     0
 48
0.3
370
    -2
100
AcDbLine
 10
2.625555790656385
 20
3.055191878689076
 30
0.0
 11
2.14048921574763
 21
2.613789707452189
 31
0.0
  0
MTEXT
  5
500
330
4F2
100
AcDbEntity
  8
0
 62
     0
 48
0.3
100
AcDbMText
 10
3.121805790656386
 20
3.055191878689076
 30
0.0
 40
0.125
 41
0.0
 71
     5
 72
     1
  1
\A1;R0.313
 73
     1
 44
1.0
  0
SOLID
  5
501
330
4F2
100
AcDbEntity
  8
0
 62
     0
 48
0.3
100
AcDbTrace
 10
2.126467677749244
 20
2.629198284607059
 30
0.0
 11
2.154510753746016
 21
2.59838113029732
 31
0.0
 12
2.048037752818413
 22
2.529660479461869
 32
0.0
 13
2.048037752818413
 23
2.529660479461869
 33
0.0
  0
LINE
  5
502
330
4F2
100
AcDbEntity
  8
0
 62
     0
 48
0.3
370
    -2
100
AcDbLine
 10
1.726909095495369
 20
2.319337409486065
 30
0.0
 11
1.90690909549537
 21
2.319337409486065
 31
0.0
  0
LINE
  5
503
330
4F2
100
AcDbEntity
  8
0
 62
     0
 48
0.3
370
    -2
100
AcDbLine
 10
1.816909095495369
 20
2.229337409486064
 30
0.0
 11
1.816909095495369
 21
2.409337409486064
 31
0.0
  0
POINT
  5
504
330
4F2
100
AcDbEntity
  8
Defpoints
 62
     0
 48
0.3
100
AcDbPoint
 10
2.048037752818413
 20
2.529660479461869
 30
0.0
  0
POINT
  5
505
330
4F2
100
AcDbEntity
  8
Defpoints
 62
     0
 48
0.3
100
AcDbPoint
 10
1.816909095495369
 20
2.319337409486065
 30
0.0
  0
ENDBLK
  5
4FC
330
4F2
100
AcDbEntity
  8
0
 48
0.3
100
AcDbBlockEnd
  0
BLOCK
  5
510
330
508
100
AcDbEntity
  8
0
 48
0.3
100
AcDbBlockBegin
  2
*D33
 70
     1
 10
0.0
 20
0.0
 30
0.0
  3
*D33
  1

  0
LINE
  5
513
330
508
100
AcDbEntity
  8
0
 62
     0
 48
0.3
370
    -2
100
AcDbLine
 10
4.990037860489771
 20
3.151310315994198
 30
0.0
 11
4.327946242387048
 21
3.018202966354863
 31
0.0
  0
MTEXT
  5
514
330
508
100
AcDbEntity
  8
0
 62
     0
 48
0.3
100
AcDbMText
 10
5.382121193823103
 20
3.151310315994198
 30
0.0
 40
0.125
 41
0.0
 71
     5
 72
     1
  1
\A1;\U+22050.256
 73
     1
 44
1.0
  0
SOLID
  5
515
330
508
100
AcDbEntity
  8
0
 62
     0
 48
0.3
100
AcDbTrace
 10
4.323840053580329
 20
3.038627632600884
 30
0.0
 11
4.332052431193766
 21
2.997778300108841
 31
0.0
 12
4.205398244910921
 22
2.993565833514549
 32
0.0
 13
4.205398244910921
 23
2.993565833514549
 33
0.0
  0
LINE
  5
516
330
508
100
AcDbEntity
  8
0
 62
     0
 48
0.3
370
    -2
100
AcDbLine
 10
3.989909095495368
 20
2.968337409486069
 30
0.0
 11
4.169909095495368
 21
2.968337409486069
 31
0.0
  0
LINE
  5
517
330
508
100
AcDbEntity
  8
0
 62
     0
 48
0.3
370
    -2
100
AcDbLine
 10
4.079909095495366
 20
2.878337409486069
 30
0.0
 11
4.079909095495366
 21
3.058337409486068
 31
0.0
  0
POINT
  5
518
330
508
100
AcDbEntity
  8
Defpoints
 62
     0
 48
0.3
100
AcDbPoint
 10
4.205398244910921
 20
2.993565833514549
 30
0.0
  0
POINT
  5
519
330
508
100
AcDbEntity
  8
Defpoints
 62
     0
 48
0.3
100
AcDbPoint
 10
3.954419946079813
 20
2.943108985457586
 30
0.0
  0
ENDBLK
  5
511
330
508
100
AcDbEntity
  8
0
 48
0.3
100
AcDbBlockEnd
  0
ENDSEC
  0
SECTION
  2
ENTITIES
  0
VIEWPORT
  5
77
330
58
100
AcDbEntity
 67
     1
  8
0
100
AcDbViewport
 10
3.544990697795337
 20
2.396774813416482
 30
0.0
 40
17.85232721864399
 41
7.666453939781316
 68
     1
 69
     1
 12
3.544990697795337
 22
2.396774813416482
 13
0.0
 23
0.0
 14
0.5
 24
0.5
 15
0.5
 25
0.5
 16
0.0
 26
0.0
 36
1.0
 17
0.0
 27
0.0
 37
0.0
 42
50.0
 43
0.0
 44
0.0
 45
7.666453939781316
 50
0.0
 51
0.0
 72
   100
 90
    32800
  1

281
     0
 71
     1
 74
     0
110
0.0
120
0.0
130
0.0
111
1.0
121
0.0
131
0.0
112
0.0
122
1.0
132
0.0
 79
     0
146
0.0
  0
LWPOLYLINE
  5
86
330
58
100
AcDbEntity
 67
     1
  8
0
100
AcDbPolyline
 90
        4
 70
     1
 43
0.0
 10
-1.439262267973588
 20
6.396855050259421
 10
8.966538218833356
 20
6.396855050259421
 10
8.966538218833356
 20
-1.41285528304607
 10
-1.439262267973588
 20
-1.41285528304607
  0
LINE
  5
8A
330
58
100
AcDbEntity
 67
     1
  8
0
100
AcDbLine
 10
8.966538218833356
 20
-1.41285528304607
 30
0.0
 11
8.966538218833356
 21
-0.4128552830460707
 31
0.0
  0
LINE
  5
8B
330
58
100
AcDbEntity
 67
     1
  8
0
100
AcDbLine
 10
8.966538218833356
 20
-0.4128552830460707
 30
0.0
 11
6.466538218833355
 21
-0.4128552830460703
 31
0.0
  0
LINE
  5
8C
330
58
100
AcDbEntity
 67
     1
  8
0
100
AcDbLine
 10
6.466538218833355
 20
-0.4128552830460703
 30
0.0
 11
4.966538218833356
 21
-0.4128552830460701
 31
0.0
  0
LINE
  5
8D
330
58
100
AcDbEntity
 67
     1
  8
0
100
AcDbLine
 10
4.966538218833356
 20
-0.4128552830460701
 30
0.0
 11
4.966538218833356
 21
-1.41285528304607
 31
0.0
  0
LINE
  5
8E
330
58
100
AcDbEntity
 67
     1
  8
0
100
AcDbLine
 10
6.466538218833355
 20
-0.4128552830460703
 30
0.0
 11
6.466538218833355
 21
-1.404250623233159
 31
0.0
  0
MTEXT
  5
8F
330
58
100
AcDbEntity
 67
     1
  8
0
100
AcDbMText
 10
5.020648721258949
 20
-0.5532836662080878
 30
0.0
 40
0.1
 41
1.5
 71
     1
 72
     5
  1
  Tolerances\P.XXXX = +/- .001\P.XXX  = +/- .005\P.XX   = +/- .015
 73
     1
 44
1.0
  0
MTEXT
  5
AA
330
58
100
AcDbEntity
 67
     1
  8
0
 48
0.3
100
AcDbMText
 10
6.527886818719793
 20
-0.4654429661910835
 30
0.0
 40
0.1
 41
2.5
 71
     1
 72
     5
  1
G0704 Y axis Extension\PRear Stepper Bearing \PBlock rev b\PDaniel E. Kemp\P{\fArial|b0|i0|c0|p32;\H1.625x;©\fMS Shell Dlg|b0|i0|c0|p32;\H0.6538x; }03-12-2011
 73
     1
 44
1.0
  0
MTEXT
  5
AC
330
58
100
AcDbEntity
 67
     1
  8
0
 48
0.3
100
AcDbMText
 10
-0.8330378939457148
 20
-0.9104262006358537
 30
0.0
 40
0.1625
 41
9.997099999999999
 71
     1
 72
     5
  1
{\fArial|b0|i0|c0|p32;© Daniel E. Kemp 2011}
 73
     1
 44
1.0
  0
LINE
  5
CD
102
{ACAD_REACTORS
330
105
102
}
330
58
100
AcDbEntity
 67
     1
  8
0
 48
0.3
100
AcDbLine
 10
1.704909095495369
 20
3.818337409486072
 30
0.0
 11
4.454909095495369
 21
3.818337409486072
 31
0.0
  0
LINE
  5
D0
330
58
100
AcDbEntity
 67
     1
  8
0
 48
0.3
100
AcDbLine
 10
1.57990909549537
 20
4.582653845994288
 30
0.0
 11
1.57990909549537
 21
5.582653845994287
 31
0.0
  0
LINE
  5
D1
102
{ACAD_REACTORS
330
205
102
}
330
58
100
AcDbEntity
 67
     1
  8
0
 48
0.3
100
AcDbLine
 10
1.57990909549537
 20
5.582653845994287
 30
0.0
 11
4.579909095495369
 21
5.582653845994287
 31
0.0
  0
LINE
  5
D2
330
58
100
AcDbEntity
 67
     1
  8
0
 48
0.3
100
AcDbLine
 10
4.579909095495369
 20
5.582653845994287
 30
0.0
 11
4.579909095495369
 21
4.582653845994288
 31
0.0
  0
LINE
  5
D3
102
{ACAD_REACTORS
330
205
102
}
330
58
100
AcDbEntity
 67
     1
  8
0
 48
0.3
100
AcDbLine
 10
4.579909095495369
 20
4.582653845994288
 30
0.0
 11
1.57990909549537
 21
4.582653845994288
 31
0.0
  0
CIRCLE
  5
D5
102
{ACAD_REACTORS
330
1B7
330
40E
102
}
330
58
100
AcDbEntity
 67
     1
  8
0
 48
0.3
100
AcDbCircle
 10
3.079909095495368
 20
2.318337409486068
 30
0.0
 40
0.203
  0
CIRCLE
  5
D6
102
{ACAD_REACTORS
330
4F0
102
}
330
58
100
AcDbEntity
 67
     1
  8
0
 48
0.3
100
AcDbCircle
 10
3.079909095495368
 20
2.318337409486068
 30
0.0
 40
0.512
  0
LINE
  5
D8
330
58
100
AcDbEntity
 67
     1
  8
0
  6
HIDDENX2
 48
0.3
100
AcDbLine
 10
2.567909095495368
 20
4.582653845994288
 30
0.0
 11
2.567909095495368
 21
4.932653845994288
 31
0.0
  0
LINE
  5
DA
330
58
100
AcDbEntity
 67
     1
  8
0
  6
HIDDENX2
 48
0.3
100
AcDbLine
 10
2.567909095495368
 20
5.582653845994287
 30
0.0
 11
2.567909095495368
 21
5.232653845994287
 31
0.0
  0
LINE
  5
DB
330
58
100
AcDbEntity
 67
     1
  8
0
  6
HIDDENX2
 48
0.3
100
AcDbLine
 10
2.567909095495368
 20
5.232653845994287
 30
0.0
 11
3.591909095495368
 21
5.232653845994287
 31
0.0
  0
LINE
  5
DC
102
{ACAD_REACTORS
330
1D1
102
}
330
58
100
AcDbEntity
 67
     1
  8
0
  6
HIDDENX2
 48
0.3
100
AcDbLine
 10
3.591909095495368
 20
5.232653845994287
 30
0.0
 11
3.591909095495368
 21
5.582653845994287
 31
0.0
  0
LINE
  5
DD
102
{ACAD_REACTORS
330
1EB
102
}
330
58
100
AcDbEntity
 67
     1
  8
0
  6
HIDDENX2
 48
0.3
100
AcDbLine
 10
2.567909095495368
 20
4.932653845994288
 30
0.0
 11
3.591909095495368
 21
4.932653845994288
 31
0.0
  0
LINE
  5
DE
102
{ACAD_REACTORS
330
1EB
102
}
330
58
100
AcDbEntity
 67
     1
  8
0
  6
HIDDENX2
 48
0.3
100
AcDbLine
 10
3.591909095495368
 20
4.932653845994288
 30
0.0
 11
3.591909095495368
 21
4.582653845994288
 31
0.0
  0
LINE
  5
E0
330
58
100
AcDbEntity
 67
     1
  8
0
  6
HIDDENX2
 48
0.3
100
AcDbLine
 10
3.282909095495368
 20
4.932653845994288
 30
0.0
 11
3.282909095495368
 21
5.232653845994287
 31
0.0
  0
LINE
  5
E2
330
58
100
AcDbEntity
 67
     1
  8
0
  6
HIDDENX2
 48
0.3
100
AcDbLine
 10
2.876909095495368
 20
4.932653845994288
 30
0.0
 11
2.876909095495368
 21
5.232653845994287
 31
0.0
  0
LINE
  5
E4
330
58
100
AcDbEntity
 67
     1
  8
0
  6
HIDDENX2
 48
0.3
100
AcDbLine
 10
1.951909095495368
 20
4.582653845994288
 30
0.0
 11
1.951909095495368
 21
5.582653845994287
 31
0.0
  0
LINE
  5
E6
330
58
100
AcDbEntity
 67
     1
  8
0
  6
HIDDENX2
 48
0.3
100
AcDbLine
 10
2.207909095495368
 20
4.582653845994288
 30
0.0
 11
2.207909095495368
 21
5.582653845994287
 31
0.0
  0
LINE
  5
E8
330
58
100
AcDbEntity
 67
     1
  8
0
  6
HIDDENX2
 48
0.3
100
AcDbLine
 10
3.951909095495368
 20
4.582653845994288
 30
0.0
 11
3.951909095495368
 21
5.582653845994287
 31
0.0
  0
LINE
  5
EA
330
58
100
AcDbEntity
 67
     1
  8
0
  6
HIDDENX2
 48
0.3
100
AcDbLine
 10
4.207909095495367
 20
4.582653845994288
 30
0.0
 11
4.207909095495367
 21
5.582653845994287
 31
0.0
  0
DIMENSION
  5
EB
102
{ACAD_XDICTIONARY
360
FA
102
}
102
{ACAD_REACTORS
330
105
102
}
330
58
100
AcDbEntity
 67
     1
  8
0
 48
0.3
100
AcDbDimension
  2
*D1
 10
0.2230691440184083
 20
0.8183374094860697
 30
0.0
 11
0.2230691440184082
 21
2.31833740948607
 31
0.0
 70
    32
 71
     5
 42
3.000000000000003
  3
Standard
100
AcDbAlignedDimension
 13
1.704909095495369
 23
3.818337409486072
 33
0.0
 14
1.579909095495368
 24
0.8183374094860694
 34
0.0
 50
90.0
100
AcDbRotatedDimension
  0
DIMENSION
  5
106
330
58
100
AcDbEntity
 67
     1
  8
0
 48
0.3
100
AcDbDimension
  2
*D2
 10
4.579909095495367
 20
-0.1871421330737013
 30
0.0
 11
3.079909095495368
 21
-0.1871421330737013
 31
0.0
 70
    32
 71
     5
 42
3.0
  3
Standard
100
AcDbAlignedDimension
 13
1.579909095495368
 23
0.8183374094860694
 33
0.0
 14
4.579909095495367
 24
0.8183374094860694
 34
0.0
100
AcDbRotatedDimension
  0
DIMENSION
  5
16A
330
58
100
AcDbEntity
 67
     1
  8
0
 48
0.3
100
AcDbDimension
  2
*D5
 10
1.579909095495368
 20
0.455643309212819
 30
0.0
 11
1.146159095495367
 21
0.455643309212819
 31
0.0
 70
    32
 71
     5
 42
0.4999999999999992
  3
Standard
100
AcDbAlignedDimension
 13
2.079909095495366
 23
1.669337409486065
 33
0.0
 14
1.579909095495368
 24
0.8183374094860694
 34
0.0
100
AcDbRotatedDimension
  0
DIMENSION
  5
19E
102
{ACAD_XDICTIONARY
360
1AC
102
}
102
{ACAD_REACTORS
330
1B7
102
}
330
58
100
AcDbEntity
 67
     1
  8
0
 48
0.3
100
AcDbDimension
  2
*D7
 10
5.242558103212791
 20
0.8183374094860692
 30
0.0
 11
5.242558103212791
 21
1.56833740948607
 31
0.0
 70
    32
 71
     5
 42
1.5
  3
Standard
100
AcDbAlignedDimension
 13
3.079909095495368
 23
2.318337409486068
 33
0.0
 14
4.579909095495367
 24
0.8183374094860694
 34
0.0
 50
90.0
100
AcDbRotatedDimension
  0
DIMENSION
  5
1B8
102
{ACAD_XDICTIONARY
360
1C6
102
}
102
{ACAD_REACTORS
330
1D1
102
}
330
58
100
AcDbEntity
 67
     1
  8
0
 48
0.3
100
AcDbDimension
  2
*D8
 10
5.403439155036029
 20
5.582653845994287
 30
0.0
 11
5.403439155036029
 21
5.407653845994288
 31
0.0
 70
    32
 71
     5
 42
0.3499999999999996
  3
Standard
100
AcDbAlignedDimension
 13
3.591909095495368
 23
5.232653845994287
 33
0.0
 14
3.591909095495368
 24
5.582653845994287
 34
0.0
 50
90.0
100
AcDbRotatedDimension
  0
DIMENSION
  5
1D2
102
{ACAD_XDICTIONARY
360
1E0
102
}
102
{ACAD_REACTORS
330
1EB
102
}
330
58
100
AcDbEntity
 67
     1
  8
0
 48
0.3
100
AcDbDimension
  2
*D9
 10
5.403439155036029
 20
4.582653845994288
 30
0.0
 11
5.403439155036029
 21
4.757653845994289
 31
0.0
 70
    32
 71
     5
 42
0.3499999999999996
  3
Standard
100
AcDbAlignedDimension
 13
3.591909095495368
 23
4.932653845994288
 33
0.0
 14
3.591909095495368
 24
4.582653845994288
 34
0.0
 50
90.0
100
AcDbRotatedDimension
  0
DIMENSION
  5
1EC
102
{ACAD_XDICTIONARY
360
1FA
102
}
102
{ACAD_REACTORS
330
205
102
}
330
58
100
AcDbEntity
 67
     1
  8
0
 48
0.3
100
AcDbDimension
  2
*D10
 10
0.8987696091124329
 20
4.582653845994288
 30
0.0
 11
0.8987696091124323
 21
5.082653845994288
 31
0.0
 70
    32
 71
     5
 42
-1.0
  3
Standard
100
AcDbAlignedDimension
 13
1.57990909549537
 23
5.582653845994287
 33
0.0
 14
1.57990909549537
 24
4.582653845994288
 34
0.0
 50
90.0
100
AcDbRotatedDimension
  0
LINE
  5
32D
330
58
100
AcDbEntity
 67
     1
  8
0
 48
0.3
100
AcDbLine
 10
1.579909095495369
 20
3.693337409486072
 30
0.0
 11
1.579909095495368
 21
2.756837409486065
 31
0.0
  0
CIRCLE
  5
334
102
{ACAD_REACTORS
330
3E2
330
51A
102
}
330
58
100
AcDbEntity
 67
     1
  8
0
 48
0.3
100
AcDbCircle
 10
4.079909095495366
 20
2.968337409486068
 30
0.0
 40
0.128
  0
CIRCLE
  5
336
102
{ACAD_REACTORS
330
48E
330
4A8
330
4C2
330
4DC
102
}
330
58
100
AcDbEntity
 67
     1
  8
0
 48
0.3
100
AcDbCircle
 10
2.079909095495366
 20
2.968337409486068
 30
0.0
 40
0.128
  0
ARC
  5
338
330
58
100
AcDbEntity
 67
     1
  8
0
 48
0.3
100
AcDbCircle
 10
2.254409095495366
 20
0.9433374094860688
 30
0.0
 40
0.125
100
AcDbArc
 50
180.0
 51
270.0
  0
ARC
  5
339
102
{ACAD_REACTORS
330
42A
330
444
102
}
330
58
100
AcDbEntity
 67
     1
  8
0
 48
0.3
100
AcDbCircle
 10
1.816909095495367
 20
1.019337409486064
 30
0.0
 40
0.3125
100
AcDbArc
 50
0.0
 51
90.0
  0
ARC
  5
33A
102
{ACAD_REACTORS
330
506
102
}
330
58
100
AcDbEntity
 67
     1
  8
0
 48
0.3
100
AcDbCircle
 10
1.816909095495369
 20
2.319337409486065
 30
0.0
 40
0.3125
100
AcDbArc
 50
270.0
 51
90.0
  0
CIRCLE
  5
33C
102
{ACAD_REACTORS
330
48E
102
}
330
58
100
AcDbEntity
 67
     1
  8
0
 48
0.3
100
AcDbCircle
 10
2.079909095495366
 20
1.668337409486065
 30
0.0
 40
0.128
  0
DIMENSION
  5
33D
330
58
100
AcDbEntity
 67
     1
  8
0
 48
0.3
100
AcDbDimension
  2
*D19
 10
1.579909095495366
 20
0.4623190018528415
 30
0.0
 11
2.538242428828699
 21
0.4623190018528415
 31
0.0
 70
   160
 71
     5
 42
1.5
  3
Standard
100
AcDbAlignedDimension
 13
3.079909095495366
 23
2.318337409486068
 33
0.0
 14
1.579909095495366
 24
0.8183374094860687
 34
0.0
100
AcDbRotatedDimension
  0
LINE
  5
340
330
58
100
AcDbEntity
 67
     1
  8
0
 48
0.3
100
AcDbLine
 10
1.579909095495368
 20
1.881837409486065
 30
0.0
 11
1.579909095495368
 21
1.456837409486064
 31
0.0
  0
ARC
  5
341
330
58
100
AcDbEntity
 67
     1
  8
0
 48
0.3
100
AcDbCircle
 10
1.704909095495368
 20
1.456837409486064
 30
0.0
 40
0.125
100
AcDbArc
 50
179.9999999999999
 51
270.0
  0
LINE
  5
342
330
58
100
AcDbEntity
 67
     1
  8
0
 48
0.3
100
AcDbLine
 10
1.816909095495367
 20
1.331837409486064
 30
0.0
 11
1.704909095495368
 21
1.331837409486064
 31
0.0
  0
ARC
  5
343
330
58
100
AcDbEntity
 67
     1
  8
0
 48
0.3
100
AcDbCircle
 10
1.704909095495368
 20
1.881837409486065
 30
0.0
 40
0.125
100
AcDbArc
 50
90.0
 51
179.9999999999999
  0
LINE
  5
344
330
58
100
AcDbEntity
 67
     1
  8
0
 48
0.3
100
AcDbLine
 10
1.816909095495369
 20
2.006837409486065
 30
0.0
 11
1.704909095495368
 21
2.006837409486065
 31
0.0
  0
ARC
  5
345
330
58
100
AcDbEntity
 67
     1
  8
0
 48
0.3
100
AcDbCircle
 10
1.704909095495368
 20
2.756837409486065
 30
0.0
 40
0.125
100
AcDbArc
 50
179.9999999999999
 51
270.0
  0
LINE
  5
346
330
58
100
AcDbEntity
 67
     1
  8
0
 48
0.3
100
AcDbLine
 10
1.816909095495369
 20
2.631837409486065
 30
0.0
 11
1.704909095495368
 21
2.631837409486065
 31
0.0
  0
LINE
  5
347
330
58
100
AcDbEntity
 67
     1
  8
0
 48
0.3
100
AcDbLine
 10
2.254409095495366
 20
0.8183374094860687
 30
0.0
 11
3.951409095495368
 21
0.8183374094860687
 31
0.0
  0
LINE
  5
348
330
58
100
AcDbEntity
 67
     1
  8
0
 48
0.3
100
AcDbLine
 10
2.129409095495367
 20
1.019337409486064
 30
0.0
 11
2.129409095495367
 21
0.9433374094860688
 31
0.0
  0
CIRCLE
  5
34B
330
58
100
AcDbEntity
 67
     1
  8
0
 48
0.3
100
AcDbCircle
 10
4.079909095495366
 20
1.668337409486065
 30
0.0
 40
0.128
  0
LINE
  5
34E
330
58
100
AcDbEntity
 67
     1
  8
0
 48
0.3
100
AcDbLine
 10
4.076409095495368
 20
1.019337409486064
 30
0.0
 11
4.076409095495368
 21
0.9433374094860688
 31
0.0
  0
ARC
  5
350
330
58
100
AcDbEntity
 67
     1
  8
0
 48
0.3
100
AcDbCircle
 10
3.951409095495368
 20
0.9433374094860688
 30
0.0
 40
0.125
100
AcDbArc
 50
270.0
 51
0.0
  0
ARC
  5
351
330
58
100
AcDbEntity
 67
     1
  8
0
 48
0.3
100
AcDbCircle
 10
4.388909095495368
 20
2.319337409486065
 30
0.0
 40
0.3125
100
AcDbArc
 50
90.0
 51
270.0
  0
LINE
  5
38F
330
58
100
AcDbEntity
 67
     1
  8
0
 48
0.3
100
AcDbLine
 10
4.388909095495368
 20
2.631837409486065
 30
0.0
 11
4.454909095495369
 21
2.631837409486065
 31
0.0
  0
LINE
  5
390
330
58
100
AcDbEntity
 67
     1
  8
0
 48
0.3
100
AcDbLine
 10
4.388909095495368
 20
2.006837409486065
 30
0.0
 11
4.454909095495367
 21
2.006837409486065
 31
0.0
  0
LINE
  5
391
330
58
100
AcDbEntity
 67
     1
  8
0
 48
0.3
100
AcDbLine
 10
4.388909095495368
 20
1.331837409486064
 30
0.0
 11
4.454909095495369
 21
1.331837409486064
 31
0.0
  0
LINE
  5
3A6
330
58
100
AcDbEntity
 67
     1
  8
0
 48
0.3
100
AcDbLine
 10
4.579909095495369
 20
3.693337409486072
 30
0.0
 11
4.579909095495369
 21
2.756837409486065
 31
0.0
  0
LINE
  5
3A7
330
58
100
AcDbEntity
 67
     1
  8
0
 48
0.3
100
AcDbLine
 10
4.579909095495367
 20
1.881837409486065
 30
0.0
 11
4.579909095495369
 21
1.456837409486064
 31
0.0
  0
ARC
  5
3A9
330
58
100
AcDbEntity
 67
     1
  8
0
 48
0.3
100
AcDbCircle
 10
4.388909095495368
 20
1.019337409486064
 30
0.0
 40
0.3125
100
AcDbArc
 50
90.0
 51
180.0
  0
ARC
  5
3AA
330
58
100
AcDbEntity
 67
     1
  8
0
 48
0.3
100
AcDbCircle
 10
4.454909095495369
 20
2.756837409486065
 30
0.0
 40
0.125
100
AcDbArc
 50
270.0
 51
0.0
  0
ARC
  5
3AB
330
58
100
AcDbEntity
 67
     1
  8
0
 48
0.3
100
AcDbCircle
 10
4.454909095495367
 20
1.881837409486065
 30
0.0
 40
0.125
100
AcDbArc
 50
0.0
 51
90.0
  0
ARC
  5
3AC
330
58
100
AcDbEntity
 67
     1
  8
0
 48
0.3
100
AcDbCircle
 10
4.454909095495369
 20
1.456837409486064
 30
0.0
 40
0.125
100
AcDbArc
 50
270.0
 51
0.0
  0
ARC
  5
3AD
330
58
100
AcDbEntity
 67
     1
  8
0
 48
0.3
100
AcDbCircle
 10
1.704909095495369
 20
3.693337409486072
 30
0.0
 40
0.125
100
AcDbArc
 50
89.99999999999998
 51
179.9999999999999
  0
ARC
  5
3B8
102
{ACAD_REACTORS
330
45A
102
}
330
58
100
AcDbEntity
 67
     1
  8
0
 48
0.3
100
AcDbCircle
 10
4.454909095495369
 20
3.693337409486072
 30
0.0
 40
0.125
100
AcDbArc
 50
0.0000000000000509
 51
90.0
  0
DIMENSION
  5
3CD
102
{ACAD_XDICTIONARY
360
3D9
102
}
102
{ACAD_REACTORS
330
3E2
102
}
330
58
100
AcDbEntity
 67
     1
  8
0
 48
0.3
100
AcDbDimension
  2
*D20
 10
4.121515509658231
 20
2.847288219895602
 30
0.0
 11
3.359102325997999
 21
3.561047868784707
 31
0.0
 70
   163
 71
     5
 42
0.2560000000000002
  3
Standard
100
AcDbDiametricDimension
 15
4.038302681332503
 25
3.089386599076531
 35
0.0
 40
0.0
1001
ACAD
1000
DSTYLE
1002
{
1070
   288
1070
     1
1002
}
  0
DIMENSION
  5
3F9
102
{ACAD_XDICTIONARY
360
405
102
}
102
{ACAD_REACTORS
330
40E
102
}
330
58
100
AcDbEntity
 67
     1
  8
0
 48
0.3
100
AcDbDimension
  2
*D22
 10
3.036322357728556
 20
2.516602878720747
 30
0.0
 11
3.789575762162034
 21
1.394939781749761
 31
0.0
 70
   163
 71
     5
 42
0.4059999999999994
  3
Standard
100
AcDbDiametricDimension
 15
3.123495833262182
 25
2.120071940251391
 35
0.0
 40
0.0
1001
ACAD
1000
DSTYLE
1002
{
1070
   288
1070
     1
1002
}
  0
DIMENSION
  5
40F
102
{ACAD_XDICTIONARY
360
41E
102
}
102
{ACAD_REACTORS
330
42A
102
}
330
58
100
AcDbEntity
 67
     1
  8
0
 48
0.3
100
AcDbDimension
  2
*D23
 10
0.6684682647530594
 20
0.8183374094860697
 30
0.0
 11
0.2451349314197258
 21
0.5683374094860698
 31
0.0
 70
    32
 71
     5
 42
0.2009999999999964
  3
Standard
100
AcDbAlignedDimension
 13
1.816909095495367
 23
1.019337409486064
 33
0.0
 14
1.579909095495368
 24
0.8183374094860694
 34
0.0
 50
90.0
100
AcDbRotatedDimension
  0
DIMENSION
  5
42B
102
{ACAD_XDICTIONARY
360
439
102
}
102
{ACAD_REACTORS
330
444
102
}
330
58
100
AcDbEntity
 67
     1
  8
0
 48
0.3
100
AcDbDimension
  2
*D24
 10
1.579909095495368
 20
0.1478454439420957
 30
0.0
 11
1.000325762162035
 21
0.1478454439420957
 31
0.0
 70
    32
 71
     5
 42
0.2369999999999985
  3
Standard
100
AcDbAlignedDimension
 13
1.816909095495367
 23
1.019337409486064
 33
0.0
 14
1.579909095495368
 24
0.8183374094860694
 34
0.0
100
AcDbRotatedDimension
  0
DIMENSION
  5
445
102
{ACAD_XDICTIONARY
360
451
102
}
102
{ACAD_REACTORS
330
45A
102
}
330
58
100
AcDbEntity
 67
     1
  8
0
 48
0.3
100
AcDbDimension
  2
*D25
 10
4.454909095495367
 20
3.693337409486069
 30
0.0
 11
5.348817935377041
 21
3.818337409486073
 31
0.0
 70
   164
 71
     5
 42
0.1250000000000018
  3
Standard
100
AcDbRadialDimension
 15
4.574156465189957
 25
3.730821603767426
 35
0.0
 40
0.0
1001
ACAD
1000
DSTYLE
1002
{
1070
   288
1070
     1
1002
}
  0
DIMENSION
  5
475
102
{ACAD_XDICTIONARY
360
483
102
}
102
{ACAD_REACTORS
330
48E
102
}
330
58
100
AcDbEntity
 67
     1
  8
0
 48
0.3
100
AcDbDimension
  2
*D27
 10
1.030905126334579
 20
2.968337409486068
 30
0.0
 11
1.030905126334579
 21
2.318337409486066
 31
0.0
 70
    32
 71
     5
 42
1.300000000000002
  3
Standard
100
AcDbAlignedDimension
 13
2.079909095495366
 23
1.668337409486065
 33
0.0
 14
2.079909095495366
 24
2.968337409486068
 34
0.0
 50
90.0
100
AcDbRotatedDimension
  0
DIMENSION
  5
48F
102
{ACAD_XDICTIONARY
360
49D
102
}
102
{ACAD_REACTORS
330
4A8
102
}
330
58
100
AcDbEntity
 67
     1
  8
0
 48
0.3
100
AcDbDimension
  2
*D28
 10
1.044652113981412
 20
3.818337409486072
 30
0.0
 11
1.044652113981412
 21
3.393337409486071
 31
0.0
 70
    32
 71
     5
 42
0.8500000000000039
  3
Standard
100
AcDbAlignedDimension
 13
2.079909095495366
 23
2.968337409486068
 33
0.0
 14
2.079909095495366
 24
3.818337409486072
 34
0.0
 50
90.0
100
AcDbRotatedDimension
  0
DIMENSION
  5
4A9
102
{ACAD_XDICTIONARY
360
4B7
102
}
102
{ACAD_REACTORS
330
4C2
102
}
330
58
100
AcDbEntity
 67
     1
  8
0
 48
0.3
100
AcDbDimension
  2
*D29
 10
1.579909095495369
 20
4.139957216089467
 30
0.0
 11
1.146159095495369
 21
4.139957216089467
 31
0.0
 70
    32
 71
     5
 42
0.4999999999999988
  3
Standard
100
AcDbAlignedDimension
 13
2.079909095495366
 23
2.968337409486068
 33
0.0
 14
1.579909095495369
 24
2.968337409486068
 34
0.0
100
AcDbRotatedDimension
  0
DIMENSION
  5
4C3
102
{ACAD_XDICTIONARY
360
4D1
102
}
102
{ACAD_REACTORS
330
4DC
102
}
330
58
100
AcDbEntity
 67
     1
  8
0
 48
0.3
100
AcDbDimension
  2
*D30
 10
4.079909095495366
 20
4.139957216089467
 30
0.0
 11
3.079909095495366
 21
4.139957216089467
 31
0.0
 70
    32
 71
     5
 42
1.999999999999999
  3
Standard
100
AcDbAlignedDimension
 13
2.079909095495366
 23
2.968337409486068
 33
0.0
 14
4.079909095495366
 24
2.968337409486068
 34
0.0
100
AcDbRotatedDimension
  0
DIMENSION
  5
4DD
102
{ACAD_XDICTIONARY
360
4E8
102
}
102
{ACAD_REACTORS
330
4F0
102
}
330
58
100
AcDbEntity
 67
     1
  8
0
 48
0.3
100
AcDbDimension
  2
*D31
 10
2.573570932322019
 20
2.242405436548185
 30
0.0
 11
5.155001712251816
 21
2.629524453795837
 31
0.0
 70
   163
 71
     5
 42
1.024
  3
Standard
100
AcDbDiametricDimension
 15
3.586247258668716
 25
2.394269382423951
 35
0.0
 40
0.0
1001
ACAD
1000
DSTYLE
1002
{
1070
   288
1070
     1
1002
}
  0
DIMENSION
  5
4F1
102
{ACAD_XDICTIONARY
360
4FD
102
}
102
{ACAD_REACTORS
330
506
102
}
330
58
100
AcDbEntity
 67
     1
  8
0
 48
0.3
100
AcDbDimension
  2
*D32
 10
1.816909095495369
 20
2.319337409486065
 30
0.0
 11
3.121805790656386
 21
3.055191878689076
 31
0.0
 70
   164
 71
     5
 42
0.3125
  3
Standard
100
AcDbRadialDimension
 15
2.048037752818413
 25
2.529660479461869
 35
0.0
 40
0.0
1001
ACAD
1000
DSTYLE
1002
{
1070
   288
1070
     1
1002
}
  0
DIMENSION
  5
507
102
{ACAD_XDICTIONARY
360
512
102
}
102
{ACAD_REACTORS
330
51A
102
}
330
58
100
AcDbEntity
 67
     1
  8
0
 48
0.3
100
AcDbDimension
  2
*D33
 10
3.954419946079813
 20
2.943108985457586
 30
0.0
 11
4.990037860489771
 21
3.151310315994198
 31
0.0
 70
   163
 71
     5
 42
0.2560000000000002
  3
Standard
100
AcDbDiametricDimension
 15
4.205398244910921
 25
2.993565833514549
 35
0.0
 40
0.0
1001
ACAD
1000
DSTYLE
1002
{
1070
   288
1070
     1
1002
}
  0
ENDSEC
  0
SECTION
  2
OBJECTS
  0
DICTIONARY
  5
C
330
0
100
AcDbDictionary
281
     1
  3
ACAD_GROUP
350
D
  3
ACAD_LAYOUT
350
1A
  3
ACAD_MLINESTYLE
350
17
  3
ACAD_PLOTSETTINGS
350
19
  3
ACAD_PLOTSTYLENAME
350
E
  3
AcDbVariableDictionary
350
66
  0
DICTIONARY
  5
FA
330
EB
100
AcDbDictionary
280
     1
281
     1
  3
ACAD_DIMASSOC
360
105
  0
DICTIONARY
  5
1AC
330
19E
100
AcDbDictionary
280
     1
281
     1
  3
ACAD_DIMASSOC
360
1B7
  0
DICTIONARY
  5
1C6
330
1B8
100
AcDbDictionary
280
     1
281
     1
  3
ACAD_DIMASSOC
360
1D1
  0
DICTIONARY
  5
1E0
330
1D2
100
AcDbDictionary
280
     1
281
     1
  3
ACAD_DIMASSOC
360
1EB
  0
DICTIONARY
  5
1FA
330
1EC
100
AcDbDictionary
280
     1
281
     1
  3
ACAD_DIMASSOC
360
205
  0
DICTIONARY
  5
3D9
330
3CD
100
AcDbDictionary
280
     1
281
     1
  3
ACAD_DIMASSOC
360
3E2
  0
DICTIONARY
  5
405
330
3F9
100
AcDbDictionary
280
     1
281
     1
  3
ACAD_DIMASSOC
360
40E
  0
DICTIONARY
  5
41E
330
40F
100
AcDbDictionary
280
     1
281
     1
  3
ACAD_DIMASSOC
360
42A
  0
DICTIONARY
  5
439
330
42B
100
AcDbDictionary
280
     1
281
     1
  3
ACAD_DIMASSOC
360
444
  0
DICTIONARY
  5
451
330
445
100
AcDbDictionary
280
     1
281
     1
  3
ACAD_DIMASSOC
360
45A
  0
DICTIONARY
  5
483
330
475
100
AcDbDictionary
280
     1
281
     1
  3
ACAD_DIMASSOC
360
48E
  0
DICTIONARY
  5
49D
330
48F
100
AcDbDictionary
280
     1
281
     1
  3
ACAD_DIMASSOC
360
4A8
  0
DICTIONARY
  5
4B7
330
4A9
100
AcDbDictionary
280
     1
281
     1
  3
ACAD_DIMASSOC
360
4C2
  0
DICTIONARY
  5
4D1
330
4C3
100
AcDbDictionary
280
     1
281
     1
  3
ACAD_DIMASSOC
360
4DC
  0
DICTIONARY
  5
4E8
330
4DD
100
AcDbDictionary
280
     1
281
     1
  3
ACAD_DIMASSOC
360
4F0
  0
DICTIONARY
  5
4FD
330
4F1
100
AcDbDictionary
280
     1
281
     1
  3
ACAD_DIMASSOC
360
506
  0
DICTIONARY
  5
512
330
507
100
AcDbDictionary
280
     1
281
     1
  3
ACAD_DIMASSOC
360
51A
  0
DICTIONARY
  5
D
102
{ACAD_REACTORS
330
C
102
}
330
C
100
AcDbDictionary
281
     1
  0
DICTIONARY
  5
1A
102
{ACAD_REACTORS
330
C
102
}
330
C
100
AcDbDictionary
281
     1
  3
Layout1
350
59
  3
Layout2
350
5E
  3
Model
350
22
  0
DICTIONARY
  5
17
102
{ACAD_REACTORS
330
C
102
}
330
C
100
AcDbDictionary
281
     1
  3
Standard
350
18
  0
DICTIONARY
  5
19
102
{ACAD_REACTORS
330
C
102
}
330
C
100
AcDbDictionary
281
     1
  0
ACDBDICTIONARYWDFLT
  5
E
102
{ACAD_REACTORS
330
C
102
}
330
C
100
AcDbDictionary
281
     1
  3
Normal
350
F
100
AcDbDictionaryWithDefault
340
F
  0
DICTIONARY
  5
66
102
{ACAD_REACTORS
330
C
102
}
330
C
100
AcDbDictionary
281
     1
  3
DIMASSOC
350
67
  3
HIDETEXT
350
6B
  0
DIMASSOC
  5
105
102
{ACAD_REACTORS
330
FA
102
}
330
FA
100
AcDbDimAssoc
330
EB
 90
        1
 70
     0
 71
     0
  1
AcDbOsnapPointRef
 72
    13
331
CD
 73
     2
 91
        0
 40
0.0
 10
1.704909095495369
 20
3.818337409486072
 30
0.0
 75
     0
  0
DIMASSOC
  5
1B7
102
{ACAD_REACTORS
330
1AC
102
}
330
1AC
100
AcDbDimAssoc
330
19E
 90
        1
 70
     0
 71
     0
  1
AcDbOsnapPointRef
 72
     3
331
D5
 73
     2
 91
        0
 40
0.0
 10
3.079909095495368
 20
2.318337409486068
 30
0.0
 75
     0
  0
DIMASSOC
  5
1D1
102
{ACAD_REACTORS
330
1C6
102
}
330
1C6
100
AcDbDimAssoc
330
1B8
 90
        3
 70
     0
 71
     0
  1
AcDbOsnapPointRef
 72
    13
331
DC
 73
     2
 91
        0
 40
0.0
 10
3.591909095495368
 20
5.232653845994287
 30
0.0
 75
     0
  1
AcDbOsnapPointRef
 72
     1
331
DC
 73
     2
 91
        0
 40
1.0
 10
3.591909095495368
 20
5.582653845994287
 30
0.0
 75
     0
  0
DIMASSOC
  5
1EB
102
{ACAD_REACTORS
330
1E0
102
}
330
1E0
100
AcDbDimAssoc
330
1D2
 90
        3
 70
     0
 71
     0
  1
AcDbOsnapPointRef
 72
     1
331
DD
 73
     2
 91
        0
 40
1.0
 10
3.591909095495368
 20
4.932653845994288
 30
0.0
 75
     0
  1
AcDbOsnapPointRef
 72
     1
331
DE
 73
     2
 91
        0
 40
1.0
 10
3.591909095495368
 20
4.582653845994288
 30
0.0
 75
     0
  0
DIMASSOC
  5
205
102
{ACAD_REACTORS
330
1FA
102
}
330
1FA
100
AcDbDimAssoc
330
1EC
 90
        3
 70
     0
 71
     0
  1
AcDbOsnapPointRef
 72
    13
331
D1
 73
     2
 91
        0
 40
0.0
 10
1.57990909549537
 20
5.582653845994287
 30
0.0
 75
     0
  1
AcDbOsnapPointRef
 72
     1
331
D3
 73
     2
 91
        0
 40
1.0
 10
1.57990909549537
 20
4.582653845994288
 30
0.0
 75
     0
  0
DIMASSOC
  5
3E2
102
{ACAD_REACTORS
330
3D9
102
}
330
3D9
100
AcDbDimAssoc
330
3CD
 90
        2
 70
     0
 71
     0
  1
AcDbOsnapPointRef
 72
     3
331
334
 73
     2
 91
        0
 40
0.0
 10
0.0
 20
0.0
 30
0.0
 75
     0
  0
DIMASSOC
  5
40E
102
{ACAD_REACTORS
330
405
102
}
330
405
100
AcDbDimAssoc
330
3F9
 90
        2
 70
     0
 71
     0
  1
AcDbOsnapPointRef
 72
     3
331
D5
 73
     2
 91
        0
 40
0.0
 10
0.0
 20
0.0
 30
0.0
 75
     0
  0
DIMASSOC
  5
42A
102
{ACAD_REACTORS
330
41E
102
}
330
41E
100
AcDbDimAssoc
330
40F
 90
        1
 70
     0
 71
     0
  1
AcDbOsnapPointRef
 72
     3
331
339
 73
     2
 91
        0
 40
0.0
 10
1.816909095495367
 20
1.019337409486064
 30
0.0
 75
     0
  0
DIMASSOC
  5
444
102
{ACAD_REACTORS
330
439
102
}
330
439
100
AcDbDimAssoc
330
42B
 90
        1
 70
     0
 71
     0
  1
AcDbOsnapPointRef
 72
     3
331
339
 73
     2
 91
        0
 40
0.0
 10
1.816909095495367
 20
1.019337409486064
 30
0.0
 75
     0
  0
DIMASSOC
  5
45A
102
{ACAD_REACTORS
330
451
102
}
330
451
100
AcDbDimAssoc
330
445
 90
        2
 70
     0
 71
     0
  1
AcDbOsnapPointRef
 72
     3
331
3B8
 73
     2
 91
        0
 40
0.0
 10
0.0
 20
0.0
 30
0.0
 75
     0
  0
DIMASSOC
  5
48E
102
{ACAD_REACTORS
330
483
102
}
330
483
100
AcDbDimAssoc
330
475
 90
        3
 70
     0
 71
     0
  1
AcDbOsnapPointRef
 72
     3
331
33C
 73
     2
 91
        0
 40
0.0
 10
2.079909095495366
 20
1.668337409486065
 30
0.0
 75
     0
  1
AcDbOsnapPointRef
 72
     3
331
336
 73
     2
 91
        0
 40
0.0
 10
2.079909095495366
 20
2.968337409486068
 30
0.0
 75
     0
  0
DIMASSOC
  5
4A8
102
{ACAD_REACTORS
330
49D
102
}
330
49D
100
AcDbDimAssoc
330
48F
 90
        1
 70
     0
 71
     0
  1
AcDbOsnapPointRef
 72
     3
331
336
 73
     2
 91
        0
 40
0.0
 10
2.079909095495366
 20
2.968337409486068
 30
0.0
 75
     0
  0
DIMASSOC
  5
4C2
102
{ACAD_REACTORS
330
4B7
102
}
330
4B7
100
AcDbDimAssoc
330
4A9
 90
        1
 70
     0
 71
     0
  1
AcDbOsnapPointRef
 72
     3
331
336
 73
     2
 91
        0
 40
0.0
 10
2.079909095495366
 20
2.968337409486068
 30
0.0
 75
     0
  0
DIMASSOC
  5
4DC
102
{ACAD_REACTORS
330
4D1
102
}
330
4D1
100
AcDbDimAssoc
330
4C3
 90
        1
 70
     0
 71
     0
  1
AcDbOsnapPointRef
 72
     3
331
336
 73
     2
 91
        0
 40
0.0
 10
2.079909095495366
 20
2.968337409486068
 30
0.0
 75
     0
  0
DIMASSOC
  5
4F0
102
{ACAD_REACTORS
330
4E8
102
}
330
4E8
100
AcDbDimAssoc
330
4DD
 90
        2
 70
     0
 71
     0
  1
AcDbOsnapPointRef
 72
     3
331
D6
 73
     2
 91
        0
 40
0.0
 10
0.0
 20
0.0
 30
0.0
 75
     0
  0
DIMASSOC
  5
506
102
{ACAD_REACTORS
330
4FD
102
}
330
4FD
100
AcDbDimAssoc
330
4F1
 90
        2
 70
     0
 71
     0
  1
AcDbOsnapPointRef
 72
     3
331
33A
 73
     2
 91
        0
 40
0.0
 10
0.0
 20
0.0
 30
0.0
 75
     0
  0
DIMASSOC
  5
51A
102
{ACAD_REACTORS
330
512
102
}
330
512
100
AcDbDimAssoc
330
507
 90
        2
 70
     0
 71
     0
  1
AcDbOsnapPointRef
 72
     3
331
334
 73
     2
 91
        0
 40
0.0
 10
0.0
 20
0.0
 30
0.0
 75
     0
  0
LAYOUT
  5
59
102
{ACAD_REACTORS
330
1A
102
}
330
1A
100
AcDbPlotSettings
  1

  2
none_device
  4
Letter_(8.50_x_11.00_Inches)
  6

 40
6.349999904632567
 41
6.349999904632567
 42
6.350006103515625
 43
6.350006103515625
 44
215.8999938964842
 45
279.3999938964843
 46
38.3032
 47
38.15079999999999
 48
0.0
 49
0.0
140
0.0
141
0.0
142
1.0
143
1.0
 70
   688
 72
     0
 73
     1
 74
     5
  7

 75
    16
147
1.0
148
0.0
149
0.0
100
AcDbLayout
  1
Layout1
 70
     1
 71
     1
 10
-1.75200024029589
 20
-1.757999996245375
 11
9.247999519408216
 21
6.74199976345873
 12
0.0
 22
0.0
 32
0.0
 14
-1.439262267973588
 24
-1.41285528304607
 34
0.0
 15
8.966538218833356
 25
6.396855050259421
 35
0.0
146
0.0
 13
0.0
 23
0.0
 33
0.0
 16
1.0
 26
0.0
 36
0.0
 17
0.0
 27
1.0
 37
0.0
 76
     0
330
58
331
77
  0
LAYOUT
  5
5E
102
{ACAD_REACTORS
330
1A
102
}
330
1A
100
AcDbPlotSettings
  1

  2
None
  4

  6

 40
0.0
 41
0.0
 42
0.0
 43
0.0
 44
0.0
 45
0.0
 46
0.0
 47
0.0
 48
0.0
 49
0.0
140
0.0
141
0.0
142
1.0
143
1.0
 70
   688
 72
     0
 73
     0
 74
     5
  7

 75
    16
147
1.0
148
0.0
149
0.0
100
AcDbLayout
  1
Layout2
 70
     1
 71
     2
 10
0.0
 20
0.0
 11
12.0
 21
9.0
 12
0.0
 22
0.0
 32
0.0
 14
0.0
 24
0.0
 34
0.0
 15
0.0
 25
0.0
 35
0.0
146
0.0
 13
0.0
 23
0.0
 33
0.0
 16
1.0
 26
0.0
 36
0.0
 17
0.0
 27
1.0
 37
0.0
 76
     0
330
5D
  0
LAYOUT
  5
22
102
{ACAD_REACTORS
330
1A
102
}
330
1A
100
AcDbPlotSettings
  1

  2
none_device
  4
ANSI_A_(8.50_x_11.00_Inches)
  6

 40
6.349999904632567
 41
19.04999923706053
 42
6.350006103515625
 43
19.04998779296875
 44
215.8999938964842
 45
279.3999938964843
 46
0.0
 47
0.0
 48
0.0
 49
0.0
140
0.0
141
0.0
142
1.0
143
2.584895464708373
 70
 11952
 72
     0
 73
     1
 74
     0
  7

 75
     0
147
0.3868628397755418
148
0.0
149
0.0
100
AcDbLayout
  1
Model
 70
     1
 71
     0
 10
0.0
 20
0.0
 11
12.0
 21
9.0
 12
0.0
 22
0.0
 32
0.0
 14
0.0
 24
0.0
 34
0.0
 15
0.0
 25
0.0
 35
0.0
146
0.0
 13
0.0
 23
0.0
 33
0.0
 16
1.0
 26
0.0
 36
0.0
 17
0.0
 27
1.0
 37
0.0
 76
     0
330
1F
  0
MLINESTYLE
  5
18
102
{ACAD_REACTORS
330
17
102
}
330
17
100
AcDbMlineStyle
  2
STANDARD
 70
     0
  3

 62
   256
 51
90.0
 52
90.0
 71
     2
 49
0.5
 62
   256
  6
BYLAYER
 49
-0.5
 62
   256
  6
BYLAYER
  0
ACDBPLACEHOLDER
  5
F
102
{ACAD_REACTORS
330
E
102
}
330
E
  0
DICTIONARYVAR
  5
67
102
{ACAD_REACTORS
330
66
102
}
330
66
100
DictionaryVariables
280
     0
  1
2
  0
DICTIONARYVAR
  5
6B
102
{ACAD_REACTORS
330
66
102
}
330
66
100
DictionaryVariables
280
     0
  1
1
  0
ENDSEC
  0
EOF
