  0
SECTION
  2
HEADER
  9
$ACADVER
  1
AC1015
  9
$ACADMAINTVER
 70
    13
  9
$DWGCODEPAGE
  3
ANSI_1252
  9
$INSBASE
 10
0.0
 20
0.0
 30
0.0
  9
$EXTMIN
 10
1.000000000000000E+20
 20
1.000000000000000E+20
 30
1.000000000000000E+20
  9
$EXTMAX
 10
-1.000000000000000E+20
 20
-1.000000000000000E+20
 30
-1.000000000000000E+20
  9
$LIMMIN
 10
0.0
 20
0.0
  9
$LIMMAX
 10
12.0
 20
9.0
  9
$ORTHOMODE
 70
     0
  9
$REGENMODE
 70
     1
  9
$FILLMODE
 70
     1
  9
$QTEXTMODE
 70
     0
  9
$MIRRTEXT
 70
     1
  9
$LTSCALE
 40
0.3
  9
$ATTMODE
 70
     1
  9
$TEXTSIZE
 40
0.2
  9
$TRACEWID
 40
0.05
  9
$TEXTSTYLE
  7
Standard
  9
$CLAYER
  8
0
  9
$CELTYPE
  6
ByLayer
  9
$CECOLOR
 62
   256
  9
$CELTSCALE
 40
0.3
  9
$DISPSILH
 70
     0
  9
$DIMSCALE
 40
1.0
  9
$DIMASZ
 40
0.125
  9
$DIMEXO
 40
0.0625
  9
$DIMDLI
 40
0.38
  9
$DIMRND
 40
0.0
  9
$DIMDLE
 40
0.0
  9
$DIMEXE
 40
0.18
  9
$DIMTP
 40
0.0
  9
$DIMTM
 40
0.0
  9
$DIMTXT
 40
0.125
  9
$DIMCEN
 40
0.09
  9
$DIMTSZ
 40
0.0
  9
$DIMTOL
 70
     0
  9
$DIMLIM
 70
     0
  9
$DIMTIH
 70
     1
  9
$DIMTOH
 70
     1
  9
$DIMSE1
 70
     0
  9
$DIMSE2
 70
     0
  9
$DIMTAD
 70
     0
  9
$DIMZIN
 70
     0
  9
$DIMBLK
  1

  9
$DIMASO
 70
     1
  9
$DIMSHO
 70
     1
  9
$DIMPOST
  1

  9
$DIMAPOST
  1

  9
$DIMALT
 70
     0
  9
$DIMALTD
 70
     2
  9
$DIMALTF
 40
25.4
  9
$DIMLFAC
 40
1.0
  9
$DIMTOFL
 70
     0
  9
$DIMTVP
 40
0.0
  9
$DIMTIX
 70
     0
  9
$DIMSOXD
 70
     0
  9
$DIMSAH
 70
     0
  9
$DIMBLK1
  1

  9
$DIMBLK2
  1

  9
$DIMSTYLE
  2
Standard
  9
$DIMCLRD
 70
     0
  9
$DIMCLRE
 70
     0
  9
$DIMCLRT
 70
     0
  9
$DIMTFAC
 40
1.0
  9
$DIMGAP
 40
0.09
  9
$DIMJUST
 70
     0
  9
$DIMSD1
 70
     0
  9
$DIMSD2
 70
     0
  9
$DIMTOLJ
 70
     1
  9
$DIMTZIN
 70
     0
  9
$DIMALTZ
 70
     0
  9
$DIMALTTZ
 70
     0
  9
$DIMUPT
 70
     0
  9
$DIMDEC
 70
     3
  9
$DIMTDEC
 70
     3
  9
$DIMALTU
 70
     2
  9
$DIMALTTD
 70
     2
  9
$DIMTXSTY
  7
Standard
  9
$DIMAUNIT
 70
     0
  9
$DIMADEC
 70
     0
  9
$DIMALTRND
 40
0.0
  9
$DIMAZIN
 70
     0
  9
$DIMDSEP
 70
    46
  9
$DIMATFIT
 70
     3
  9
$DIMFRAC
 70
     0
  9
$DIMLDRBLK
  1

  9
$DIMLUNIT
 70
     2
  9
$DIMLWD
 70
    -2
  9
$DIMLWE
 70
    -2
  9
$DIMTMOVE
 70
     0
  9
$LUNITS
 70
     2
  9
$LUPREC
 70
     4
  9
$SKETCHINC
 40
0.1
  9
$FILLETRAD
 40
0.125
  9
$AUNITS
 70
     0
  9
$AUPREC
 70
     0
  9
$MENU
  1
.
  9
$ELEVATION
 40
0.0
  9
$PELEVATION
 40
0.0
  9
$THICKNESS
 40
0.0
  9
$LIMCHECK
 70
     0
  9
$CHAMFERA
 40
0.5
  9
$CHAMFERB
 40
0.5
  9
$CHAMFERC
 40
1.0
  9
$CHAMFERD
 40
0.0
  9
$SKPOLY
 70
     0
  9
$TDCREATE
 40
2454412.621520173
  9
$TDUCREATE
 40
2454412.788186840
  9
$TDUPDATE
 40
2455647.586638449
  9
$TDUUPDATE
 40
2455647.753305115
  9
$TDINDWG
 40
0.4142305093
  9
$TDUSRTIMER
 40
0.4142305093
  9
$USRTIMER
 70
     1
  9
$ANGBASE
 50
0.0
  9
$ANGDIR
 70
     0
  9
$PDMODE
 70
     0
  9
$PDSIZE
 40
0.0
  9
$PLINEWID
 40
0.0
  9
$SPLFRAME
 70
     0
  9
$SPLINETYPE
 70
     6
  9
$SPLINESEGS
 70
     8
  9
$HANDSEED
  5
67F
  9
$SURFTAB1
 70
     6
  9
$SURFTAB2
 70
     6
  9
$SURFTYPE
 70
     6
  9
$SURFU
 70
     6
  9
$SURFV
 70
     6
  9
$UCSBASE
  2

  9
$UCSNAME
  2

  9
$UCSORG
 10
0.0
 20
0.0
 30
0.0
  9
$UCSXDIR
 10
1.0
 20
0.0
 30
0.0
  9
$UCSYDIR
 10
0.0
 20
1.0
 30
0.0
  9
$UCSORTHOREF
  2

  9
$UCSORTHOVIEW
 70
     0
  9
$UCSORGTOP
 10
0.0
 20
0.0
 30
0.0
  9
$UCSORGBOTTOM
 10
0.0
 20
0.0
 30
0.0
  9
$UCSORGLEFT
 10
0.0
 20
0.0
 30
0.0
  9
$UCSORGRIGHT
 10
0.0
 20
0.0
 30
0.0
  9
$UCSORGFRONT
 10
0.0
 20
0.0
 30
0.0
  9
$UCSORGBACK
 10
0.0
 20
0.0
 30
0.0
  9
$PUCSBASE
  2

  9
$PUCSNAME
  2

  9
$PUCSORG
 10
0.0
 20
0.0
 30
0.0
  9
$PUCSXDIR
 10
1.0
 20
0.0
 30
0.0
  9
$PUCSYDIR
 10
0.0
 20
1.0
 30
0.0
  9
$PUCSORTHOREF
  2

  9
$PUCSORTHOVIEW
 70
     0
  9
$PUCSORGTOP
 10
0.0
 20
0.0
 30
0.0
  9
$PUCSORGBOTTOM
 10
0.0
 20
0.0
 30
0.0
  9
$PUCSORGLEFT
 10
0.0
 20
0.0
 30
0.0
  9
$PUCSORGRIGHT
 10
0.0
 20
0.0
 30
0.0
  9
$PUCSORGFRONT
 10
0.0
 20
0.0
 30
0.0
  9
$PUCSORGBACK
 10
0.0
 20
0.0
 30
0.0
  9
$USERI1
 70
     0
  9
$USERI2
 70
     0
  9
$USERI3
 70
     0
  9
$USERI4
 70
     0
  9
$USERI5
 70
     0
  9
$USERR1
 40
0.0
  9
$USERR2
 40
0.0
  9
$USERR3
 40
0.0
  9
$USERR4
 40
0.0
  9
$USERR5
 40
0.0
  9
$WORLDVIEW
 70
     1
  9
$SHADEDGE
 70
     3
  9
$SHADEDIF
 70
    70
  9
$TILEMODE
 70
     0
  9
$MAXACTVP
 70
    64
  9
$PINSBASE
 10
0.0
 20
0.0
 30
0.0
  9
$PLIMCHECK
 70
     0
  9
$PEXTMIN
 10
-1.439262267973589
 20
-1.41285528304607
 30
0.0
  9
$PEXTMAX
 10
8.966538218833356
 20
6.396855050259421
 30
0.0
  9
$PLIMMIN
 10
-1.75200024029589
 20
-1.757999996245376
  9
$PLIMMAX
 10
9.247999519408217
 20
6.741999763458731
  9
$UNITMODE
 70
     0
  9
$VISRETAIN
 70
     1
  9
$PLINEGEN
 70
     0
  9
$PSLTSCALE
 70
     1
  9
$TREEDEPTH
 70
  3020
  9
$CMLSTYLE
  2
Standard
  9
$CMLJUST
 70
     0
  9
$CMLSCALE
 40
1.0
  9
$PROXYGRAPHICS
 70
     1
  9
$MEASUREMENT
 70
     0
  9
$CELWEIGHT
370
    -1
  9
$ENDCAPS
280
     0
  9
$JOINSTYLE
280
     0
  9
$LWDISPLAY
290
     0
  9
$INSUNITS
 70
     1
  9
$HYPERLINKBASE
  1

  9
$STYLESHEET
  1

  9
$XEDIT
290
     1
  9
$CEPSNTYPE
380
     0
  9
$PSTYLEMODE
290
     1
  9
$FINGERPRINTGUID
  2
{FDEAD576-A652-11D2-9A35-0060089B3A3F}
  9
$VERSIONGUID
  2
{549FEE26-CEE3-4CCA-A2F8-E43A4AE95DD7}
  9
$EXTNAMES
290
     1
  9
$PSVPSCALE
 40
0.0
  9
$OLESTARTUP
290
     0
  0
ENDSEC
  0
SECTION
  2
CLASSES
  0
CLASS
  1
ACDBDICTIONARYWDFLT
  2
AcDbDictionaryWithDefault
  3
AutoCAD 2000
 90
        0
280
     0
281
     0
  0
CLASS
  1
ACDBPLACEHOLDER
  2
AcDbPlaceHolder
  3
AutoCAD 2000
 90
        0
280
     0
281
     0
  0
CLASS
  1
LAYOUT
  2
AcDbLayout
  3
AutoCAD 2000
 90
        0
280
     0
281
     0
  0
CLASS
  1
DICTIONARYVAR
  2
AcDbDictionaryVar
  3
AutoCAD 2000
 90
        0
280
     0
281
     0
  0
CLASS
  1
DIMASSOC
  2
AcDbDimAssoc
  3
"AcDbDimAssoc|Product Desc:     AcDim ARX App For Dimension|Company:          Autodesk, Inc.|WEB Address:      www.autodesk.com"
 90
        0
280
     0
281
     0
  0
ENDSEC
  0
SECTION
  2
TABLES
  0
TABLE
  2
VPORT
  5
8
330
0
100
AcDbSymbolTable
 70
     1
  0
VPORT
  5
74
330
8
100
AcDbSymbolTableRecord
100
AcDbViewportTableRecord
  2
*Active
 70
     0
 10
0.0
 20
0.0
 11
1.0
 21
1.0
 12
20.48748698095427
 22
9.784138269231398
 13
0.0
 23
0.0
 14
0.5
 24
0.5
 15
0.5
 25
0.5
 16
0.0
 26
0.0
 36
1.0
 17
0.0
 27
0.0
 37
0.0
 40
19.56827653846279
 41
2.093949044585987
 42
50.0
 43
0.0
 44
0.0
 50
0.0
 51
0.0
 71
     0
 72
   100
 73
     1
 74
     3
 75
     0
 76
     0
 77
     0
 78
     0
281
     0
 65
     1
110
0.0
120
0.0
130
0.0
111
1.0
121
0.0
131
0.0
112
0.0
122
1.0
132
0.0
 79
     0
146
0.0
  0
ENDTAB
  0
TABLE
  2
LTYPE
  5
5
330
0
100
AcDbSymbolTable
 70
     3
  0
LTYPE
  5
14
330
5
100
AcDbSymbolTableRecord
100
AcDbLinetypeTableRecord
  2
ByBlock
 70
     0
  3

 72
    65
 73
     0
 40
0.0
  0
LTYPE
  5
15
330
5
100
AcDbSymbolTableRecord
100
AcDbLinetypeTableRecord
  2
ByLayer
 70
     0
  3

 72
    65
 73
     0
 40
0.0
  0
LTYPE
  5
16
330
5
100
AcDbSymbolTableRecord
100
AcDbLinetypeTableRecord
  2
Continuous
 70
     0
  3
Solid line
 72
    65
 73
     0
 40
0.0
  0
LTYPE
  5
92
330
5
100
AcDbSymbolTableRecord
100
AcDbLinetypeTableRecord
  2
HIDDENX2
 70
     0
  3
Hidden (2x) ____ ____ ____ ____ ____ ____ ____
 72
    65
 73
     2
 40
0.75
 49
0.5
 74
     0
 49
-0.25
 74
     0
  0
LTYPE
  5
93
330
5
100
AcDbSymbolTableRecord
100
AcDbLinetypeTableRecord
  2
threads
 70
     0
  3
Zig zag /\/\/\/\/\/\/\/\/\/\/\/\/\/\/\/\/\/\/\/
 72
    65
 73
     4
 40
0.8001000000000001
 49
0.0001
 74
     0
 49
-0.2
 74
     4
 75
   131
340
91
 46
0.2
 50
0.0
 44
-0.2
 45
0.0
 49
-0.4
 74
     4
 75
   131
340
91
 46
0.2
 50
180.0
 44
0.2
 45
0.0
 49
-0.2
 74
     0
  0
ENDTAB
  0
TABLE
  2
LAYER
  5
2
330
0
100
AcDbSymbolTable
 70
     2
  0
LAYER
  5
10
330
2
100
AcDbSymbolTableRecord
100
AcDbLayerTableRecord
  2
0
 70
     0
 62
     7
  6
Continuous
370
    -3
390
F
  0
LAYER
  5
11F
330
2
100
AcDbSymbolTableRecord
100
AcDbLayerTableRecord
  2
Defpoints
 70
     0
 62
     7
  6
Continuous
290
     0
370
    -3
390
F
  0
ENDTAB
  0
TABLE
  2
STYLE
  5
3
330
0
100
AcDbSymbolTable
 70
     2
  0
STYLE
  5
11
330
3
100
AcDbSymbolTableRecord
100
AcDbTextStyleTableRecord
  2
Standard
 70
     0
 40
0.0
 41
1.0
 50
0.0
 71
     0
 42
0.2
  3
txt
  4

  0
STYLE
  5
91
330
3
100
AcDbSymbolTableRecord
100
AcDbTextStyleTableRecord
  2

 70
     1
 40
0.0
 41
1.0
 50
0.0
 71
     0
 42
0.2
  3
ltypeshp.shx
  4

  0
ENDTAB
  0
TABLE
  2
VIEW
  5
6
330
0
100
AcDbSymbolTable
 70
     0
  0
ENDTAB
  0
TABLE
  2
UCS
  5
7
330
0
100
AcDbSymbolTable
 70
     0
  0
ENDTAB
  0
TABLE
  2
APPID
  5
9
330
0
100
AcDbSymbolTable
 70
     1
  0
APPID
  5
12
330
9
100
AcDbSymbolTableRecord
100
AcDbRegAppTableRecord
  2
ACAD
 70
     0
  0
ENDTAB
  0
TABLE
  2
DIMSTYLE
  5
A
330
0
100
AcDbSymbolTable
 70
     1
100
AcDbDimStyleTable
 71
     1
340
27
  0
DIMSTYLE
105
27
102
{ACAD_REACTORS
330
11E
330
152
330
16C
330
1AC
330
1C6
330
1E0
330
1FA
330
22A
330
246
330
27A
330
294
330
2AE
330
2C8
330
2E2
330
312
330
32C
330
35C
330
38E
330
3FA
330
410
330
4B8
330
4CE
330
4E2
330
512
330
576
330
590
330
5AC
330
5F8
330
612
330
62C
330
667
102
}
330
A
100
AcDbSymbolTableRecord
100
AcDbDimStyleTableRecord
  2
Standard
 70
     0
 41
0.125
140
0.125
271
     3
272
     3
340
11
  0
ENDTAB
  0
TABLE
  2
BLOCK_RECORD
  5
1
330
0
100
AcDbSymbolTable
 70
    43
  0
BLOCK_RECORD
  5
1F
330
1
100
AcDbSymbolTableRecord
100
AcDbBlockTableRecord
  2
*Model_Space
340
22
  0
BLOCK_RECORD
  5
58
330
1
100
AcDbSymbolTableRecord
100
AcDbBlockTableRecord
  2
*Paper_Space
340
59
  0
BLOCK_RECORD
  5
5D
330
1
100
AcDbSymbolTableRecord
100
AcDbBlockTableRecord
  2
*Paper_Space0
340
5E
  0
BLOCK_RECORD
  5
120
330
1
100
AcDbSymbolTableRecord
100
AcDbBlockTableRecord
  2
*D1
340
0
  0
BLOCK_RECORD
  5
153
330
1
100
AcDbSymbolTableRecord
100
AcDbBlockTableRecord
  2
*D3
340
0
  0
BLOCK_RECORD
  5
16D
330
1
100
AcDbSymbolTableRecord
100
AcDbBlockTableRecord
  2
*D4
340
0
  0
BLOCK_RECORD
  5
1AD
330
1
100
AcDbSymbolTableRecord
100
AcDbBlockTableRecord
  2
*D6
340
0
  0
BLOCK_RECORD
  5
1C7
330
1
100
AcDbSymbolTableRecord
100
AcDbBlockTableRecord
  2
*D7
340
0
  0
BLOCK_RECORD
  5
1E1
330
1
100
AcDbSymbolTableRecord
100
AcDbBlockTableRecord
  2
*D8
340
0
  0
BLOCK_RECORD
  5
1FB
330
1
100
AcDbSymbolTableRecord
100
AcDbBlockTableRecord
  2
*D9
340
0
  0
BLOCK_RECORD
  5
22B
330
1
100
AcDbSymbolTableRecord
100
AcDbBlockTableRecord
  2
*D10
340
0
  0
BLOCK_RECORD
  5
247
330
1
100
AcDbSymbolTableRecord
100
AcDbBlockTableRecord
  2
*D11
340
0
  0
BLOCK_RECORD
  5
27B
330
1
100
AcDbSymbolTableRecord
100
AcDbBlockTableRecord
  2
*D13
340
0
  0
BLOCK_RECORD
  5
295
330
1
100
AcDbSymbolTableRecord
100
AcDbBlockTableRecord
  2
*D14
340
0
  0
BLOCK_RECORD
  5
2AF
330
1
100
AcDbSymbolTableRecord
100
AcDbBlockTableRecord
  2
*D15
340
0
  0
BLOCK_RECORD
  5
2C9
330
1
100
AcDbSymbolTableRecord
100
AcDbBlockTableRecord
  2
*D16
340
0
  0
BLOCK_RECORD
  5
2E3
330
1
100
AcDbSymbolTableRecord
100
AcDbBlockTableRecord
  2
*D17
340
0
  0
BLOCK_RECORD
  5
313
330
1
100
AcDbSymbolTableRecord
100
AcDbBlockTableRecord
  2
*D18
340
0
  0
BLOCK_RECORD
  5
32D
330
1
100
AcDbSymbolTableRecord
100
AcDbBlockTableRecord
  2
*D19
340
0
  0
BLOCK_RECORD
  5
35D
330
1
100
AcDbSymbolTableRecord
100
AcDbBlockTableRecord
  2
*D20
340
0
  0
BLOCK_RECORD
  5
38F
330
1
100
AcDbSymbolTableRecord
100
AcDbBlockTableRecord
  2
*D21
340
0
  0
BLOCK_RECORD
  5
3FB
330
1
100
AcDbSymbolTableRecord
100
AcDbBlockTableRecord
  2
*D24
340
0
  0
BLOCK_RECORD
  5
411
330
1
100
AcDbSymbolTableRecord
100
AcDbBlockTableRecord
  2
*D25
340
0
  0
BLOCK_RECORD
  5
4B9
330
1
100
AcDbSymbolTableRecord
100
AcDbBlockTableRecord
  2
*D27
340
0
  0
BLOCK_RECORD
  5
4CF
330
1
100
AcDbSymbolTableRecord
100
AcDbBlockTableRecord
  2
*D28
340
0
  0
BLOCK_RECORD
  5
4E3
330
1
100
AcDbSymbolTableRecord
100
AcDbBlockTableRecord
  2
*D29
340
0
  0
BLOCK_RECORD
  5
513
330
1
100
AcDbSymbolTableRecord
100
AcDbBlockTableRecord
  2
*D31
340
0
  0
BLOCK_RECORD
  5
577
330
1
100
AcDbSymbolTableRecord
100
AcDbBlockTableRecord
  2
*D34
340
0
  0
BLOCK_RECORD
  5
591
330
1
100
AcDbSymbolTableRecord
100
AcDbBlockTableRecord
  2
*D35
340
0
  0
BLOCK_RECORD
  5
5AD
330
1
100
AcDbSymbolTableRecord
100
AcDbBlockTableRecord
  2
*D36
340
0
  0
BLOCK_RECORD
  5
5F9
330
1
100
AcDbSymbolTableRecord
100
AcDbBlockTableRecord
  2
*D37
340
0
  0
BLOCK_RECORD
  5
613
330
1
100
AcDbSymbolTableRecord
100
AcDbBlockTableRecord
  2
*D38
340
0
  0
BLOCK_RECORD
  5
62D
330
1
100
AcDbSymbolTableRecord
100
AcDbBlockTableRecord
  2
*D39
340
0
  0
BLOCK_RECORD
  5
64B
330
1
100
AcDbSymbolTableRecord
100
AcDbBlockTableRecord
  2
*D40
340
0
  0
BLOCK_RECORD
  5
671
330
1
100
AcDbSymbolTableRecord
100
AcDbBlockTableRecord
  2
*D42
340
0
  0
ENDTAB
  0
ENDSEC
  0
SECTION
  2
BLOCKS
  0
BLOCK
  5
20
330
1F
100
AcDbEntity
  8
0
100
AcDbBlockBegin
  2
*Model_Space
 70
     0
 10
0.0
 20
0.0
 30
0.0
  3
*Model_Space
  1

  0
ENDBLK
  5
21
330
1F
100
AcDbEntity
  8
0
100
AcDbBlockEnd
  0
BLOCK
  5
5A
330
58
100
AcDbEntity
 67
     1
  8
0
100
AcDbBlockBegin
  2
*Paper_Space
 70
     0
 10
0.0
 20
0.0
 30
0.0
  3
*Paper_Space
  1

  0
ENDBLK
  5
5B
330
58
100
AcDbEntity
 67
     1
  8
0
100
AcDbBlockEnd
  0
BLOCK
  5
5F
330
5D
100
AcDbEntity
  8
0
100
AcDbBlockBegin
  2
*Paper_Space0
 70
     0
 10
0.0
 20
0.0
 30
0.0
  3
*Paper_Space0
  1

  0
ENDBLK
  5
60
330
5D
100
AcDbEntity
  8
0
100
AcDbBlockEnd
  0
BLOCK
  5
12B
330
120
100
AcDbEntity
  8
0
 48
0.3
100
AcDbBlockBegin
  2
*D1
 70
     1
 10
0.0
 20
0.0
 30
0.0
  3
*D1
  1

  0
LINE
  5
12E
330
120
100
AcDbEntity
  8
0
 62
     0
 48
0.3
370
    -2
100
AcDbLine
 10
6.449880571626021
 20
1.770966721678473
 30
0.0
 11
6.449880571626021
 21
-0.2025516827386018
 31
0.0
  0
LINE
  5
12F
330
120
100
AcDbEntity
  8
0
 62
     0
 48
0.3
370
    -2
100
AcDbLine
 10
1.262380571626021
 20
1.770966721678474
 30
0.0
 11
1.262380571626021
 21
-0.2025516827386018
 31
0.0
  0
LINE
  5
130
330
120
100
AcDbEntity
  8
0
 62
     0
 48
0.3
370
    -2
100
AcDbLine
 10
6.324880571626021
 20
-0.0225516827386017
 30
0.0
 11
4.175297238292688
 21
-0.0225516827386017
 31
0.0
  0
LINE
  5
131
330
120
100
AcDbEntity
  8
0
 62
     0
 48
0.3
370
    -2
100
AcDbLine
 10
1.387380571626021
 20
-0.0225516827386017
 30
0.0
 11
3.536963904959354
 21
-0.0225516827386017
 31
0.0
  0
SOLID
  5
132
330
120
100
AcDbEntity
  8
0
 62
     0
 48
0.3
100
AcDbTrace
 10
6.324880571626021
 20
-0.0017183494052683
 30
0.0
 11
6.324880571626021
 21
-0.043385016071935
 31
0.0
 12
6.449880571626021
 22
-0.0225516827386017
 32
0.0
 13
6.449880571626021
 23
-0.0225516827386017
 33
0.0
  0
SOLID
  5
133
330
120
100
AcDbEntity
  8
0
 62
     0
 48
0.3
100
AcDbTrace
 10
1.387380571626021
 20
-0.0017183494052683
 30
0.0
 11
1.387380571626021
 21
-0.043385016071935
 31
0.0
 12
1.262380571626021
 22
-0.0225516827386017
 32
0.0
 13
1.262380571626021
 23
-0.0225516827386017
 33
0.0
  0
MTEXT
  5
134
330
120
100
AcDbEntity
  8
0
 62
     0
 48
0.3
100
AcDbMText
 10
3.856130571626021
 20
-0.0225516827386017
 30
0.0
 40
0.125
 41
0.0
 71
     5
 72
     1
  1
\A1;5.188
 73
     1
 44
1.0
  0
POINT
  5
135
330
120
100
AcDbEntity
  8
Defpoints
 62
     0
 48
0.3
100
AcDbPoint
 10
6.449880571626021
 20
1.833466721678473
 30
0.0
  0
POINT
  5
136
330
120
100
AcDbEntity
  8
Defpoints
 62
     0
 48
0.3
100
AcDbPoint
 10
1.262380571626021
 20
1.833466721678474
 30
0.0
  0
POINT
  5
137
330
120
100
AcDbEntity
  8
Defpoints
 62
     0
 48
0.3
100
AcDbPoint
 10
1.262380571626021
 20
-0.0225516827386017
 30
0.0
  0
ENDBLK
  5
12C
330
120
100
AcDbEntity
  8
0
 48
0.3
100
AcDbBlockEnd
  0
BLOCK
  5
15E
330
153
100
AcDbEntity
  8
0
 48
0.3
100
AcDbBlockBegin
  2
*D3
 70
     1
 10
0.0
 20
0.0
 30
0.0
  3
*D3
  1

  0
LINE
  5
5D7
330
153
100
AcDbEntity
  8
0
 62
     0
 48
0.3
370
    -2
100
AcDbLine
 10
-0.1751194283739767
 20
3.333466721678478
 30
0.0
 11
-1.290411835169834
 21
3.333466721678478
 31
0.0
  0
LINE
  5
5D8
330
153
100
AcDbEntity
  8
0
 62
     0
 48
0.3
370
    -2
100
AcDbLine
 10
-0.3001194283739786
 20
0.3334667216784748
 30
0.0
 11
-1.290411835169834
 21
0.3334667216784751
 31
0.0
  0
LINE
  5
5D9
330
153
100
AcDbEntity
  8
0
 62
     0
 48
0.3
370
    -2
100
AcDbLine
 10
-1.110411835169834
 20
3.208466721678478
 30
0.0
 11
-1.110411835169834
 21
1.985966721678476
 31
0.0
  0
LINE
  5
5DA
330
153
100
AcDbEntity
  8
0
 62
     0
 48
0.3
370
    -2
100
AcDbLine
 10
-1.110411835169834
 20
0.458466721678475
 30
0.0
 11
-1.110411835169834
 21
1.680966721678476
 31
0.0
  0
SOLID
  5
5DB
330
153
100
AcDbEntity
  8
0
 62
     0
 48
0.3
100
AcDbTrace
 10
-1.131245168503167
 20
3.208466721678478
 30
0.0
 11
-1.0895785018365
 21
3.208466721678478
 31
0.0
 12
-1.110411835169834
 22
3.333466721678478
 32
0.0
 13
-1.110411835169834
 23
3.333466721678478
 33
0.0
  0
SOLID
  5
5DC
330
153
100
AcDbEntity
  8
0
 62
     0
 48
0.3
100
AcDbTrace
 10
-1.131245168503168
 20
0.4584667216784751
 30
0.0
 11
-1.089578501836501
 21
0.458466721678475
 31
0.0
 12
-1.110411835169834
 22
0.333466721678475
 32
0.0
 13
-1.110411835169834
 23
0.333466721678475
 33
0.0
  0
MTEXT
  5
5DD
330
153
100
AcDbEntity
  8
0
 62
     0
 48
0.3
100
AcDbMText
 10
-1.110411835169834
 20
1.833466721678476
 30
0.0
 40
0.125
 41
0.0
 71
     5
 72
     1
  1
\A1;3.000
 73
     1
 44
1.0
  0
POINT
  5
5DE
330
153
100
AcDbEntity
  8
Defpoints
 62
     0
 48
0.3
100
AcDbPoint
 10
-0.1126194283739768
 20
3.333466721678478
 30
0.0
  0
POINT
  5
5DF
330
153
100
AcDbEntity
  8
Defpoints
 62
     0
 48
0.3
100
AcDbPoint
 10
-0.2376194283739785
 20
0.3334667216784748
 30
0.0
  0
POINT
  5
5E0
330
153
100
AcDbEntity
  8
Defpoints
 62
     0
 48
0.3
100
AcDbPoint
 10
-1.110411835169834
 20
0.333466721678475
 30
0.0
  0
ENDBLK
  5
15F
330
153
100
AcDbEntity
  8
0
 48
0.3
100
AcDbBlockEnd
  0
BLOCK
  5
179
330
16D
100
AcDbEntity
  8
0
 48
0.3
100
AcDbBlockBegin
  2
*D4
 70
     1
 10
0.0
 20
0.0
 30
0.0
  3
*D4
  1

  0
LINE
  5
5E1
330
16D
100
AcDbEntity
  8
0
 62
     0
 48
0.3
370
    -2
100
AcDbLine
 10
-0.1751194283739767
 20
3.333466721678478
 30
0.0
 11
-0.8709851830168556
 21
3.333466721678478
 31
0.0
  0
LINE
  5
5E2
330
16D
100
AcDbEntity
  8
0
 62
     0
 48
0.3
370
    -2
100
AcDbLine
 10
0.1998805716260214
 20
2.483466721678474
 30
0.0
 11
-0.8709851830168558
 21
2.483466721678474
 31
0.0
  0
LINE
  5
5E3
330
16D
100
AcDbEntity
  8
0
 62
     0
 48
0.3
370
    -2
100
AcDbLine
 10
-0.6909851830168558
 20
3.208466721678478
 30
0.0
 11
-0.6909851830168558
 21
3.045445938479121
 31
0.0
  0
LINE
  5
5E4
330
16D
100
AcDbEntity
  8
0
 62
     0
 48
0.3
370
    -2
100
AcDbLine
 10
-0.6909851830168559
 20
2.608466721678474
 30
0.0
 11
-0.6909851830168559
 21
2.740445938479122
 31
0.0
  0
SOLID
  5
5E5
330
16D
100
AcDbEntity
  8
0
 62
     0
 48
0.3
100
AcDbTrace
 10
-0.7118185163501892
 20
3.208466721678478
 30
0.0
 11
-0.6701518496835224
 21
3.208466721678478
 31
0.0
 12
-0.6909851830168556
 22
3.333466721678478
 32
0.0
 13
-0.6909851830168556
 23
3.333466721678478
 33
0.0
  0
SOLID
  5
5E6
330
16D
100
AcDbEntity
  8
0
 62
     0
 48
0.3
100
AcDbTrace
 10
-0.7118185163501893
 20
2.608466721678474
 30
0.0
 11
-0.6701518496835225
 21
2.608466721678474
 31
0.0
 12
-0.6909851830168559
 22
2.483466721678474
 32
0.0
 13
-0.6909851830168559
 23
2.483466721678474
 33
0.0
  0
MTEXT
  5
5E7
330
16D
100
AcDbEntity
  8
0
 62
     0
 48
0.3
100
AcDbMText
 10
-0.6909851830168562
 20
2.892945938479122
 30
0.0
 40
0.125
 41
0.0
 71
     5
 72
     1
  1
\A1;0.850
 73
     1
 44
1.0
  0
POINT
  5
5E8
330
16D
100
AcDbEntity
  8
Defpoints
 62
     0
 48
0.3
100
AcDbPoint
 10
-0.1126194283739768
 20
3.333466721678478
 30
0.0
  0
POINT
  5
5E9
330
16D
100
AcDbEntity
  8
Defpoints
 62
     0
 48
0.3
100
AcDbPoint
 10
0.2623805716260215
 20
2.483466721678474
 30
0.0
  0
POINT
  5
5EA
330
16D
100
AcDbEntity
  8
Defpoints
 62
     0
 48
0.3
100
AcDbPoint
 10
-0.6909851830168559
 20
2.483466721678474
 30
0.0
  0
ENDBLK
  5
17A
330
16D
100
AcDbEntity
  8
0
 48
0.3
100
AcDbBlockEnd
  0
BLOCK
  5
1B8
330
1AD
100
AcDbEntity
  8
0
 48
0.3
100
AcDbBlockBegin
  2
*D6
 70
     1
 10
0.0
 20
0.0
 30
0.0
  3
*D6
  1

  0
LINE
  5
5C3
330
1AD
100
AcDbEntity
  8
0
 62
     0
 48
0.3
370
    -2
100
AcDbLine
 10
0.2623805716260215
 20
2.545966721678474
 30
0.0
 11
0.2623805716260215
 21
3.881665564942771
 31
0.0
  0
LINE
  5
5C4
330
1AD
100
AcDbEntity
  8
0
 62
     0
 48
0.3
370
    -2
100
AcDbLine
 10
-0.1126194283739768
 20
3.395966721678478
 30
0.0
 11
-0.1126194283739767
 21
3.881665564942771
 31
0.0
  0
LINE
  5
5C5
330
1AD
100
AcDbEntity
  8
0
 62
     0
 48
0.3
370
    -2
100
AcDbLine
 10
0.3873805716260215
 20
3.701665564942771
 30
0.0
 11
0.5123805716260215
 21
3.701665564942771
 31
0.0
  0
LINE
  5
5C6
330
1AD
100
AcDbEntity
  8
0
 62
     0
 48
0.3
370
    -2
100
AcDbLine
 10
-0.2376194283739767
 20
3.701665564942771
 30
0.0
 11
-0.3626194283739768
 21
3.701665564942771
 31
0.0
  0
SOLID
  5
5C7
330
1AD
100
AcDbEntity
  8
0
 62
     0
 48
0.3
100
AcDbTrace
 10
0.3873805716260215
 20
3.722498898276104
 30
0.0
 11
0.3873805716260215
 21
3.680832231609437
 31
0.0
 12
0.2623805716260215
 22
3.701665564942771
 32
0.0
 13
0.2623805716260215
 23
3.701665564942771
 33
0.0
  0
SOLID
  5
5C8
330
1AD
100
AcDbEntity
  8
0
 62
     0
 48
0.3
100
AcDbTrace
 10
-0.2376194283739767
 20
3.722498898276104
 30
0.0
 11
-0.2376194283739767
 21
3.680832231609437
 31
0.0
 12
-0.1126194283739767
 22
3.701665564942771
 32
0.0
 13
-0.1126194283739767
 23
3.701665564942771
 33
0.0
  0
MTEXT
  5
5C9
330
1AD
100
AcDbEntity
  8
0
 62
     0
 48
0.3
100
AcDbMText
 10
-0.6922027617073101
 20
3.701665564942771
 30
0.0
 40
0.125
 41
0.0
 71
     5
 72
     1
  1
\A1;0.375
 73
     1
 44
1.0
  0
POINT
  5
5CA
330
1AD
100
AcDbEntity
  8
Defpoints
 62
     0
 48
0.3
100
AcDbPoint
 10
0.2623805716260215
 20
2.483466721678474
 30
0.0
  0
POINT
  5
5CB
330
1AD
100
AcDbEntity
  8
Defpoints
 62
     0
 48
0.3
100
AcDbPoint
 10
-0.1126194283739768
 20
3.333466721678478
 30
0.0
  0
POINT
  5
5CC
330
1AD
100
AcDbEntity
  8
Defpoints
 62
     0
 48
0.3
100
AcDbPoint
 10
-0.1126194283739767
 20
3.701665564942771
 30
0.0
  0
ENDBLK
  5
1B9
330
1AD
100
AcDbEntity
  8
0
 48
0.3
100
AcDbBlockEnd
  0
BLOCK
  5
1D2
330
1C7
100
AcDbEntity
  8
0
 48
0.3
100
AcDbBlockBegin
  2
*D7
 70
     1
 10
0.0
 20
0.0
 30
0.0
  3
*D7
  1

  0
LINE
  5
488
330
1C7
100
AcDbEntity
  8
0
 62
     0
 48
0.3
370
    -2
100
AcDbLine
 10
0.2623805716260215
 20
2.545966721678474
 30
0.0
 11
0.2623805716260215
 21
3.640186718605653
 31
0.0
  0
LINE
  5
489
330
1C7
100
AcDbEntity
  8
0
 62
     0
 48
0.3
370
    -2
100
AcDbLine
 10
2.262380571626021
 20
2.545966721678474
 30
0.0
 11
2.262380571626021
 21
3.640186718605653
 31
0.0
  0
LINE
  5
48A
330
1C7
100
AcDbEntity
  8
0
 62
     0
 48
0.3
370
    -2
100
AcDbLine
 10
0.3873805716260215
 20
3.460186718605652
 30
0.0
 11
0.9536305716260214
 21
3.460186718605652
 31
0.0
  0
LINE
  5
48B
330
1C7
100
AcDbEntity
  8
0
 62
     0
 48
0.3
370
    -2
100
AcDbLine
 10
2.137380571626021
 20
3.460186718605652
 30
0.0
 11
1.571130571626021
 21
3.460186718605652
 31
0.0
  0
SOLID
  5
48C
330
1C7
100
AcDbEntity
  8
0
 62
     0
 48
0.3
100
AcDbTrace
 10
0.3873805716260215
 20
3.481020051938986
 30
0.0
 11
0.3873805716260215
 21
3.439353385272319
 31
0.0
 12
0.2623805716260215
 22
3.460186718605652
 32
0.0
 13
0.2623805716260215
 23
3.460186718605652
 33
0.0
  0
SOLID
  5
48D
330
1C7
100
AcDbEntity
  8
0
 62
     0
 48
0.3
100
AcDbTrace
 10
2.137380571626021
 20
3.481020051938986
 30
0.0
 11
2.137380571626021
 21
3.439353385272319
 31
0.0
 12
2.262380571626021
 22
3.460186718605652
 32
0.0
 13
2.262380571626021
 23
3.460186718605652
 33
0.0
  0
MTEXT
  5
48E
330
1C7
100
AcDbEntity
  8
0
 62
     0
 48
0.3
100
AcDbMText
 10
1.262380571626021
 20
3.460186718605652
 30
0.0
 40
0.125
 41
0.0
 71
     5
 72
     1
  1
\A1;2.000
 73
     1
 44
1.0
  0
POINT
  5
48F
330
1C7
100
AcDbEntity
  8
Defpoints
 62
     0
 48
0.3
100
AcDbPoint
 10
0.2623805716260215
 20
2.483466721678474
 30
0.0
  0
POINT
  5
490
330
1C7
100
AcDbEntity
  8
Defpoints
 62
     0
 48
0.3
100
AcDbPoint
 10
2.262380571626021
 20
2.483466721678474
 30
0.0
  0
POINT
  5
491
330
1C7
100
AcDbEntity
  8
Defpoints
 62
     0
 48
0.3
100
AcDbPoint
 10
2.262380571626021
 20
3.460186718605652
 30
0.0
  0
ENDBLK
  5
1D3
330
1C7
100
AcDbEntity
  8
0
 48
0.3
100
AcDbBlockEnd
  0
BLOCK
  5
1EC
330
1E1
100
AcDbEntity
  8
0
 48
0.3
100
AcDbBlockBegin
  2
*D8
 70
     1
 10
0.0
 20
0.0
 30
0.0
  3
*D8
  1

  0
LINE
  5
1EF
330
1E1
100
AcDbEntity
  8
0
 62
     0
 48
0.3
370
    -2
100
AcDbLine
 10
-0.237619428373976
 20
5.085753454529736
 30
0.0
 11
-0.237619428373976
 21
6.007435579235142
 31
0.0
  0
LINE
  5
1F0
330
1E1
100
AcDbEntity
  8
0
 62
     0
 48
0.3
370
    -2
100
AcDbLine
 10
8.262380571626017
 20
5.085753454529736
 30
0.0
 11
8.262380571626017
 21
6.007435579235142
 31
0.0
  0
LINE
  5
1F1
330
1E1
100
AcDbEntity
  8
0
 62
     0
 48
0.3
370
    -2
100
AcDbLine
 10
-0.112619428373976
 20
5.827435579235142
 30
0.0
 11
3.693213904959353
 21
5.827435579235142
 31
0.0
  0
LINE
  5
1F2
330
1E1
100
AcDbEntity
  8
0
 62
     0
 48
0.3
370
    -2
100
AcDbLine
 10
8.137380571626017
 20
5.827435579235142
 30
0.0
 11
4.331547238292687
 21
5.827435579235142
 31
0.0
  0
SOLID
  5
1F3
330
1E1
100
AcDbEntity
  8
0
 62
     0
 48
0.3
100
AcDbTrace
 10
-0.112619428373976
 20
5.848268912568475
 30
0.0
 11
-0.112619428373976
 21
5.806602245901809
 31
0.0
 12
-0.237619428373976
 22
5.827435579235142
 32
0.0
 13
-0.237619428373976
 23
5.827435579235142
 33
0.0
  0
SOLID
  5
1F4
330
1E1
100
AcDbEntity
  8
0
 62
     0
 48
0.3
100
AcDbTrace
 10
8.137380571626017
 20
5.848268912568475
 30
0.0
 11
8.137380571626017
 21
5.806602245901809
 31
0.0
 12
8.262380571626017
 22
5.827435579235142
 32
0.0
 13
8.262380571626017
 23
5.827435579235142
 33
0.0
  0
MTEXT
  5
1F5
330
1E1
100
AcDbEntity
  8
0
 62
     0
 48
0.3
100
AcDbMText
 10
4.01238057162602
 20
5.827435579235142
 30
0.0
 40
0.125
 41
0.0
 71
     5
 72
     1
  1
\A1;8.500
 73
     1
 44
1.0
  0
POINT
  5
1F6
330
1E1
100
AcDbEntity
  8
Defpoints
 62
     0
 48
0.3
100
AcDbPoint
 10
-0.237619428373976
 20
5.023253454529736
 30
0.0
  0
POINT
  5
1F7
330
1E1
100
AcDbEntity
  8
Defpoints
 62
     0
 48
0.3
100
AcDbPoint
 10
8.262380571626017
 20
5.023253454529736
 30
0.0
  0
POINT
  5
1F8
330
1E1
100
AcDbEntity
  8
Defpoints
 62
     0
 48
0.3
100
AcDbPoint
 10
8.262380571626017
 20
5.827435579235142
 30
0.0
  0
ENDBLK
  5
1ED
330
1E1
100
AcDbEntity
  8
0
 48
0.3
100
AcDbBlockEnd
  0
BLOCK
  5
207
330
1FB
100
AcDbEntity
  8
0
 48
0.3
100
AcDbBlockBegin
  2
*D9
 70
     1
 10
0.0
 20
0.0
 30
0.0
  3
*D9
  1

  0
LINE
  5
220
330
1FB
100
AcDbEntity
  8
0
 62
     0
 48
0.3
370
    -2
100
AcDbLine
 10
-0.300119428373976
 20
5.023253454529736
 30
0.0
 11
-0.9482940374650937
 21
5.023253454529736
 31
0.0
  0
LINE
  5
221
330
1FB
100
AcDbEntity
  8
0
 62
     0
 48
0.3
370
    -2
100
AcDbLine
 10
-0.3001194283739761
 20
4.523253454529736
 30
0.0
 11
-0.9482940374650938
 21
4.523253454529736
 31
0.0
  0
LINE
  5
222
330
1FB
100
AcDbEntity
  8
0
 62
     0
 48
0.3
370
    -2
100
AcDbLine
 10
-0.7682940374650938
 20
5.148253454529736
 30
0.0
 11
-0.7682940374650937
 21
5.273253454529736
 31
0.0
  0
LINE
  5
223
330
1FB
100
AcDbEntity
  8
0
 62
     0
 48
0.3
370
    -2
100
AcDbLine
 10
-0.7682940374650939
 20
4.398253454529736
 30
0.0
 11
-0.7682940374650939
 21
4.273253454529736
 31
0.0
  0
SOLID
  5
224
330
1FB
100
AcDbEntity
  8
0
 62
     0
 48
0.3
100
AcDbTrace
 10
-0.7891273707984272
 20
5.148253454529736
 30
0.0
 11
-0.7474607041317604
 21
5.148253454529736
 31
0.0
 12
-0.7682940374650938
 22
5.023253454529736
 32
0.0
 13
-0.7682940374650938
 23
5.023253454529736
 33
0.0
  0
SOLID
  5
225
330
1FB
100
AcDbEntity
  8
0
 62
     0
 48
0.3
100
AcDbTrace
 10
-0.7891273707984272
 20
4.398253454529736
 30
0.0
 11
-0.7474607041317605
 21
4.398253454529736
 31
0.0
 12
-0.7682940374650939
 22
4.523253454529736
 32
0.0
 13
-0.7682940374650939
 23
4.523253454529736
 33
0.0
  0
MTEXT
  5
226
330
1FB
100
AcDbEntity
  8
0
 62
     0
 48
0.3
100
AcDbMText
 10
-0.7682940374650946
 20
4.835753454529736
 30
0.0
 40
0.125
 41
0.0
 71
     5
 72
     1
  1
\A1;0.500
 73
     1
 44
1.0
  0
POINT
  5
227
330
1FB
100
AcDbEntity
  8
Defpoints
 62
     0
 48
0.3
100
AcDbPoint
 10
-0.237619428373976
 20
5.023253454529736
 30
0.0
  0
POINT
  5
228
330
1FB
100
AcDbEntity
  8
Defpoints
 62
     0
 48
0.3
100
AcDbPoint
 10
-0.237619428373976
 20
4.523253454529736
 30
0.0
  0
POINT
  5
229
330
1FB
100
AcDbEntity
  8
Defpoints
 62
     0
 48
0.3
100
AcDbPoint
 10
-0.7682940374650939
 20
4.523253454529736
 30
0.0
  0
ENDBLK
  5
208
330
1FB
100
AcDbEntity
  8
0
 48
0.3
100
AcDbBlockEnd
  0
BLOCK
  5
237
330
22B
100
AcDbEntity
  8
0
 48
0.3
100
AcDbBlockBegin
  2
*D10
 70
     1
 10
0.0
 20
0.0
 30
0.0
  3
*D10
  1

  0
LINE
  5
23A
330
22B
100
AcDbEntity
  8
0
 62
     0
 48
0.3
370
    -2
100
AcDbLine
 10
0.5123805716260216
 20
4.783253454529736
 30
0.0
 11
0.9833303145053026
 21
4.783253454529736
 31
0.0
  0
LINE
  5
23B
330
22B
100
AcDbEntity
  8
0
 62
     0
 48
0.3
370
    -2
100
AcDbLine
 10
0.5123805716260215
 20
4.523253454529736
 30
0.0
 11
0.9833303145053024
 21
4.523253454529736
 31
0.0
  0
LINE
  5
23C
330
22B
100
AcDbEntity
  8
0
 62
     0
 48
0.3
370
    -2
100
AcDbLine
 10
0.8033303145053027
 20
4.908253454529736
 30
0.0
 11
0.8033303145053027
 21
5.033253454529736
 31
0.0
  0
LINE
  5
23D
330
22B
100
AcDbEntity
  8
0
 62
     0
 48
0.3
370
    -2
100
AcDbLine
 10
0.8033303145053025
 20
4.398253454529736
 30
0.0
 11
0.8033303145053025
 21
4.273253454529736
 31
0.0
  0
LINE
  5
23E
330
22B
100
AcDbEntity
  8
0
 62
     0
 48
0.3
370
    -2
100
AcDbLine
 10
0.8033303145053025
 20
4.273253454529736
 30
0.0
 11
0.6783303145053026
 21
4.273253454529736
 31
0.0
  0
SOLID
  5
23F
330
22B
100
AcDbEntity
  8
0
 62
     0
 48
0.3
100
AcDbTrace
 10
0.7824969811719694
 20
4.908253454529736
 30
0.0
 11
0.8241636478386361
 21
4.908253454529736
 31
0.0
 12
0.8033303145053027
 22
4.783253454529736
 32
0.0
 13
0.8033303145053027
 23
4.783253454529736
 33
0.0
  0
SOLID
  5
240
330
22B
100
AcDbEntity
  8
0
 62
     0
 48
0.3
100
AcDbTrace
 10
0.7824969811719692
 20
4.398253454529736
 30
0.0
 11
0.8241636478386359
 21
4.398253454529736
 31
0.0
 12
0.8033303145053025
 22
4.523253454529736
 32
0.0
 13
0.8033303145053025
 23
4.523253454529736
 33
0.0
  0
MTEXT
  5
241
330
22B
100
AcDbEntity
  8
0
 62
     0
 48
0.3
100
AcDbMText
 10
0.3591636478386352
 20
4.273253454529736
 30
0.0
 40
0.125
 41
0.0
 71
     5
 72
     1
  1
\A1;0.260
 73
     1
 44
1.0
  0
POINT
  5
242
330
22B
100
AcDbEntity
  8
Defpoints
 62
     0
 48
0.3
100
AcDbPoint
 10
0.4498805716260216
 20
4.783253454529736
 30
0.0
  0
POINT
  5
243
330
22B
100
AcDbEntity
  8
Defpoints
 62
     0
 48
0.3
100
AcDbPoint
 10
0.4498805716260215
 20
4.523253454529736
 30
0.0
  0
POINT
  5
244
330
22B
100
AcDbEntity
  8
Defpoints
 62
     0
 48
0.3
100
AcDbPoint
 10
0.8033303145053025
 20
4.523253454529736
 30
0.0
  0
ENDBLK
  5
238
330
22B
100
AcDbEntity
  8
0
 48
0.3
100
AcDbBlockEnd
  0
BLOCK
  5
252
330
247
100
AcDbEntity
  8
0
 48
0.3
100
AcDbBlockBegin
  2
*D11
 70
     1
 10
0.0
 20
0.0
 30
0.0
  3
*D11
  1

  0
LINE
  5
546
330
247
100
AcDbEntity
  8
0
 62
     0
 48
0.3
370
    -2
100
AcDbLine
 10
1.262380571626021
 20
1.770966721678474
 30
0.0
 11
1.262380571626021
 21
-0.5076120561437639
 31
0.0
  0
LINE
  5
547
330
247
100
AcDbEntity
  8
0
 62
     0
 48
0.3
370
    -2
100
AcDbLine
 10
-0.2376194283739785
 20
0.2709667216784748
 30
0.0
 11
-0.2376194283739786
 21
-0.5076120561437636
 31
0.0
  0
LINE
  5
548
330
247
100
AcDbEntity
  8
0
 62
     0
 48
0.3
370
    -2
100
AcDbLine
 10
1.137380571626021
 20
-0.3276120561437636
 30
0.0
 11
0.8107139049593545
 21
-0.3276120561437636
 31
0.0
  0
LINE
  5
549
330
247
100
AcDbEntity
  8
0
 62
     0
 48
0.3
370
    -2
100
AcDbLine
 10
-0.1126194283739786
 20
-0.3276120561437636
 30
0.0
 11
0.2140472382926879
 21
-0.3276120561437636
 31
0.0
  0
SOLID
  5
54A
330
247
100
AcDbEntity
  8
0
 62
     0
 48
0.3
100
AcDbTrace
 10
1.137380571626021
 20
-0.3067787228104303
 30
0.0
 11
1.137380571626021
 21
-0.348445389477097
 31
0.0
 12
1.262380571626021
 22
-0.3276120561437636
 32
0.0
 13
1.262380571626021
 23
-0.3276120561437636
 33
0.0
  0
SOLID
  5
54B
330
247
100
AcDbEntity
  8
0
 62
     0
 48
0.3
100
AcDbTrace
 10
-0.1126194283739786
 20
-0.3067787228104303
 30
0.0
 11
-0.1126194283739786
 21
-0.348445389477097
 31
0.0
 12
-0.2376194283739786
 22
-0.3276120561437636
 32
0.0
 13
-0.2376194283739786
 23
-0.3276120561437636
 33
0.0
  0
MTEXT
  5
54C
330
247
100
AcDbEntity
  8
0
 62
     0
 48
0.3
100
AcDbMText
 10
0.5123805716260213
 20
-0.3276120561437636
 30
0.0
 40
0.125
 41
0.0
 71
     5
 72
     1
  1
\A1;1.500
 73
     1
 44
1.0
  0
POINT
  5
54D
330
247
100
AcDbEntity
  8
Defpoints
 62
     0
 48
0.3
100
AcDbPoint
 10
1.262380571626021
 20
1.833466721678474
 30
0.0
  0
POINT
  5
54E
330
247
100
AcDbEntity
  8
Defpoints
 62
     0
 48
0.3
100
AcDbPoint
 10
-0.2376194283739785
 20
0.3334667216784748
 30
0.0
  0
POINT
  5
54F
330
247
100
AcDbEntity
  8
Defpoints
 62
     0
 48
0.3
100
AcDbPoint
 10
-0.2376194283739786
 20
-0.3276120561437636
 30
0.0
  0
ENDBLK
  5
253
330
247
100
AcDbEntity
  8
0
 48
0.3
100
AcDbBlockEnd
  0
BLOCK
  5
286
330
27B
100
AcDbEntity
  8
0
 48
0.3
100
AcDbBlockBegin
  2
*D13
 70
     1
 10
0.0
 20
0.0
 30
0.0
  3
*D13
  1

  0
LINE
  5
289
330
27B
100
AcDbEntity
  8
0
 62
     0
 48
0.3
370
    -2
100
AcDbLine
 10
6.940380571626022
 20
2.823966721678474
 30
0.0
 11
6.940380571626022
 21
3.914623238548223
 31
0.0
  0
LINE
  5
28A
330
27B
100
AcDbEntity
  8
0
 62
     0
 48
0.3
370
    -2
100
AcDbLine
 10
7.815380571626022
 20
2.823966721678474
 30
0.0
 11
7.815380571626022
 21
3.914623238548223
 31
0.0
  0
LINE
  5
28B
330
27B
100
AcDbEntity
  8
0
 62
     0
 48
0.3
370
    -2
100
AcDbLine
 10
6.815380571626022
 20
3.734623238548223
 30
0.0
 11
6.690380571626022
 21
3.734623238548223
 31
0.0
  0
LINE
  5
28C
330
27B
100
AcDbEntity
  8
0
 62
     0
 48
0.3
370
    -2
100
AcDbLine
 10
7.940380571626022
 20
3.734623238548223
 30
0.0
 11
8.065380571626022
 21
3.734623238548223
 31
0.0
  0
SOLID
  5
28D
330
27B
100
AcDbEntity
  8
0
 62
     0
 48
0.3
100
AcDbTrace
 10
6.815380571626022
 20
3.755456571881557
 30
0.0
 11
6.815380571626022
 21
3.71378990521489
 31
0.0
 12
6.940380571626022
 22
3.734623238548223
 32
0.0
 13
6.940380571626022
 23
3.734623238548223
 33
0.0
  0
SOLID
  5
28E
330
27B
100
AcDbEntity
  8
0
 62
     0
 48
0.3
100
AcDbTrace
 10
7.940380571626022
 20
3.755456571881557
 30
0.0
 11
7.940380571626022
 21
3.71378990521489
 31
0.0
 12
7.815380571626022
 22
3.734623238548223
 32
0.0
 13
7.815380571626022
 23
3.734623238548223
 33
0.0
  0
MTEXT
  5
28F
330
27B
100
AcDbEntity
  8
0
 62
     0
 48
0.3
100
AcDbMText
 10
7.377880571626022
 20
3.734623238548223
 30
0.0
 40
0.125
 41
0.0
 71
     5
 72
     1
  1
\A1;0.875
 73
     1
 44
1.0
  0
POINT
  5
290
330
27B
100
AcDbEntity
  8
Defpoints
 62
     0
 48
0.3
100
AcDbPoint
 10
6.940380571626022
 20
2.761466721678474
 30
0.0
  0
POINT
  5
291
330
27B
100
AcDbEntity
  8
Defpoints
 62
     0
 48
0.3
100
AcDbPoint
 10
7.815380571626022
 20
2.761466721678474
 30
0.0
  0
POINT
  5
292
330
27B
100
AcDbEntity
  8
Defpoints
 62
     0
 48
0.3
100
AcDbPoint
 10
7.815380571626022
 20
3.734623238548223
 30
0.0
  0
ENDBLK
  5
287
330
27B
100
AcDbEntity
  8
0
 48
0.3
100
AcDbBlockEnd
  0
BLOCK
  5
2A0
330
295
100
AcDbEntity
  8
0
 48
0.3
100
AcDbBlockBegin
  2
*D14
 70
     1
 10
0.0
 20
0.0
 30
0.0
  3
*D14
  1

  0
LINE
  5
2A3
330
295
100
AcDbEntity
  8
0
 62
     0
 48
0.3
370
    -2
100
AcDbLine
 10
5.959380571626022
 20
2.823966721678474
 30
0.0
 11
5.959380571626022
 21
3.914623238548223
 31
0.0
  0
LINE
  5
2A4
330
295
100
AcDbEntity
  8
0
 62
     0
 48
0.3
370
    -2
100
AcDbLine
 10
6.940380571626022
 20
2.823966721678474
 30
0.0
 11
6.940380571626022
 21
3.914623238548223
 31
0.0
  0
LINE
  5
2A5
330
295
100
AcDbEntity
  8
0
 62
     0
 48
0.3
370
    -2
100
AcDbLine
 10
5.834380571626022
 20
3.734623238548223
 30
0.0
 11
5.709380571626022
 21
3.734623238548223
 31
0.0
  0
LINE
  5
2A6
330
295
100
AcDbEntity
  8
0
 62
     0
 48
0.3
370
    -2
100
AcDbLine
 10
7.065380571626022
 20
3.734623238548223
 30
0.0
 11
7.190380571626022
 21
3.734623238548223
 31
0.0
  0
SOLID
  5
2A7
330
295
100
AcDbEntity
  8
0
 62
     0
 48
0.3
100
AcDbTrace
 10
5.834380571626022
 20
3.755456571881557
 30
0.0
 11
5.834380571626022
 21
3.71378990521489
 31
0.0
 12
5.959380571626022
 22
3.734623238548223
 32
0.0
 13
5.959380571626022
 23
3.734623238548223
 33
0.0
  0
SOLID
  5
2A8
330
295
100
AcDbEntity
  8
0
 62
     0
 48
0.3
100
AcDbTrace
 10
7.065380571626022
 20
3.755456571881557
 30
0.0
 11
7.065380571626022
 21
3.71378990521489
 31
0.0
 12
6.940380571626022
 22
3.734623238548223
 32
0.0
 13
6.940380571626022
 23
3.734623238548223
 33
0.0
  0
MTEXT
  5
2A9
330
295
100
AcDbEntity
  8
0
 62
     0
 48
0.3
100
AcDbMText
 10
6.449880571626022
 20
3.734623238548223
 30
0.0
 40
0.125
 41
0.0
 71
     5
 72
     1
  1
\A1;0.981
 73
     1
 44
1.0
  0
POINT
  5
2AA
330
295
100
AcDbEntity
  8
Defpoints
 62
     0
 48
0.3
100
AcDbPoint
 10
5.959380571626022
 20
2.761466721678474
 30
0.0
  0
POINT
  5
2AB
330
295
100
AcDbEntity
  8
Defpoints
 62
     0
 48
0.3
100
AcDbPoint
 10
6.940380571626022
 20
2.761466721678474
 30
0.0
  0
POINT
  5
2AC
330
295
100
AcDbEntity
  8
Defpoints
 62
     0
 48
0.3
100
AcDbPoint
 10
6.940380571626022
 20
3.734623238548223
 30
0.0
  0
ENDBLK
  5
2A1
330
295
100
AcDbEntity
  8
0
 48
0.3
100
AcDbBlockEnd
  0
BLOCK
  5
2BA
330
2AF
100
AcDbEntity
  8
0
 48
0.3
100
AcDbBlockBegin
  2
*D15
 70
     1
 10
0.0
 20
0.0
 30
0.0
  3
*D15
  1

  0
LINE
  5
2BD
330
2AF
100
AcDbEntity
  8
0
 62
     0
 48
0.3
370
    -2
100
AcDbLine
 10
5.959380571626022
 20
2.823966721678474
 30
0.0
 11
5.959380571626022
 21
3.914623238548223
 31
0.0
  0
LINE
  5
2BE
330
2AF
100
AcDbEntity
  8
0
 62
     0
 48
0.3
370
    -2
100
AcDbLine
 10
5.084380571626022
 20
2.823966721678474
 30
0.0
 11
5.084380571626022
 21
3.914623238548223
 31
0.0
  0
LINE
  5
2BF
330
2AF
100
AcDbEntity
  8
0
 62
     0
 48
0.3
370
    -2
100
AcDbLine
 10
6.084380571626022
 20
3.734623238548223
 30
0.0
 11
6.209380571626022
 21
3.734623238548223
 31
0.0
  0
LINE
  5
2C0
330
2AF
100
AcDbEntity
  8
0
 62
     0
 48
0.3
370
    -2
100
AcDbLine
 10
4.959380571626022
 20
3.734623238548223
 30
0.0
 11
4.834380571626022
 21
3.734623238548223
 31
0.0
  0
SOLID
  5
2C1
330
2AF
100
AcDbEntity
  8
0
 62
     0
 48
0.3
100
AcDbTrace
 10
6.084380571626022
 20
3.755456571881557
 30
0.0
 11
6.084380571626022
 21
3.71378990521489
 31
0.0
 12
5.959380571626022
 22
3.734623238548223
 32
0.0
 13
5.959380571626022
 23
3.734623238548223
 33
0.0
  0
SOLID
  5
2C2
330
2AF
100
AcDbEntity
  8
0
 62
     0
 48
0.3
100
AcDbTrace
 10
4.959380571626022
 20
3.755456571881557
 30
0.0
 11
4.959380571626022
 21
3.71378990521489
 31
0.0
 12
5.084380571626022
 22
3.734623238548223
 32
0.0
 13
5.084380571626022
 23
3.734623238548223
 33
0.0
  0
MTEXT
  5
2C3
330
2AF
100
AcDbEntity
  8
0
 62
     0
 48
0.3
100
AcDbMText
 10
5.521880571626022
 20
3.734623238548223
 30
0.0
 40
0.125
 41
0.0
 71
     5
 72
     1
  1
\A1;0.875
 73
     1
 44
1.0
  0
POINT
  5
2C4
330
2AF
100
AcDbEntity
  8
Defpoints
 62
     0
 48
0.3
100
AcDbPoint
 10
5.959380571626022
 20
2.761466721678474
 30
0.0
  0
POINT
  5
2C5
330
2AF
100
AcDbEntity
  8
Defpoints
 62
     0
 48
0.3
100
AcDbPoint
 10
5.084380571626022
 20
2.761466721678474
 30
0.0
  0
POINT
  5
2C6
330
2AF
100
AcDbEntity
  8
Defpoints
 62
     0
 48
0.3
100
AcDbPoint
 10
5.084380571626022
 20
3.734623238548223
 30
0.0
  0
ENDBLK
  5
2BB
330
2AF
100
AcDbEntity
  8
0
 48
0.3
100
AcDbBlockEnd
  0
BLOCK
  5
2D4
330
2C9
100
AcDbEntity
  8
0
 48
0.3
100
AcDbBlockBegin
  2
*D16
 70
     1
 10
0.0
 20
0.0
 30
0.0
  3
*D16
  1

  0
LINE
  5
2D7
330
2C9
100
AcDbEntity
  8
0
 62
     0
 48
0.3
370
    -2
100
AcDbLine
 10
5.021880571626022
 20
2.761466721678474
 30
0.0
 11
4.302334605703635
 21
2.761466721678475
 31
0.0
  0
LINE
  5
2D8
330
2C9
100
AcDbEntity
  8
0
 62
     0
 48
0.3
370
    -2
100
AcDbLine
 10
5.021880571626022
 20
0.905466721678473
 30
0.0
 11
4.302334605703634
 21
0.9054667216784732
 31
0.0
  0
LINE
  5
2D9
330
2C9
100
AcDbEntity
  8
0
 62
     0
 48
0.3
370
    -2
100
AcDbLine
 10
4.482334605703635
 20
2.636466721678475
 30
0.0
 11
4.482334605703634
 21
1.985966721678474
 31
0.0
  0
LINE
  5
2DA
330
2C9
100
AcDbEntity
  8
0
 62
     0
 48
0.3
370
    -2
100
AcDbLine
 10
4.482334605703634
 20
1.030466721678473
 30
0.0
 11
4.482334605703634
 21
1.680966721678474
 31
0.0
  0
SOLID
  5
2DB
330
2C9
100
AcDbEntity
  8
0
 62
     0
 48
0.3
100
AcDbTrace
 10
4.461501272370302
 20
2.636466721678475
 30
0.0
 11
4.503167939036968
 21
2.636466721678475
 31
0.0
 12
4.482334605703635
 22
2.761466721678475
 32
0.0
 13
4.482334605703635
 23
2.761466721678475
 33
0.0
  0
SOLID
  5
2DC
330
2C9
100
AcDbEntity
  8
0
 62
     0
 48
0.3
100
AcDbTrace
 10
4.461501272370301
 20
1.030466721678473
 30
0.0
 11
4.503167939036967
 21
1.030466721678473
 31
0.0
 12
4.482334605703634
 22
0.9054667216784732
 32
0.0
 13
4.482334605703634
 23
0.9054667216784732
 33
0.0
  0
MTEXT
  5
2DD
330
2C9
100
AcDbEntity
  8
0
 62
     0
 48
0.3
100
AcDbMText
 10
4.482334605703634
 20
1.833466721678474
 30
0.0
 40
0.125
 41
0.0
 71
     5
 72
     1
  1
\A1;1.856
 73
     1
 44
1.0
  0
POINT
  5
2DE
330
2C9
100
AcDbEntity
  8
Defpoints
 62
     0
 48
0.3
100
AcDbPoint
 10
5.084380571626022
 20
2.761466721678474
 30
0.0
  0
POINT
  5
2DF
330
2C9
100
AcDbEntity
  8
Defpoints
 62
     0
 48
0.3
100
AcDbPoint
 10
5.084380571626022
 20
0.905466721678473
 30
0.0
  0
POINT
  5
2E0
330
2C9
100
AcDbEntity
  8
Defpoints
 62
     0
 48
0.3
100
AcDbPoint
 10
4.482334605703634
 20
0.9054667216784732
 30
0.0
  0
ENDBLK
  5
2D5
330
2C9
100
AcDbEntity
  8
0
 48
0.3
100
AcDbBlockEnd
  0
BLOCK
  5
2EF
330
2E3
100
AcDbEntity
  8
0
 48
0.3
100
AcDbBlockBegin
  2
*D17
 70
     1
 10
0.0
 20
0.0
 30
0.0
  3
*D17
  1

  0
LINE
  5
308
330
2E3
100
AcDbEntity
  8
0
 62
     0
 48
0.3
370
    -2
100
AcDbLine
 10
5.021880571626022
 20
2.761466721678474
 30
0.0
 11
4.339665717720519
 21
2.761466721678475
 31
0.0
  0
LINE
  5
309
330
2E3
100
AcDbEntity
  8
0
 62
     0
 48
0.3
370
    -2
100
AcDbLine
 10
5.021880571626022
 20
3.333466721678476
 30
0.0
 11
4.339665717720519
 21
3.333466721678476
 31
0.0
  0
LINE
  5
30A
330
2E3
100
AcDbEntity
  8
0
 62
     0
 48
0.3
370
    -2
100
AcDbLine
 10
4.519665717720519
 20
2.636466721678475
 30
0.0
 11
4.519665717720519
 21
2.511466721678475
 31
0.0
  0
LINE
  5
30B
330
2E3
100
AcDbEntity
  8
0
 62
     0
 48
0.3
370
    -2
100
AcDbLine
 10
4.519665717720519
 20
3.458466721678476
 30
0.0
 11
4.519665717720519
 21
3.583466721678476
 31
0.0
  0
SOLID
  5
30C
330
2E3
100
AcDbEntity
  8
0
 62
     0
 48
0.3
100
AcDbTrace
 10
4.498832384387186
 20
2.636466721678475
 30
0.0
 11
4.540499051053852
 21
2.636466721678475
 31
0.0
 12
4.519665717720519
 22
2.761466721678475
 32
0.0
 13
4.519665717720519
 23
2.761466721678475
 33
0.0
  0
SOLID
  5
30D
330
2E3
100
AcDbEntity
  8
0
 62
     0
 48
0.3
100
AcDbTrace
 10
4.498832384387186
 20
3.458466721678476
 30
0.0
 11
4.540499051053852
 21
3.458466721678476
 31
0.0
 12
4.519665717720519
 22
3.333466721678476
 32
0.0
 13
4.519665717720519
 23
3.333466721678476
 33
0.0
  0
MTEXT
  5
30E
330
2E3
100
AcDbEntity
  8
0
 62
     0
 48
0.3
100
AcDbMText
 10
4.519665717720518
 20
3.145966721678476
 30
0.0
 40
0.125
 41
0.0
 71
     5
 72
     1
  1
\A1;0.572
 73
     1
 44
1.0
  0
POINT
  5
30F
330
2E3
100
AcDbEntity
  8
Defpoints
 62
     0
 48
0.3
100
AcDbPoint
 10
5.084380571626022
 20
2.761466721678474
 30
0.0
  0
POINT
  5
310
330
2E3
100
AcDbEntity
  8
Defpoints
 62
     0
 48
0.3
100
AcDbPoint
 10
5.084380571626022
 20
3.333466721678476
 30
0.0
  0
POINT
  5
311
330
2E3
100
AcDbEntity
  8
Defpoints
 62
     0
 48
0.3
100
AcDbPoint
 10
4.519665717720519
 20
3.333466721678476
 30
0.0
  0
ENDBLK
  5
2F0
330
2E3
100
AcDbEntity
  8
0
 48
0.3
100
AcDbBlockEnd
  0
BLOCK
  5
31E
330
313
100
AcDbEntity
  8
0
 48
0.3
100
AcDbBlockBegin
  2
*D18
 70
     1
 10
0.0
 20
0.0
 30
0.0
  3
*D18
  1

  0
LINE
  5
321
330
313
100
AcDbEntity
  8
0
 62
     0
 48
0.3
370
    -2
100
AcDbLine
 10
6.887380571626021
 20
1.895966721678473
 30
0.0
 11
6.887380571626021
 21
2.332654848280192
 31
0.0
  0
LINE
  5
322
330
313
100
AcDbEntity
  8
0
 62
     0
 48
0.3
370
    -2
100
AcDbLine
 10
6.012380571626021
 20
1.895966721678473
 30
0.0
 11
6.012380571626021
 21
2.332654848280192
 31
0.0
  0
LINE
  5
323
330
313
100
AcDbEntity
  8
0
 62
     0
 48
0.3
370
    -2
100
AcDbLine
 10
7.012380571626021
 20
2.152654848280192
 30
0.0
 11
7.137380571626021
 21
2.152654848280192
 31
0.0
  0
LINE
  5
324
330
313
100
AcDbEntity
  8
0
 62
     0
 48
0.3
370
    -2
100
AcDbLine
 10
5.887380571626021
 20
2.152654848280192
 30
0.0
 11
5.762380571626021
 21
2.152654848280192
 31
0.0
  0
SOLID
  5
325
330
313
100
AcDbEntity
  8
0
 62
     0
 48
0.3
100
AcDbTrace
 10
7.012380571626021
 20
2.173488181613526
 30
0.0
 11
7.012380571626021
 21
2.131821514946859
 31
0.0
 12
6.887380571626021
 22
2.152654848280192
 32
0.0
 13
6.887380571626021
 23
2.152654848280192
 33
0.0
  0
SOLID
  5
326
330
313
100
AcDbEntity
  8
0
 62
     0
 48
0.3
100
AcDbTrace
 10
5.887380571626021
 20
2.173488181613526
 30
0.0
 11
5.887380571626021
 21
2.131821514946859
 31
0.0
 12
6.012380571626021
 22
2.152654848280192
 32
0.0
 13
6.012380571626021
 23
2.152654848280192
 33
0.0
  0
MTEXT
  5
327
330
313
100
AcDbEntity
  8
0
 62
     0
 48
0.3
100
AcDbMText
 10
6.449880571626021
 20
2.152654848280192
 30
0.0
 40
0.125
 41
0.0
 71
     5
 72
     1
  1
\A1;0.875
 73
     1
 44
1.0
  0
POINT
  5
328
330
313
100
AcDbEntity
  8
Defpoints
 62
     0
 48
0.3
100
AcDbPoint
 10
6.887380571626021
 20
1.833466721678473
 30
0.0
  0
POINT
  5
329
330
313
100
AcDbEntity
  8
Defpoints
 62
     0
 48
0.3
100
AcDbPoint
 10
6.012380571626021
 20
1.833466721678473
 30
0.0
  0
POINT
  5
32A
330
313
100
AcDbEntity
  8
Defpoints
 62
     0
 48
0.3
100
AcDbPoint
 10
6.012380571626021
 20
2.152654848280192
 30
0.0
  0
ENDBLK
  5
31F
330
313
100
AcDbEntity
  8
0
 48
0.3
100
AcDbBlockEnd
  0
BLOCK
  5
338
330
32D
100
AcDbEntity
  8
0
 48
0.3
100
AcDbBlockBegin
  2
*D19
 70
     1
 10
0.0
 20
0.0
 30
0.0
  3
*D19
  1

  0
LINE
  5
33B
330
32D
100
AcDbEntity
  8
0
 62
     0
 48
0.3
370
    -2
100
AcDbLine
 10
6.887380571626021
 20
1.895966721678473
 30
0.0
 11
6.887380571626021
 21
2.31617600194307
 31
0.0
  0
LINE
  5
33C
330
32D
100
AcDbEntity
  8
0
 62
     0
 48
0.3
370
    -2
100
AcDbLine
 10
8.262380571626017
 20
1.895966721678473
 30
0.0
 11
8.262380571626017
 21
2.31617600194307
 31
0.0
  0
LINE
  5
33D
330
32D
100
AcDbEntity
  8
0
 62
     0
 48
0.3
370
    -2
100
AcDbLine
 10
7.012380571626021
 20
2.13617600194307
 30
0.0
 11
7.255713904959352
 21
2.13617600194307
 31
0.0
  0
LINE
  5
33E
330
32D
100
AcDbEntity
  8
0
 62
     0
 48
0.3
370
    -2
100
AcDbLine
 10
8.137380571626017
 20
2.13617600194307
 30
0.0
 11
7.894047238292686
 21
2.13617600194307
 31
0.0
  0
SOLID
  5
33F
330
32D
100
AcDbEntity
  8
0
 62
     0
 48
0.3
100
AcDbTrace
 10
7.012380571626021
 20
2.157009335276403
 30
0.0
 11
7.012380571626021
 21
2.115342668609736
 31
0.0
 12
6.887380571626021
 22
2.13617600194307
 32
0.0
 13
6.887380571626021
 23
2.13617600194307
 33
0.0
  0
SOLID
  5
340
330
32D
100
AcDbEntity
  8
0
 62
     0
 48
0.3
100
AcDbTrace
 10
8.137380571626017
 20
2.157009335276403
 30
0.0
 11
8.137380571626017
 21
2.115342668609736
 31
0.0
 12
8.262380571626017
 22
2.13617600194307
 32
0.0
 13
8.262380571626017
 23
2.13617600194307
 33
0.0
  0
MTEXT
  5
341
330
32D
100
AcDbEntity
  8
0
 62
     0
 48
0.3
100
AcDbMText
 10
7.574880571626019
 20
2.13617600194307
 30
0.0
 40
0.125
 41
0.0
 71
     5
 72
     1
  1
\A1;1.375
 73
     1
 44
1.0
  0
POINT
  5
342
330
32D
100
AcDbEntity
  8
Defpoints
 62
     0
 48
0.3
100
AcDbPoint
 10
6.887380571626021
 20
1.833466721678473
 30
0.0
  0
POINT
  5
343
330
32D
100
AcDbEntity
  8
Defpoints
 62
     0
 48
0.3
100
AcDbPoint
 10
8.262380571626017
 20
1.833466721678473
 30
0.0
  0
POINT
  5
344
330
32D
100
AcDbEntity
  8
Defpoints
 62
     0
 48
0.3
100
AcDbPoint
 10
8.262380571626017
 20
2.13617600194307
 30
0.0
  0
ENDBLK
  5
339
330
32D
100
AcDbEntity
  8
0
 48
0.3
100
AcDbBlockEnd
  0
BLOCK
  5
366
330
35D
100
AcDbEntity
  8
0
 48
0.3
100
AcDbBlockBegin
  2
*D20
 70
     1
 10
0.0
 20
0.0
 30
0.0
  3
*D20
  1

  0
LINE
  5
369
330
35D
100
AcDbEntity
  8
0
 62
     0
 48
0.3
370
    -2
100
AcDbLine
 10
7.593432281001178
 20
0.0104059876506995
 30
0.0
 11
7.468432281001178
 21
0.0104059876506995
 31
0.0
  0
LINE
  5
36A
330
35D
100
AcDbEntity
  8
0
 62
     0
 48
0.3
370
    -2
100
AcDbLine
 10
7.468432281001178
 20
0.0104059876506995
 30
0.0
 11
7.115134569109306
 21
1.11888424454208
 31
0.0
  0
MTEXT
  5
36B
330
35D
100
AcDbEntity
  8
0
 62
     0
 48
0.3
100
AcDbMText
 10
7.985515614334512
 20
0.0104059876506995
 30
0.0
 40
0.125
 41
0.0
 71
     5
 72
     1
  1
\A1;R0.625
 73
     1
 44
1.0
  0
SOLID
  5
36C
330
35D
100
AcDbEntity
  8
0
 62
     0
 48
0.3
100
AcDbTrace
 10
7.134984082363095
 20
1.125210744472171
 30
0.0
 11
7.095285055855518
 21
1.112557744611989
 31
0.0
 12
7.077175569528759
 22
1.237981324064812
 32
0.0
 13
7.077175569528759
 23
1.237981324064812
 33
0.0
  0
LINE
  5
36D
330
35D
100
AcDbEntity
  8
0
 62
     0
 48
0.3
370
    -2
100
AcDbLine
 10
6.797380571626025
 20
1.833466721678475
 30
0.0
 11
6.977380571626023
 21
1.833466721678475
 31
0.0
  0
LINE
  5
36E
330
35D
100
AcDbEntity
  8
0
 62
     0
 48
0.3
370
    -2
100
AcDbLine
 10
6.887380571626024
 20
1.743466721678475
 30
0.0
 11
6.887380571626023
 21
1.923466721678475
 31
0.0
  0
POINT
  5
36F
330
35D
100
AcDbEntity
  8
Defpoints
 62
     0
 48
0.3
100
AcDbPoint
 10
7.077175569528759
 20
1.237981324064812
 30
0.0
  0
POINT
  5
370
330
35D
100
AcDbEntity
  8
Defpoints
 62
     0
 48
0.3
100
AcDbPoint
 10
6.887380571626024
 20
1.833466721678475
 30
0.0
  0
ENDBLK
  5
367
330
35D
100
AcDbEntity
  8
0
 48
0.3
100
AcDbBlockEnd
  0
BLOCK
  5
39B
330
38F
100
AcDbEntity
  8
0
 48
0.3
100
AcDbBlockBegin
  2
*D21
 70
     1
 10
0.0
 20
0.0
 30
0.0
  3
*D21
  1

  0
LINE
  5
39E
330
38F
100
AcDbEntity
  8
0
 62
     0
 48
0.3
370
    -2
100
AcDbLine
 10
5.896880571626022
 20
1.035466721678474
 30
0.0
 11
5.473676803427345
 21
1.035466721678474
 31
0.0
  0
LINE
  5
39F
330
38F
100
AcDbEntity
  8
0
 62
     0
 48
0.3
370
    -2
100
AcDbLine
 10
5.896880571626022
 20
0.7754667216784768
 30
0.0
 11
5.473676803427345
 21
0.7754667216784769
 31
0.0
  0
LINE
  5
3A0
330
38F
100
AcDbEntity
  8
0
 62
     0
 48
0.3
370
    -2
100
AcDbLine
 10
5.653676803427345
 20
1.160466721678474
 30
0.0
 11
5.653676803427345
 21
1.285466721678474
 31
0.0
  0
LINE
  5
3A1
330
38F
100
AcDbEntity
  8
0
 62
     0
 48
0.3
370
    -2
100
AcDbLine
 10
5.653676803427345
 20
0.6504667216784769
 30
0.0
 11
5.653676803427345
 21
0.5254667216784769
 31
0.0
  0
LINE
  5
3A2
330
38F
100
AcDbEntity
  8
0
 62
     0
 48
0.3
370
    -2
100
AcDbLine
 10
5.653676803427345
 20
0.5254667216784769
 30
0.0
 11
5.528676803427345
 21
0.5254667216784769
 31
0.0
  0
SOLID
  5
3A3
330
38F
100
AcDbEntity
  8
0
 62
     0
 48
0.3
100
AcDbTrace
 10
5.632843470094011
 20
1.160466721678474
 30
0.0
 11
5.674510136760678
 21
1.160466721678474
 31
0.0
 12
5.653676803427345
 22
1.035466721678474
 32
0.0
 13
5.653676803427345
 23
1.035466721678474
 33
0.0
  0
SOLID
  5
3A4
330
38F
100
AcDbEntity
  8
0
 62
     0
 48
0.3
100
AcDbTrace
 10
5.632843470094011
 20
0.6504667216784769
 30
0.0
 11
5.674510136760678
 21
0.6504667216784769
 31
0.0
 12
5.653676803427345
 22
0.7754667216784769
 32
0.0
 13
5.653676803427345
 23
0.7754667216784769
 33
0.0
  0
MTEXT
  5
3A5
330
38F
100
AcDbEntity
  8
0
 62
     0
 48
0.3
100
AcDbMText
 10
5.209510136760678
 20
0.5254667216784778
 30
0.0
 40
0.125
 41
0.0
 71
     5
 72
     1
  1
\A1;0.260
 73
     1
 44
1.0
  0
POINT
  5
3A6
330
38F
100
AcDbEntity
  8
Defpoints
 62
     0
 48
0.3
100
AcDbPoint
 10
5.959380571626022
 20
1.035466721678474
 30
0.0
  0
POINT
  5
3A7
330
38F
100
AcDbEntity
  8
Defpoints
 62
     0
 48
0.3
100
AcDbPoint
 10
5.959380571626022
 20
0.7754667216784768
 30
0.0
  0
POINT
  5
3A8
330
38F
100
AcDbEntity
  8
Defpoints
 62
     0
 48
0.3
100
AcDbPoint
 10
5.653676803427345
 20
0.7754667216784769
 30
0.0
  0
ENDBLK
  5
39C
330
38F
100
AcDbEntity
  8
0
 48
0.3
100
AcDbBlockEnd
  0
BLOCK
  5
404
330
3FB
100
AcDbEntity
  8
0
 48
0.3
100
AcDbBlockBegin
  2
*D24
 70
     1
 10
0.0
 20
0.0
 30
0.0
  3
*D24
  1

  0
LINE
  5
49A
330
3FB
100
AcDbEntity
  8
0
 62
     0
 48
0.3
370
    -2
100
AcDbLine
 10
2.68138412353698
 20
2.788801666423593
 30
0.0
 11
2.55638412353698
 21
2.788801666423593
 31
0.0
  0
LINE
  5
49B
330
3FB
100
AcDbEntity
  8
0
 62
     0
 48
0.3
370
    -2
100
AcDbLine
 10
2.55638412353698
 20
2.788801666423593
 30
0.0
 11
2.437864890934699
 21
2.665714502671193
 31
0.0
  0
MTEXT
  5
49C
330
3FB
100
AcDbEntity
  8
0
 62
     0
 48
0.3
100
AcDbMText
 10
3.073467456870313
 20
2.788801666423593
 30
0.0
 40
0.125
 41
0.0
 71
     5
 72
     1
  1
\A1;\U+22050.256
 73
     1
 44
1.0
  0
SOLID
  5
49D
330
3FB
100
AcDbEntity
  8
0
 62
     0
 48
0.3
100
AcDbTrace
 10
2.422857662592083
 20
2.680164792469338
 30
0.0
 11
2.452872119277314
 21
2.651264212873047
 31
0.0
 12
2.351163152145826
 22
2.575671132615502
 32
0.0
 13
2.351163152145826
 23
2.575671132615502
 33
0.0
  0
LINE
  5
49E
330
3FB
100
AcDbEntity
  8
0
 62
     0
 48
0.3
370
    -2
100
AcDbLine
 10
2.172380571626021
 20
2.483466721678474
 30
0.0
 11
2.352380571626021
 21
2.483466721678474
 31
0.0
  0
LINE
  5
49F
330
3FB
100
AcDbEntity
  8
0
 62
     0
 48
0.3
370
    -2
100
AcDbLine
 10
2.262380571626021
 20
2.393466721678474
 30
0.0
 11
2.262380571626021
 21
2.573466721678474
 31
0.0
  0
POINT
  5
4A0
330
3FB
100
AcDbEntity
  8
Defpoints
 62
     0
 48
0.3
100
AcDbPoint
 10
2.351163152145826
 20
2.575671132615502
 30
0.0
  0
POINT
  5
4A1
330
3FB
100
AcDbEntity
  8
Defpoints
 62
     0
 48
0.3
100
AcDbPoint
 10
2.173597991106216
 20
2.391262310741447
 30
0.0
  0
ENDBLK
  5
405
330
3FB
100
AcDbEntity
  8
0
 48
0.3
100
AcDbBlockEnd
  0
BLOCK
  5
41A
330
411
100
AcDbEntity
  8
0
 48
0.3
100
AcDbBlockBegin
  2
*D25
 70
     1
 10
0.0
 20
0.0
 30
0.0
  3
*D25
  1

  0
LINE
  5
492
330
411
100
AcDbEntity
  8
0
 62
     0
 48
0.3
370
    -2
100
AcDbLine
 10
2.899244707498144
 20
2.342700124810738
 30
0.0
 11
2.774244707498142
 21
2.342700124810738
 31
0.0
  0
LINE
  5
493
330
411
100
AcDbEntity
  8
0
 62
     0
 48
0.3
370
    -2
100
AcDbLine
 10
2.774244707498142
 20
2.342700124810738
 30
0.0
 11
2.563694160965154
 21
2.400603153811963
 31
0.0
  0
MTEXT
  5
494
330
411
100
AcDbEntity
  8
0
 62
     0
 48
0.3
100
AcDbMText
 10
3.291328040831477
 20
2.342700124810738
 30
0.0
 40
0.125
 41
0.0
 71
     5
 72
     1
  1
\A1;\U+22050.375
 73
     1
 44
1.0
  0
SOLID
  5
495
330
411
100
AcDbEntity
  8
0
 62
     0
 48
0.3
100
AcDbTrace
 10
2.569218398822922
 20
2.420690726434572
 30
0.0
 11
2.558169923107387
 21
2.380515581189354
 31
0.0
 12
2.443168725229501
 22
2.433748580958567
 32
0.0
 13
2.443168725229501
 23
2.433748580958567
 33
0.0
  0
LINE
  5
496
330
411
100
AcDbEntity
  8
0
 62
     0
 48
0.3
370
    -2
100
AcDbLine
 10
2.172380571626021
 20
2.483466721678473
 30
0.0
 11
2.35238057162602
 21
2.483466721678474
 31
0.0
  0
LINE
  5
497
330
411
100
AcDbEntity
  8
0
 62
     0
 48
0.3
370
    -2
100
AcDbLine
 10
2.262380571626021
 20
2.393466721678474
 30
0.0
 11
2.262380571626021
 21
2.573466721678474
 31
0.0
  0
POINT
  5
498
330
411
100
AcDbEntity
  8
Defpoints
 62
     0
 48
0.3
100
AcDbPoint
 10
2.443168725229501
 20
2.433748580958567
 30
0.0
  0
POINT
  5
499
330
411
100
AcDbEntity
  8
Defpoints
 62
     0
 48
0.3
100
AcDbPoint
 10
2.08159241802254
 20
2.533184862398381
 30
0.0
  0
ENDBLK
  5
41B
330
411
100
AcDbEntity
  8
0
 48
0.3
100
AcDbBlockEnd
  0
BLOCK
  5
4C2
330
4B9
100
AcDbEntity
  8
0
 48
0.3
100
AcDbBlockBegin
  2
*D27
 70
     1
 10
0.0
 20
0.0
 30
0.0
  3
*D27
  1

  0
LINE
  5
4C5
330
4B9
100
AcDbEntity
  8
0
 62
     0
 48
0.3
370
    -2
100
AcDbLine
 10
1.060705796002352
 20
2.868743666727429
 30
0.0
 11
1.185705796002352
 21
2.868743666727429
 31
0.0
  0
LINE
  5
4C6
330
4B9
100
AcDbEntity
  8
0
 62
     0
 48
0.3
370
    -2
100
AcDbLine
 10
1.185705796002352
 20
2.868743666727429
 30
0.0
 11
1.216218196203676
 21
2.456759618393467
 31
0.0
  0
MTEXT
  5
4C7
330
4B9
100
AcDbEntity
  8
0
 62
     0
 48
0.3
100
AcDbMText
 10
0.7102891293356859
 20
2.868743666727429
 30
0.0
 40
0.125
 41
0.0
 71
     5
 72
     1
  1
\A1;\U+22051.000
 73
     1
 44
1.0
  0
SOLID
  5
4C8
330
4B9
100
AcDbEntity
  8
0
 62
     0
 48
0.3
100
AcDbTrace
 10
1.236994626094175
 20
2.458298364240879
 30
0.0
 11
1.195441766313176
 21
2.455220872546056
 31
0.0
 12
1.225450671288145
 22
2.332101039050469
 32
0.0
 13
1.225450671288145
 23
2.332101039050469
 33
0.0
  0
LINE
  5
4C9
330
4B9
100
AcDbEntity
  8
0
 62
     0
 48
0.3
370
    -2
100
AcDbLine
 10
1.172380571626021
 20
1.833466721678474
 30
0.0
 11
1.352380571626021
 21
1.833466721678474
 31
0.0
  0
LINE
  5
4CA
330
4B9
100
AcDbEntity
  8
0
 62
     0
 48
0.3
370
    -2
100
AcDbLine
 10
1.262380571626021
 20
1.743466721678474
 30
0.0
 11
1.262380571626021
 21
1.923466721678475
 31
0.0
  0
POINT
  5
4CB
330
4B9
100
AcDbEntity
  8
Defpoints
 62
     0
 48
0.3
100
AcDbPoint
 10
1.225450671288145
 20
2.332101039050469
 30
0.0
  0
POINT
  5
4CC
330
4B9
100
AcDbEntity
  8
Defpoints
 62
     0
 48
0.3
100
AcDbPoint
 10
1.299310471963897
 20
1.33483240430648
 30
0.0
  0
ENDBLK
  5
4C3
330
4B9
100
AcDbEntity
  8
0
 48
0.3
100
AcDbBlockEnd
  0
BLOCK
  5
4D7
330
4CF
100
AcDbEntity
  8
0
 48
0.3
100
AcDbBlockBegin
  2
*D28
 70
     1
 10
0.0
 20
0.0
 30
0.0
  3
*D28
  1

  0
LINE
  5
4DA
330
4CF
100
AcDbEntity
  8
0
 62
     0
 48
0.3
370
    -2
100
AcDbLine
 10
3.243874470693527
 20
1.967568482963829
 30
0.0
 11
3.000555213497936
 21
1.919410095605542
 31
0.0
  0
MTEXT
  5
4DB
330
4CF
100
AcDbEntity
  8
0
 62
     0
 48
0.3
100
AcDbMText
 10
3.63595780402686
 20
1.967568482963829
 30
0.0
 40
0.125
 41
0.0
 71
     5
 72
     1
  1
\A1;\U+22050.625
 73
     1
 44
1.0
  0
SOLID
  5
4DC
330
4CF
100
AcDbEntity
  8
0
 62
     0
 48
0.3
100
AcDbTrace
 10
2.99651029092998
 20
1.939846983313728
 30
0.0
 11
3.004600136065892
 21
1.898973207897356
 31
0.0
 12
2.877933887248818
 22
1.895140560197808
 32
0.0
 13
2.877933887248818
 23
1.895140560197808
 33
0.0
  0
LINE
  5
4DD
330
4CF
100
AcDbEntity
  8
0
 62
     0
 48
0.3
370
    -2
100
AcDbLine
 10
2.481380571626021
 20
1.834466721678472
 30
0.0
 11
2.661380571626021
 21
1.834466721678472
 31
0.0
  0
LINE
  5
4DE
330
4CF
100
AcDbEntity
  8
0
 62
     0
 48
0.3
370
    -2
100
AcDbLine
 10
2.571380571626021
 20
1.744466721678472
 30
0.0
 11
2.571380571626022
 21
1.924466721678472
 31
0.0
  0
POINT
  5
4DF
330
4CF
100
AcDbEntity
  8
Defpoints
 62
     0
 48
0.3
100
AcDbPoint
 10
2.877933887248818
 20
1.895140560197808
 30
0.0
  0
POINT
  5
4E0
330
4CF
100
AcDbEntity
  8
Defpoints
 62
     0
 48
0.3
100
AcDbPoint
 10
2.264827256003225
 20
1.773792883159136
 30
0.0
  0
ENDBLK
  5
4D8
330
4CF
100
AcDbEntity
  8
0
 48
0.3
100
AcDbBlockEnd
  0
BLOCK
  5
4EC
330
4E3
100
AcDbEntity
  8
0
 48
0.3
100
AcDbBlockBegin
  2
*D29
 70
     1
 10
0.0
 20
0.0
 30
0.0
  3
*D29
  1

  0
LINE
  5
4EF
330
4E3
100
AcDbEntity
  8
0
 62
     0
 48
0.3
370
    -2
100
AcDbLine
 10
3.115127665284066
 20
0.9678272766384319
 30
0.0
 11
2.990127665284066
 21
0.9678272766384317
 31
0.0
  0
LINE
  5
4F0
330
4E3
100
AcDbEntity
  8
0
 62
     0
 48
0.3
370
    -2
100
AcDbLine
 10
2.990127665284066
 20
0.9678272766384317
 30
0.0
 11
2.875389641409717
 21
0.8490851182945192
 31
0.0
  0
MTEXT
  5
4F1
330
4E3
100
AcDbEntity
  8
0
 62
     0
 48
0.3
100
AcDbMText
 10
3.486377665284066
 20
0.9678272766384317
 30
0.0
 40
0.125
 41
0.0
 71
     5
 72
     1
  1
\A1;R0.313
 73
     1
 44
1.0
  0
SOLID
  5
4F2
330
4E3
100
AcDbEntity
  8
0
 62
     0
 48
0.3
100
AcDbTrace
 10
2.860407812999429
 20
0.8635617406651711
 30
0.0
 11
2.890371469820005
 21
0.8346084959238668
 31
0.0
 12
2.788529907185804
 22
0.7591941478327915
 32
0.0
 13
2.788529907185804
 23
0.7591941478327915
 33
0.0
  0
LINE
  5
4F3
330
4E3
100
AcDbEntity
  8
0
 62
     0
 48
0.3
370
    -2
100
AcDbLine
 10
2.48138057162602
 20
0.5344667216784718
 30
0.0
 11
2.66138057162602
 21
0.5344667216784714
 31
0.0
  0
LINE
  5
4F4
330
4E3
100
AcDbEntity
  8
0
 62
     0
 48
0.3
370
    -2
100
AcDbLine
 10
2.57138057162602
 20
0.4444667216784715
 30
0.0
 11
2.57138057162602
 21
0.6244667216784716
 31
0.0
  0
POINT
  5
4F5
330
4E3
100
AcDbEntity
  8
Defpoints
 62
     0
 48
0.3
100
AcDbPoint
 10
2.788529907185804
 20
0.7591941478327915
 30
0.0
  0
POINT
  5
4F6
330
4E3
100
AcDbEntity
  8
Defpoints
 62
     0
 48
0.3
100
AcDbPoint
 10
2.57138057162602
 20
0.5344667216784716
 30
0.0
  0
ENDBLK
  5
4ED
330
4E3
100
AcDbEntity
  8
0
 48
0.3
100
AcDbBlockEnd
  0
BLOCK
  5
51E
330
513
100
AcDbEntity
  8
0
 48
0.3
100
AcDbBlockBegin
  2
*D31
 70
     1
 10
0.0
 20
0.0
 30
0.0
  3
*D31
  1

  0
LINE
  5
521
330
513
100
AcDbEntity
  8
0
 62
     0
 48
0.3
370
    -2
100
AcDbLine
 10
0.1998805716260214
 20
2.483466721678474
 30
0.0
 11
-0.7705219787206446
 21
2.483466721678474
 31
0.0
  0
LINE
  5
522
330
513
100
AcDbEntity
  8
0
 62
     0
 48
0.3
370
    -2
100
AcDbLine
 10
0.1998805716260212
 20
1.183466721678472
 30
0.0
 11
-0.7705219787206448
 21
1.183466721678472
 31
0.0
  0
LINE
  5
523
330
513
100
AcDbEntity
  8
0
 62
     0
 48
0.3
370
    -2
100
AcDbLine
 10
-0.5905219787206447
 20
2.358466721678474
 30
0.0
 11
-0.5905219787206448
 21
1.985966721678473
 31
0.0
  0
LINE
  5
524
330
513
100
AcDbEntity
  8
0
 62
     0
 48
0.3
370
    -2
100
AcDbLine
 10
-0.5905219787206449
 20
1.308466721678472
 30
0.0
 11
-0.5905219787206449
 21
1.680966721678473
 31
0.0
  0
SOLID
  5
525
330
513
100
AcDbEntity
  8
0
 62
     0
 48
0.3
100
AcDbTrace
 10
-0.611355312053978
 20
2.358466721678474
 30
0.0
 11
-0.5696886453873113
 21
2.358466721678474
 31
0.0
 12
-0.5905219787206447
 22
2.483466721678474
 32
0.0
 13
-0.5905219787206447
 23
2.483466721678474
 33
0.0
  0
SOLID
  5
526
330
513
100
AcDbEntity
  8
0
 62
     0
 48
0.3
100
AcDbTrace
 10
-0.6113553120539783
 20
1.308466721678472
 30
0.0
 11
-0.5696886453873115
 21
1.308466721678472
 31
0.0
 12
-0.590521978720645
 22
1.183466721678472
 32
0.0
 13
-0.590521978720645
 23
1.183466721678472
 33
0.0
  0
MTEXT
  5
527
330
513
100
AcDbEntity
  8
0
 62
     0
 48
0.3
100
AcDbMText
 10
-0.590521978720645
 20
1.833466721678473
 30
0.0
 40
0.125
 41
0.0
 71
     5
 72
     1
  1
\A1;1.300
 73
     1
 44
1.0
  0
POINT
  5
528
330
513
100
AcDbEntity
  8
Defpoints
 62
     0
 48
0.3
100
AcDbPoint
 10
0.2623805716260215
 20
2.483466721678474
 30
0.0
  0
POINT
  5
529
330
513
100
AcDbEntity
  8
Defpoints
 62
     0
 48
0.3
100
AcDbPoint
 10
0.2623805716260212
 20
1.183466721678472
 30
0.0
  0
POINT
  5
52A
330
513
100
AcDbEntity
  8
Defpoints
 62
     0
 48
0.3
100
AcDbPoint
 10
-0.590521978720645
 20
1.183466721678472
 30
0.0
  0
ENDBLK
  5
51F
330
513
100
AcDbEntity
  8
0
 48
0.3
100
AcDbBlockEnd
  0
BLOCK
  5
582
330
577
100
AcDbEntity
  8
0
 48
0.3
100
AcDbBlockBegin
  2
*D34
 70
     1
 10
0.0
 20
0.0
 30
0.0
  3
*D34
  1

  0
LINE
  5
585
330
577
100
AcDbEntity
  8
0
 62
     0
 48
0.3
370
    -2
100
AcDbLine
 10
2.63388057162602
 20
0.5344667216784716
 30
0.0
 11
4.100532694483632
 21
0.5344667216784711
 31
0.0
  0
LINE
  5
586
330
577
100
AcDbEntity
  8
0
 62
     0
 48
0.3
370
    -2
100
AcDbLine
 10
2.633880571626022
 20
1.834466721678472
 30
0.0
 11
4.100532694483632
 21
1.834466721678472
 31
0.0
  0
LINE
  5
587
330
577
100
AcDbEntity
  8
0
 62
     0
 48
0.3
370
    -2
100
AcDbLine
 10
3.920532694483632
 20
0.6594667216784711
 30
0.0
 11
3.920532694483632
 21
1.031966721678471
 31
0.0
  0
LINE
  5
588
330
577
100
AcDbEntity
  8
0
 62
     0
 48
0.3
370
    -2
100
AcDbLine
 10
3.920532694483632
 20
1.709466721678472
 30
0.0
 11
3.920532694483632
 21
1.336966721678471
 31
0.0
  0
SOLID
  5
589
330
577
100
AcDbEntity
  8
0
 62
     0
 48
0.3
100
AcDbTrace
 10
3.899699361150299
 20
0.6594667216784711
 30
0.0
 11
3.941366027816965
 21
0.6594667216784711
 31
0.0
 12
3.920532694483632
 22
0.5344667216784711
 32
0.0
 13
3.920532694483632
 23
0.5344667216784711
 33
0.0
  0
SOLID
  5
58A
330
577
100
AcDbEntity
  8
0
 62
     0
 48
0.3
100
AcDbTrace
 10
3.899699361150299
 20
1.709466721678472
 30
0.0
 11
3.941366027816966
 21
1.709466721678472
 31
0.0
 12
3.920532694483632
 22
1.834466721678472
 32
0.0
 13
3.920532694483632
 23
1.834466721678472
 33
0.0
  0
MTEXT
  5
58B
330
577
100
AcDbEntity
  8
0
 62
     0
 48
0.3
100
AcDbMText
 10
3.920532694483632
 20
1.184466721678472
 30
0.0
 40
0.125
 41
0.0
 71
     5
 72
     1
  1
\A1;1.300
 73
     1
 44
1.0
  0
POINT
  5
58C
330
577
100
AcDbEntity
  8
Defpoints
 62
     0
 48
0.3
100
AcDbPoint
 10
2.57138057162602
 20
0.5344667216784716
 30
0.0
  0
POINT
  5
58D
330
577
100
AcDbEntity
  8
Defpoints
 62
     0
 48
0.3
100
AcDbPoint
 10
2.571380571626022
 20
1.834466721678472
 30
0.0
  0
POINT
  5
58E
330
577
100
AcDbEntity
  8
Defpoints
 62
     0
 48
0.3
100
AcDbPoint
 10
3.920532694483632
 20
1.834466721678472
 30
0.0
  0
ENDBLK
  5
583
330
577
100
AcDbEntity
  8
0
 48
0.3
100
AcDbBlockEnd
  0
BLOCK
  5
59D
330
591
100
AcDbEntity
  8
0
 48
0.3
100
AcDbBlockBegin
  2
*D35
 70
     1
 10
0.0
 20
0.0
 30
0.0
  3
*D35
  1

  0
LINE
  5
5A0
330
591
100
AcDbEntity
  8
0
 62
     0
 48
0.3
370
    -2
100
AcDbLine
 10
0.0618805716260211
 20
0.5344667216784718
 30
0.0
 11
1.027376706916769
 21
0.5344667216784714
 31
0.0
  0
LINE
  5
5A1
330
591
100
AcDbEntity
  8
0
 62
     0
 48
0.3
370
    -2
100
AcDbLine
 10
0.4993805716260212
 20
0.3334667216784748
 30
0.0
 11
1.027376706916769
 21
0.3334667216784746
 31
0.0
  0
LINE
  5
5A2
330
591
100
AcDbEntity
  8
0
 62
     0
 48
0.3
370
    -2
100
AcDbLine
 10
0.8473767069167692
 20
0.6594667216784716
 30
0.0
 11
0.8473767069167694
 21
0.7844667216784716
 31
0.0
  0
LINE
  5
5A3
330
591
100
AcDbEntity
  8
0
 62
     0
 48
0.3
370
    -2
100
AcDbLine
 10
0.847376706916769
 20
0.2084667216784747
 30
0.0
 11
0.847376706916769
 21
0.0834667216784748
 31
0.0
  0
LINE
  5
5A4
330
591
100
AcDbEntity
  8
0
 62
     0
 48
0.3
370
    -2
100
AcDbLine
 10
0.847376706916769
 20
0.0834667216784748
 30
0.0
 11
0.7223767069167692
 21
0.0834667216784748
 31
0.0
  0
SOLID
  5
5A5
330
591
100
AcDbEntity
  8
0
 62
     0
 48
0.3
100
AcDbTrace
 10
0.8265433735834358
 20
0.6594667216784716
 30
0.0
 11
0.8682100402501026
 21
0.6594667216784716
 31
0.0
 12
0.8473767069167692
 22
0.5344667216784716
 32
0.0
 13
0.8473767069167692
 23
0.5344667216784716
 33
0.0
  0
SOLID
  5
5A6
330
591
100
AcDbEntity
  8
0
 62
     0
 48
0.3
100
AcDbTrace
 10
0.8265433735834356
 20
0.2084667216784747
 30
0.0
 11
0.8682100402501024
 21
0.2084667216784747
 31
0.0
 12
0.8473767069167692
 22
0.3334667216784747
 32
0.0
 13
0.8473767069167692
 23
0.3334667216784747
 33
0.0
  0
MTEXT
  5
5A7
330
591
100
AcDbEntity
  8
0
 62
     0
 48
0.3
100
AcDbMText
 10
0.4240433735834359
 20
0.0834667216784749
 30
0.0
 40
0.125
 41
0.0
 71
     5
 72
     1
  1
\A1;0.201
 73
     1
 44
1.0
  0
POINT
  5
5A8
330
591
100
AcDbEntity
  8
Defpoints
 62
     0
 48
0.3
100
AcDbPoint
 10
-0.0006194283739789
 20
0.5344667216784718
 30
0.0
  0
POINT
  5
5A9
330
591
100
AcDbEntity
  8
Defpoints
 62
     0
 48
0.3
100
AcDbPoint
 10
0.4368805716260212
 20
0.3334667216784748
 30
0.0
  0
POINT
  5
5AA
330
591
100
AcDbEntity
  8
Defpoints
 62
     0
 48
0.3
100
AcDbPoint
 10
0.8473767069167692
 20
0.3334667216784747
 30
0.0
  0
ENDBLK
  5
59E
330
591
100
AcDbEntity
  8
0
 48
0.3
100
AcDbBlockEnd
  0
BLOCK
  5
5B6
330
5AD
100
AcDbEntity
  8
0
 48
0.3
100
AcDbBlockBegin
  2
*D36
 70
     1
 10
0.0
 20
0.0
 30
0.0
  3
*D36
  1

  0
LINE
  5
5B9
330
5AD
100
AcDbEntity
  8
0
 62
     0
 48
0.3
370
    -2
100
AcDbLine
 10
2.480760606141487
 20
0.1370563891074101
 30
0.0
 11
2.355760606141487
 21
0.1370563891074101
 31
0.0
  0
LINE
  5
5BA
330
5AD
100
AcDbEntity
  8
0
 62
     0
 48
0.3
370
    -2
100
AcDbLine
 10
2.355760606141487
 20
0.1370563891074101
 30
0.0
 11
2.27590824728824
 21
0.2527286859485986
 31
0.0
  0
MTEXT
  5
5BB
330
5AD
100
AcDbEntity
  8
0
 62
     0
 48
0.3
100
AcDbMText
 10
2.852010606141487
 20
0.1370563891074108
 30
0.0
 40
0.125
 41
0.0
 71
     5
 72
     1
  1
\A1;R0.125
 73
     1
 44
1.0
  0
SOLID
  5
5BC
330
5AD
100
AcDbEntity
  8
0
 62
     0
 48
0.3
100
AcDbTrace
 10
2.293053083599064
 20
0.2645643255871169
 30
0.0
 11
2.258763410977417
 21
0.2408930463100805
 31
0.0
 12
2.204894409457131
 22
0.3555977038135367
 32
0.0
 13
2.204894409457131
 23
0.3555977038135367
 33
0.0
  0
LINE
  5
5BD
330
5AD
100
AcDbEntity
  8
0
 62
     0
 48
0.3
370
    -2
100
AcDbLine
 10
2.043880571626021
 20
0.4584667216784763
 30
0.0
 11
2.223880571626021
 21
0.4584667216784762
 31
0.0
  0
LINE
  5
5BE
330
5AD
100
AcDbEntity
  8
0
 62
     0
 48
0.3
370
    -2
100
AcDbLine
 10
2.133880571626021
 20
0.3684667216784763
 30
0.0
 11
2.133880571626021
 21
0.5484667216784761
 31
0.0
  0
POINT
  5
5BF
330
5AD
100
AcDbEntity
  8
Defpoints
 62
     0
 48
0.3
100
AcDbPoint
 10
2.204894409457131
 20
0.3555977038135367
 30
0.0
  0
POINT
  5
5C0
330
5AD
100
AcDbEntity
  8
Defpoints
 62
     0
 48
0.3
100
AcDbPoint
 10
2.133880571626021
 20
0.4584667216784763
 30
0.0
  0
ENDBLK
  5
5B7
330
5AD
100
AcDbEntity
  8
0
 48
0.3
100
AcDbBlockEnd
  0
BLOCK
  5
604
330
5F9
100
AcDbEntity
  8
0
 48
0.3
100
AcDbBlockBegin
  2
*D37
 70
     1
 10
0.0
 20
0.0
 30
0.0
  3
*D37
  1

  0
LINE
  5
607
330
5F9
100
AcDbEntity
  8
0
 62
     0
 48
0.3
370
    -2
100
AcDbLine
 10
7.815380571626022
 20
2.823966721678474
 30
0.0
 11
7.815380571626022
 21
3.907875280544576
 31
0.0
  0
LINE
  5
608
330
5F9
100
AcDbEntity
  8
0
 62
     0
 48
0.3
370
    -2
100
AcDbLine
 10
8.262380571626017
 20
2.823966721678474
 30
0.0
 11
8.262380571626017
 21
3.907875280544576
 31
0.0
  0
LINE
  5
609
330
5F9
100
AcDbEntity
  8
0
 62
     0
 48
0.3
370
    -2
100
AcDbLine
 10
7.940380571626022
 20
3.727875280544576
 30
0.0
 11
8.137380571626017
 21
3.727875280544576
 31
0.0
  0
LINE
  5
60A
330
5F9
100
AcDbEntity
  8
0
 62
     0
 48
0.3
370
    -2
100
AcDbLine
 10
8.262380571626017
 20
3.727875280544576
 30
0.0
 11
8.387380571626017
 21
3.727875280544576
 31
0.0
  0
SOLID
  5
60B
330
5F9
100
AcDbEntity
  8
0
 62
     0
 48
0.3
100
AcDbTrace
 10
7.940380571626022
 20
3.74870861387791
 30
0.0
 11
7.940380571626022
 21
3.707041947211243
 31
0.0
 12
7.815380571626022
 22
3.727875280544576
 32
0.0
 13
7.815380571626022
 23
3.727875280544576
 33
0.0
  0
SOLID
  5
60C
330
5F9
100
AcDbEntity
  8
0
 62
     0
 48
0.3
100
AcDbTrace
 10
8.137380571626017
 20
3.74870861387791
 30
0.0
 11
8.137380571626017
 21
3.707041947211243
 31
0.0
 12
8.262380571626017
 22
3.727875280544576
 32
0.0
 13
8.262380571626017
 23
3.727875280544576
 33
0.0
  0
MTEXT
  5
60D
330
5F9
100
AcDbEntity
  8
0
 62
     0
 48
0.3
100
AcDbMText
 10
8.716963904959351
 20
3.727875280544576
 30
0.0
 40
0.125
 41
0.0
 71
     5
 72
     1
  1
\A1;0.447
 73
     1
 44
1.0
  0
POINT
  5
60E
330
5F9
100
AcDbEntity
  8
Defpoints
 62
     0
 48
0.3
100
AcDbPoint
 10
7.815380571626022
 20
2.761466721678474
 30
0.0
  0
POINT
  5
60F
330
5F9
100
AcDbEntity
  8
Defpoints
 62
     0
 48
0.3
100
AcDbPoint
 10
8.262380571626017
 20
2.761466721678474
 30
0.0
  0
POINT
  5
610
330
5F9
100
AcDbEntity
  8
Defpoints
 62
     0
 48
0.3
100
AcDbPoint
 10
8.262380571626017
 20
3.727875280544576
 30
0.0
  0
ENDBLK
  5
605
330
5F9
100
AcDbEntity
  8
0
 48
0.3
100
AcDbBlockEnd
  0
BLOCK
  5
61E
330
613
100
AcDbEntity
  8
0
 48
0.3
100
AcDbBlockBegin
  2
*D38
 70
     1
 10
0.0
 20
0.0
 30
0.0
  3
*D38
  1

  0
LINE
  5
621
330
613
100
AcDbEntity
  8
0
 62
     0
 48
0.3
370
    -2
100
AcDbLine
 10
1.262380571626021
 20
1.770966721678474
 30
0.0
 11
1.262380571626021
 21
-0.4970313040542431
 31
0.0
  0
LINE
  5
622
330
613
100
AcDbEntity
  8
0
 62
     0
 48
0.3
370
    -2
100
AcDbLine
 10
2.571380571626021
 20
1.770966721678474
 30
0.0
 11
2.571380571626021
 21
-0.4970313040542434
 31
0.0
  0
LINE
  5
623
330
613
100
AcDbEntity
  8
0
 62
     0
 48
0.3
370
    -2
100
AcDbLine
 10
1.387380571626021
 20
-0.3170313040542432
 30
0.0
 11
1.608130571626021
 21
-0.3170313040542432
 31
0.0
  0
LINE
  5
624
330
613
100
AcDbEntity
  8
0
 62
     0
 48
0.3
370
    -2
100
AcDbLine
 10
2.446380571626021
 20
-0.3170313040542432
 30
0.0
 11
2.225630571626021
 21
-0.3170313040542432
 31
0.0
  0
SOLID
  5
625
330
613
100
AcDbEntity
  8
0
 62
     0
 48
0.3
100
AcDbTrace
 10
1.387380571626021
 20
-0.2961979707209099
 30
0.0
 11
1.387380571626021
 21
-0.3378646373875765
 31
0.0
 12
1.262380571626021
 22
-0.3170313040542432
 32
0.0
 13
1.262380571626021
 23
-0.3170313040542432
 33
0.0
  0
SOLID
  5
626
330
613
100
AcDbEntity
  8
0
 62
     0
 48
0.3
100
AcDbTrace
 10
2.446380571626021
 20
-0.2961979707209099
 30
0.0
 11
2.446380571626021
 21
-0.3378646373875765
 31
0.0
 12
2.571380571626021
 22
-0.3170313040542432
 32
0.0
 13
2.571380571626021
 23
-0.3170313040542432
 33
0.0
  0
MTEXT
  5
627
330
613
100
AcDbEntity
  8
0
 62
     0
 48
0.3
100
AcDbMText
 10
1.916880571626021
 20
-0.3170313040542432
 30
0.0
 40
0.125
 41
0.0
 71
     5
 72
     1
  1
\A1;1.309
 73
     1
 44
1.0
  0
POINT
  5
628
330
613
100
AcDbEntity
  8
Defpoints
 62
     0
 48
0.3
100
AcDbPoint
 10
1.262380571626021
 20
1.833466721678474
 30
0.0
  0
POINT
  5
629
330
613
100
AcDbEntity
  8
Defpoints
 62
     0
 48
0.3
100
AcDbPoint
 10
2.571380571626021
 20
1.833466721678474
 30
0.0
  0
POINT
  5
62A
330
613
100
AcDbEntity
  8
Defpoints
 62
     0
 48
0.3
100
AcDbPoint
 10
2.571380571626021
 20
-0.3170313040542432
 30
0.0
  0
ENDBLK
  5
61F
330
613
100
AcDbEntity
  8
0
 48
0.3
100
AcDbBlockEnd
  0
BLOCK
  5
638
330
62D
100
AcDbEntity
  8
0
 48
0.3
100
AcDbBlockBegin
  2
*D39
 70
     1
 10
0.0
 20
0.0
 30
0.0
  3
*D39
  1

  0
LINE
  5
63B
330
62D
100
AcDbEntity
  8
0
 62
     0
 48
0.3
370
    -2
100
AcDbLine
 10
-0.0006194283739789
 20
0.4719667216784718
 30
0.0
 11
-0.0006194283739789
 21
-0.0915048310322926
 31
0.0
  0
LINE
  5
63C
330
62D
100
AcDbEntity
  8
0
 62
     0
 48
0.3
370
    -2
100
AcDbLine
 10
-0.2376194283739781
 20
0.9094667216784719
 30
0.0
 11
-0.2376194283739781
 21
-0.0915048310322927
 31
0.0
  0
LINE
  5
63D
330
62D
100
AcDbEntity
  8
0
 62
     0
 48
0.3
370
    -2
100
AcDbLine
 10
0.1243805716260211
 20
0.0884951689677074
 30
0.0
 11
0.2493805716260211
 21
0.0884951689677074
 31
0.0
  0
LINE
  5
63E
330
62D
100
AcDbEntity
  8
0
 62
     0
 48
0.3
370
    -2
100
AcDbLine
 10
-0.3626194283739781
 20
0.0884951689677074
 30
0.0
 11
-0.4876194283739781
 21
0.0884951689677074
 31
0.0
  0
SOLID
  5
63F
330
62D
100
AcDbEntity
  8
0
 62
     0
 48
0.3
100
AcDbTrace
 10
0.1243805716260211
 20
0.1093285023010407
 30
0.0
 11
0.1243805716260211
 21
0.0676618356343741
 31
0.0
 12
-0.0006194283739789
 22
0.0884951689677074
 32
0.0
 13
-0.0006194283739789
 23
0.0884951689677074
 33
0.0
  0
SOLID
  5
640
330
62D
100
AcDbEntity
  8
0
 62
     0
 48
0.3
100
AcDbTrace
 10
-0.3626194283739781
 20
0.1093285023010407
 30
0.0
 11
-0.3626194283739781
 21
0.0676618356343741
 31
0.0
 12
-0.2376194283739781
 22
0.0884951689677074
 32
0.0
 13
-0.2376194283739781
 23
0.0884951689677074
 33
0.0
  0
MTEXT
  5
641
330
62D
100
AcDbEntity
  8
0
 62
     0
 48
0.3
100
AcDbMText
 10
-0.8172027617073114
 20
0.0884951689677074
 30
0.0
 40
0.125
 41
0.0
 71
     5
 72
     1
  1
\A1;0.237
 73
     1
 44
1.0
  0
POINT
  5
642
330
62D
100
AcDbEntity
  8
Defpoints
 62
     0
 48
0.3
100
AcDbPoint
 10
-0.0006194283739789
 20
0.5344667216784718
 30
0.0
  0
POINT
  5
643
330
62D
100
AcDbEntity
  8
Defpoints
 62
     0
 48
0.3
100
AcDbPoint
 10
-0.2376194283739781
 20
0.9719667216784719
 30
0.0
  0
POINT
  5
644
330
62D
100
AcDbEntity
  8
Defpoints
 62
     0
 48
0.3
100
AcDbPoint
 10
-0.2376194283739781
 20
0.0884951689677074
 30
0.0
  0
ENDBLK
  5
639
330
62D
100
AcDbEntity
  8
0
 48
0.3
100
AcDbBlockEnd
  0
BLOCK
  5
657
330
64B
100
AcDbEntity
  8
0
 48
0.3
100
AcDbBlockBegin
  2
*D40
 70
     1
 10
0.0
 20
0.0
 30
0.0
  3
*D40
  1

  0
LINE
  5
64C
330
64B
100
AcDbEntity
  8
0
 62
     0
 48
0.3
370
    -2
100
AcDbLine
 10
5.189880571626021
 20
4.953253454529735
 30
0.0
 11
4.584412053639248
 21
4.953253454529735
 31
0.0
  0
LINE
  5
64D
330
64B
100
AcDbEntity
  8
0
 62
     0
 48
0.3
370
    -2
100
AcDbLine
 10
5.189880571626021
 20
5.023253454529736
 30
0.0
 11
4.584412053639248
 21
5.023253454529736
 31
0.0
  0
LINE
  5
64E
330
64B
100
AcDbEntity
  8
0
 62
     0
 48
0.3
370
    -2
100
AcDbLine
 10
4.764412053639247
 20
4.828253454529735
 30
0.0
 11
4.764412053639247
 21
4.703253454529735
 31
0.0
  0
LINE
  5
64F
330
64B
100
AcDbEntity
  8
0
 62
     0
 48
0.3
370
    -2
100
AcDbLine
 10
4.764412053639247
 20
5.148253454529736
 30
0.0
 11
4.764412053639247
 21
5.273253454529736
 31
0.0
  0
LINE
  5
650
330
64B
100
AcDbEntity
  8
0
 62
     0
 48
0.3
370
    -2
100
AcDbLine
 10
4.764412053639247
 20
5.273253454529736
 30
0.0
 11
4.889412053639247
 21
5.273253454529736
 31
0.0
  0
SOLID
  5
651
330
64B
100
AcDbEntity
  8
0
 62
     0
 48
0.3
100
AcDbTrace
 10
4.743578720305914
 20
4.828253454529735
 30
0.0
 11
4.78524538697258
 21
4.828253454529735
 31
0.0
 12
4.764412053639247
 22
4.953253454529735
 32
0.0
 13
4.764412053639247
 23
4.953253454529735
 33
0.0
  0
SOLID
  5
652
330
64B
100
AcDbEntity
  8
0
 62
     0
 48
0.3
100
AcDbTrace
 10
4.743578720305914
 20
5.148253454529736
 30
0.0
 11
4.78524538697258
 21
5.148253454529736
 31
0.0
 12
4.764412053639247
 22
5.023253454529736
 32
0.0
 13
4.764412053639247
 23
5.023253454529736
 33
0.0
  0
MTEXT
  5
653
330
64B
100
AcDbEntity
  8
0
 62
     0
 48
0.3
100
AcDbMText
 10
5.198162053639246
 20
5.273253454529736
 30
0.0
 40
0.125
 41
0.0
 71
     5
 72
     1
  1
\A1;0.070
 73
     1
 44
1.0
  0
POINT
  5
654
330
64B
100
AcDbEntity
  8
Defpoints
 62
     0
 48
0.3
100
AcDbPoint
 10
5.252380571626021
 20
4.953253454529735
 30
0.0
  0
POINT
  5
655
330
64B
100
AcDbEntity
  8
Defpoints
 62
     0
 48
0.3
100
AcDbPoint
 10
5.252380571626021
 20
5.023253454529736
 30
0.0
  0
POINT
  5
656
330
64B
100
AcDbEntity
  8
Defpoints
 62
     0
 48
0.3
100
AcDbPoint
 10
4.764412053639247
 20
5.023253454529736
 30
0.0
  0
ENDBLK
  5
658
330
64B
100
AcDbEntity
  8
0
 48
0.3
100
AcDbBlockEnd
  0
BLOCK
  5
67D
330
671
100
AcDbEntity
  8
0
 48
0.3
100
AcDbBlockBegin
  2
*D42
 70
     1
 10
0.0
 20
0.0
 30
0.0
  3
*D42
  1

  0
LINE
  5
672
330
671
100
AcDbEntity
  8
0
 62
     0
 48
0.3
370
    -2
100
AcDbLine
 10
5.189880571626021
 20
4.953253454529735
 30
0.0
 11
4.584412053639248
 21
4.953253454529735
 31
0.0
  0
LINE
  5
673
330
671
100
AcDbEntity
  8
0
 62
     0
 48
0.3
370
    -2
100
AcDbLine
 10
5.189880571626021
 20
5.023253454529736
 30
0.0
 11
4.584412053639248
 21
5.023253454529736
 31
0.0
  0
LINE
  5
674
330
671
100
AcDbEntity
  8
0
 62
     0
 48
0.3
370
    -2
100
AcDbLine
 10
4.764412053639247
 20
4.828253454529735
 30
0.0
 11
4.764412053639247
 21
4.703253454529735
 31
0.0
  0
LINE
  5
675
330
671
100
AcDbEntity
  8
0
 62
     0
 48
0.3
370
    -2
100
AcDbLine
 10
4.764412053639247
 20
5.148253454529736
 30
0.0
 11
4.764412053639247
 21
5.273253454529736
 31
0.0
  0
LINE
  5
676
330
671
100
AcDbEntity
  8
0
 62
     0
 48
0.3
370
    -2
100
AcDbLine
 10
4.764412053639247
 20
5.273253454529736
 30
0.0
 11
4.889412053639247
 21
5.273253454529736
 31
0.0
  0
SOLID
  5
677
330
671
100
AcDbEntity
  8
0
 62
     0
 48
0.3
100
AcDbTrace
 10
4.743578720305914
 20
4.828253454529735
 30
0.0
 11
4.78524538697258
 21
4.828253454529735
 31
0.0
 12
4.764412053639247
 22
4.953253454529735
 32
0.0
 13
4.764412053639247
 23
4.953253454529735
 33
0.0
  0
SOLID
  5
678
330
671
100
AcDbEntity
  8
0
 62
     0
 48
0.3
100
AcDbTrace
 10
4.743578720305914
 20
5.148253454529736
 30
0.0
 11
4.78524538697258
 21
5.148253454529736
 31
0.0
 12
4.764412053639247
 22
5.023253454529736
 32
0.0
 13
4.764412053639247
 23
5.023253454529736
 33
0.0
  0
MTEXT
  5
679
330
671
100
AcDbEntity
  8
0
 62
     0
 48
0.3
100
AcDbMText
 10
5.198162053639246
 20
5.273253454529736
 30
0.0
 40
0.125
 41
0.0
 71
     5
 72
     1
  1
\A1;0.070
 73
     1
 44
1.0
  0
POINT
  5
67A
330
671
100
AcDbEntity
  8
Defpoints
 62
     0
 48
0.3
100
AcDbPoint
 10
5.252380571626021
 20
4.953253454529735
 30
0.0
  0
POINT
  5
67B
330
671
100
AcDbEntity
  8
Defpoints
 62
     0
 48
0.3
100
AcDbPoint
 10
5.252380571626021
 20
5.023253454529736
 30
0.0
  0
POINT
  5
67C
330
671
100
AcDbEntity
  8
Defpoints
 62
     0
 48
0.3
100
AcDbPoint
 10
4.764412053639247
 20
5.023253454529736
 30
0.0
  0
ENDBLK
  5
67E
330
671
100
AcDbEntity
  8
0
 48
0.3
100
AcDbBlockEnd
  0
ENDSEC
  0
SECTION
  2
ENTITIES
  0
VIEWPORT
  5
77
330
58
100
AcDbEntity
 67
     1
  8
0
100
AcDbViewport
 10
1.341300739314622
 20
2.697072660272744
 30
0.0
 40
19.01061446294428
 41
8.163865604866115
 68
     1
 69
     1
 12
1.341300739314622
 22
2.697072660272744
 13
0.0
 23
0.0
 14
0.5
 24
0.5
 15
0.5
 25
0.5
 16
0.0
 26
0.0
 36
1.0
 17
0.0
 27
0.0
 37
0.0
 42
50.0
 43
0.0
 44
0.0
 45
8.163865604866115
 50
0.0
 51
0.0
 72
   100
 90
    32800
  1

281
     0
 71
     1
 74
     0
110
0.0
120
0.0
130
0.0
111
1.0
121
0.0
131
0.0
112
0.0
122
1.0
132
0.0
 79
     0
146
0.0
  0
LWPOLYLINE
  5
86
330
58
100
AcDbEntity
 67
     1
  8
0
100
AcDbPolyline
 90
        4
 70
     1
 43
0.0
 10
-1.439262267973589
 20
6.396855050259421
 10
8.966538218833356
 20
6.396855050259421
 10
8.966538218833356
 20
-1.41285528304607
 10
-1.439262267973589
 20
-1.41285528304607
  0
LINE
  5
8A
330
58
100
AcDbEntity
 67
     1
  8
0
100
AcDbLine
 10
8.966538218833356
 20
-1.41285528304607
 30
0.0
 11
8.966538218833356
 21
-0.4128552830460706
 31
0.0
  0
LINE
  5
8B
330
58
100
AcDbEntity
 67
     1
  8
0
100
AcDbLine
 10
8.966538218833356
 20
-0.4128552830460706
 30
0.0
 11
6.466538218833356
 21
-0.4128552830460703
 31
0.0
  0
LINE
  5
8C
330
58
100
AcDbEntity
 67
     1
  8
0
100
AcDbLine
 10
6.466538218833356
 20
-0.4128552830460703
 30
0.0
 11
4.966538218833356
 21
-0.4128552830460701
 31
0.0
  0
LINE
  5
8D
330
58
100
AcDbEntity
 67
     1
  8
0
100
AcDbLine
 10
4.966538218833356
 20
-0.4128552830460701
 30
0.0
 11
4.966538218833356
 21
-1.41285528304607
 31
0.0
  0
LINE
  5
8E
330
58
100
AcDbEntity
 67
     1
  8
0
100
AcDbLine
 10
6.466538218833356
 20
-0.4128552830460703
 30
0.0
 11
6.466538218833356
 21
-1.40425062323316
 31
0.0
  0
MTEXT
  5
8F
330
58
100
AcDbEntity
 67
     1
  8
0
100
AcDbMText
 10
5.02064872125895
 20
-0.5532836662080878
 30
0.0
 40
0.1
 41
1.5
 71
     1
 72
     5
  1
  Tolerances\P.XXXX = +/- .001\P.XXX  = +/- .005\P.XX   = +/- .015
 73
     1
 44
1.0
  0
MTEXT
  5
AA
330
58
100
AcDbEntity
 67
     1
  8
0
 48
0.3
100
AcDbMText
 10
6.491409254251003
 20
-0.4934452482612275
 30
0.0
 40
0.1
 41
2.5
 71
     1
 72
     5
  1
G0704 Y Axis Extension\PRear Stepper Mount rev b\PDaniel E. Kemp\P{\fArial|b0|i0|c0|p32;\H1.625x;©\fMS Shell Dlg|b0|i0|c0|p32;\H0.6538x; }03-10-2011
 73
     1
 44
1.0
  0
MTEXT
  5
AC
330
58
100
AcDbEntity
 67
     1
  8
0
 48
0.3
100
AcDbMText
 10
-0.8330378939457148
 20
-0.9104262006358538
 30
0.0
 40
0.1625
 41
9.997099999999999
 71
     1
 72
     5
  1
{\fArial|b0|i0|c0|p32;© Daniel E. Kemp 2011}
 73
     1
 44
1.0
  0
LINE
  5
DC
330
58
100
AcDbEntity
 67
     1
  8
0
 48
0.3
100
AcDbLine
 10
-0.2376194283739768
 20
3.208466721678478
 30
0.0
 11
-0.2376194283739774
 21
2.271966721678472
 31
0.0
  0
LINE
  5
DD
102
{ACAD_REACTORS
330
16B
330
187
330
1C5
102
}
330
58
100
AcDbEntity
 67
     1
  8
0
 48
0.3
100
AcDbLine
 10
8.137380571626017
 20
3.333466721678474
 30
0.0
 11
-0.1126194283739768
 21
3.333466721678478
 31
0.0
  0
CIRCLE
  5
DE
102
{ACAD_REACTORS
330
52B
102
}
330
58
100
AcDbEntity
 67
     1
  8
0
 48
0.3
100
AcDbCircle
 10
0.2623805716260215
 20
2.483466721678474
 30
0.0
 40
0.128
  0
CIRCLE
  5
DF
102
{ACAD_REACTORS
330
187
330
1C5
330
1DF
102
}
330
58
100
AcDbEntity
 67
     1
  8
0
 48
0.3
100
AcDbCircle
 10
0.2623805716260215
 20
2.483466721678474
 30
0.0
 40
0.1875
  0
CIRCLE
  5
E0
102
{ACAD_REACTORS
330
425
102
}
330
58
100
AcDbEntity
 67
     1
  8
0
 48
0.3
100
AcDbCircle
 10
2.262380571626021
 20
2.483466721678474
 30
0.0
 40
0.1875
  0
CIRCLE
  5
E1
102
{ACAD_REACTORS
330
1DF
330
40F
102
}
330
58
100
AcDbEntity
 67
     1
  8
0
 48
0.3
100
AcDbCircle
 10
2.262380571626021
 20
2.483466721678474
 30
0.0
 40
0.128
  0
LINE
  5
E7
330
58
100
AcDbEntity
 67
     1
  8
0
 48
0.3
100
AcDbLine
 10
6.012380571626021
 20
2.458466721678474
 30
0.0
 11
6.887380571626021
 21
2.458466721678474
 31
0.0
  0
LINE
  5
E8
330
58
100
AcDbEntity
 67
     1
  8
0
 48
0.3
100
AcDbLine
 10
6.012380571626021
 20
1.208466721678474
 30
0.0
 11
6.887380571626021
 21
1.208466721678474
 31
0.0
  0
ARC
  5
E9
102
{ACAD_REACTORS
330
32B
102
}
330
58
100
AcDbEntity
 67
     1
  8
0
 48
0.3
100
AcDbCircle
 10
6.012380571626021
 20
1.833466721678473
 30
0.0
 40
0.625
100
AcDbArc
 50
90.0
 51
270.0
  0
LINE
  5
EA
102
{ACAD_REACTORS
330
3A9
102
}
330
58
100
AcDbEntity
 67
     1
  8
0
 48
0.3
100
AcDbLine
 10
5.084380571626022
 20
1.035466721678474
 30
0.0
 11
5.959380571626024
 21
1.035466721678474
 31
0.0
  0
LINE
  5
EB
330
58
100
AcDbEntity
 67
     1
  8
0
 48
0.3
100
AcDbLine
 10
5.084380571626022
 20
2.891466721678476
 30
0.0
 11
5.959380571626024
 21
2.891466721678476
 31
0.0
  0
LINE
  5
EC
330
58
100
AcDbEntity
 67
     1
  8
0
 48
0.3
100
AcDbLine
 10
5.084380571626022
 20
2.631466721678474
 30
0.0
 11
5.959380571626024
 21
2.631466721678474
 31
0.0
  0
ARC
  5
ED
102
{ACAD_REACTORS
330
2C7
330
2E1
330
2FD
102
}
330
58
100
AcDbEntity
 67
     1
  8
0
 48
0.3
100
AcDbCircle
 10
5.084380571626022
 20
2.761466721678474
 30
0.0
 40
0.13
100
AcDbArc
 50
90.0
 51
270.0
  0
ARC
  5
EE
102
{ACAD_REACTORS
330
2AD
330
2C7
102
}
330
58
100
AcDbEntity
 67
     1
  8
0
 48
0.3
100
AcDbCircle
 10
5.959380571626022
 20
2.761466721678474
 30
0.0
 40
0.13
100
AcDbArc
 50
270.0
 51
90.0
  0
ARC
  5
EF
102
{ACAD_REACTORS
330
32B
330
345
330
371
102
}
330
58
100
AcDbEntity
 67
     1
  8
0
 48
0.3
100
AcDbCircle
 10
6.887380571626021
 20
1.833466721678473
 30
0.0
 40
0.625
100
AcDbArc
 50
270.0
 51
90.0
  0
LINE
  5
F0
330
58
100
AcDbEntity
 67
     1
  8
0
 48
0.3
100
AcDbLine
 10
6.940380571626022
 20
1.035466721678474
 30
0.0
 11
7.815380571626022
 21
1.035466721678474
 31
0.0
  0
LINE
  5
F1
330
58
100
AcDbEntity
 67
     1
  8
0
 48
0.3
100
AcDbLine
 10
6.940380571626022
 20
2.891466721678476
 30
0.0
 11
7.815380571626022
 21
2.891466721678476
 31
0.0
  0
LINE
  5
F2
330
58
100
AcDbEntity
 67
     1
  8
0
 48
0.3
100
AcDbLine
 10
6.940380571626022
 20
2.631466721678474
 30
0.0
 11
7.815380571626022
 21
2.631466721678474
 31
0.0
  0
ARC
  5
F3
102
{ACAD_REACTORS
330
293
330
2AD
102
}
330
58
100
AcDbEntity
 67
     1
  8
0
 48
0.3
100
AcDbCircle
 10
6.940380571626022
 20
2.761466721678474
 30
0.0
 40
0.13
100
AcDbArc
 50
90.0
 51
270.0
  0
ARC
  5
F4
102
{ACAD_REACTORS
330
293
330
611
102
}
330
58
100
AcDbEntity
 67
     1
  8
0
 48
0.3
100
AcDbCircle
 10
7.815380571626022
 20
2.761466721678474
 30
0.0
 40
0.13
100
AcDbArc
 50
270.0
 51
90.0
  0
ARC
  5
F5
102
{ACAD_REACTORS
330
2E1
102
}
330
58
100
AcDbEntity
 67
     1
  8
0
 48
0.3
100
AcDbCircle
 10
5.084380571626022
 20
0.905466721678473
 30
0.0
 40
0.13
100
AcDbArc
 50
90.0
 51
270.0
  0
LINE
  5
F6
102
{ACAD_REACTORS
330
3A9
102
}
330
58
100
AcDbEntity
 67
     1
  8
0
 48
0.3
100
AcDbLine
 10
5.084380571626022
 20
0.7754667216784768
 30
0.0
 11
5.959380571626024
 21
0.7754667216784768
 31
0.0
  0
ARC
  5
F7
102
{ACAD_REACTORS
330
3A9
102
}
330
58
100
AcDbEntity
 67
     1
  8
0
 48
0.3
100
AcDbCircle
 10
5.959380571626022
 20
0.905466721678473
 30
0.0
 40
0.13
100
AcDbArc
 50
270.0
 51
90.0
  0
ARC
  5
F8
330
58
100
AcDbEntity
 67
     1
  8
0
 48
0.3
100
AcDbCircle
 10
6.940380571626022
 20
0.905466721678473
 30
0.0
 40
0.13
100
AcDbArc
 50
90.0
 51
270.0
  0
LINE
  5
F9
330
58
100
AcDbEntity
 67
     1
  8
0
 48
0.3
100
AcDbLine
 10
6.940380571626022
 20
0.7754667216784768
 30
0.0
 11
7.815380571626022
 21
0.7754667216784768
 31
0.0
  0
ARC
  5
FA
330
58
100
AcDbEntity
 67
     1
  8
0
 48
0.3
100
AcDbCircle
 10
7.815380571626022
 20
0.905466721678473
 30
0.0
 40
0.13
100
AcDbArc
 50
270.0
 51
90.0
  0
LINE
  5
FB
330
58
100
AcDbEntity
 67
     1
  8
0
 48
0.3
100
AcDbLine
 10
8.262380571626017
 20
3.208466721678474
 30
0.0
 11
8.262380571626017
 21
0.4584667216784748
 31
0.0
  0
CIRCLE
  5
FC
102
{ACAD_REACTORS
330
138
330
25F
330
4CD
102
}
330
58
100
AcDbEntity
 67
     1
  8
0
 48
0.3
100
AcDbCircle
 10
1.262380571626021
 20
1.833466721678474
 30
0.0
 40
0.5
  0
LINE
  5
FD
330
58
100
AcDbEntity
 67
     1
  8
0
 48
0.3
100
AcDbLine
 10
-0.237619428373976
 20
4.523253454529736
 30
0.0
 11
-0.237619428373976
 21
5.023253454529736
 31
0.0
  0
LINE
  5
FE
102
{ACAD_REACTORS
330
1F9
330
215
102
}
330
58
100
AcDbEntity
 67
     1
  8
0
 48
0.3
100
AcDbLine
 10
-0.237619428373976
 20
5.023253454529736
 30
0.0
 11
8.262380571626017
 21
5.023253454529736
 31
0.0
  0
LINE
  5
FF
330
58
100
AcDbEntity
 67
     1
  8
0
 48
0.3
100
AcDbLine
 10
8.262380571626017
 20
5.023253454529736
 30
0.0
 11
8.262380571626017
 21
4.523253454529736
 31
0.0
  0
LINE
  5
100
102
{ACAD_REACTORS
330
215
102
}
330
58
100
AcDbEntity
 67
     1
  8
0
 48
0.3
100
AcDbLine
 10
8.262380571626017
 20
4.523253454529736
 30
0.0
 11
-0.237619428373976
 21
4.523253454529736
 31
0.0
  0
LINE
  5
102
330
58
100
AcDbEntity
 67
     1
  8
0
  6
HIDDENX2
 48
0.3
100
AcDbLine
 10
0.0748805716260215
 20
4.523253454529736
 30
0.0
 11
0.0748805716260215
 21
4.783253454529736
 31
0.0
  0
LINE
  5
103
102
{ACAD_REACTORS
330
245
102
}
330
58
100
AcDbEntity
 67
     1
  8
0
  6
HIDDENX2
 48
0.3
100
AcDbLine
 10
0.0748805716260215
 20
4.783253454529736
 30
0.0
 11
0.4498805716260216
 21
4.783253454529736
 31
0.0
  0
LINE
  5
104
102
{ACAD_REACTORS
330
245
102
}
330
58
100
AcDbEntity
 67
     1
  8
0
  6
HIDDENX2
 48
0.3
100
AcDbLine
 10
0.4498805716260216
 20
4.783253454529736
 30
0.0
 11
0.4498805716260215
 21
4.523253454529736
 31
0.0
  0
LINE
  5
106
330
58
100
AcDbEntity
 67
     1
  8
0
  6
HIDDENX2
 48
0.3
100
AcDbLine
 10
2.449880571626021
 20
4.523253454529736
 30
0.0
 11
2.449880571626021
 21
4.783253454529736
 31
0.0
  0
LINE
  5
107
330
58
100
AcDbEntity
 67
     1
  8
0
  6
HIDDENX2
 48
0.3
100
AcDbLine
 10
2.449880571626021
 20
4.783253454529736
 30
0.0
 11
2.074880571626021
 21
4.783253454529736
 31
0.0
  0
LINE
  5
108
330
58
100
AcDbEntity
 67
     1
  8
0
  6
HIDDENX2
 48
0.3
100
AcDbLine
 10
2.074880571626021
 20
4.783253454529736
 30
0.0
 11
2.074880571626021
 21
4.523253454529736
 31
0.0
  0
LINE
  5
10A
330
58
100
AcDbEntity
 67
     1
  8
0
  6
HIDDENX2
 48
0.3
100
AcDbLine
 10
0.1343805716260216
 20
4.783253454529736
 30
0.0
 11
0.1343805716260216
 21
5.023253454529736
 31
0.0
  0
LINE
  5
10C
330
58
100
AcDbEntity
 67
     1
  8
0
  6
HIDDENX2
 48
0.3
100
AcDbLine
 10
0.3903805716260216
 20
4.783253454529736
 30
0.0
 11
0.3903805716260216
 21
5.023253454529736
 31
0.0
  0
LINE
  5
10E
330
58
100
AcDbEntity
 67
     1
  8
0
  6
HIDDENX2
 48
0.3
100
AcDbLine
 10
2.390380571626021
 20
4.783253454529736
 30
0.0
 11
2.390380571626021
 21
5.023253454529736
 31
0.0
  0
LINE
  5
110
330
58
100
AcDbEntity
 67
     1
  8
0
  6
HIDDENX2
 48
0.3
100
AcDbLine
 10
2.134380571626021
 20
4.783253454529736
 30
0.0
 11
2.134380571626021
 21
5.023253454529736
 31
0.0
  0
LINE
  5
112
330
58
100
AcDbEntity
 67
     1
  8
0
  6
HIDDENX2
 48
0.3
100
AcDbLine
 10
4.954380571626022
 20
4.523253454529736
 30
0.0
 11
4.954380571626022
 21
5.023253454529736
 31
0.0
  0
LINE
  5
114
330
58
100
AcDbEntity
 67
     1
  8
0
  6
HIDDENX2
 48
0.3
100
AcDbLine
 10
6.089380571626022
 20
4.523253454529736
 30
0.0
 11
6.089380571626022
 21
5.023253454529736
 31
0.0
  0
LINE
  5
116
330
58
100
AcDbEntity
 67
     1
  8
0
  6
HIDDENX2
 48
0.3
100
AcDbLine
 10
6.810380571626022
 20
4.523253454529736
 30
0.0
 11
6.810380571626022
 21
5.023253454529736
 31
0.0
  0
LINE
  5
118
330
58
100
AcDbEntity
 67
     1
  8
0
  6
HIDDENX2
 48
0.3
100
AcDbLine
 10
7.945380571626022
 20
4.523253454529736
 30
0.0
 11
7.945380571626022
 21
5.023253454529736
 31
0.0
  0
LINE
  5
11A
330
58
100
AcDbEntity
 67
     1
  8
0
  6
HIDDENX2
 48
0.3
100
AcDbLine
 10
7.512380571626021
 20
4.523253454529736
 30
0.0
 11
7.512380571626022
 21
5.023253454529736
 31
0.0
  0
LINE
  5
11C
330
58
100
AcDbEntity
 67
     1
  8
0
  6
HIDDENX2
 48
0.3
100
AcDbLine
 10
5.387380571626021
 20
4.523253454529736
 30
0.0
 11
5.387380571626021
 21
5.023253454529736
 31
0.0
  0
DIMENSION
  5
11E
102
{ACAD_XDICTIONARY
360
12D
102
}
102
{ACAD_REACTORS
330
138
102
}
330
58
100
AcDbEntity
 67
     1
  8
0
 48
0.3
100
AcDbDimension
  2
*D1
 10
1.262380571626021
 20
-0.0225516827386017
 30
0.0
 11
3.856130571626021
 21
-0.0225516827386017
 31
0.0
 70
    32
 71
     5
 42
5.1875
  3
Standard
100
AcDbAlignedDimension
 13
6.449880571626021
 23
1.833466721678473
 33
0.0
 14
1.262380571626021
 24
1.833466721678474
 34
0.0
100
AcDbRotatedDimension
  0
DIMENSION
  5
152
102
{ACAD_XDICTIONARY
360
160
102
}
102
{ACAD_REACTORS
330
16B
102
}
330
58
100
AcDbEntity
 67
     1
  8
0
 48
0.3
100
AcDbDimension
  2
*D3
 10
-1.110411835169834
 20
0.333466721678475
 30
0.0
 11
-1.110411835169834
 21
1.833466721678476
 31
0.0
 70
    32
 71
     5
 42
3.000000000000003
  3
Standard
100
AcDbAlignedDimension
 13
-0.1126194283739768
 23
3.333466721678478
 33
0.0
 14
-0.2376194283739785
 24
0.3334667216784748
 34
0.0
 50
90.0
100
AcDbRotatedDimension
  0
DIMENSION
  5
16C
102
{ACAD_XDICTIONARY
360
17B
102
}
102
{ACAD_REACTORS
330
187
102
}
330
58
100
AcDbEntity
 67
     1
  8
0
 48
0.3
100
AcDbDimension
  2
*D4
 10
-0.6909851830168559
 20
2.483466721678474
 30
0.0
 11
-0.6909851830168562
 21
2.892945938479122
 31
0.0
 70
   160
 71
     5
 42
0.8500000000000035
  3
Standard
100
AcDbAlignedDimension
 13
-0.1126194283739768
 23
3.333466721678478
 33
0.0
 14
0.2623805716260215
 24
2.483466721678474
 34
0.0
 50
90.0
100
AcDbRotatedDimension
  0
DIMENSION
  5
1AC
102
{ACAD_XDICTIONARY
360
1BA
102
}
102
{ACAD_REACTORS
330
1C5
102
}
330
58
100
AcDbEntity
 67
     1
  8
0
 48
0.3
100
AcDbDimension
  2
*D6
 10
-0.1126194283739767
 20
3.701665564942771
 30
0.0
 11
-0.6922027617073101
 21
3.701665564942771
 31
0.0
 70
    32
 71
     5
 42
0.3749999999999982
  3
Standard
100
AcDbAlignedDimension
 13
0.2623805716260215
 23
2.483466721678474
 33
0.0
 14
-0.1126194283739768
 24
3.333466721678478
 34
0.0
100
AcDbRotatedDimension
  0
DIMENSION
  5
1C6
102
{ACAD_XDICTIONARY
360
1D4
102
}
102
{ACAD_REACTORS
330
1DF
102
}
330
58
100
AcDbEntity
 67
     1
  8
0
 48
0.3
100
AcDbDimension
  2
*D7
 10
2.262380571626021
 20
3.460186718605652
 30
0.0
 11
1.262380571626021
 21
3.460186718605652
 31
0.0
 70
    32
 71
     5
 42
2.0
  3
Standard
100
AcDbAlignedDimension
 13
0.2623805716260215
 23
2.483466721678474
 33
0.0
 14
2.262380571626021
 24
2.483466721678474
 34
0.0
100
AcDbRotatedDimension
  0
DIMENSION
  5
1E0
102
{ACAD_XDICTIONARY
360
1EE
102
}
102
{ACAD_REACTORS
330
1F9
102
}
330
58
100
AcDbEntity
 67
     1
  8
0
 48
0.3
100
AcDbDimension
  2
*D8
 10
8.262380571626017
 20
5.827435579235142
 30
0.0
 11
4.01238057162602
 21
5.827435579235142
 31
0.0
 70
    32
 71
     5
 42
8.499999999999994
  3
Standard
100
AcDbAlignedDimension
 13
-0.237619428373976
 23
5.023253454529736
 33
0.0
 14
8.262380571626017
 24
5.023253454529736
 34
0.0
100
AcDbRotatedDimension
  0
DIMENSION
  5
1FA
102
{ACAD_XDICTIONARY
360
209
102
}
102
{ACAD_REACTORS
330
215
102
}
330
58
100
AcDbEntity
 67
     1
  8
0
 48
0.3
100
AcDbDimension
  2
*D9
 10
-0.7682940374650939
 20
4.523253454529736
 30
0.0
 11
-0.7682940374650946
 21
4.835753454529736
 31
0.0
 70
   160
 71
     5
 42
0.5
  3
Standard
100
AcDbAlignedDimension
 13
-0.237619428373976
 23
5.023253454529736
 33
0.0
 14
-0.237619428373976
 24
4.523253454529736
 34
0.0
 50
90.0
100
AcDbRotatedDimension
  0
DIMENSION
  5
22A
102
{ACAD_XDICTIONARY
360
239
102
}
102
{ACAD_REACTORS
330
245
102
}
330
58
100
AcDbEntity
 67
     1
  8
0
 48
0.3
100
AcDbDimension
  2
*D10
 10
0.8033303145053025
 20
4.523253454529736
 30
0.0
 11
0.3591636478386352
 21
4.273253454529736
 31
0.0
 70
    32
 71
     5
 42
0.2599999999999998
  3
Standard
100
AcDbAlignedDimension
 13
0.4498805716260216
 23
4.783253454529736
 33
0.0
 14
0.4498805716260215
 24
4.523253454529736
 34
0.0
 50
90.0
100
AcDbRotatedDimension
  0
DIMENSION
  5
246
102
{ACAD_XDICTIONARY
360
254
102
}
102
{ACAD_REACTORS
330
25F
102
}
330
58
100
AcDbEntity
 67
     1
  8
0
 48
0.3
100
AcDbDimension
  2
*D11
 10
-0.2376194283739786
 20
-0.3276120561437636
 30
0.0
 11
0.5123805716260213
 21
-0.3276120561437636
 31
0.0
 70
   160
 71
     5
 42
1.5
  3
Standard
100
AcDbAlignedDimension
 13
1.262380571626021
 23
1.833466721678474
 33
0.0
 14
-0.2376194283739785
 24
0.3334667216784748
 34
0.0
100
AcDbRotatedDimension
  0
DIMENSION
  5
27A
102
{ACAD_XDICTIONARY
360
288
102
}
102
{ACAD_REACTORS
330
293
102
}
330
58
100
AcDbEntity
 67
     1
  8
0
 48
0.3
100
AcDbDimension
  2
*D13
 10
7.815380571626022
 20
3.734623238548223
 30
0.0
 11
7.377880571626022
 21
3.734623238548223
 31
0.0
 70
    32
 71
     5
 42
0.875
  3
Standard
100
AcDbAlignedDimension
 13
6.940380571626022
 23
2.761466721678474
 33
0.0
 14
7.815380571626022
 24
2.761466721678474
 34
0.0
100
AcDbRotatedDimension
  0
DIMENSION
  5
294
102
{ACAD_XDICTIONARY
360
2A2
102
}
102
{ACAD_REACTORS
330
2AD
102
}
330
58
100
AcDbEntity
 67
     1
  8
0
 48
0.3
100
AcDbDimension
  2
*D14
 10
6.940380571626022
 20
3.734623238548223
 30
0.0
 11
6.449880571626022
 21
3.734623238548223
 31
0.0
 70
    32
 71
     5
 42
0.9809999999999998
  3
Standard
100
AcDbAlignedDimension
 13
5.959380571626022
 23
2.761466721678474
 33
0.0
 14
6.940380571626022
 24
2.761466721678474
 34
0.0
100
AcDbRotatedDimension
  0
DIMENSION
  5
2AE
102
{ACAD_XDICTIONARY
360
2BC
102
}
102
{ACAD_REACTORS
330
2C7
102
}
330
58
100
AcDbEntity
 67
     1
  8
0
 48
0.3
100
AcDbDimension
  2
*D15
 10
5.084380571626022
 20
3.734623238548223
 30
0.0
 11
5.521880571626022
 21
3.734623238548223
 31
0.0
 70
    32
 71
     5
 42
0.875
  3
Standard
100
AcDbAlignedDimension
 13
5.959380571626022
 23
2.761466721678474
 33
0.0
 14
5.084380571626022
 24
2.761466721678474
 34
0.0
100
AcDbRotatedDimension
  0
DIMENSION
  5
2C8
102
{ACAD_XDICTIONARY
360
2D6
102
}
102
{ACAD_REACTORS
330
2E1
102
}
330
58
100
AcDbEntity
 67
     1
  8
0
 48
0.3
100
AcDbDimension
  2
*D16
 10
4.482334605703634
 20
0.9054667216784732
 30
0.0
 11
4.482334605703634
 21
1.833466721678474
 31
0.0
 70
    32
 71
     5
 42
1.856000000000001
  3
Standard
100
AcDbAlignedDimension
 13
5.084380571626022
 23
2.761466721678474
 33
0.0
 14
5.084380571626022
 24
0.905466721678473
 34
0.0
 50
90.0
100
AcDbRotatedDimension
  0
DIMENSION
  5
2E2
102
{ACAD_XDICTIONARY
360
2F1
102
}
102
{ACAD_REACTORS
330
2FD
102
}
330
58
100
AcDbEntity
 67
     1
  8
0
 48
0.3
100
AcDbDimension
  2
*D17
 10
4.519665717720519
 20
3.333466721678476
 30
0.0
 11
4.519665717720518
 21
3.145966721678476
 31
0.0
 70
   160
 71
     5
 42
0.5720000000000014
  3
Standard
100
AcDbAlignedDimension
 13
5.084380571626022
 23
2.761466721678474
 33
0.0
 14
5.084380571626022
 24
3.333466721678476
 34
0.0
 50
90.0
100
AcDbRotatedDimension
  0
DIMENSION
  5
312
102
{ACAD_XDICTIONARY
360
320
102
}
102
{ACAD_REACTORS
330
32B
102
}
330
58
100
AcDbEntity
 67
     1
  8
0
 48
0.3
100
AcDbDimension
  2
*D18
 10
6.012380571626021
 20
2.152654848280192
 30
0.0
 11
6.449880571626021
 21
2.152654848280192
 31
0.0
 70
    32
 71
     5
 42
0.875
  3
Standard
100
AcDbAlignedDimension
 13
6.887380571626021
 23
1.833466721678473
 33
0.0
 14
6.012380571626021
 24
1.833466721678473
 34
0.0
100
AcDbRotatedDimension
  0
DIMENSION
  5
32C
102
{ACAD_XDICTIONARY
360
33A
102
}
102
{ACAD_REACTORS
330
345
102
}
330
58
100
AcDbEntity
 67
     1
  8
0
 48
0.3
100
AcDbDimension
  2
*D19
 10
8.262380571626017
 20
2.13617600194307
 30
0.0
 11
7.574880571626019
 21
2.13617600194307
 31
0.0
 70
    32
 71
     5
 42
1.374999999999996
  3
Standard
100
AcDbAlignedDimension
 13
6.887380571626021
 23
1.833466721678473
 33
0.0
 14
8.262380571626017
 24
1.833466721678473
 34
0.0
100
AcDbRotatedDimension
  0
DIMENSION
  5
35C
102
{ACAD_XDICTIONARY
360
368
102
}
102
{ACAD_REACTORS
330
371
102
}
330
58
100
AcDbEntity
 67
     1
  8
0
 48
0.3
100
AcDbDimension
  2
*D20
 10
6.887380571626024
 20
1.833466721678475
 30
0.0
 11
7.985515614334512
 21
0.0104059876506995
 31
0.0
 70
   164
 71
     5
 42
0.6250000000000007
  3
Standard
100
AcDbRadialDimension
 15
7.077175569528759
 25
1.237981324064812
 35
0.0
 40
0.0
1001
ACAD
1000
DSTYLE
1002
{
1070
   288
1070
     1
1002
}
  0
DIMENSION
  5
38E
102
{ACAD_XDICTIONARY
360
39D
102
}
102
{ACAD_REACTORS
330
3A9
102
}
330
58
100
AcDbEntity
 67
     1
  8
0
 48
0.3
100
AcDbDimension
  2
*D21
 10
5.653676803427345
 20
0.7754667216784769
 30
0.0
 11
5.209510136760678
 21
0.5254667216784778
 31
0.0
 70
    32
 71
     5
 42
0.259999999999998
  3
Standard
100
AcDbAlignedDimension
 13
5.959380571626022
 23
1.035466721678474
 33
0.0
 14
5.959380571626022
 24
0.7754667216784768
 34
0.0
 50
90.0
100
AcDbRotatedDimension
  0
LINE
  5
3D7
330
58
100
AcDbEntity
 67
     1
  8
0
  6
HIDDENX2
 48
0.3
100
AcDbLine
 10
0.8033303145053025
 20
4.523253454529736
 30
0.0
 11
0.8033303145053027
 21
5.033253454529736
 31
0.0
  0
ARC
  5
3E8
330
58
100
AcDbEntity
 67
     1
  8
0
 48
0.3
100
AcDbCircle
 10
-0.0006194283739771
 20
1.834466721678472
 30
0.0
 40
0.3125
100
AcDbArc
 50
270.0
 51
90.0
  0
CIRCLE
  5
3E9
102
{ACAD_REACTORS
330
4E1
330
58F
330
62B
102
}
330
58
100
AcDbEntity
 67
     1
  8
0
 48
0.3
100
AcDbCircle
 10
2.571380571626022
 20
1.834466721678472
 30
0.0
 40
0.3125
  0
ARC
  5
3EA
102
{ACAD_REACTORS
330
4F7
102
}
330
58
100
AcDbEntity
 67
     1
  8
0
 48
0.3
100
AcDbCircle
 10
2.571380571626022
 20
0.5344667216784718
 30
0.0
 40
0.3125
100
AcDbArc
 50
359.9999999999998
 51
180.0
  0
ARC
  5
3EB
102
{ACAD_REACTORS
330
5AB
330
645
102
}
330
58
100
AcDbEntity
 67
     1
  8
0
 48
0.3
100
AcDbCircle
 10
-0.0006194283739789
 20
0.5344667216784718
 30
0.0
 40
0.3125
100
AcDbArc
 50
0.0
 51
90.0
  0
DIMENSION
  5
3FA
102
{ACAD_XDICTIONARY
360
406
102
}
102
{ACAD_REACTORS
330
40F
102
}
330
58
100
AcDbEntity
 67
     1
  8
0
 48
0.3
100
AcDbDimension
  2
*D24
 10
2.173597991106216
 20
2.391262310741447
 30
0.0
 11
3.073467456870313
 21
2.788801666423593
 31
0.0
 70
   163
 71
     5
 42
0.2559999999999998
  3
Standard
100
AcDbDiametricDimension
 15
2.351163152145826
 25
2.575671132615502
 35
0.0
 40
0.0
1001
ACAD
1000
DSTYLE
1002
{
1070
   288
1070
     1
1002
}
  0
DIMENSION
  5
410
102
{ACAD_XDICTIONARY
360
41C
102
}
102
{ACAD_REACTORS
330
425
102
}
330
58
100
AcDbEntity
 67
     1
  8
0
 48
0.3
100
AcDbDimension
  2
*D25
 10
2.08159241802254
 20
2.533184862398381
 30
0.0
 11
3.291328040831477
 21
2.342700124810738
 31
0.0
 70
   163
 71
     5
 42
0.375
  3
Standard
100
AcDbDiametricDimension
 15
2.443168725229501
 25
2.433748580958567
 35
0.0
 40
0.0
1001
ACAD
1000
DSTYLE
1002
{
1070
   288
1070
     1
1002
}
  0
CIRCLE
  5
426
102
{ACAD_REACTORS
330
52B
102
}
330
58
100
AcDbEntity
 67
     1
  8
0
 48
0.3
100
AcDbCircle
 10
0.2623805716260212
 20
1.183466721678472
 30
0.0
 40
0.128
  0
CIRCLE
  5
427
330
58
100
AcDbEntity
 67
     1
  8
0
 48
0.3
100
AcDbCircle
 10
2.262380571626021
 20
1.183466721678472
 30
0.0
 40
0.128
  0
CIRCLE
  5
428
330
58
100
AcDbEntity
 67
     1
  8
0
 48
0.3
100
AcDbCircle
 10
0.2623805716260212
 20
1.183466721678472
 30
0.0
 40
0.1875
  0
CIRCLE
  5
429
330
58
100
AcDbEntity
 67
     1
  8
0
 48
0.3
100
AcDbCircle
 10
2.262380571626021
 20
1.183466721678472
 30
0.0
 40
0.1875
  0
LINE
  5
4A2
330
58
100
AcDbEntity
 67
     1
  8
0
 48
0.3
100
AcDbLine
 10
-0.0006194283739771
 20
2.146966721678472
 30
0.0
 11
-0.1126194283739774
 21
2.146966721678472
 31
0.0
  0
LINE
  5
4A3
330
58
100
AcDbEntity
 67
     1
  8
0
 48
0.3
100
AcDbLine
 10
-0.0006194283739772
 20
1.521966721678472
 30
0.0
 11
-0.1126194283739778
 21
1.521966721678472
 31
0.0
  0
LINE
  5
4A4
330
58
100
AcDbEntity
 67
     1
  8
0
 48
0.3
100
AcDbLine
 10
-0.0006194283739789
 20
0.8469667216784717
 30
0.0
 11
-0.1126194283739781
 21
0.8469667216784717
 31
0.0
  0
LINE
  5
4A5
330
58
100
AcDbEntity
 67
     1
  8
0
 48
0.3
100
AcDbLine
 10
0.3118805716260211
 20
0.5344667216784718
 30
0.0
 11
0.3118805716260212
 21
0.4584667216784748
 31
0.0
  0
LINE
  5
4A6
330
58
100
AcDbEntity
 67
     1
  8
0
 48
0.3
100
AcDbLine
 10
2.258880571626022
 20
0.5344667216784718
 30
0.0
 11
2.258880571626022
 21
0.4584667216784748
 31
0.0
  0
LINE
  5
4A7
330
58
100
AcDbEntity
 67
     1
  8
0
 48
0.3
100
AcDbLine
 10
2.883880571626022
 20
0.5344667216784718
 30
0.0
 11
2.883880571626021
 21
0.4584667216784751
 31
0.0
  0
LINE
  5
4AB
102
{ACAD_REACTORS
330
645
102
}
330
58
100
AcDbEntity
 67
     1
  8
0
 48
0.3
100
AcDbLine
 10
-0.2376194283739778
 20
1.396966721678472
 30
0.0
 11
-0.2376194283739781
 21
0.9719667216784719
 31
0.0
  0
LINE
  5
4AE
330
58
100
AcDbEntity
 67
     1
  8
0
 48
0.3
100
AcDbLine
 10
0.4368805716260212
 20
0.3334667216784748
 30
0.0
 11
2.133880571626022
 21
0.3334667216784748
 31
0.0
  0
LINE
  5
4B0
330
58
100
AcDbEntity
 67
     1
  8
0
 48
0.3
100
AcDbLine
 10
3.008880571626021
 20
0.3334667216784748
 30
0.0
 11
8.137380571626017
 21
0.3334667216784748
 31
0.0
  0
ARC
  5
4B1
330
58
100
AcDbEntity
 67
     1
  8
0
 48
0.3
100
AcDbCircle
 10
-0.1126194283739774
 20
2.271966721678472
 30
0.0
 40
0.125
100
AcDbArc
 50
179.9999999999999
 51
270.0
  0
ARC
  5
4B2
330
58
100
AcDbEntity
 67
     1
  8
0
 48
0.3
100
AcDbCircle
 10
-0.1126194283739778
 20
1.396966721678472
 30
0.0
 40
0.125
100
AcDbArc
 50
90.0
 51
179.9999999999999
  0
ARC
  5
4B3
330
58
100
AcDbEntity
 67
     1
  8
0
 48
0.3
100
AcDbCircle
 10
-0.1126194283739781
 20
0.9719667216784717
 30
0.0
 40
0.125
100
AcDbArc
 50
179.9999999999999
 51
270.0
  0
ARC
  5
4B5
102
{ACAD_REACTORS
330
5AB
102
}
330
58
100
AcDbEntity
 67
     1
  8
0
 48
0.3
100
AcDbCircle
 10
0.4368805716260212
 20
0.4584667216784748
 30
0.0
 40
0.125
100
AcDbArc
 50
180.0
 51
270.0
  0
ARC
  5
4B6
102
{ACAD_REACTORS
330
5C1
102
}
330
58
100
AcDbEntity
 67
     1
  8
0
 48
0.3
100
AcDbCircle
 10
2.133880571626022
 20
0.4584667216784748
 30
0.0
 40
0.125
100
AcDbArc
 50
270.0
 51
0.0
  0
ARC
  5
4B7
330
58
100
AcDbEntity
 67
     1
  8
0
 48
0.3
100
AcDbCircle
 10
3.008880571626021
 20
0.4584667216784748
 30
0.0
 40
0.125
100
AcDbArc
 50
179.9999999999998
 51
270.0
  0
DIMENSION
  5
4B8
102
{ACAD_XDICTIONARY
360
4C4
102
}
102
{ACAD_REACTORS
330
4CD
102
}
330
58
100
AcDbEntity
 67
     1
  8
0
 48
0.3
100
AcDbDimension
  2
*D27
 10
1.299310471963897
 20
1.33483240430648
 30
0.0
 11
0.7102891293356859
 21
2.868743666727429
 31
0.0
 70
   163
 71
     5
 42
1.0
  3
Standard
100
AcDbDiametricDimension
 15
1.225450671288145
 25
2.332101039050469
 35
0.0
 40
0.0
1001
ACAD
1000
DSTYLE
1002
{
1070
   288
1070
     1
1002
}
  0
DIMENSION
  5
4CE
102
{ACAD_XDICTIONARY
360
4D9
102
}
102
{ACAD_REACTORS
330
4E1
102
}
330
58
100
AcDbEntity
 67
     1
  8
0
 48
0.3
100
AcDbDimension
  2
*D28
 10
2.264827256003225
 20
1.773792883159136
 30
0.0
 11
3.243874470693527
 21
1.967568482963829
 31
0.0
 70
   163
 71
     5
 42
0.6250000000000009
  3
Standard
100
AcDbDiametricDimension
 15
2.877933887248818
 25
1.895140560197808
 35
0.0
 40
0.0
1001
ACAD
1000
DSTYLE
1002
{
1070
   288
1070
     1
1002
}
  0
DIMENSION
  5
4E2
102
{ACAD_XDICTIONARY
360
4EE
102
}
102
{ACAD_REACTORS
330
4F7
102
}
330
58
100
AcDbEntity
 67
     1
  8
0
 48
0.3
100
AcDbDimension
  2
*D29
 10
2.57138057162602
 20
0.5344667216784716
 30
0.0
 11
3.486377665284066
 21
0.9678272766384317
 31
0.0
 70
   164
 71
     5
 42
0.3125000000000013
  3
Standard
100
AcDbRadialDimension
 15
2.788529907185804
 25
0.7591941478327915
 35
0.0
 40
0.0
1001
ACAD
1000
DSTYLE
1002
{
1070
   288
1070
     1
1002
}
  0
DIMENSION
  5
512
102
{ACAD_XDICTIONARY
360
520
102
}
102
{ACAD_REACTORS
330
52B
102
}
330
58
100
AcDbEntity
 67
     1
  8
0
 48
0.3
100
AcDbDimension
  2
*D31
 10
-0.590521978720645
 20
1.183466721678472
 30
0.0
 11
-0.590521978720645
 21
1.833466721678473
 31
0.0
 70
    32
 71
     5
 42
1.300000000000002
  3
Standard
100
AcDbAlignedDimension
 13
0.2623805716260215
 23
2.483466721678474
 33
0.0
 14
0.2623805716260212
 24
1.183466721678472
 34
0.0
 50
90.0
100
AcDbRotatedDimension
  0
DIMENSION
  5
576
102
{ACAD_XDICTIONARY
360
584
102
}
102
{ACAD_REACTORS
330
58F
102
}
330
58
100
AcDbEntity
 67
     1
  8
0
 48
0.3
100
AcDbDimension
  2
*D34
 10
3.920532694483632
 20
1.834466721678472
 30
0.0
 11
3.920532694483632
 21
1.184466721678472
 31
0.0
 70
    32
 71
     5
 42
1.300000000000001
  3
Standard
100
AcDbAlignedDimension
 13
2.57138057162602
 23
0.5344667216784716
 33
0.0
 14
2.571380571626022
 24
1.834466721678472
 34
0.0
 50
90.0
100
AcDbRotatedDimension
  0
DIMENSION
  5
590
102
{ACAD_XDICTIONARY
360
59F
102
}
102
{ACAD_REACTORS
330
5AB
102
}
330
58
100
AcDbEntity
 67
     1
  8
0
 48
0.3
100
AcDbDimension
  2
*D35
 10
0.8473767069167692
 20
0.3334667216784747
 30
0.0
 11
0.4240433735834359
 21
0.0834667216784749
 31
0.0
 70
    32
 71
     5
 42
0.2009999999999969
  3
Standard
100
AcDbAlignedDimension
 13
-0.0006194283739789
 23
0.5344667216784718
 33
0.0
 14
0.4368805716260212
 24
0.3334667216784748
 34
0.0
 50
90.0
100
AcDbRotatedDimension
  0
DIMENSION
  5
5AC
102
{ACAD_XDICTIONARY
360
5B8
102
}
102
{ACAD_REACTORS
330
5C1
102
}
330
58
100
AcDbEntity
 67
     1
  8
0
 48
0.3
100
AcDbDimension
  2
*D36
 10
2.133880571626021
 20
0.4584667216784763
 30
0.0
 11
2.852010606141487
 21
0.1370563891074108
 31
0.0
 70
   164
 71
     5
 42
0.1250000000000017
  3
Standard
100
AcDbRadialDimension
 15
2.204894409457131
 25
0.3555977038135367
 35
0.0
 40
0.0
1001
ACAD
1000
DSTYLE
1002
{
1070
   288
1070
     1
1002
}
  0
ARC
  5
5C2
330
58
100
AcDbEntity
 67
     1
  8
0
 48
0.3
100
AcDbCircle
 10
-0.1126194283739768
 20
3.208466721678478
 30
0.0
 40
0.125
100
AcDbArc
 50
89.99999999999998
 51
179.9999999999999
  0
ARC
  5
5EB
330
58
100
AcDbEntity
 67
     1
  8
0
 48
0.3
100
AcDbCircle
 10
8.137380571626017
 20
3.208466721678474
 30
0.0
 40
0.125
100
AcDbArc
 50
0.0
 51
89.99999999999998
  0
ARC
  5
5F6
330
58
100
AcDbEntity
 67
     1
  8
0
 48
0.3
100
AcDbCircle
 10
8.137380571626017
 20
0.4584667216784748
 30
0.0
 40
0.125
100
AcDbArc
 50
270.0
 51
0.0
  0
DIMENSION
  5
5F8
102
{ACAD_XDICTIONARY
360
606
102
}
102
{ACAD_REACTORS
330
611
102
}
330
58
100
AcDbEntity
 67
     1
  8
0
 48
0.3
100
AcDbDimension
  2
*D37
 10
8.262380571626017
 20
3.727875280544576
 30
0.0
 11
8.716963904959351
 21
3.727875280544576
 31
0.0
 70
    32
 71
     5
 42
0.4469999999999957
  3
Standard
100
AcDbAlignedDimension
 13
7.815380571626022
 23
2.761466721678474
 33
0.0
 14
8.262380571626017
 24
2.761466721678474
 34
0.0
100
AcDbRotatedDimension
  0
DIMENSION
  5
612
102
{ACAD_XDICTIONARY
360
620
102
}
102
{ACAD_REACTORS
330
62B
102
}
330
58
100
AcDbEntity
 67
     1
  8
0
 48
0.3
100
AcDbDimension
  2
*D38
 10
2.571380571626021
 20
-0.3170313040542432
 30
0.0
 11
1.916880571626021
 21
-0.3170313040542432
 31
0.0
 70
    32
 71
     5
 42
1.309
  3
Standard
100
AcDbAlignedDimension
 13
1.262380571626021
 23
1.833466721678474
 33
0.0
 14
2.571380571626021
 24
1.833466721678474
 34
0.0
100
AcDbRotatedDimension
  0
DIMENSION
  5
62C
102
{ACAD_XDICTIONARY
360
63A
102
}
102
{ACAD_REACTORS
330
645
102
}
330
58
100
AcDbEntity
 67
     1
  8
0
 48
0.3
100
AcDbDimension
  2
*D39
 10
-0.2376194283739781
 20
0.0884951689677074
 30
0.0
 11
-0.8172027617073114
 21
0.0884951689677074
 31
0.0
 70
    32
 71
     5
 42
0.2369999999999992
  3
Standard
100
AcDbAlignedDimension
 13
-0.0006194283739789
 23
0.5344667216784718
 33
0.0
 14
-0.2376194283739781
 24
0.9719667216784719
 34
0.0
100
AcDbRotatedDimension
  0
DIMENSION
  5
667
102
{ACAD_XDICTIONARY
360
668
102
}
102
{ACAD_REACTORS
330
669
102
}
330
58
100
AcDbEntity
 67
     1
  8
0
 48
0.3
100
AcDbDimension
  2
*D42
 10
4.764412053639247
 20
5.023253454529736
 30
0.0
 11
5.198162053639246
 21
5.273253454529736
 31
0.0
 70
    32
 71
     5
 42
0.0700000000000003
  3
Standard
100
AcDbAlignedDimension
 13
5.252380571626021
 23
4.953253454529735
 33
0.0
 14
5.252380571626021
 24
5.023253454529736
 34
0.0
 50
90.0
100
AcDbRotatedDimension
  0
LINE
  5
66A
102
{ACAD_REACTORS
330
669
102
}
330
58
100
AcDbEntity
 67
     1
  8
0
  6
HIDDENX2
 48
0.3
100
AcDbLine
 10
5.252380571626021
 20
5.023253454529736
 30
0.0
 11
5.252380571626021
 21
4.953253454529735
 31
0.0
  0
LINE
  5
66B
102
{ACAD_REACTORS
330
669
102
}
330
58
100
AcDbEntity
 67
     1
  8
0
  6
HIDDENX2
 48
0.3
100
AcDbLine
 10
7.64738057162602
 20
4.953253454529735
 30
0.0
 11
5.252380571626021
 21
4.953253454529735
 31
0.0
  0
LINE
  5
66C
330
58
100
AcDbEntity
 67
     1
  8
0
  6
HIDDENX2
 48
0.3
100
AcDbLine
 10
7.64738057162602
 20
5.023253454529736
 30
0.0
 11
7.64738057162602
 21
4.953253454529735
 31
0.0
  0
LINE
  5
66D
330
58
100
AcDbEntity
 67
     1
  8
0
  6
HIDDENX2
 48
0.3
100
AcDbLine
 10
6.012380571626021
 20
2.593466721678474
 30
0.0
 11
6.887380571626021
 21
2.593466721678474
 31
0.0
  0
ARC
  5
66E
330
58
100
AcDbEntity
 67
     1
  8
0
  6
HIDDENX2
 48
0.3
100
AcDbCircle
 10
6.012380571626021
 20
1.833466721678473
 30
0.0
 40
0.76
100
AcDbArc
 50
90.0
 51
270.0
  0
ARC
  5
66F
330
58
100
AcDbEntity
 67
     1
  8
0
  6
HIDDENX2
 48
0.3
100
AcDbCircle
 10
6.887380571626021
 20
1.833466721678473
 30
0.0
 40
0.76
100
AcDbArc
 50
270.0
 51
90.0
  0
LINE
  5
670
330
58
100
AcDbEntity
 67
     1
  8
0
  6
HIDDENX2
 48
0.3
100
AcDbLine
 10
6.012380571626021
 20
1.073466721678474
 30
0.0
 11
6.887380571626021
 21
1.073466721678474
 31
0.0
  0
ENDSEC
  0
SECTION
  2
OBJECTS
  0
DICTIONARY
  5
C
330
0
100
AcDbDictionary
281
     1
  3
ACAD_GROUP
350
D
  3
ACAD_LAYOUT
350
1A
  3
ACAD_MLINESTYLE
350
17
  3
ACAD_PLOTSETTINGS
350
19
  3
ACAD_PLOTSTYLENAME
350
E
  3
AcDbVariableDictionary
350
66
  0
DICTIONARY
  5
12D
330
11E
100
AcDbDictionary
280
     1
281
     1
  3
ACAD_DIMASSOC
360
138
  0
DICTIONARY
  5
160
330
152
100
AcDbDictionary
280
     1
281
     1
  3
ACAD_DIMASSOC
360
16B
  0
DICTIONARY
  5
17B
330
16C
100
AcDbDictionary
280
     1
281
     1
  3
ACAD_DIMASSOC
360
187
  0
DICTIONARY
  5
1BA
330
1AC
100
AcDbDictionary
280
     1
281
     1
  3
ACAD_DIMASSOC
360
1C5
  0
DICTIONARY
  5
1D4
330
1C6
100
AcDbDictionary
280
     1
281
     1
  3
ACAD_DIMASSOC
360
1DF
  0
DICTIONARY
  5
1EE
330
1E0
100
AcDbDictionary
280
     1
281
     1
  3
ACAD_DIMASSOC
360
1F9
  0
DICTIONARY
  5
209
330
1FA
100
AcDbDictionary
280
     1
281
     1
  3
ACAD_DIMASSOC
360
215
  0
DICTIONARY
  5
239
330
22A
100
AcDbDictionary
280
     1
281
     1
  3
ACAD_DIMASSOC
360
245
  0
DICTIONARY
  5
254
330
246
100
AcDbDictionary
280
     1
281
     1
  3
ACAD_DIMASSOC
360
25F
  0
DICTIONARY
  5
288
330
27A
100
AcDbDictionary
280
     1
281
     1
  3
ACAD_DIMASSOC
360
293
  0
DICTIONARY
  5
2A2
330
294
100
AcDbDictionary
280
     1
281
     1
  3
ACAD_DIMASSOC
360
2AD
  0
DICTIONARY
  5
2BC
330
2AE
100
AcDbDictionary
280
     1
281
     1
  3
ACAD_DIMASSOC
360
2C7
  0
DICTIONARY
  5
2D6
330
2C8
100
AcDbDictionary
280
     1
281
     1
  3
ACAD_DIMASSOC
360
2E1
  0
DICTIONARY
  5
2F1
330
2E2
100
AcDbDictionary
280
     1
281
     1
  3
ACAD_DIMASSOC
360
2FD
  0
DICTIONARY
  5
320
330
312
100
AcDbDictionary
280
     1
281
     1
  3
ACAD_DIMASSOC
360
32B
  0
DICTIONARY
  5
33A
330
32C
100
AcDbDictionary
280
     1
281
     1
  3
ACAD_DIMASSOC
360
345
  0
DICTIONARY
  5
368
330
35C
100
AcDbDictionary
280
     1
281
     1
  3
ACAD_DIMASSOC
360
371
  0
DICTIONARY
  5
39D
330
38E
100
AcDbDictionary
280
     1
281
     1
  3
ACAD_DIMASSOC
360
3A9
  0
DICTIONARY
  5
406
330
3FA
100
AcDbDictionary
280
     1
281
     1
  3
ACAD_DIMASSOC
360
40F
  0
DICTIONARY
  5
41C
330
410
100
AcDbDictionary
280
     1
281
     1
  3
ACAD_DIMASSOC
360
425
  0
DICTIONARY
  5
4C4
330
4B8
100
AcDbDictionary
280
     1
281
     1
  3
ACAD_DIMASSOC
360
4CD
  0
DICTIONARY
  5
4D9
330
4CE
100
AcDbDictionary
280
     1
281
     1
  3
ACAD_DIMASSOC
360
4E1
  0
DICTIONARY
  5
4EE
330
4E2
100
AcDbDictionary
280
     1
281
     1
  3
ACAD_DIMASSOC
360
4F7
  0
DICTIONARY
  5
520
330
512
100
AcDbDictionary
280
     1
281
     1
  3
ACAD_DIMASSOC
360
52B
  0
DICTIONARY
  5
584
330
576
100
AcDbDictionary
280
     1
281
     1
  3
ACAD_DIMASSOC
360
58F
  0
DICTIONARY
  5
59F
330
590
100
AcDbDictionary
280
     1
281
     1
  3
ACAD_DIMASSOC
360
5AB
  0
DICTIONARY
  5
5B8
330
5AC
100
AcDbDictionary
280
     1
281
     1
  3
ACAD_DIMASSOC
360
5C1
  0
DICTIONARY
  5
606
330
5F8
100
AcDbDictionary
280
     1
281
     1
  3
ACAD_DIMASSOC
360
611
  0
DICTIONARY
  5
620
330
612
100
AcDbDictionary
280
     1
281
     1
  3
ACAD_DIMASSOC
360
62B
  0
DICTIONARY
  5
63A
330
62C
100
AcDbDictionary
280
     1
281
     1
  3
ACAD_DIMASSOC
360
645
  0
DICTIONARY
  5
668
330
667
100
AcDbDictionary
280
     1
281
     1
  3
ACAD_DIMASSOC
360
669
  0
DICTIONARY
  5
D
102
{ACAD_REACTORS
330
C
102
}
330
C
100
AcDbDictionary
281
     1
  0
DICTIONARY
  5
1A
102
{ACAD_REACTORS
330
C
102
}
330
C
100
AcDbDictionary
281
     1
  3
Layout1
350
59
  3
Layout2
350
5E
  3
Model
350
22
  0
DICTIONARY
  5
17
102
{ACAD_REACTORS
330
C
102
}
330
C
100
AcDbDictionary
281
     1
  3
Standard
350
18
  0
DICTIONARY
  5
19
102
{ACAD_REACTORS
330
C
102
}
330
C
100
AcDbDictionary
281
     1
  0
ACDBDICTIONARYWDFLT
  5
E
102
{ACAD_REACTORS
330
C
102
}
330
C
100
AcDbDictionary
281
     1
  3
Normal
350
F
100
AcDbDictionaryWithDefault
340
F
  0
DICTIONARY
  5
66
102
{ACAD_REACTORS
330
C
102
}
330
C
100
AcDbDictionary
281
     1
  3
DIMASSOC
350
67
  3
HIDETEXT
350
6B
  0
DIMASSOC
  5
138
102
{ACAD_REACTORS
330
12D
102
}
330
12D
100
AcDbDimAssoc
330
11E
 90
        2
 70
     0
 71
     0
  1
AcDbOsnapPointRef
 72
     3
331
FC
 73
     2
 91
        0
 40
0.0
 10
1.262380571626021
 20
1.833466721678474
 30
0.0
 75
     0
  0
DIMASSOC
  5
16B
102
{ACAD_REACTORS
330
160
102
}
330
160
100
AcDbDimAssoc
330
152
 90
        1
 70
     0
 71
     0
  1
AcDbOsnapPointRef
 72
     1
331
DD
 73
     2
 91
        0
 40
1.0
 10
-0.1126194283739768
 20
3.333466721678478
 30
0.0
 75
     0
  0
DIMASSOC
  5
187
102
{ACAD_REACTORS
330
17B
102
}
330
17B
100
AcDbDimAssoc
330
16C
 90
        3
 70
     0
 71
     0
  1
AcDbOsnapPointRef
 72
     1
331
DD
 73
     2
 91
        0
 40
1.0
 10
-0.1126194283739768
 20
3.333466721678478
 30
0.0
 75
     0
  1
AcDbOsnapPointRef
 72
     3
331
DF
 73
     2
 91
        0
 40
0.0
 10
0.2623805716260215
 20
2.483466721678474
 30
0.0
 75
     0
  0
DIMASSOC
  5
1C5
102
{ACAD_REACTORS
330
1BA
102
}
330
1BA
100
AcDbDimAssoc
330
1AC
 90
        3
 70
     0
 71
     0
  1
AcDbOsnapPointRef
 72
     3
331
DF
 73
     2
 91
        0
 40
0.0
 10
0.2623805716260215
 20
2.483466721678474
 30
0.0
 75
     0
  1
AcDbOsnapPointRef
 72
     1
331
DD
 73
     2
 91
        0
 40
1.0
 10
-0.1126194283739768
 20
3.333466721678478
 30
0.0
 75
     0
  0
DIMASSOC
  5
1DF
102
{ACAD_REACTORS
330
1D4
102
}
330
1D4
100
AcDbDimAssoc
330
1C6
 90
        3
 70
     0
 71
     0
  1
AcDbOsnapPointRef
 72
     3
331
DF
 73
     2
 91
        0
 40
0.0
 10
0.2623805716260215
 20
2.483466721678474
 30
0.0
 75
     0
  1
AcDbOsnapPointRef
 72
     3
331
E1
 73
     2
 91
        0
 40
0.0
 10
2.262380571626021
 20
2.483466721678474
 30
0.0
 75
     0
  0
DIMASSOC
  5
1F9
102
{ACAD_REACTORS
330
1EE
102
}
330
1EE
100
AcDbDimAssoc
330
1E0
 90
        3
 70
     0
 71
     0
  1
AcDbOsnapPointRef
 72
    13
331
FE
 73
     2
 91
        0
 40
0.0
 10
-0.237619428373976
 20
5.023253454529736
 30
0.0
 75
     0
  1
AcDbOsnapPointRef
 72
     1
331
FE
 73
     2
 91
        0
 40
1.0
 10
8.262380571626017
 20
5.023253454529736
 30
0.0
 75
     0
  0
DIMASSOC
  5
215
102
{ACAD_REACTORS
330
209
102
}
330
209
100
AcDbDimAssoc
330
1FA
 90
        3
 70
     0
 71
     0
  1
AcDbOsnapPointRef
 72
    13
331
FE
 73
     2
 91
        0
 40
0.0
 10
-0.237619428373976
 20
5.023253454529736
 30
0.0
 75
     0
  1
AcDbOsnapPointRef
 72
     1
331
100
 73
     2
 91
        0
 40
1.0
 10
-0.237619428373976
 20
4.523253454529736
 30
0.0
 75
     0
  0
DIMASSOC
  5
245
102
{ACAD_REACTORS
330
239
102
}
330
239
100
AcDbDimAssoc
330
22A
 90
        3
 70
     0
 71
     0
  1
AcDbOsnapPointRef
 72
     1
331
103
 73
     2
 91
        0
 40
1.0
 10
0.4498805716260216
 20
4.783253454529736
 30
0.0
 75
     0
  1
AcDbOsnapPointRef
 72
     1
331
104
 73
     2
 91
        0
 40
1.0
 10
0.4498805716260215
 20
4.523253454529736
 30
0.0
 75
     0
  0
DIMASSOC
  5
25F
102
{ACAD_REACTORS
330
254
102
}
330
254
100
AcDbDimAssoc
330
246
 90
        1
 70
     0
 71
     0
  1
AcDbOsnapPointRef
 72
     3
331
FC
 73
     2
 91
        0
 40
0.0
 10
1.262380571626021
 20
1.833466721678474
 30
0.0
 75
     0
  0
DIMASSOC
  5
293
102
{ACAD_REACTORS
330
288
102
}
330
288
100
AcDbDimAssoc
330
27A
 90
        3
 70
     0
 71
     0
  1
AcDbOsnapPointRef
 72
     3
331
F3
 73
     2
 91
        0
 40
1.570796326794896
 10
6.940380571626022
 20
2.761466721678474
 30
0.0
 75
     0
  1
AcDbOsnapPointRef
 72
     3
331
F4
 73
     2
 91
        0
 40
4.712388980384689
 10
7.815380571626022
 20
2.761466721678474
 30
0.0
 75
     0
  0
DIMASSOC
  5
2AD
102
{ACAD_REACTORS
330
2A2
102
}
330
2A2
100
AcDbDimAssoc
330
294
 90
        3
 70
     0
 71
     0
  1
AcDbOsnapPointRef
 72
     3
331
EE
 73
     2
 91
        0
 40
4.712388980384689
 10
5.959380571626022
 20
2.761466721678474
 30
0.0
 75
     0
  1
AcDbOsnapPointRef
 72
     3
331
F3
 73
     2
 91
        0
 40
1.570796326794896
 10
6.940380571626022
 20
2.761466721678474
 30
0.0
 75
     0
  0
DIMASSOC
  5
2C7
102
{ACAD_REACTORS
330
2BC
102
}
330
2BC
100
AcDbDimAssoc
330
2AE
 90
        3
 70
     0
 71
     0
  1
AcDbOsnapPointRef
 72
     3
331
EE
 73
     2
 91
        0
 40
4.712388980384689
 10
5.959380571626022
 20
2.761466721678474
 30
0.0
 75
     0
  1
AcDbOsnapPointRef
 72
     3
331
ED
 73
     2
 91
        0
 40
1.570796326794896
 10
5.084380571626022
 20
2.761466721678474
 30
0.0
 75
     0
  0
DIMASSOC
  5
2E1
102
{ACAD_REACTORS
330
2D6
102
}
330
2D6
100
AcDbDimAssoc
330
2C8
 90
        3
 70
     0
 71
     0
  1
AcDbOsnapPointRef
 72
     3
331
ED
 73
     2
 91
        0
 40
1.570796326794896
 10
5.084380571626022
 20
2.761466721678474
 30
0.0
 75
     0
  1
AcDbOsnapPointRef
 72
     3
331
F5
 73
     2
 91
        0
 40
1.570796326794896
 10
5.084380571626022
 20
0.905466721678473
 30
0.0
 75
     0
  0
DIMASSOC
  5
2FD
102
{ACAD_REACTORS
330
2F1
102
}
330
2F1
100
AcDbDimAssoc
330
2E2
 90
        1
 70
     0
 71
     0
  1
AcDbOsnapPointRef
 72
     3
331
ED
 73
     2
 91
        0
 40
1.570796326794896
 10
5.084380571626022
 20
2.761466721678474
 30
0.0
 75
     0
  0
DIMASSOC
  5
32B
102
{ACAD_REACTORS
330
320
102
}
330
320
100
AcDbDimAssoc
330
312
 90
        3
 70
     0
 71
     0
  1
AcDbOsnapPointRef
 72
     3
331
EF
 73
     2
 91
        0
 40
4.712388980384689
 10
6.887380571626021
 20
1.833466721678473
 30
0.0
 75
     0
  1
AcDbOsnapPointRef
 72
     3
331
E9
 73
     2
 91
        0
 40
1.570796326794896
 10
6.012380571626021
 20
1.833466721678473
 30
0.0
 75
     0
  0
DIMASSOC
  5
345
102
{ACAD_REACTORS
330
33A
102
}
330
33A
100
AcDbDimAssoc
330
32C
 90
        1
 70
     0
 71
     0
  1
AcDbOsnapPointRef
 72
     3
331
EF
 73
     2
 91
        0
 40
4.712388980384689
 10
6.887380571626021
 20
1.833466721678473
 30
0.0
 75
     0
  0
DIMASSOC
  5
371
102
{ACAD_REACTORS
330
368
102
}
330
368
100
AcDbDimAssoc
330
35C
 90
        2
 70
     0
 71
     0
  1
AcDbOsnapPointRef
 72
     3
331
EF
 73
     2
 91
        0
 40
0.0
 10
0.0
 20
0.0
 30
0.0
 75
     0
  0
DIMASSOC
  5
3A9
102
{ACAD_REACTORS
330
39D
102
}
330
39D
100
AcDbDimAssoc
330
38E
 90
        3
 70
     0
 71
     0
  1
AcDbOsnapPointRef
 72
     6
331
EA
 73
     2
 91
        0
 40
0.999999999999998
 10
5.959380571626022
 20
1.035466721678474
 30
0.0
332
F7
 74
     2
 92
        0
 75
     0
  1
AcDbOsnapPointRef
 72
     6
331
F6
 73
     2
 91
        0
 40
0.999999999999998
 10
5.959380571626022
 20
0.7754667216784768
 30
0.0
332
F7
 74
     2
 92
        0
 75
     0
  0
DIMASSOC
  5
40F
102
{ACAD_REACTORS
330
406
102
}
330
406
100
AcDbDimAssoc
330
3FA
 90
        2
 70
     0
 71
     0
  1
AcDbOsnapPointRef
 72
     3
331
E1
 73
     2
 91
        0
 40
0.0
 10
2.262380571626021
 20
2.483466721678474
 30
0.0
 75
     0
  0
DIMASSOC
  5
425
102
{ACAD_REACTORS
330
41C
102
}
330
41C
100
AcDbDimAssoc
330
410
 90
        2
 70
     0
 71
     0
  1
AcDbOsnapPointRef
 72
     3
331
E0
 73
     2
 91
        0
 40
0.0
 10
2.262380571626021
 20
2.483466721678474
 30
0.0
 75
     0
  0
DIMASSOC
  5
4CD
102
{ACAD_REACTORS
330
4C4
102
}
330
4C4
100
AcDbDimAssoc
330
4B8
 90
        2
 70
     0
 71
     0
  1
AcDbOsnapPointRef
 72
     3
331
FC
 73
     2
 91
        0
 40
0.0
 10
0.0
 20
0.0
 30
0.0
 75
     0
  0
DIMASSOC
  5
4E1
102
{ACAD_REACTORS
330
4D9
102
}
330
4D9
100
AcDbDimAssoc
330
4CE
 90
        2
 70
     0
 71
     0
  1
AcDbOsnapPointRef
 72
     3
331
3E9
 73
     2
 91
        0
 40
0.0
 10
0.0
 20
0.0
 30
0.0
 75
     0
  0
DIMASSOC
  5
4F7
102
{ACAD_REACTORS
330
4EE
102
}
330
4EE
100
AcDbDimAssoc
330
4E2
 90
        2
 70
     0
 71
     0
  1
AcDbOsnapPointRef
 72
     3
331
3EA
 73
     2
 91
        0
 40
0.0
 10
0.0
 20
0.0
 30
0.0
 75
     0
  0
DIMASSOC
  5
52B
102
{ACAD_REACTORS
330
520
102
}
330
520
100
AcDbDimAssoc
330
512
 90
        3
 70
     0
 71
     0
  1
AcDbOsnapPointRef
 72
     3
331
DE
 73
     2
 91
        0
 40
0.0
 10
0.2623805716260215
 20
2.483466721678474
 30
0.0
 75
     0
  1
AcDbOsnapPointRef
 72
     3
331
426
 73
     2
 91
        0
 40
0.0
 10
0.2623805716260212
 20
1.183466721678472
 30
0.0
 75
     0
  0
DIMASSOC
  5
58F
102
{ACAD_REACTORS
330
584
102
}
330
584
100
AcDbDimAssoc
330
576
 90
        2
 70
     0
 71
     0
  1
AcDbOsnapPointRef
 72
     3
331
3E9
 73
     2
 91
        0
 40
0.0
 10
2.571380571626022
 20
1.834466721678472
 30
0.0
 75
     0
  0
DIMASSOC
  5
5AB
102
{ACAD_REACTORS
330
59F
102
}
330
59F
100
AcDbDimAssoc
330
590
 90
        3
 70
     0
 71
     0
  1
AcDbOsnapPointRef
 72
     3
331
3EB
 73
     2
 91
        0
 40
0.0
 10
-0.0006194283739789
 20
0.5344667216784718
 30
0.0
 75
     0
  1
AcDbOsnapPointRef
 72
     1
331
4B5
 73
     2
 91
        0
 40
4.712388980384689
 10
0.4368805716260212
 20
0.3334667216784748
 30
0.0
 75
     0
  0
DIMASSOC
  5
5C1
102
{ACAD_REACTORS
330
5B8
102
}
330
5B8
100
AcDbDimAssoc
330
5AC
 90
        2
 70
     0
 71
     0
  1
AcDbOsnapPointRef
 72
     3
331
4B6
 73
     2
 91
        0
 40
0.0
 10
0.0
 20
0.0
 30
0.0
 75
     0
  0
DIMASSOC
  5
611
102
{ACAD_REACTORS
330
606
102
}
330
606
100
AcDbDimAssoc
330
5F8
 90
        1
 70
     0
 71
     0
  1
AcDbOsnapPointRef
 72
     3
331
F4
 73
     2
 91
        0
 40
4.712388980384689
 10
7.815380571626022
 20
2.761466721678474
 30
0.0
 75
     0
  0
DIMASSOC
  5
62B
102
{ACAD_REACTORS
330
620
102
}
330
620
100
AcDbDimAssoc
330
612
 90
        2
 70
     0
 71
     0
  1
AcDbOsnapPointRef
 72
     3
331
3E9
 73
     2
 91
        0
 40
0.0
 10
2.571380571626021
 20
1.833466721678474
 30
0.0
 75
     0
  0
DIMASSOC
  5
645
102
{ACAD_REACTORS
330
63A
102
}
330
63A
100
AcDbDimAssoc
330
62C
 90
        3
 70
     0
 71
     0
  1
AcDbOsnapPointRef
 72
     3
331
3EB
 73
     2
 91
        0
 40
0.0
 10
-0.0006194283739789
 20
0.5344667216784718
 30
0.0
 75
     0
  1
AcDbOsnapPointRef
 72
     1
331
4AB
 73
     2
 91
        0
 40
1.0
 10
-0.2376194283739781
 20
0.9719667216784719
 30
0.0
 75
     0
  0
DIMASSOC
  5
669
102
{ACAD_REACTORS
330
668
102
}
330
668
100
AcDbDimAssoc
330
667
 90
        3
 70
     0
 71
     0
  1
AcDbOsnapPointRef
 72
     1
331
66B
 73
     2
 91
        0
 40
1.0
 10
5.252380571626021
 20
4.953253454529735
 30
0.0
 75
     0
  1
AcDbOsnapPointRef
 72
    13
331
66A
 73
     2
 91
        0
 40
0.0
 10
5.252380571626021
 20
5.023253454529736
 30
0.0
 75
     0
  0
LAYOUT
  5
59
102
{ACAD_REACTORS
330
1A
102
}
330
1A
100
AcDbPlotSettings
  1

  2
none_device
  4
Letter_(8.50_x_11.00_Inches)
  6

 40
6.349999904632568
 41
6.349999904632568
 42
6.350006103515625
 43
6.350006103515625
 44
215.8999938964843
 45
279.3999938964843
 46
38.3032
 47
38.15079999999999
 48
0.0
 49
0.0
140
0.0
141
0.0
142
1.0
143
1.0
 70
   688
 72
     0
 73
     1
 74
     5
  7

 75
    16
147
1.0
148
0.0
149
0.0
100
AcDbLayout
  1
Layout1
 70
     1
 71
     1
 10
-1.75200024029589
 20
-1.757999996245376
 11
9.247999519408217
 21
6.741999763458731
 12
0.0
 22
0.0
 32
0.0
 14
-1.439262267973589
 24
-1.41285528304607
 34
0.0
 15
8.966538218833356
 25
6.396855050259421
 35
0.0
146
0.0
 13
0.0
 23
0.0
 33
0.0
 16
1.0
 26
0.0
 36
0.0
 17
0.0
 27
1.0
 37
0.0
 76
     0
330
58
331
77
  0
LAYOUT
  5
5E
102
{ACAD_REACTORS
330
1A
102
}
330
1A
100
AcDbPlotSettings
  1

  2
None
  4

  6

 40
0.0
 41
0.0
 42
0.0
 43
0.0
 44
0.0
 45
0.0
 46
0.0
 47
0.0
 48
0.0
 49
0.0
140
0.0
141
0.0
142
1.0
143
1.0
 70
   688
 72
     0
 73
     0
 74
     5
  7

 75
    16
147
1.0
148
0.0
149
0.0
100
AcDbLayout
  1
Layout2
 70
     1
 71
     2
 10
0.0
 20
0.0
 11
12.0
 21
9.0
 12
0.0
 22
0.0
 32
0.0
 14
0.0
 24
0.0
 34
0.0
 15
0.0
 25
0.0
 35
0.0
146
0.0
 13
0.0
 23
0.0
 33
0.0
 16
1.0
 26
0.0
 36
0.0
 17
0.0
 27
1.0
 37
0.0
 76
     0
330
5D
  0
LAYOUT
  5
22
102
{ACAD_REACTORS
330
1A
102
}
330
1A
100
AcDbPlotSettings
  1

  2
none_device
  4
ANSI_A_(8.50_x_11.00_Inches)
  6

 40
6.349999904632568
 41
19.04999923706054
 42
6.350006103515625
 43
19.04998779296875
 44
215.8999938964843
 45
279.3999938964843
 46
0.0
 47
0.0
 48
0.0
 49
0.0
140
0.0
141
0.0
142
1.0
143
2.584895464708373
 70
 11952
 72
     0
 73
     1
 74
     0
  7

 75
     0
147
0.3868628397755418
148
0.0
149
0.0
100
AcDbLayout
  1
Model
 70
     1
 71
     0
 10
0.0
 20
0.0
 11
12.0
 21
9.0
 12
0.0
 22
0.0
 32
0.0
 14
0.0
 24
0.0
 34
0.0
 15
0.0
 25
0.0
 35
0.0
146
0.0
 13
0.0
 23
0.0
 33
0.0
 16
1.0
 26
0.0
 36
0.0
 17
0.0
 27
1.0
 37
0.0
 76
     0
330
1F
  0
MLINESTYLE
  5
18
102
{ACAD_REACTORS
330
17
102
}
330
17
100
AcDbMlineStyle
  2
STANDARD
 70
     0
  3

 62
   256
 51
90.0
 52
90.0
 71
     2
 49
0.5
 62
   256
  6
BYLAYER
 49
-0.5
 62
   256
  6
BYLAYER
  0
ACDBPLACEHOLDER
  5
F
102
{ACAD_REACTORS
330
E
102
}
330
E
  0
DICTIONARYVAR
  5
67
102
{ACAD_REACTORS
330
66
102
}
330
66
100
DictionaryVariables
280
     0
  1
2
  0
DICTIONARYVAR
  5
6B
102
{ACAD_REACTORS
330
66
102
}
330
66
100
DictionaryVariables
280
     0
  1
1
  0
ENDSEC
  0
EOF
