  0
SECTION
  2
HEADER
  9
$ACADVER
  1
AC1015
  9
$ACADMAINTVER
 70
    13
  9
$DWGCODEPAGE
  3
ANSI_1252
  9
$INSBASE
 10
0.0
 20
0.0
 30
0.0
  9
$EXTMIN
 10
1.000000000000000E+20
 20
1.000000000000000E+20
 30
1.000000000000000E+20
  9
$EXTMAX
 10
-1.000000000000000E+20
 20
-1.000000000000000E+20
 30
-1.000000000000000E+20
  9
$LIMMIN
 10
0.0
 20
0.0
  9
$LIMMAX
 10
12.0
 20
9.0
  9
$ORTHOMODE
 70
     0
  9
$REGENMODE
 70
     1
  9
$FILLMODE
 70
     1
  9
$QTEXTMODE
 70
     0
  9
$MIRRTEXT
 70
     1
  9
$LTSCALE
 40
0.3
  9
$ATTMODE
 70
     1
  9
$TEXTSIZE
 40
0.2
  9
$TRACEWID
 40
0.05
  9
$TEXTSTYLE
  7
Standard
  9
$CLAYER
  8
0
  9
$CELTYPE
  6
ByLayer
  9
$CECOLOR
 62
   256
  9
$CELTSCALE
 40
0.3
  9
$DISPSILH
 70
     0
  9
$DIMSCALE
 40
1.0
  9
$DIMASZ
 40
0.125
  9
$DIMEXO
 40
0.0625
  9
$DIMDLI
 40
0.38
  9
$DIMRND
 40
0.0
  9
$DIMDLE
 40
0.0
  9
$DIMEXE
 40
0.18
  9
$DIMTP
 40
0.0
  9
$DIMTM
 40
0.0
  9
$DIMTXT
 40
0.125
  9
$DIMCEN
 40
0.09
  9
$DIMTSZ
 40
0.0
  9
$DIMTOL
 70
     0
  9
$DIMLIM
 70
     0
  9
$DIMTIH
 70
     1
  9
$DIMTOH
 70
     1
  9
$DIMSE1
 70
     0
  9
$DIMSE2
 70
     0
  9
$DIMTAD
 70
     0
  9
$DIMZIN
 70
     0
  9
$DIMBLK
  1

  9
$DIMASO
 70
     1
  9
$DIMSHO
 70
     1
  9
$DIMPOST
  1

  9
$DIMAPOST
  1

  9
$DIMALT
 70
     0
  9
$DIMALTD
 70
     2
  9
$DIMALTF
 40
25.4
  9
$DIMLFAC
 40
1.0
  9
$DIMTOFL
 70
     0
  9
$DIMTVP
 40
0.0
  9
$DIMTIX
 70
     0
  9
$DIMSOXD
 70
     0
  9
$DIMSAH
 70
     0
  9
$DIMBLK1
  1

  9
$DIMBLK2
  1

  9
$DIMSTYLE
  2
Standard
  9
$DIMCLRD
 70
     0
  9
$DIMCLRE
 70
     0
  9
$DIMCLRT
 70
     0
  9
$DIMTFAC
 40
1.0
  9
$DIMGAP
 40
0.09
  9
$DIMJUST
 70
     0
  9
$DIMSD1
 70
     0
  9
$DIMSD2
 70
     0
  9
$DIMTOLJ
 70
     1
  9
$DIMTZIN
 70
     0
  9
$DIMALTZ
 70
     0
  9
$DIMALTTZ
 70
     0
  9
$DIMUPT
 70
     0
  9
$DIMDEC
 70
     3
  9
$DIMTDEC
 70
     3
  9
$DIMALTU
 70
     2
  9
$DIMALTTD
 70
     2
  9
$DIMTXSTY
  7
Standard
  9
$DIMAUNIT
 70
     0
  9
$DIMADEC
 70
     0
  9
$DIMALTRND
 40
0.0
  9
$DIMAZIN
 70
     0
  9
$DIMDSEP
 70
    46
  9
$DIMATFIT
 70
     3
  9
$DIMFRAC
 70
     0
  9
$DIMLDRBLK
  1

  9
$DIMLUNIT
 70
     2
  9
$DIMLWD
 70
    -2
  9
$DIMLWE
 70
    -2
  9
$DIMTMOVE
 70
     0
  9
$LUNITS
 70
     2
  9
$LUPREC
 70
     4
  9
$SKETCHINC
 40
0.1
  9
$FILLETRAD
 40
0.5
  9
$AUNITS
 70
     0
  9
$AUPREC
 70
     0
  9
$MENU
  1
.
  9
$ELEVATION
 40
0.0
  9
$PELEVATION
 40
0.0
  9
$THICKNESS
 40
0.0
  9
$LIMCHECK
 70
     0
  9
$CHAMFERA
 40
0.5
  9
$CHAMFERB
 40
0.5
  9
$CHAMFERC
 40
1.0
  9
$CHAMFERD
 40
0.0
  9
$SKPOLY
 70
     0
  9
$TDCREATE
 40
2454412.621520173
  9
$TDUCREATE
 40
2454412.788186840
  9
$TDUPDATE
 40
2455654.340263669
  9
$TDUUPDATE
 40
2455654.506930335
  9
$TDINDWG
 40
0.0381560532
  9
$TDUSRTIMER
 40
0.0381560532
  9
$USRTIMER
 70
     1
  9
$ANGBASE
 50
0.0
  9
$ANGDIR
 70
     0
  9
$PDMODE
 70
     0
  9
$PDSIZE
 40
0.0
  9
$PLINEWID
 40
0.0
  9
$SPLFRAME
 70
     0
  9
$SPLINETYPE
 70
     6
  9
$SPLINESEGS
 70
     8
  9
$HANDSEED
  5
2F9
  9
$SURFTAB1
 70
     6
  9
$SURFTAB2
 70
     6
  9
$SURFTYPE
 70
     6
  9
$SURFU
 70
     6
  9
$SURFV
 70
     6
  9
$UCSBASE
  2

  9
$UCSNAME
  2

  9
$UCSORG
 10
0.0
 20
0.0
 30
0.0
  9
$UCSXDIR
 10
1.0
 20
0.0
 30
0.0
  9
$UCSYDIR
 10
0.0
 20
1.0
 30
0.0
  9
$UCSORTHOREF
  2

  9
$UCSORTHOVIEW
 70
     0
  9
$UCSORGTOP
 10
0.0
 20
0.0
 30
0.0
  9
$UCSORGBOTTOM
 10
0.0
 20
0.0
 30
0.0
  9
$UCSORGLEFT
 10
0.0
 20
0.0
 30
0.0
  9
$UCSORGRIGHT
 10
0.0
 20
0.0
 30
0.0
  9
$UCSORGFRONT
 10
0.0
 20
0.0
 30
0.0
  9
$UCSORGBACK
 10
0.0
 20
0.0
 30
0.0
  9
$PUCSBASE
  2

  9
$PUCSNAME
  2

  9
$PUCSORG
 10
0.0
 20
0.0
 30
0.0
  9
$PUCSXDIR
 10
1.0
 20
0.0
 30
0.0
  9
$PUCSYDIR
 10
0.0
 20
1.0
 30
0.0
  9
$PUCSORTHOREF
  2

  9
$PUCSORTHOVIEW
 70
     0
  9
$PUCSORGTOP
 10
0.0
 20
0.0
 30
0.0
  9
$PUCSORGBOTTOM
 10
0.0
 20
0.0
 30
0.0
  9
$PUCSORGLEFT
 10
0.0
 20
0.0
 30
0.0
  9
$PUCSORGRIGHT
 10
0.0
 20
0.0
 30
0.0
  9
$PUCSORGFRONT
 10
0.0
 20
0.0
 30
0.0
  9
$PUCSORGBACK
 10
0.0
 20
0.0
 30
0.0
  9
$USERI1
 70
     0
  9
$USERI2
 70
     0
  9
$USERI3
 70
     0
  9
$USERI4
 70
     0
  9
$USERI5
 70
     0
  9
$USERR1
 40
0.0
  9
$USERR2
 40
0.0
  9
$USERR3
 40
0.0
  9
$USERR4
 40
0.0
  9
$USERR5
 40
0.0
  9
$WORLDVIEW
 70
     1
  9
$SHADEDGE
 70
     3
  9
$SHADEDIF
 70
    70
  9
$TILEMODE
 70
     0
  9
$MAXACTVP
 70
    64
  9
$PINSBASE
 10
0.0
 20
0.0
 30
0.0
  9
$PLIMCHECK
 70
     0
  9
$PEXTMIN
 10
-1.439262267973589
 20
-1.41285528304607
 30
0.0
  9
$PEXTMAX
 10
8.966538218833356
 20
6.396855050259421
 30
0.0
  9
$PLIMMIN
 10
-1.75200024029589
 20
-1.757999996245376
  9
$PLIMMAX
 10
9.247999519408217
 20
6.741999763458731
  9
$UNITMODE
 70
     0
  9
$VISRETAIN
 70
     1
  9
$PLINEGEN
 70
     0
  9
$PSLTSCALE
 70
     1
  9
$TREEDEPTH
 70
  3020
  9
$CMLSTYLE
  2
Standard
  9
$CMLJUST
 70
     0
  9
$CMLSCALE
 40
1.0
  9
$PROXYGRAPHICS
 70
     1
  9
$MEASUREMENT
 70
     0
  9
$CELWEIGHT
370
    -1
  9
$ENDCAPS
280
     0
  9
$JOINSTYLE
280
     0
  9
$LWDISPLAY
290
     0
  9
$INSUNITS
 70
     1
  9
$HYPERLINKBASE
  1

  9
$STYLESHEET
  1

  9
$XEDIT
290
     1
  9
$CEPSNTYPE
380
     0
  9
$PSTYLEMODE
290
     1
  9
$FINGERPRINTGUID
  2
{FDEAD576-A652-11D2-9A35-0060089B3A3F}
  9
$VERSIONGUID
  2
{F50B93EB-4F5E-4F83-AD82-B430A96BB769}
  9
$EXTNAMES
290
     1
  9
$PSVPSCALE
 40
0.0
  9
$OLESTARTUP
290
     0
  0
ENDSEC
  0
SECTION
  2
CLASSES
  0
CLASS
  1
ACDBDICTIONARYWDFLT
  2
AcDbDictionaryWithDefault
  3
AutoCAD 2000
 90
        0
280
     0
281
     0
  0
CLASS
  1
ACDBPLACEHOLDER
  2
AcDbPlaceHolder
  3
AutoCAD 2000
 90
        0
280
     0
281
     0
  0
CLASS
  1
LAYOUT
  2
AcDbLayout
  3
AutoCAD 2000
 90
        0
280
     0
281
     0
  0
CLASS
  1
DICTIONARYVAR
  2
AcDbDictionaryVar
  3
AutoCAD 2000
 90
        0
280
     0
281
     0
  0
CLASS
  1
DIMASSOC
  2
AcDbDimAssoc
  3
"AcDbDimAssoc|Product Desc:     AcDim ARX App For Dimension|Company:          Autodesk, Inc.|WEB Address:      www.autodesk.com"
 90
        0
280
     0
281
     0
  0
ENDSEC
  0
SECTION
  2
TABLES
  0
TABLE
  2
VPORT
  5
8
330
0
100
AcDbSymbolTable
 70
     1
  0
VPORT
  5
74
330
8
100
AcDbSymbolTableRecord
100
AcDbViewportTableRecord
  2
*Active
 70
     0
 10
0.0
 20
0.0
 11
1.0
 21
1.0
 12
20.48748698095427
 22
9.784138269231398
 13
0.0
 23
0.0
 14
0.5
 24
0.5
 15
0.5
 25
0.5
 16
0.0
 26
0.0
 36
1.0
 17
0.0
 27
0.0
 37
0.0
 40
19.56827653846279
 41
2.093949044585987
 42
50.0
 43
0.0
 44
0.0
 50
0.0
 51
0.0
 71
     0
 72
   100
 73
     1
 74
     3
 75
     0
 76
     0
 77
     0
 78
     0
281
     0
 65
     1
110
0.0
120
0.0
130
0.0
111
1.0
121
0.0
131
0.0
112
0.0
122
1.0
132
0.0
 79
     0
146
0.0
  0
ENDTAB
  0
TABLE
  2
LTYPE
  5
5
330
0
100
AcDbSymbolTable
 70
     3
  0
LTYPE
  5
14
330
5
100
AcDbSymbolTableRecord
100
AcDbLinetypeTableRecord
  2
ByBlock
 70
     0
  3

 72
    65
 73
     0
 40
0.0
  0
LTYPE
  5
15
330
5
100
AcDbSymbolTableRecord
100
AcDbLinetypeTableRecord
  2
ByLayer
 70
     0
  3

 72
    65
 73
     0
 40
0.0
  0
LTYPE
  5
16
330
5
100
AcDbSymbolTableRecord
100
AcDbLinetypeTableRecord
  2
Continuous
 70
     0
  3
Solid line
 72
    65
 73
     0
 40
0.0
  0
LTYPE
  5
92
330
5
100
AcDbSymbolTableRecord
100
AcDbLinetypeTableRecord
  2
HIDDENX2
 70
     0
  3
Hidden (2x) ____ ____ ____ ____ ____ ____ ____
 72
    65
 73
     2
 40
0.75
 49
0.5
 74
     0
 49
-0.25
 74
     0
  0
LTYPE
  5
93
330
5
100
AcDbSymbolTableRecord
100
AcDbLinetypeTableRecord
  2
threads
 70
     0
  3
Zig zag /\/\/\/\/\/\/\/\/\/\/\/\/\/\/\/\/\/\/\/
 72
    65
 73
     4
 40
0.8001000000000001
 49
0.0001
 74
     0
 49
-0.2
 74
     4
 75
   131
340
91
 46
0.2
 50
0.0
 44
-0.2
 45
0.0
 49
-0.4
 74
     4
 75
   131
340
91
 46
0.2
 50
180.0
 44
0.2
 45
0.0
 49
-0.2
 74
     0
  0
ENDTAB
  0
TABLE
  2
LAYER
  5
2
330
0
100
AcDbSymbolTable
 70
     2
  0
LAYER
  5
10
330
2
100
AcDbSymbolTableRecord
100
AcDbLayerTableRecord
  2
0
 70
     0
 62
     7
  6
Continuous
370
    -3
390
F
  0
LAYER
  5
EB
330
2
100
AcDbSymbolTableRecord
100
AcDbLayerTableRecord
  2
Defpoints
 70
     0
 62
     7
  6
Continuous
290
     0
370
    -3
390
F
  0
ENDTAB
  0
TABLE
  2
STYLE
  5
3
330
0
100
AcDbSymbolTable
 70
     2
  0
STYLE
  5
11
330
3
100
AcDbSymbolTableRecord
100
AcDbTextStyleTableRecord
  2
Standard
 70
     0
 40
0.0
 41
1.0
 50
0.0
 71
     0
 42
0.2
  3
txt
  4

  0
STYLE
  5
91
330
3
100
AcDbSymbolTableRecord
100
AcDbTextStyleTableRecord
  2

 70
     1
 40
0.0
 41
1.0
 50
0.0
 71
     0
 42
0.2
  3
ltypeshp.shx
  4

  0
ENDTAB
  0
TABLE
  2
VIEW
  5
6
330
0
100
AcDbSymbolTable
 70
     0
  0
ENDTAB
  0
TABLE
  2
UCS
  5
7
330
0
100
AcDbSymbolTable
 70
     0
  0
ENDTAB
  0
TABLE
  2
APPID
  5
9
330
0
100
AcDbSymbolTable
 70
     1
  0
APPID
  5
12
330
9
100
AcDbSymbolTableRecord
100
AcDbRegAppTableRecord
  2
ACAD
 70
     0
  0
ENDTAB
  0
TABLE
  2
DIMSTYLE
  5
A
330
0
100
AcDbSymbolTable
 70
     1
100
AcDbDimStyleTable
 71
     1
340
27
  0
DIMSTYLE
105
27
102
{ACAD_REACTORS
330
105
330
11F
330
139
330
169
330
183
330
19D
330
1B7
330
1F6
330
222
330
287
330
2A7
330
2D4
102
}
330
A
100
AcDbSymbolTableRecord
100
AcDbDimStyleTableRecord
  2
Standard
 70
     0
 41
0.125
140
0.125
271
     3
272
     3
340
11
  0
ENDTAB
  0
TABLE
  2
BLOCK_RECORD
  5
1
330
0
100
AcDbSymbolTable
 70
    14
  0
BLOCK_RECORD
  5
1F
330
1
100
AcDbSymbolTableRecord
100
AcDbBlockTableRecord
  2
*Model_Space
340
22
  0
BLOCK_RECORD
  5
58
330
1
100
AcDbSymbolTableRecord
100
AcDbBlockTableRecord
  2
*Paper_Space
340
59
  0
BLOCK_RECORD
  5
5D
330
1
100
AcDbSymbolTableRecord
100
AcDbBlockTableRecord
  2
*Paper_Space0
340
5E
  0
BLOCK_RECORD
  5
106
330
1
100
AcDbSymbolTableRecord
100
AcDbBlockTableRecord
  2
*D2
340
0
  0
BLOCK_RECORD
  5
120
330
1
100
AcDbSymbolTableRecord
100
AcDbBlockTableRecord
  2
*D3
340
0
  0
BLOCK_RECORD
  5
13A
330
1
100
AcDbSymbolTableRecord
100
AcDbBlockTableRecord
  2
*D4
340
0
  0
BLOCK_RECORD
  5
16A
330
1
100
AcDbSymbolTableRecord
100
AcDbBlockTableRecord
  2
*D5
340
0
  0
BLOCK_RECORD
  5
184
330
1
100
AcDbSymbolTableRecord
100
AcDbBlockTableRecord
  2
*D6
340
0
  0
BLOCK_RECORD
  5
19E
330
1
100
AcDbSymbolTableRecord
100
AcDbBlockTableRecord
  2
*D7
340
0
  0
BLOCK_RECORD
  5
1B8
330
1
100
AcDbSymbolTableRecord
100
AcDbBlockTableRecord
  2
*D8
340
0
  0
BLOCK_RECORD
  5
1F7
330
1
100
AcDbSymbolTableRecord
100
AcDbBlockTableRecord
  2
*D9
340
0
  0
BLOCK_RECORD
  5
223
330
1
100
AcDbSymbolTableRecord
100
AcDbBlockTableRecord
  2
*D10
340
0
  0
BLOCK_RECORD
  5
288
330
1
100
AcDbSymbolTableRecord
100
AcDbBlockTableRecord
  2
*D11
340
0
  0
BLOCK_RECORD
  5
2A8
330
1
100
AcDbSymbolTableRecord
100
AcDbBlockTableRecord
  2
*D12
340
0
  0
BLOCK_RECORD
  5
2D5
330
1
100
AcDbSymbolTableRecord
100
AcDbBlockTableRecord
  2
*D13
340
0
  0
ENDTAB
  0
ENDSEC
  0
SECTION
  2
BLOCKS
  0
BLOCK
  5
20
330
1F
100
AcDbEntity
  8
0
100
AcDbBlockBegin
  2
*Model_Space
 70
     0
 10
0.0
 20
0.0
 30
0.0
  3
*Model_Space
  1

  0
ENDBLK
  5
21
330
1F
100
AcDbEntity
  8
0
100
AcDbBlockEnd
  0
BLOCK
  5
5A
330
58
100
AcDbEntity
 67
     1
  8
0
100
AcDbBlockBegin
  2
*Paper_Space
 70
     0
 10
0.0
 20
0.0
 30
0.0
  3
*Paper_Space
  1

  0
ENDBLK
  5
5B
330
58
100
AcDbEntity
 67
     1
  8
0
100
AcDbBlockEnd
  0
BLOCK
  5
5F
330
5D
100
AcDbEntity
  8
0
100
AcDbBlockBegin
  2
*Paper_Space0
 70
     0
 10
0.0
 20
0.0
 30
0.0
  3
*Paper_Space0
  1

  0
ENDBLK
  5
60
330
5D
100
AcDbEntity
  8
0
100
AcDbBlockEnd
  0
BLOCK
  5
111
330
106
100
AcDbEntity
  8
0
 48
0.3
100
AcDbBlockBegin
  2
*D2
 70
     1
 10
0.0
 20
0.0
 30
0.0
  3
*D2
  1

  0
LINE
  5
26E
330
106
100
AcDbEntity
  8
0
 62
     0
 48
0.3
370
    -2
100
AcDbLine
 10
0.5956453171906793
 20
1.116706744699012
 30
0.0
 11
0.5956453171906792
 21
-0.0481896957595829
 31
0.0
  0
LINE
  5
26F
330
106
100
AcDbEntity
  8
0
 62
     0
 48
0.3
370
    -2
100
AcDbLine
 10
3.095645317190679
 20
1.116706744699012
 30
0.0
 11
3.095645317190679
 21
-0.0481896957595829
 31
0.0
  0
LINE
  5
270
330
106
100
AcDbEntity
  8
0
 62
     0
 48
0.3
370
    -2
100
AcDbLine
 10
0.7206453171906792
 20
0.1318103042404171
 30
0.0
 11
1.526478650524012
 21
0.1318103042404171
 31
0.0
  0
LINE
  5
271
330
106
100
AcDbEntity
  8
0
 62
     0
 48
0.3
370
    -2
100
AcDbLine
 10
2.970645317190679
 20
0.1318103042404171
 30
0.0
 11
2.164811983857345
 21
0.1318103042404171
 31
0.0
  0
SOLID
  5
272
330
106
100
AcDbEntity
  8
0
 62
     0
 48
0.3
100
AcDbTrace
 10
0.7206453171906792
 20
0.1526436375737504
 30
0.0
 11
0.7206453171906792
 21
0.1109769709070837
 31
0.0
 12
0.5956453171906792
 22
0.1318103042404171
 32
0.0
 13
0.5956453171906792
 23
0.1318103042404171
 33
0.0
  0
SOLID
  5
273
330
106
100
AcDbEntity
  8
0
 62
     0
 48
0.3
100
AcDbTrace
 10
2.970645317190679
 20
0.1526436375737504
 30
0.0
 11
2.970645317190679
 21
0.1109769709070837
 31
0.0
 12
3.095645317190679
 22
0.1318103042404171
 32
0.0
 13
3.095645317190679
 23
0.1318103042404171
 33
0.0
  0
MTEXT
  5
274
330
106
100
AcDbEntity
  8
0
 62
     0
 48
0.3
100
AcDbMText
 10
1.845645317190679
 20
0.1318103042404171
 30
0.0
 40
0.125
 41
0.0
 71
     5
 72
     1
  1
\A1;2.500
 73
     1
 44
1.0
  0
POINT
  5
275
330
106
100
AcDbEntity
  8
Defpoints
 62
     0
 48
0.3
100
AcDbPoint
 10
0.5956453171906793
 20
1.179206744699012
 30
0.0
  0
POINT
  5
276
330
106
100
AcDbEntity
  8
Defpoints
 62
     0
 48
0.3
100
AcDbPoint
 10
3.095645317190679
 20
1.179206744699012
 30
0.0
  0
POINT
  5
277
330
106
100
AcDbEntity
  8
Defpoints
 62
     0
 48
0.3
100
AcDbPoint
 10
3.095645317190679
 20
0.1318103042404171
 30
0.0
  0
ENDBLK
  5
112
330
106
100
AcDbEntity
  8
0
 48
0.3
100
AcDbBlockEnd
  0
BLOCK
  5
12B
330
120
100
AcDbEntity
  8
0
 48
0.3
100
AcDbBlockBegin
  2
*D3
 70
     1
 10
0.0
 20
0.0
 30
0.0
  3
*D3
  1

  0
LINE
  5
264
330
120
100
AcDbEntity
  8
0
 62
     0
 48
0.3
370
    -2
100
AcDbLine
 10
0.5331453171906797
 20
2.554206744699012
 30
0.0
 11
-0.4361973928756769
 21
2.554206744699012
 31
0.0
  0
LINE
  5
265
330
120
100
AcDbEntity
  8
0
 62
     0
 48
0.3
370
    -2
100
AcDbLine
 10
0.4706453171906798
 20
1.179206744699013
 30
0.0
 11
-0.4361973928756772
 21
1.179206744699013
 31
0.0
  0
LINE
  5
266
330
120
100
AcDbEntity
  8
0
 62
     0
 48
0.3
370
    -2
100
AcDbLine
 10
-0.2561973928756769
 20
2.429206744699012
 30
0.0
 11
-0.2561973928756771
 21
2.019206744699012
 31
0.0
  0
LINE
  5
267
330
120
100
AcDbEntity
  8
0
 62
     0
 48
0.3
370
    -2
100
AcDbLine
 10
-0.2561973928756772
 20
1.304206744699013
 30
0.0
 11
-0.2561973928756771
 21
1.714206744699012
 31
0.0
  0
SOLID
  5
268
330
120
100
AcDbEntity
  8
0
 62
     0
 48
0.3
100
AcDbTrace
 10
-0.2770307262090102
 20
2.429206744699012
 30
0.0
 11
-0.2353640595423436
 21
2.429206744699012
 31
0.0
 12
-0.2561973928756769
 22
2.554206744699012
 32
0.0
 13
-0.2561973928756769
 23
2.554206744699012
 33
0.0
  0
SOLID
  5
269
330
120
100
AcDbEntity
  8
0
 62
     0
 48
0.3
100
AcDbTrace
 10
-0.2770307262090105
 20
1.304206744699013
 30
0.0
 11
-0.2353640595423439
 21
1.304206744699013
 31
0.0
 12
-0.2561973928756772
 22
1.179206744699013
 32
0.0
 13
-0.2561973928756772
 23
1.179206744699013
 33
0.0
  0
MTEXT
  5
26A
330
120
100
AcDbEntity
  8
0
 62
     0
 48
0.3
100
AcDbMText
 10
-0.2561973928756774
 20
1.866706744699012
 30
0.0
 40
0.125
 41
0.0
 71
     5
 72
     1
  1
\A1;1.375
 73
     1
 44
1.0
  0
POINT
  5
26B
330
120
100
AcDbEntity
  8
Defpoints
 62
     0
 48
0.3
100
AcDbPoint
 10
0.5956453171906797
 20
2.554206744699012
 30
0.0
  0
POINT
  5
26C
330
120
100
AcDbEntity
  8
Defpoints
 62
     0
 48
0.3
100
AcDbPoint
 10
0.5331453171906797
 20
1.179206744699012
 30
0.0
  0
POINT
  5
26D
330
120
100
AcDbEntity
  8
Defpoints
 62
     0
 48
0.3
100
AcDbPoint
 10
-0.2561973928756772
 20
1.179206744699013
 30
0.0
  0
ENDBLK
  5
12C
330
120
100
AcDbEntity
  8
0
 48
0.3
100
AcDbBlockEnd
  0
BLOCK
  5
146
330
13A
100
AcDbEntity
  8
0
 48
0.3
100
AcDbBlockBegin
  2
*D4
 70
     1
 10
0.0
 20
0.0
 30
0.0
  3
*D4
  1

  0
LINE
  5
25A
330
13A
100
AcDbEntity
  8
0
 62
     0
 48
0.3
370
    -2
100
AcDbLine
 10
3.15814531719068
 20
2.554206744699012
 30
0.0
 11
4.380256695457853
 21
2.554206744699012
 31
0.0
  0
LINE
  5
25B
330
13A
100
AcDbEntity
  8
0
 62
     0
 48
0.3
370
    -2
100
AcDbLine
 10
1.908145317190679
 20
1.866706744699012
 30
0.0
 11
4.380256695457852
 21
1.866706744699011
 31
0.0
  0
LINE
  5
25C
330
13A
100
AcDbEntity
  8
0
 62
     0
 48
0.3
370
    -2
100
AcDbLine
 10
4.200256695457853
 20
2.429206744699012
 30
0.0
 11
4.200256695457853
 21
2.331957041037885
 31
0.0
  0
LINE
  5
25D
330
13A
100
AcDbEntity
  8
0
 62
     0
 48
0.3
370
    -2
100
AcDbLine
 10
4.200256695457852
 20
1.991706744699011
 30
0.0
 11
4.200256695457853
 21
2.026957041037885
 31
0.0
  0
SOLID
  5
25E
330
13A
100
AcDbEntity
  8
0
 62
     0
 48
0.3
100
AcDbTrace
 10
4.17942336212452
 20
2.429206744699012
 30
0.0
 11
4.221090028791186
 21
2.429206744699012
 31
0.0
 12
4.200256695457853
 22
2.554206744699012
 32
0.0
 13
4.200256695457853
 23
2.554206744699012
 33
0.0
  0
SOLID
  5
25F
330
13A
100
AcDbEntity
  8
0
 62
     0
 48
0.3
100
AcDbTrace
 10
4.179423362124519
 20
1.991706744699011
 30
0.0
 11
4.221090028791185
 21
1.991706744699011
 31
0.0
 12
4.200256695457852
 22
1.866706744699011
 32
0.0
 13
4.200256695457852
 23
1.866706744699011
 33
0.0
  0
MTEXT
  5
260
330
13A
100
AcDbEntity
  8
0
 62
     0
 48
0.3
100
AcDbMText
 10
4.200256695457852
 20
2.179457041037885
 30
0.0
 40
0.125
 41
0.0
 71
     5
 72
     1
  1
\A1;0.688
 73
     1
 44
1.0
  0
POINT
  5
261
330
13A
100
AcDbEntity
  8
Defpoints
 62
     0
 48
0.3
100
AcDbPoint
 10
3.09564531719068
 20
2.554206744699012
 30
0.0
  0
POINT
  5
262
330
13A
100
AcDbEntity
  8
Defpoints
 62
     0
 48
0.3
100
AcDbPoint
 10
1.845645317190679
 20
1.866706744699012
 30
0.0
  0
POINT
  5
263
330
13A
100
AcDbEntity
  8
Defpoints
 62
     0
 48
0.3
100
AcDbPoint
 10
4.200256695457852
 20
1.866706744699011
 30
0.0
  0
ENDBLK
  5
147
330
13A
100
AcDbEntity
  8
0
 48
0.3
100
AcDbBlockEnd
  0
BLOCK
  5
175
330
16A
100
AcDbEntity
  8
0
 48
0.3
100
AcDbBlockBegin
  2
*D5
 70
     1
 10
0.0
 20
0.0
 30
0.0
  3
*D5
  1

  0
LINE
  5
2C2
330
16A
100
AcDbEntity
  8
0
 62
     0
 48
0.3
370
    -2
100
AcDbLine
 10
2.380645317190679
 20
5.700151724859565
 30
0.0
 11
3.960649930786978
 21
5.700151724859565
 31
0.0
  0
LINE
  5
2C3
330
16A
100
AcDbEntity
  8
0
 62
     0
 48
0.3
370
    -2
100
AcDbLine
 10
2.380645317190679
 20
6.060151724859565
 30
0.0
 11
3.960649930786978
 21
6.060151724859565
 31
0.0
  0
LINE
  5
2C4
330
16A
100
AcDbEntity
  8
0
 62
     0
 48
0.3
370
    -2
100
AcDbLine
 10
3.780649930786978
 20
5.575151724859565
 30
0.0
 11
3.780649930786978
 21
5.450151724859565
 31
0.0
  0
LINE
  5
2C5
330
16A
100
AcDbEntity
  8
0
 62
     0
 48
0.3
370
    -2
100
AcDbLine
 10
3.780649930786978
 20
6.185151724859565
 30
0.0
 11
3.780649930786978
 21
6.310151724859565
 31
0.0
  0
SOLID
  5
2C6
330
16A
100
AcDbEntity
  8
0
 62
     0
 48
0.3
100
AcDbTrace
 10
3.759816597453645
 20
5.575151724859565
 30
0.0
 11
3.801483264120312
 21
5.575151724859565
 31
0.0
 12
3.780649930786978
 22
5.700151724859565
 32
0.0
 13
3.780649930786978
 23
5.700151724859565
 33
0.0
  0
SOLID
  5
2C7
330
16A
100
AcDbEntity
  8
0
 62
     0
 48
0.3
100
AcDbTrace
 10
3.759816597453645
 20
6.185151724859565
 30
0.0
 11
3.801483264120312
 21
6.185151724859565
 31
0.0
 12
3.780649930786978
 22
6.060151724859565
 32
0.0
 13
3.780649930786978
 23
6.060151724859565
 33
0.0
  0
MTEXT
  5
2C8
330
16A
100
AcDbEntity
  8
0
 62
     0
 48
0.3
100
AcDbMText
 10
3.780649930786977
 20
5.880151724859565
 30
0.0
 40
0.125
 41
0.0
 71
     5
 72
     1
  1
\A1;0.360
 73
     1
 44
1.0
  0
POINT
  5
2C9
330
16A
100
AcDbEntity
  8
Defpoints
 62
     0
 48
0.3
100
AcDbPoint
 10
2.318145317190679
 20
5.700151724859565
 30
0.0
  0
POINT
  5
2CA
330
16A
100
AcDbEntity
  8
Defpoints
 62
     0
 48
0.3
100
AcDbPoint
 10
2.318145317190679
 20
6.060151724859565
 30
0.0
  0
POINT
  5
2CB
330
16A
100
AcDbEntity
  8
Defpoints
 62
     0
 48
0.3
100
AcDbPoint
 10
3.780649930786978
 20
6.060151724859565
 30
0.0
  0
ENDBLK
  5
176
330
16A
100
AcDbEntity
  8
0
 48
0.3
100
AcDbBlockEnd
  0
BLOCK
  5
18F
330
184
100
AcDbEntity
  8
0
 48
0.3
100
AcDbBlockBegin
  2
*D6
 70
     1
 10
0.0
 20
0.0
 30
0.0
  3
*D6
  1

  0
LINE
  5
192
330
184
100
AcDbEntity
  8
0
 62
     0
 48
0.3
370
    -2
100
AcDbLine
 10
2.380645317190679
 20
3.560151724859565
 30
0.0
 11
3.944641892641634
 21
3.560151724859565
 31
0.0
  0
LINE
  5
193
330
184
100
AcDbEntity
  8
0
 62
     0
 48
0.3
370
    -2
100
AcDbLine
 10
2.380645317190679
 20
3.920151724859565
 30
0.0
 11
3.944641892641634
 21
3.920151724859564
 31
0.0
  0
LINE
  5
194
330
184
100
AcDbEntity
  8
0
 62
     0
 48
0.3
370
    -2
100
AcDbLine
 10
3.764641892641634
 20
3.435151724859565
 30
0.0
 11
3.764641892641634
 21
3.310151724859565
 31
0.0
  0
LINE
  5
195
330
184
100
AcDbEntity
  8
0
 62
     0
 48
0.3
370
    -2
100
AcDbLine
 10
3.764641892641634
 20
4.045151724859564
 30
0.0
 11
3.764641892641634
 21
4.170151724859564
 31
0.0
  0
SOLID
  5
196
330
184
100
AcDbEntity
  8
0
 62
     0
 48
0.3
100
AcDbTrace
 10
3.743808559308301
 20
3.435151724859565
 30
0.0
 11
3.785475225974967
 21
3.435151724859565
 31
0.0
 12
3.764641892641634
 22
3.560151724859565
 32
0.0
 13
3.764641892641634
 23
3.560151724859565
 33
0.0
  0
SOLID
  5
197
330
184
100
AcDbEntity
  8
0
 62
     0
 48
0.3
100
AcDbTrace
 10
3.743808559308301
 20
4.045151724859564
 30
0.0
 11
3.785475225974967
 21
4.045151724859564
 31
0.0
 12
3.764641892641634
 22
3.920151724859564
 32
0.0
 13
3.764641892641634
 23
3.920151724859564
 33
0.0
  0
MTEXT
  5
198
330
184
100
AcDbEntity
  8
0
 62
     0
 48
0.3
100
AcDbMText
 10
3.764641892641634
 20
3.740151724859565
 30
0.0
 40
0.125
 41
0.0
 71
     5
 72
     1
  1
\A1;0.360
 73
     1
 44
1.0
  0
POINT
  5
199
330
184
100
AcDbEntity
  8
Defpoints
 62
     0
 48
0.3
100
AcDbPoint
 10
2.318145317190679
 20
3.560151724859565
 30
0.0
  0
POINT
  5
19A
330
184
100
AcDbEntity
  8
Defpoints
 62
     0
 48
0.3
100
AcDbPoint
 10
2.318145317190679
 20
3.920151724859565
 30
0.0
  0
POINT
  5
19B
330
184
100
AcDbEntity
  8
Defpoints
 62
     0
 48
0.3
100
AcDbPoint
 10
3.764641892641634
 20
3.920151724859564
 30
0.0
  0
ENDBLK
  5
190
330
184
100
AcDbEntity
  8
0
 48
0.3
100
AcDbBlockEnd
  0
BLOCK
  5
1A9
330
19E
100
AcDbEntity
  8
0
 48
0.3
100
AcDbBlockBegin
  2
*D7
 70
     1
 10
0.0
 20
0.0
 30
0.0
  3
*D7
  1

  0
LINE
  5
1AC
330
19E
100
AcDbEntity
  8
0
 62
     0
 48
0.3
370
    -2
100
AcDbLine
 10
1.845645317190679
 20
1.804206744699012
 30
0.0
 11
1.845645317190679
 21
0.7051931095665223
 31
0.0
  0
LINE
  5
1AD
330
19E
100
AcDbEntity
  8
0
 62
     0
 48
0.3
370
    -2
100
AcDbLine
 10
0.8616453171906796
 20
1.804206744699012
 30
0.0
 11
0.8616453171906794
 21
0.7051931095665223
 31
0.0
  0
LINE
  5
1AE
330
19E
100
AcDbEntity
  8
0
 62
     0
 48
0.3
370
    -2
100
AcDbLine
 10
1.970645317190679
 20
0.8851931095665221
 30
0.0
 11
2.095645317190679
 21
0.8851931095665221
 31
0.0
  0
LINE
  5
1AF
330
19E
100
AcDbEntity
  8
0
 62
     0
 48
0.3
370
    -2
100
AcDbLine
 10
0.7366453171906795
 20
0.8851931095665221
 30
0.0
 11
0.6116453171906795
 21
0.8851931095665221
 31
0.0
  0
SOLID
  5
1B0
330
19E
100
AcDbEntity
  8
0
 62
     0
 48
0.3
100
AcDbTrace
 10
1.970645317190679
 20
0.9060264428998555
 30
0.0
 11
1.970645317190679
 21
0.8643597762331888
 31
0.0
 12
1.845645317190679
 22
0.8851931095665221
 32
0.0
 13
1.845645317190679
 23
0.8851931095665221
 33
0.0
  0
SOLID
  5
1B1
330
19E
100
AcDbEntity
  8
0
 62
     0
 48
0.3
100
AcDbTrace
 10
0.7366453171906795
 20
0.9060264428998555
 30
0.0
 11
0.7366453171906795
 21
0.8643597762331888
 31
0.0
 12
0.8616453171906794
 22
0.8851931095665221
 32
0.0
 13
0.8616453171906794
 23
0.8851931095665221
 33
0.0
  0
MTEXT
  5
1B2
330
19E
100
AcDbEntity
  8
0
 62
     0
 48
0.3
100
AcDbMText
 10
1.353645317190679
 20
0.8851931095665221
 30
0.0
 40
0.125
 41
0.0
 71
     5
 72
     1
  1
\A1;0.984
 73
     1
 44
1.0
  0
POINT
  5
1B3
330
19E
100
AcDbEntity
  8
Defpoints
 62
     0
 48
0.3
100
AcDbPoint
 10
1.845645317190679
 20
1.866706744699012
 30
0.0
  0
POINT
  5
1B4
330
19E
100
AcDbEntity
  8
Defpoints
 62
     0
 48
0.3
100
AcDbPoint
 10
0.8616453171906796
 20
1.866706744699012
 30
0.0
  0
POINT
  5
1B5
330
19E
100
AcDbEntity
  8
Defpoints
 62
     0
 48
0.3
100
AcDbPoint
 10
0.8616453171906794
 20
0.8851931095665221
 30
0.0
  0
ENDBLK
  5
1AA
330
19E
100
AcDbEntity
  8
0
 48
0.3
100
AcDbBlockEnd
  0
BLOCK
  5
1C3
330
1B8
100
AcDbEntity
  8
0
 48
0.3
100
AcDbBlockBegin
  2
*D8
 70
     1
 10
0.0
 20
0.0
 30
0.0
  3
*D8
  1

  0
LINE
  5
1C6
330
1B8
100
AcDbEntity
  8
0
 62
     0
 48
0.3
370
    -2
100
AcDbLine
 10
0.8616453171906796
 20
1.804206744699012
 30
0.0
 11
0.8616453171906794
 21
0.2897503758158881
 31
0.0
  0
LINE
  5
1C7
330
1B8
100
AcDbEntity
  8
0
 62
     0
 48
0.3
370
    -2
100
AcDbLine
 10
2.829645317190679
 20
1.804206744699012
 30
0.0
 11
2.829645317190679
 21
0.2897503758158881
 31
0.0
  0
LINE
  5
1C8
330
1B8
100
AcDbEntity
  8
0
 62
     0
 48
0.3
370
    -2
100
AcDbLine
 10
0.9866453171906794
 20
0.4697503758158881
 30
0.0
 11
1.526478650524013
 21
0.4697503758158881
 31
0.0
  0
LINE
  5
1C9
330
1B8
100
AcDbEntity
  8
0
 62
     0
 48
0.3
370
    -2
100
AcDbLine
 10
2.704645317190679
 20
0.4697503758158881
 30
0.0
 11
2.164811983857346
 21
0.4697503758158881
 31
0.0
  0
SOLID
  5
1CA
330
1B8
100
AcDbEntity
  8
0
 62
     0
 48
0.3
100
AcDbTrace
 10
0.9866453171906794
 20
0.4905837091492214
 30
0.0
 11
0.9866453171906794
 21
0.4489170424825548
 31
0.0
 12
0.8616453171906794
 22
0.4697503758158881
 32
0.0
 13
0.8616453171906794
 23
0.4697503758158881
 33
0.0
  0
SOLID
  5
1CB
330
1B8
100
AcDbEntity
  8
0
 62
     0
 48
0.3
100
AcDbTrace
 10
2.704645317190679
 20
0.4905837091492214
 30
0.0
 11
2.704645317190679
 21
0.4489170424825548
 31
0.0
 12
2.829645317190679
 22
0.4697503758158881
 32
0.0
 13
2.829645317190679
 23
0.4697503758158881
 33
0.0
  0
MTEXT
  5
1CC
330
1B8
100
AcDbEntity
  8
0
 62
     0
 48
0.3
100
AcDbMText
 10
1.845645317190679
 20
0.4697503758158881
 30
0.0
 40
0.125
 41
0.0
 71
     5
 72
     1
  1
\A1;1.968
 73
     1
 44
1.0
  0
POINT
  5
1CD
330
1B8
100
AcDbEntity
  8
Defpoints
 62
     0
 48
0.3
100
AcDbPoint
 10
0.8616453171906796
 20
1.866706744699012
 30
0.0
  0
POINT
  5
1CE
330
1B8
100
AcDbEntity
  8
Defpoints
 62
     0
 48
0.3
100
AcDbPoint
 10
2.829645317190679
 20
1.866706744699012
 30
0.0
  0
POINT
  5
1CF
330
1B8
100
AcDbEntity
  8
Defpoints
 62
     0
 48
0.3
100
AcDbPoint
 10
2.829645317190679
 20
0.4697503758158881
 30
0.0
  0
ENDBLK
  5
1C4
330
1B8
100
AcDbEntity
  8
0
 48
0.3
100
AcDbBlockEnd
  0
BLOCK
  5
200
330
1F7
100
AcDbEntity
  8
0
 48
0.3
100
AcDbBlockBegin
  2
*D9
 70
     1
 10
0.0
 20
0.0
 30
0.0
  3
*D9
  1

  0
LINE
  5
203
330
1F7
100
AcDbEntity
  8
0
 62
     0
 48
0.3
370
    -2
100
AcDbLine
 10
1.440414040544313
 20
2.803839472308673
 30
0.0
 11
1.315414040544312
 21
2.803839472308673
 31
0.0
  0
LINE
  5
204
330
1F7
100
AcDbEntity
  8
0
 62
     0
 48
0.3
370
    -2
100
AcDbLine
 10
1.315414040544312
 20
2.803839472308673
 30
0.0
 11
0.9705972971184101
 21
2.091716669079755
 31
0.0
  0
MTEXT
  5
205
330
1F7
100
AcDbEntity
  8
0
 62
     0
 48
0.3
100
AcDbMText
 10
1.822080707210979
 20
2.803839472308673
 30
0.0
 40
0.125
 41
0.0
 71
     5
 72
     1
  1
\A1;\U+22050.250
 73
     1
 44
1.0
  0
SOLID
  5
206
330
1F7
100
AcDbEntity
  8
0
 62
     0
 48
0.3
100
AcDbTrace
 10
0.9518464700866815
 20
2.100796000740399
 30
0.0
 11
0.9893481241501385
 21
2.082637337419111
 31
0.0
 12
0.916121307154545
 22
1.979211706889383
 32
0.0
 13
0.916121307154545
 23
1.979211706889383
 33
0.0
  0
LINE
  5
207
330
1F7
100
AcDbEntity
  8
0
 62
     0
 48
0.3
370
    -2
100
AcDbLine
 10
0.7716453171906799
 20
1.866706744699012
 30
0.0
 11
0.9516453171906796
 21
1.866706744699012
 31
0.0
  0
LINE
  5
208
330
1F7
100
AcDbEntity
  8
0
 62
     0
 48
0.3
370
    -2
100
AcDbLine
 10
0.8616453171906798
 20
1.776706744699012
 30
0.0
 11
0.8616453171906798
 21
1.956706744699012
 31
0.0
  0
POINT
  5
209
330
1F7
100
AcDbEntity
  8
Defpoints
 62
     0
 48
0.3
100
AcDbPoint
 10
0.916121307154545
 20
1.979211706889383
 30
0.0
  0
POINT
  5
20A
330
1F7
100
AcDbEntity
  8
Defpoints
 62
     0
 48
0.3
100
AcDbPoint
 10
0.8071693272268147
 20
1.754201782508641
 30
0.0
  0
ENDBLK
  5
201
330
1F7
100
AcDbEntity
  8
0
 48
0.3
100
AcDbBlockEnd
  0
BLOCK
  5
22C
330
223
100
AcDbEntity
  8
0
 48
0.3
100
AcDbBlockBegin
  2
*D10
 70
     1
 10
0.0
 20
0.0
 30
0.0
  3
*D10
  1

  0
LINE
  5
22F
330
223
100
AcDbEntity
  8
0
 62
     0
 48
0.3
370
    -2
100
AcDbLine
 10
3.025208560311154
 20
2.787860903740253
 30
0.0
 11
2.900208560311154
 21
2.787860903740253
 31
0.0
  0
LINE
  5
230
330
223
100
AcDbEntity
  8
0
 62
     0
 48
0.3
370
    -2
100
AcDbLine
 10
2.900208560311154
 20
2.787860903740253
 30
0.0
 11
2.092674808933617
 21
2.082485404925703
 31
0.0
  0
MTEXT
  5
231
330
223
100
AcDbEntity
  8
0
 62
     0
 48
0.3
100
AcDbMText
 10
3.40687522697782
 20
2.787860903740253
 30
0.0
 40
0.125
 41
0.0
 71
     5
 72
     1
  1
\A1;\U+22050.406
 73
     1
 44
1.0
  0
SOLID
  5
232
330
223
100
AcDbEntity
  8
0
 62
     0
 48
0.3
100
AcDbTrace
 10
2.078969355413121
 20
2.098175794391083
 30
0.0
 11
2.106380262454113
 21
2.066795015460324
 31
0.0
 12
1.998532472141339
 22
2.000252683802727
 32
0.0
 13
1.998532472141339
 23
2.000252683802727
 33
0.0
  0
LINE
  5
233
330
223
100
AcDbEntity
  8
0
 62
     0
 48
0.3
370
    -2
100
AcDbLine
 10
1.755645317190679
 20
1.866706744699012
 30
0.0
 11
1.935645317190679
 21
1.866706744699012
 31
0.0
  0
LINE
  5
234
330
223
100
AcDbEntity
  8
0
 62
     0
 48
0.3
370
    -2
100
AcDbLine
 10
1.845645317190679
 20
1.776706744699012
 30
0.0
 11
1.845645317190679
 21
1.956706744699012
 31
0.0
  0
POINT
  5
235
330
223
100
AcDbEntity
  8
Defpoints
 62
     0
 48
0.3
100
AcDbPoint
 10
1.998532472141339
 20
2.000252683802727
 30
0.0
  0
POINT
  5
236
330
223
100
AcDbEntity
  8
Defpoints
 62
     0
 48
0.3
100
AcDbPoint
 10
1.69275816224002
 20
1.733160805595297
 30
0.0
  0
ENDBLK
  5
22D
330
223
100
AcDbEntity
  8
0
 48
0.3
100
AcDbBlockEnd
  0
BLOCK
  5
293
330
288
100
AcDbEntity
  8
0
 48
0.3
100
AcDbBlockBegin
  2
*D11
 70
     1
 10
0.0
 20
0.0
 30
0.0
  3
*D11
  1

  0
LINE
  5
296
330
288
100
AcDbEntity
  8
0
 62
     0
 48
0.3
370
    -2
100
AcDbLine
 10
1.845645317190679
 20
3.497651724859565
 30
0.0
 11
1.845645317190679
 21
3.031664015006537
 31
0.0
  0
LINE
  5
297
330
288
100
AcDbEntity
  8
0
 62
     0
 48
0.3
370
    -2
100
AcDbLine
 10
0.5956453171906797
 20
3.497651724859565
 30
0.0
 11
0.5956453171906797
 21
3.031664015006537
 31
0.0
  0
LINE
  5
298
330
288
100
AcDbEntity
  8
0
 62
     0
 48
0.3
370
    -2
100
AcDbLine
 10
1.720645317190679
 20
3.211664015006537
 30
0.0
 11
1.529395317190679
 21
3.211664015006537
 31
0.0
  0
LINE
  5
299
330
288
100
AcDbEntity
  8
0
 62
     0
 48
0.3
370
    -2
100
AcDbLine
 10
0.7206453171906797
 20
3.211664015006537
 30
0.0
 11
0.9118953171906797
 21
3.211664015006537
 31
0.0
  0
SOLID
  5
29A
330
288
100
AcDbEntity
  8
0
 62
     0
 48
0.3
100
AcDbTrace
 10
1.720645317190679
 20
3.23249734833987
 30
0.0
 11
1.720645317190679
 21
3.190830681673203
 31
0.0
 12
1.845645317190679
 22
3.211664015006537
 32
0.0
 13
1.845645317190679
 23
3.211664015006537
 33
0.0
  0
SOLID
  5
29B
330
288
100
AcDbEntity
  8
0
 62
     0
 48
0.3
100
AcDbTrace
 10
0.7206453171906797
 20
3.23249734833987
 30
0.0
 11
0.7206453171906797
 21
3.190830681673203
 31
0.0
 12
0.5956453171906797
 22
3.211664015006537
 32
0.0
 13
0.5956453171906797
 23
3.211664015006537
 33
0.0
  0
MTEXT
  5
29C
330
288
100
AcDbEntity
  8
0
 62
     0
 48
0.3
100
AcDbMText
 10
1.220645317190679
 20
3.211664015006537
 30
0.0
 40
0.125
 41
0.0
 71
     5
 72
     1
  1
\A1;1.250
 73
     1
 44
1.0
  0
POINT
  5
29D
330
288
100
AcDbEntity
  8
Defpoints
 62
     0
 48
0.3
100
AcDbPoint
 10
1.845645317190679
 20
3.560151724859565
 30
0.0
  0
POINT
  5
29E
330
288
100
AcDbEntity
  8
Defpoints
 62
     0
 48
0.3
100
AcDbPoint
 10
0.5956453171906797
 20
3.560151724859565
 30
0.0
  0
POINT
  5
29F
330
288
100
AcDbEntity
  8
Defpoints
 62
     0
 48
0.3
100
AcDbPoint
 10
0.5956453171906797
 20
3.211664015006537
 30
0.0
  0
ENDBLK
  5
294
330
288
100
AcDbEntity
  8
0
 48
0.3
100
AcDbBlockEnd
  0
BLOCK
  5
2B1
330
2A8
100
AcDbEntity
  8
0
 48
0.3
100
AcDbBlockBegin
  2
*D12
 70
     1
 10
0.0
 20
0.0
 30
0.0
  3
*D12
  1

  0
LINE
  5
2B4
330
2A8
100
AcDbEntity
  8
0
 62
     0
 48
0.3
370
    -2
100
AcDbLine
 10
2.503352504737356
 20
3.07139750505217
 30
0.0
 11
2.378352504737356
 21
3.07139750505217
 31
0.0
  0
LINE
  5
2B5
330
2A8
100
AcDbEntity
  8
0
 62
     0
 48
0.3
370
    -2
100
AcDbLine
 10
2.378352504737356
 20
3.07139750505217
 30
0.0
 11
2.1032603152401
 21
2.449290226081722
 31
0.0
  0
MTEXT
  5
2B6
330
2A8
100
AcDbEntity
  8
0
 62
     0
 48
0.3
100
AcDbMText
 10
2.874602504737356
 20
3.07139750505217
 30
0.0
 40
0.125
 41
0.0
 71
     5
 72
     1
  1
\A1;\U+22051.024
 73
     1
 44
1.0
  0
SOLID
  5
2B7
330
2A8
100
AcDbEntity
  8
0
 62
     0
 48
0.3
100
AcDbTrace
 10
2.08420669536233
 20
2.457715625023683
 30
0.0
 11
2.122313935117871
 21
2.44086482713976
 31
0.0
 12
2.05270792158833
 22
2.334968506815099
 32
0.0
 13
2.05270792158833
 23
2.334968506815099
 33
0.0
  0
LINE
  5
2B8
330
2A8
100
AcDbEntity
  8
0
 62
     0
 48
0.3
370
    -2
100
AcDbLine
 10
1.755645317190679
 20
1.866706744699012
 30
0.0
 11
1.93564531719068
 21
1.866706744699012
 31
0.0
  0
LINE
  5
2B9
330
2A8
100
AcDbEntity
  8
0
 62
     0
 48
0.3
370
    -2
100
AcDbLine
 10
1.845645317190679
 20
1.776706744699012
 30
0.0
 11
1.845645317190679
 21
1.956706744699012
 31
0.0
  0
POINT
  5
2BA
330
2A8
100
AcDbEntity
  8
Defpoints
 62
     0
 48
0.3
100
AcDbPoint
 10
2.05270792158833
 20
2.334968506815099
 30
0.0
  0
POINT
  5
2BB
330
2A8
100
AcDbEntity
  8
Defpoints
 62
     0
 48
0.3
100
AcDbPoint
 10
1.638582712793029
 20
1.398444982582926
 30
0.0
  0
ENDBLK
  5
2B2
330
2A8
100
AcDbEntity
  8
0
 48
0.3
100
AcDbBlockEnd
  0
BLOCK
  5
2E0
330
2D5
100
AcDbEntity
  8
0
 48
0.3
100
AcDbBlockBegin
  2
*D13
 70
     1
 10
0.0
 20
0.0
 30
0.0
  3
*D13
  1

  0
LINE
  5
2E3
330
2D5
100
AcDbEntity
  8
0
 62
     0
 48
0.3
370
    -2
100
AcDbLine
 10
0.5331453171906797
 20
6.060151724859565
 30
0.0
 11
-0.4390576592936242
 21
6.060151724859565
 31
0.0
  0
LINE
  5
2E4
330
2D5
100
AcDbEntity
  8
0
 62
     0
 48
0.3
370
    -2
100
AcDbLine
 10
0.5331453171906797
 20
3.560151724859565
 30
0.0
 11
-0.4390576592936247
 21
3.560151724859565
 31
0.0
  0
LINE
  5
2E5
330
2D5
100
AcDbEntity
  8
0
 62
     0
 48
0.3
370
    -2
100
AcDbLine
 10
-0.2590576592936241
 20
5.935151724859565
 30
0.0
 11
-0.2590576592936244
 21
4.962651724859565
 31
0.0
  0
LINE
  5
2E6
330
2D5
100
AcDbEntity
  8
0
 62
     0
 48
0.3
370
    -2
100
AcDbLine
 10
-0.2590576592936246
 20
3.685151724859565
 30
0.0
 11
-0.2590576592936244
 21
4.657651724859565
 31
0.0
  0
SOLID
  5
2E7
330
2D5
100
AcDbEntity
  8
0
 62
     0
 48
0.3
100
AcDbTrace
 10
-0.2798909926269574
 20
5.935151724859565
 30
0.0
 11
-0.2382243259602908
 21
5.935151724859565
 31
0.0
 12
-0.2590576592936241
 22
6.060151724859565
 32
0.0
 13
-0.2590576592936241
 23
6.060151724859565
 33
0.0
  0
SOLID
  5
2E8
330
2D5
100
AcDbEntity
  8
0
 62
     0
 48
0.3
100
AcDbTrace
 10
-0.2798909926269579
 20
3.685151724859565
 30
0.0
 11
-0.2382243259602913
 21
3.685151724859565
 31
0.0
 12
-0.2590576592936247
 22
3.560151724859565
 32
0.0
 13
-0.2590576592936247
 23
3.560151724859565
 33
0.0
  0
MTEXT
  5
2E9
330
2D5
100
AcDbEntity
  8
0
 62
     0
 48
0.3
100
AcDbMText
 10
-0.2590576592936252
 20
4.810151724859565
 30
0.0
 40
0.125
 41
0.0
 71
     5
 72
     1
  1
\A1;2.500
 73
     1
 44
1.0
  0
POINT
  5
2EA
330
2D5
100
AcDbEntity
  8
Defpoints
 62
     0
 48
0.3
100
AcDbPoint
 10
0.5956453171906797
 20
6.060151724859565
 30
0.0
  0
POINT
  5
2EB
330
2D5
100
AcDbEntity
  8
Defpoints
 62
     0
 48
0.3
100
AcDbPoint
 10
0.5956453171906797
 20
3.560151724859565
 30
0.0
  0
POINT
  5
2EC
330
2D5
100
AcDbEntity
  8
Defpoints
 62
     0
 48
0.3
100
AcDbPoint
 10
-0.2590576592936247
 20
3.560151724859565
 30
0.0
  0
ENDBLK
  5
2E1
330
2D5
100
AcDbEntity
  8
0
 48
0.3
100
AcDbBlockEnd
  0
ENDSEC
  0
SECTION
  2
ENTITIES
  0
VIEWPORT
  5
77
330
58
100
AcDbEntity
 67
     1
  8
0
100
AcDbViewport
 10
4.417264255370549
 20
2.452611768387482
 30
0.0
 40
19.12817308063487
 41
8.214349651943631
 68
     1
 69
     1
 12
4.417264255370549
 22
2.452611768387482
 13
0.0
 23
0.0
 14
0.5
 24
0.5
 15
0.5
 25
0.5
 16
0.0
 26
0.0
 36
1.0
 17
0.0
 27
0.0
 37
0.0
 42
50.0
 43
0.0
 44
0.0
 45
8.214349651943631
 50
0.0
 51
0.0
 72
   100
 90
    32800
  1

281
     0
 71
     1
 74
     0
110
0.0
120
0.0
130
0.0
111
1.0
121
0.0
131
0.0
112
0.0
122
1.0
132
0.0
 79
     0
146
0.0
  0
LWPOLYLINE
  5
86
330
58
100
AcDbEntity
 67
     1
  8
0
100
AcDbPolyline
 90
        4
 70
     1
 43
0.0
 10
-1.439262267973589
 20
6.396855050259421
 10
8.966538218833356
 20
6.396855050259421
 10
8.966538218833356
 20
-1.41285528304607
 10
-1.439262267973589
 20
-1.41285528304607
  0
LINE
  5
8A
330
58
100
AcDbEntity
 67
     1
  8
0
100
AcDbLine
 10
8.966538218833356
 20
-1.41285528304607
 30
0.0
 11
8.966538218833356
 21
-0.4128552830460706
 31
0.0
  0
LINE
  5
8B
330
58
100
AcDbEntity
 67
     1
  8
0
100
AcDbLine
 10
8.966538218833356
 20
-0.4128552830460706
 30
0.0
 11
6.466538218833356
 21
-0.4128552830460703
 31
0.0
  0
LINE
  5
8C
330
58
100
AcDbEntity
 67
     1
  8
0
100
AcDbLine
 10
6.466538218833356
 20
-0.4128552830460703
 30
0.0
 11
4.966538218833356
 21
-0.4128552830460701
 31
0.0
  0
LINE
  5
8D
330
58
100
AcDbEntity
 67
     1
  8
0
100
AcDbLine
 10
4.966538218833356
 20
-0.4128552830460701
 30
0.0
 11
4.966538218833356
 21
-1.41285528304607
 31
0.0
  0
LINE
  5
8E
330
58
100
AcDbEntity
 67
     1
  8
0
100
AcDbLine
 10
6.466538218833356
 20
-0.4128552830460703
 30
0.0
 11
6.466538218833356
 21
-1.40425062323316
 31
0.0
  0
MTEXT
  5
8F
330
58
100
AcDbEntity
 67
     1
  8
0
100
AcDbMText
 10
5.02064872125895
 20
-0.5532836662080878
 30
0.0
 40
0.1
 41
1.5
 71
     1
 72
     5
  1
  Tolerances\P.XXXX = +/- .001\P.XXX  = +/- .005\P.XX   = +/- .015
 73
     1
 44
1.0
  0
LINE
  5
AB
330
58
100
AcDbEntity
 67
     1
  8
0
 48
0.3
100
AcDbLine
 10
3.09564531719068
 20
5.060151724859565
 30
0.0
 11
3.095645317190679
 21
3.560151724859565
 31
0.0
  0
LINE
  5
AD
330
58
100
AcDbEntity
 67
     1
  8
0
 48
0.3
100
AcDbLine
 10
0.5956453171906797
 20
3.560151724859565
 30
0.0
 11
0.5956453171906797
 21
5.060151724859565
 31
0.0
  0
LINE
  5
AF
102
{ACAD_REACTORS
330
11E
330
154
102
}
330
58
100
AcDbEntity
 67
     1
  8
0
 48
0.3
100
AcDbLine
 10
3.09564531719068
 20
2.554206744699012
 30
0.0
 11
3.095645317190679
 21
1.179206744699012
 31
0.0
  0
LINE
  5
B1
102
{ACAD_REACTORS
330
11E
330
138
102
}
330
58
100
AcDbEntity
 67
     1
  8
0
 48
0.3
100
AcDbLine
 10
0.5956453171906793
 20
1.179206744699012
 30
0.0
 11
0.5956453171906797
 21
2.554206744699012
 31
0.0
  0
LINE
  5
B2
330
58
100
AcDbEntity
 67
     1
  8
0
 48
0.3
100
AcDbLine
 10
5.519079156162035
 20
2.554206744699012
 30
0.0
 11
7.019079156162035
 21
2.554206744699012
 31
0.0
  0
LINE
  5
B3
330
58
100
AcDbEntity
 67
     1
  8
0
 48
0.3
100
AcDbLine
 10
8.019079156162035
 20
2.554206744699012
 30
0.0
 11
8.019079156162035
 21
1.179206744699012
 31
0.0
  0
LINE
  5
B4
330
58
100
AcDbEntity
 67
     1
  8
0
 48
0.3
100
AcDbLine
 10
7.019079156162035
 20
1.179206744699012
 30
0.0
 11
5.519079156162035
 21
1.179206744699012
 31
0.0
  0
LINE
  5
B5
330
58
100
AcDbEntity
 67
     1
  8
0
 48
0.3
100
AcDbLine
 10
5.519079156162035
 20
1.179206744699012
 30
0.0
 11
5.519079156162035
 21
2.554206744699012
 31
0.0
  0
CIRCLE
  5
B7
102
{ACAD_REACTORS
330
154
330
1B6
330
237
102
}
330
58
100
AcDbEntity
 67
     1
  8
0
 48
0.3
100
AcDbCircle
 10
1.845645317190679
 20
1.866706744699012
 30
0.0
 40
0.203
  0
CIRCLE
  5
BB
102
{ACAD_REACTORS
330
1D0
102
}
330
58
100
AcDbEntity
 67
     1
  8
0
 48
0.3
100
AcDbCircle
 10
2.829645317190679
 20
1.866706744699012
 30
0.0
 40
0.125
  0
CIRCLE
  5
BC
102
{ACAD_REACTORS
330
1B6
330
1D0
330
20B
102
}
330
58
100
AcDbEntity
 67
     1
  8
0
 48
0.3
100
AcDbCircle
 10
0.8616453171906796
 20
1.866706744699012
 30
0.0
 40
0.125
  0
LINE
  5
BE
102
{ACAD_REACTORS
330
19C
102
}
330
58
100
AcDbEntity
 67
     1
  8
0
  6
HIDDENX2
 48
0.3
100
AcDbLine
 10
2.318145317190679
 20
3.560151724859565
 30
0.0
 11
2.318145317190679
 21
3.920151724859565
 31
0.0
  0
LINE
  5
C0
330
58
100
AcDbEntity
 67
     1
  8
0
  6
HIDDENX2
 48
0.3
100
AcDbLine
 10
1.373145317190679
 20
3.560151724859565
 30
0.0
 11
1.373145317190679
 21
3.920151724859565
 31
0.0
  0
LINE
  5
C1
330
58
100
AcDbEntity
 67
     1
  8
0
  6
HIDDENX2
 48
0.3
100
AcDbLine
 10
1.373145317190679
 20
3.920151724859565
 30
0.0
 11
2.318145317190679
 21
3.920151724859565
 31
0.0
  0
LINE
  5
C2
330
58
100
AcDbEntity
 67
     1
  8
0
  6
HIDDENX2
 48
0.3
100
AcDbLine
 10
1.373145317190679
 20
6.060151724859565
 30
0.0
 11
1.373145317190679
 21
5.700151724859565
 31
0.0
  0
LINE
  5
C3
102
{ACAD_REACTORS
330
182
102
}
330
58
100
AcDbEntity
 67
     1
  8
0
  6
HIDDENX2
 48
0.3
100
AcDbLine
 10
2.318145317190679
 20
6.060151724859565
 30
0.0
 11
2.318145317190679
 21
5.700151724859565
 31
0.0
  0
LINE
  5
C4
102
{ACAD_REACTORS
330
182
102
}
330
58
100
AcDbEntity
 67
     1
  8
0
  6
HIDDENX2
 48
0.3
100
AcDbLine
 10
2.318145317190679
 20
5.700151724859565
 30
0.0
 11
1.373145317190679
 21
5.700151724859565
 31
0.0
  0
LINE
  5
C6
330
58
100
AcDbEntity
 67
     1
  8
0
  6
HIDDENX2
 48
0.3
100
AcDbLine
 10
2.048645317190679
 20
3.920151724859565
 30
0.0
 11
2.048645317190679
 21
4.700151724859565
 31
0.0
  0
LINE
  5
C8
330
58
100
AcDbEntity
 67
     1
  8
0
  6
HIDDENX2
 48
0.3
100
AcDbLine
 10
1.642645317190679
 20
3.920151724859565
 30
0.0
 11
1.642645317190679
 21
4.700151724859565
 31
0.0
  0
LINE
  5
CA
330
58
100
AcDbEntity
 67
     1
  8
0
  6
HIDDENX2
 48
0.3
100
AcDbLine
 10
0.9866453171906798
 20
3.560151724859565
 30
0.0
 11
0.9866453171906798
 21
5.060151724859565
 31
0.0
  0
LINE
  5
CC
330
58
100
AcDbEntity
 67
     1
  8
0
  6
HIDDENX2
 48
0.3
100
AcDbLine
 10
0.7366453171906798
 20
3.560151724859565
 30
0.0
 11
0.7366453171906798
 21
5.060151724859565
 31
0.0
  0
LINE
  5
CE
330
58
100
AcDbEntity
 67
     1
  8
0
  6
HIDDENX2
 48
0.3
100
AcDbLine
 10
2.954645317190679
 20
3.560151724859565
 30
0.0
 11
2.954645317190679
 21
5.060151724859565
 31
0.0
  0
LINE
  5
D0
330
58
100
AcDbEntity
 67
     1
  8
0
  6
HIDDENX2
 48
0.3
100
AcDbLine
 10
2.704645317190679
 20
3.560151724859565
 30
0.0
 11
2.704645317190679
 21
5.060151724859565
 31
0.0
  0
LINE
  5
DE
330
58
100
AcDbEntity
 67
     1
  8
0
  6
HIDDENX2
 48
0.3
100
AcDbLine
 10
5.519079156162035
 20
1.394206744699012
 30
0.0
 11
5.879079156162036
 21
1.394206744699012
 31
0.0
  0
LINE
  5
DF
330
58
100
AcDbEntity
 67
     1
  8
0
  6
HIDDENX2
 48
0.3
100
AcDbLine
 10
5.879079156162036
 20
2.339206744699012
 30
0.0
 11
5.879079156162036
 21
1.394206744699012
 31
0.0
  0
LINE
  5
E0
330
58
100
AcDbEntity
 67
     1
  8
0
  6
HIDDENX2
 48
0.3
100
AcDbLine
 10
5.519079156162035
 20
2.339206744699012
 30
0.0
 11
5.879079156162036
 21
2.339206744699012
 31
0.0
  0
LINE
  5
E1
330
58
100
AcDbEntity
 67
     1
  8
0
  6
HIDDENX2
 48
0.3
100
AcDbLine
 10
6.659079156162036
 20
1.663706744699012
 30
0.0
 11
5.879079156162036
 21
1.663706744699012
 31
0.0
  0
LINE
  5
E2
330
58
100
AcDbEntity
 67
     1
  8
0
  6
HIDDENX2
 48
0.3
100
AcDbLine
 10
6.659079156162036
 20
2.069706744699011
 30
0.0
 11
5.879079156162036
 21
2.069706744699011
 31
0.0
  0
LINE
  5
E3
330
58
100
AcDbEntity
 67
     1
  8
0
  6
HIDDENX2
 48
0.3
100
AcDbLine
 10
8.019079156162035
 20
1.394206744699012
 30
0.0
 11
7.659079156162036
 21
1.394206744699012
 31
0.0
  0
LINE
  5
E4
330
58
100
AcDbEntity
 67
     1
  8
0
  6
HIDDENX2
 48
0.3
100
AcDbLine
 10
7.659079156162036
 20
1.394206744699012
 30
0.0
 11
7.659079156162036
 21
2.339206744699012
 31
0.0
  0
LINE
  5
E5
330
58
100
AcDbEntity
 67
     1
  8
0
  6
HIDDENX2
 48
0.3
100
AcDbLine
 10
8.019079156162035
 20
2.339206744699012
 30
0.0
 11
7.659079156162036
 21
2.339206744699012
 31
0.0
  0
LINE
  5
E7
330
58
100
AcDbEntity
 67
     1
  8
0
  6
HIDDENX2
 48
0.3
100
AcDbLine
 10
5.519079156162035
 20
1.991706744699012
 30
0.0
 11
7.019079156162035
 21
1.991706744699012
 31
0.0
  0
LINE
  5
E9
330
58
100
AcDbEntity
 67
     1
  8
0
  6
HIDDENX2
 48
0.3
100
AcDbLine
 10
5.519079156162035
 20
1.741706744699012
 30
0.0
 11
7.019079156162035
 21
1.741706744699012
 31
0.0
  0
DIMENSION
  5
105
102
{ACAD_XDICTIONARY
360
113
102
}
102
{ACAD_REACTORS
330
11E
102
}
330
58
100
AcDbEntity
 67
     1
  8
0
 48
0.3
100
AcDbDimension
  2
*D2
 10
3.095645317190679
 20
0.1318103042404171
 30
0.0
 11
1.845645317190679
 21
0.1318103042404171
 31
0.0
 70
   160
 71
     5
 42
2.5
  3
Standard
100
AcDbAlignedDimension
 13
0.5956453171906793
 23
1.179206744699012
 33
0.0
 14
3.095645317190679
 24
1.179206744699012
 34
0.0
100
AcDbRotatedDimension
  0
DIMENSION
  5
11F
102
{ACAD_XDICTIONARY
360
12D
102
}
102
{ACAD_REACTORS
330
138
102
}
330
58
100
AcDbEntity
 67
     1
  8
0
 48
0.3
100
AcDbDimension
  2
*D3
 10
-0.2561973928756772
 20
1.179206744699013
 30
0.0
 11
-0.2561973928756774
 21
1.866706744699012
 31
0.0
 70
    32
 71
     5
 42
1.374999999999999
  3
Standard
100
AcDbAlignedDimension
 13
0.5956453171906797
 23
2.554206744699012
 33
0.0
 14
0.5331453171906797
 24
1.179206744699012
 34
0.0
 50
90.0
100
AcDbRotatedDimension
  0
DIMENSION
  5
139
102
{ACAD_XDICTIONARY
360
148
102
}
102
{ACAD_REACTORS
330
154
102
}
330
58
100
AcDbEntity
 67
     1
  8
0
 48
0.3
100
AcDbDimension
  2
*D4
 10
4.200256695457852
 20
1.866706744699011
 30
0.0
 11
4.200256695457852
 21
2.179457041037885
 31
0.0
 70
   160
 71
     5
 42
0.6875000000000005
  3
Standard
100
AcDbAlignedDimension
 13
3.09564531719068
 23
2.554206744699012
 33
0.0
 14
1.845645317190679
 24
1.866706744699012
 34
0.0
 50
90.0
100
AcDbRotatedDimension
  0
DIMENSION
  5
169
102
{ACAD_XDICTIONARY
360
177
102
}
102
{ACAD_REACTORS
330
182
102
}
330
58
100
AcDbEntity
 67
     1
  8
0
 48
0.3
100
AcDbDimension
  2
*D5
 10
3.780649930786978
 20
6.060151724859565
 30
0.0
 11
3.780649930786977
 21
5.880151724859565
 31
0.0
 70
    32
 71
     5
 42
0.3600000000000003
  3
Standard
100
AcDbAlignedDimension
 13
2.318145317190679
 23
5.700151724859565
 33
0.0
 14
2.318145317190679
 24
6.060151724859565
 34
0.0
 50
90.0
100
AcDbRotatedDimension
  0
DIMENSION
  5
183
102
{ACAD_XDICTIONARY
360
191
102
}
102
{ACAD_REACTORS
330
19C
102
}
330
58
100
AcDbEntity
 67
     1
  8
0
 48
0.3
100
AcDbDimension
  2
*D6
 10
3.764641892641634
 20
3.920151724859564
 30
0.0
 11
3.764641892641634
 21
3.740151724859565
 31
0.0
 70
    32
 71
     5
 42
0.3599999999999999
  3
Standard
100
AcDbAlignedDimension
 13
2.318145317190679
 23
3.560151724859565
 33
0.0
 14
2.318145317190679
 24
3.920151724859565
 34
0.0
 50
90.0
100
AcDbRotatedDimension
  0
DIMENSION
  5
19D
102
{ACAD_XDICTIONARY
360
1AB
102
}
102
{ACAD_REACTORS
330
1B6
102
}
330
58
100
AcDbEntity
 67
     1
  8
0
 48
0.3
100
AcDbDimension
  2
*D7
 10
0.8616453171906794
 20
0.8851931095665221
 30
0.0
 11
1.353645317190679
 21
0.8851931095665221
 31
0.0
 70
    32
 71
     5
 42
0.9840000000000001
  3
Standard
100
AcDbAlignedDimension
 13
1.845645317190679
 23
1.866706744699012
 33
0.0
 14
0.8616453171906796
 24
1.866706744699012
 34
0.0
100
AcDbRotatedDimension
  0
DIMENSION
  5
1B7
102
{ACAD_XDICTIONARY
360
1C5
102
}
102
{ACAD_REACTORS
330
1D0
102
}
330
58
100
AcDbEntity
 67
     1
  8
0
 48
0.3
100
AcDbDimension
  2
*D8
 10
2.829645317190679
 20
0.4697503758158881
 30
0.0
 11
1.845645317190679
 21
0.4697503758158881
 31
0.0
 70
    32
 71
     5
 42
1.967999999999999
  3
Standard
100
AcDbAlignedDimension
 13
0.8616453171906796
 23
1.866706744699012
 33
0.0
 14
2.829645317190679
 24
1.866706744699012
 34
0.0
100
AcDbRotatedDimension
  0
DIMENSION
  5
1F6
102
{ACAD_XDICTIONARY
360
202
102
}
102
{ACAD_REACTORS
330
20B
102
}
330
58
100
AcDbEntity
 67
     1
  8
0
 48
0.3
100
AcDbDimension
  2
*D9
 10
0.8071693272268147
 20
1.754201782508641
 30
0.0
 11
1.822080707210979
 21
2.803839472308673
 31
0.0
 70
   163
 71
     5
 42
0.25
  3
Standard
100
AcDbDiametricDimension
 15
0.916121307154545
 25
1.979211706889383
 35
0.0
 40
0.0
1001
ACAD
1000
DSTYLE
1002
{
1070
   288
1070
     1
1002
}
  0
DIMENSION
  5
222
102
{ACAD_XDICTIONARY
360
22E
102
}
102
{ACAD_REACTORS
330
237
102
}
330
58
100
AcDbEntity
 67
     1
  8
0
 48
0.3
100
AcDbDimension
  2
*D10
 10
1.69275816224002
 20
1.733160805595297
 30
0.0
 11
3.40687522697782
 21
2.787860903740253
 31
0.0
 70
   163
 71
     5
 42
0.4060000000000002
  3
Standard
100
AcDbDiametricDimension
 15
1.998532472141339
 25
2.000252683802727
 35
0.0
 40
0.0
1001
ACAD
1000
DSTYLE
1002
{
1070
   288
1070
     1
1002
}
  0
MTEXT
  5
248
330
58
100
AcDbEntity
 67
     1
  8
0
 48
0.3
100
AcDbMText
 10
6.574822527870999
 20
-0.4926480426068628
 30
0.0
 40
0.1
 41
2.5
 71
     1
 72
     5
  1
G0704 Y Axis Spacer\PFor Y Axis Extension\PFront Mount\PDaniel E. Kemp\P{\fArial|b0|i0|c0|p32;\H1.625x;©\fMS Shell Dlg|b0|i0|c0|p32;\H0.6538x; }03-12-2011
 73
     1
 44
1.0
  0
MTEXT
  5
24A
330
58
100
AcDbEntity
 67
     1
  8
0
 48
0.3
100
AcDbMText
 10
-0.8341589551836534
 20
-0.8936571720653638
 30
0.0
 40
0.1625
 41
4.532
 71
     1
 72
     5
  1
{\fArial|b0|i0|c0|p32;© Daniel E. Kemp 2011}
 73
     1
 44
1.0
  0
LINE
  5
282
330
58
100
AcDbEntity
 67
     1
  8
0
 48
0.3
100
AcDbLine
 10
3.09564531719068
 20
6.060151724859565
 30
0.0
 11
0.5956453171906797
 21
6.060151724859565
 31
0.0
  0
LINE
  5
283
102
{ACAD_REACTORS
330
2A0
330
2ED
102
}
330
58
100
AcDbEntity
 67
     1
  8
0
 48
0.3
100
AcDbLine
 10
0.5956453171906797
 20
3.560151724859565
 30
0.0
 11
3.095645317190679
 21
3.560151724859565
 31
0.0
  0
LINE
  5
284
330
58
100
AcDbEntity
 67
     1
  8
0
 48
0.3
100
AcDbLine
 10
3.09564531719068
 20
2.554206744699012
 30
0.0
 11
0.5956453171906797
 21
2.554206744699012
 31
0.0
  0
LINE
  5
285
330
58
100
AcDbEntity
 67
     1
  8
0
 48
0.3
100
AcDbLine
 10
0.5956453171906793
 20
1.179206744699012
 30
0.0
 11
3.095645317190679
 21
1.179206744699012
 31
0.0
  0
DIMENSION
  5
287
102
{ACAD_XDICTIONARY
360
295
102
}
102
{ACAD_REACTORS
330
2A0
102
}
330
58
100
AcDbEntity
 67
     1
  8
0
 48
0.3
100
AcDbDimension
  2
*D11
 10
0.5956453171906797
 20
3.211664015006537
 30
0.0
 11
1.220645317190679
 21
3.211664015006537
 31
0.0
 70
    32
 71
     5
 42
1.25
  3
Standard
100
AcDbAlignedDimension
 13
1.845645317190679
 23
3.560151724859565
 33
0.0
 14
0.5956453171906797
 24
3.560151724859565
 34
0.0
100
AcDbRotatedDimension
  0
CIRCLE
  5
2A6
102
{ACAD_REACTORS
330
2BC
102
}
330
58
100
AcDbEntity
 67
     1
  8
0
 48
0.3
100
AcDbCircle
 10
1.845645317190679
 20
1.866706744699012
 30
0.0
 40
0.512
  0
DIMENSION
  5
2A7
102
{ACAD_XDICTIONARY
360
2B3
102
}
102
{ACAD_REACTORS
330
2BC
102
}
330
58
100
AcDbEntity
 67
     1
  8
0
 48
0.3
100
AcDbDimension
  2
*D12
 10
1.638582712793029
 20
1.398444982582926
 30
0.0
 11
2.874602504737356
 21
3.07139750505217
 31
0.0
 70
   163
 71
     5
 42
1.024
  3
Standard
100
AcDbDiametricDimension
 15
2.05270792158833
 25
2.334968506815099
 35
0.0
 40
0.0
1001
ACAD
1000
DSTYLE
1002
{
1070
   288
1070
     1
1002
}
  0
LINE
  5
2CC
102
{ACAD_REACTORS
330
2ED
102
}
330
58
100
AcDbEntity
 67
     1
  8
0
 48
0.3
100
AcDbLine
 10
0.5956453171906797
 20
6.060151724859565
 30
0.0
 11
0.5956453171906797
 21
5.060151724859565
 31
0.0
  0
LINE
  5
2CD
330
58
100
AcDbEntity
 67
     1
  8
0
 48
0.3
100
AcDbLine
 10
3.09564531719068
 20
5.060151724859565
 30
0.0
 11
3.09564531719068
 21
6.060151724859565
 31
0.0
  0
LINE
  5
2CE
330
58
100
AcDbEntity
 67
     1
  8
0
  6
HIDDENX2
 48
0.3
100
AcDbLine
 10
0.7366453171906798
 20
5.060151724859565
 30
0.0
 11
0.7366453171906798
 21
6.060151724859565
 31
0.0
  0
LINE
  5
2CF
330
58
100
AcDbEntity
 67
     1
  8
0
  6
HIDDENX2
 48
0.3
100
AcDbLine
 10
0.9866453171906798
 20
5.060151724859565
 30
0.0
 11
0.9866453171906798
 21
6.060151724859565
 31
0.0
  0
LINE
  5
2D0
330
58
100
AcDbEntity
 67
     1
  8
0
  6
HIDDENX2
 48
0.3
100
AcDbLine
 10
1.642645317190679
 20
4.700151724859565
 30
0.0
 11
1.642645317190679
 21
5.700151724859565
 31
0.0
  0
LINE
  5
2D1
330
58
100
AcDbEntity
 67
     1
  8
0
  6
HIDDENX2
 48
0.3
100
AcDbLine
 10
2.048645317190679
 20
4.700151724859565
 30
0.0
 11
2.048645317190679
 21
5.700151724859565
 31
0.0
  0
LINE
  5
2D2
330
58
100
AcDbEntity
 67
     1
  8
0
  6
HIDDENX2
 48
0.3
100
AcDbLine
 10
2.704645317190679
 20
5.060151724859565
 30
0.0
 11
2.704645317190679
 21
6.060151724859565
 31
0.0
  0
LINE
  5
2D3
330
58
100
AcDbEntity
 67
     1
  8
0
  6
HIDDENX2
 48
0.3
100
AcDbLine
 10
2.954645317190679
 20
5.060151724859565
 30
0.0
 11
2.954645317190679
 21
6.060151724859565
 31
0.0
  0
DIMENSION
  5
2D4
102
{ACAD_XDICTIONARY
360
2E2
102
}
102
{ACAD_REACTORS
330
2ED
102
}
330
58
100
AcDbEntity
 67
     1
  8
0
 48
0.3
100
AcDbDimension
  2
*D13
 10
-0.2590576592936247
 20
3.560151724859565
 30
0.0
 11
-0.2590576592936252
 21
4.810151724859565
 31
0.0
 70
    32
 71
     5
 42
2.499999999999999
  3
Standard
100
AcDbAlignedDimension
 13
0.5956453171906797
 23
6.060151724859565
 33
0.0
 14
0.5956453171906797
 24
3.560151724859565
 34
0.0
 50
90.0
100
AcDbRotatedDimension
  0
LINE
  5
2EE
330
58
100
AcDbEntity
 67
     1
  8
0
 48
0.3
100
AcDbLine
 10
8.019079156162035
 20
2.554206744699012
 30
0.0
 11
7.019079156162035
 21
2.554206744699012
 31
0.0
  0
LINE
  5
2EF
330
58
100
AcDbEntity
 67
     1
  8
0
 48
0.3
100
AcDbLine
 10
8.019079156162035
 20
1.179206744699012
 30
0.0
 11
7.019079156162035
 21
1.179206744699012
 31
0.0
  0
LINE
  5
2F0
330
58
100
AcDbEntity
 67
     1
  8
0
  6
HIDDENX2
 48
0.3
100
AcDbLine
 10
6.659079156162036
 20
2.069706744699011
 30
0.0
 11
7.659079156162036
 21
2.069706744699011
 31
0.0
  0
LINE
  5
2F1
330
58
100
AcDbEntity
 67
     1
  8
0
  6
HIDDENX2
 48
0.3
100
AcDbLine
 10
7.019079156162035
 20
1.991706744699012
 30
0.0
 11
8.019079156162035
 21
1.991706744699012
 31
0.0
  0
LINE
  5
2F2
330
58
100
AcDbEntity
 67
     1
  8
0
  6
HIDDENX2
 48
0.3
100
AcDbLine
 10
7.019079156162035
 20
1.741706744699012
 30
0.0
 11
8.019079156162035
 21
1.741706744699012
 31
0.0
  0
LINE
  5
2F3
330
58
100
AcDbEntity
 67
     1
  8
0
  6
HIDDENX2
 48
0.3
100
AcDbLine
 10
6.659079156162036
 20
1.663706744699012
 30
0.0
 11
7.659079156162036
 21
1.663706744699012
 31
0.0
  0
ENDSEC
  0
SECTION
  2
OBJECTS
  0
DICTIONARY
  5
C
330
0
100
AcDbDictionary
281
     1
  3
ACAD_GROUP
350
D
  3
ACAD_LAYOUT
350
1A
  3
ACAD_MLINESTYLE
350
17
  3
ACAD_PLOTSETTINGS
350
19
  3
ACAD_PLOTSTYLENAME
350
E
  3
AcDbVariableDictionary
350
66
  0
DICTIONARY
  5
113
330
105
100
AcDbDictionary
280
     1
281
     1
  3
ACAD_DIMASSOC
360
11E
  0
DICTIONARY
  5
12D
330
11F
100
AcDbDictionary
280
     1
281
     1
  3
ACAD_DIMASSOC
360
138
  0
DICTIONARY
  5
148
330
139
100
AcDbDictionary
280
     1
281
     1
  3
ACAD_DIMASSOC
360
154
  0
DICTIONARY
  5
177
330
169
100
AcDbDictionary
280
     1
281
     1
  3
ACAD_DIMASSOC
360
182
  0
DICTIONARY
  5
191
330
183
100
AcDbDictionary
280
     1
281
     1
  3
ACAD_DIMASSOC
360
19C
  0
DICTIONARY
  5
1AB
330
19D
100
AcDbDictionary
280
     1
281
     1
  3
ACAD_DIMASSOC
360
1B6
  0
DICTIONARY
  5
1C5
330
1B7
100
AcDbDictionary
280
     1
281
     1
  3
ACAD_DIMASSOC
360
1D0
  0
DICTIONARY
  5
202
330
1F6
100
AcDbDictionary
280
     1
281
     1
  3
ACAD_DIMASSOC
360
20B
  0
DICTIONARY
  5
22E
330
222
100
AcDbDictionary
280
     1
281
     1
  3
ACAD_DIMASSOC
360
237
  0
DICTIONARY
  5
295
330
287
100
AcDbDictionary
280
     1
281
     1
  3
ACAD_DIMASSOC
360
2A0
  0
DICTIONARY
  5
2B3
330
2A7
100
AcDbDictionary
280
     1
281
     1
  3
ACAD_DIMASSOC
360
2BC
  0
DICTIONARY
  5
2E2
330
2D4
100
AcDbDictionary
280
     1
281
     1
  3
ACAD_DIMASSOC
360
2ED
  0
DICTIONARY
  5
D
102
{ACAD_REACTORS
330
C
102
}
330
C
100
AcDbDictionary
281
     1
  0
DICTIONARY
  5
1A
102
{ACAD_REACTORS
330
C
102
}
330
C
100
AcDbDictionary
281
     1
  3
Layout1
350
59
  3
Layout2
350
5E
  3
Model
350
22
  0
DICTIONARY
  5
17
102
{ACAD_REACTORS
330
C
102
}
330
C
100
AcDbDictionary
281
     1
  3
Standard
350
18
  0
DICTIONARY
  5
19
102
{ACAD_REACTORS
330
C
102
}
330
C
100
AcDbDictionary
281
     1
  0
ACDBDICTIONARYWDFLT
  5
E
102
{ACAD_REACTORS
330
C
102
}
330
C
100
AcDbDictionary
281
     1
  3
Normal
350
F
100
AcDbDictionaryWithDefault
340
F
  0
DICTIONARY
  5
66
102
{ACAD_REACTORS
330
C
102
}
330
C
100
AcDbDictionary
281
     1
  3
DIMASSOC
350
67
  3
HIDETEXT
350
6B
  0
DIMASSOC
  5
11E
102
{ACAD_REACTORS
330
113
102
}
330
113
100
AcDbDimAssoc
330
105
 90
        3
 70
     0
 71
     0
  1
AcDbOsnapPointRef
 72
    13
331
B1
 73
     2
 91
        0
 40
0.0
 10
0.5956453171906793
 20
1.179206744699012
 30
0.0
 75
     0
  1
AcDbOsnapPointRef
 72
     1
331
AF
 73
     2
 91
        0
 40
1.0
 10
3.095645317190679
 20
1.179206744699012
 30
0.0
 75
     0
  0
DIMASSOC
  5
138
102
{ACAD_REACTORS
330
12D
102
}
330
12D
100
AcDbDimAssoc
330
11F
 90
        1
 70
     0
 71
     0
  1
AcDbOsnapPointRef
 72
     1
331
B1
 73
     2
 91
        0
 40
1.0
 10
0.5956453171906797
 20
2.554206744699012
 30
0.0
 75
     0
  0
DIMASSOC
  5
154
102
{ACAD_REACTORS
330
148
102
}
330
148
100
AcDbDimAssoc
330
139
 90
        3
 70
     0
 71
     0
  1
AcDbOsnapPointRef
 72
    13
331
AF
 73
     2
 91
        0
 40
0.0
 10
3.09564531719068
 20
2.554206744699012
 30
0.0
 75
     0
  1
AcDbOsnapPointRef
 72
     3
331
B7
 73
     2
 91
        0
 40
0.0
 10
1.845645317190679
 20
1.866706744699012
 30
0.0
 75
     0
  0
DIMASSOC
  5
182
102
{ACAD_REACTORS
330
177
102
}
330
177
100
AcDbDimAssoc
330
169
 90
        3
 70
     0
 71
     0
  1
AcDbOsnapPointRef
 72
    13
331
C4
 73
     2
 91
        0
 40
0.0
 10
2.318145317190679
 20
5.700151724859565
 30
0.0
 75
     0
  1
AcDbOsnapPointRef
 72
    13
331
C3
 73
     2
 91
        0
 40
0.0
 10
2.318145317190679
 20
6.060151724859565
 30
0.0
 75
     0
  0
DIMASSOC
  5
19C
102
{ACAD_REACTORS
330
191
102
}
330
191
100
AcDbDimAssoc
330
183
 90
        3
 70
     0
 71
     0
  1
AcDbOsnapPointRef
 72
    13
331
BE
 73
     2
 91
        0
 40
0.0
 10
2.318145317190679
 20
3.560151724859565
 30
0.0
 75
     0
  1
AcDbOsnapPointRef
 72
     1
331
BE
 73
     2
 91
        0
 40
1.0
 10
2.318145317190679
 20
3.920151724859565
 30
0.0
 75
     0
  0
DIMASSOC
  5
1B6
102
{ACAD_REACTORS
330
1AB
102
}
330
1AB
100
AcDbDimAssoc
330
19D
 90
        3
 70
     0
 71
     0
  1
AcDbOsnapPointRef
 72
     3
331
B7
 73
     2
 91
        0
 40
0.0
 10
1.845645317190679
 20
1.866706744699012
 30
0.0
 75
     0
  1
AcDbOsnapPointRef
 72
     3
331
BC
 73
     2
 91
        0
 40
0.0
 10
0.8616453171906796
 20
1.866706744699012
 30
0.0
 75
     0
  0
DIMASSOC
  5
1D0
102
{ACAD_REACTORS
330
1C5
102
}
330
1C5
100
AcDbDimAssoc
330
1B7
 90
        3
 70
     0
 71
     0
  1
AcDbOsnapPointRef
 72
     3
331
BC
 73
     2
 91
        0
 40
0.0
 10
0.8616453171906796
 20
1.866706744699012
 30
0.0
 75
     0
  1
AcDbOsnapPointRef
 72
     3
331
BB
 73
     2
 91
        0
 40
0.0
 10
2.829645317190679
 20
1.866706744699012
 30
0.0
 75
     0
  0
DIMASSOC
  5
20B
102
{ACAD_REACTORS
330
202
102
}
330
202
100
AcDbDimAssoc
330
1F6
 90
        2
 70
     0
 71
     0
  1
AcDbOsnapPointRef
 72
     3
331
BC
 73
     2
 91
        0
 40
0.0
 10
0.0
 20
0.0
 30
0.0
 75
     0
  0
DIMASSOC
  5
237
102
{ACAD_REACTORS
330
22E
102
}
330
22E
100
AcDbDimAssoc
330
222
 90
        2
 70
     0
 71
     0
  1
AcDbOsnapPointRef
 72
     3
331
B7
 73
     2
 91
        0
 40
0.0
 10
0.0
 20
0.0
 30
0.0
 75
     0
  0
DIMASSOC
  5
2A0
102
{ACAD_REACTORS
330
295
102
}
330
295
100
AcDbDimAssoc
330
287
 90
        2
 70
     0
 71
     0
  1
AcDbOsnapPointRef
 72
    13
331
283
 73
     2
 91
        0
 40
0.0
 10
0.5956453171906797
 20
3.560151724859565
 30
0.0
 75
     0
  0
DIMASSOC
  5
2BC
102
{ACAD_REACTORS
330
2B3
102
}
330
2B3
100
AcDbDimAssoc
330
2A7
 90
        2
 70
     0
 71
     0
  1
AcDbOsnapPointRef
 72
     3
331
2A6
 73
     2
 91
        0
 40
0.0
 10
0.0
 20
0.0
 30
0.0
 75
     0
  0
DIMASSOC
  5
2ED
102
{ACAD_REACTORS
330
2E2
102
}
330
2E2
100
AcDbDimAssoc
330
2D4
 90
        3
 70
     0
 71
     0
  1
AcDbOsnapPointRef
 72
    13
331
2CC
 73
     2
 91
        0
 40
0.0
 10
0.5956453171906797
 20
6.060151724859565
 30
0.0
 75
     0
  1
AcDbOsnapPointRef
 72
    13
331
283
 73
     2
 91
        0
 40
0.0
 10
0.5956453171906797
 20
3.560151724859565
 30
0.0
 75
     0
  0
LAYOUT
  5
59
102
{ACAD_REACTORS
330
1A
102
}
330
1A
100
AcDbPlotSettings
  1

  2
none_device
  4
Letter_(8.50_x_11.00_Inches)
  6

 40
6.349999904632568
 41
6.349999904632568
 42
6.350006103515625
 43
6.350006103515625
 44
215.8999938964843
 45
279.3999938964843
 46
38.3032
 47
38.15079999999999
 48
0.0
 49
0.0
140
0.0
141
0.0
142
1.0
143
1.0
 70
   688
 72
     0
 73
     1
 74
     5
  7

 75
    16
147
1.0
148
0.0
149
0.0
100
AcDbLayout
  1
Layout1
 70
     1
 71
     1
 10
-1.75200024029589
 20
-1.757999996245376
 11
9.247999519408217
 21
6.741999763458731
 12
0.0
 22
0.0
 32
0.0
 14
-1.439262267973589
 24
-1.41285528304607
 34
0.0
 15
8.966538218833356
 25
6.396855050259421
 35
0.0
146
0.0
 13
0.0
 23
0.0
 33
0.0
 16
1.0
 26
0.0
 36
0.0
 17
0.0
 27
1.0
 37
0.0
 76
     0
330
58
331
77
  0
LAYOUT
  5
5E
102
{ACAD_REACTORS
330
1A
102
}
330
1A
100
AcDbPlotSettings
  1

  2
None
  4

  6

 40
0.0
 41
0.0
 42
0.0
 43
0.0
 44
0.0
 45
0.0
 46
0.0
 47
0.0
 48
0.0
 49
0.0
140
0.0
141
0.0
142
1.0
143
1.0
 70
   688
 72
     0
 73
     0
 74
     5
  7

 75
    16
147
1.0
148
0.0
149
0.0
100
AcDbLayout
  1
Layout2
 70
     1
 71
     2
 10
0.0
 20
0.0
 11
12.0
 21
9.0
 12
0.0
 22
0.0
 32
0.0
 14
0.0
 24
0.0
 34
0.0
 15
0.0
 25
0.0
 35
0.0
146
0.0
 13
0.0
 23
0.0
 33
0.0
 16
1.0
 26
0.0
 36
0.0
 17
0.0
 27
1.0
 37
0.0
 76
     0
330
5D
  0
LAYOUT
  5
22
102
{ACAD_REACTORS
330
1A
102
}
330
1A
100
AcDbPlotSettings
  1

  2
none_device
  4
ANSI_A_(8.50_x_11.00_Inches)
  6

 40
6.349999904632568
 41
19.04999923706054
 42
6.350006103515625
 43
19.04998779296875
 44
215.8999938964843
 45
279.3999938964843
 46
0.0
 47
0.0
 48
0.0
 49
0.0
140
0.0
141
0.0
142
1.0
143
2.584895464708373
 70
 11952
 72
     0
 73
     1
 74
     0
  7

 75
     0
147
0.3868628397755418
148
0.0
149
0.0
100
AcDbLayout
  1
Model
 70
     1
 71
     0
 10
0.0
 20
0.0
 11
12.0
 21
9.0
 12
0.0
 22
0.0
 32
0.0
 14
0.0
 24
0.0
 34
0.0
 15
0.0
 25
0.0
 35
0.0
146
0.0
 13
0.0
 23
0.0
 33
0.0
 16
1.0
 26
0.0
 36
0.0
 17
0.0
 27
1.0
 37
0.0
 76
     0
330
1F
  0
MLINESTYLE
  5
18
102
{ACAD_REACTORS
330
17
102
}
330
17
100
AcDbMlineStyle
  2
STANDARD
 70
     0
  3

 62
   256
 51
90.0
 52
90.0
 71
     2
 49
0.5
 62
   256
  6
BYLAYER
 49
-0.5
 62
   256
  6
BYLAYER
  0
ACDBPLACEHOLDER
  5
F
102
{ACAD_REACTORS
330
E
102
}
330
E
  0
DICTIONARYVAR
  5
67
102
{ACAD_REACTORS
330
66
102
}
330
66
100
DictionaryVariables
280
     0
  1
2
  0
DICTIONARYVAR
  5
6B
102
{ACAD_REACTORS
330
66
102
}
330
66
100
DictionaryVariables
280
     0
  1
1
  0
ENDSEC
  0
EOF
