  0
SECTION
  2
HEADER
  9
$ACADVER
  1
AC1015
  9
$ACADMAINTVER
 70
    13
  9
$DWGCODEPAGE
  3
ANSI_1252
  9
$INSBASE
 10
0.0
 20
0.0
 30
0.0
  9
$EXTMIN
 10
1.000000000000000E+20
 20
1.000000000000000E+20
 30
1.000000000000000E+20
  9
$EXTMAX
 10
-1.000000000000000E+20
 20
-1.000000000000000E+20
 30
-1.000000000000000E+20
  9
$LIMMIN
 10
0.0
 20
0.0
  9
$LIMMAX
 10
12.0
 20
9.0
  9
$ORTHOMODE
 70
     0
  9
$REGENMODE
 70
     1
  9
$FILLMODE
 70
     1
  9
$QTEXTMODE
 70
     0
  9
$MIRRTEXT
 70
     1
  9
$LTSCALE
 40
0.3
  9
$ATTMODE
 70
     1
  9
$TEXTSIZE
 40
0.2
  9
$TRACEWID
 40
0.05
  9
$TEXTSTYLE
  7
Standard
  9
$CLAYER
  8
0
  9
$CELTYPE
  6
ByLayer
  9
$CECOLOR
 62
   256
  9
$CELTSCALE
 40
0.3
  9
$DISPSILH
 70
     0
  9
$DIMSCALE
 40
1.0
  9
$DIMASZ
 40
0.125
  9
$DIMEXO
 40
0.0625
  9
$DIMDLI
 40
0.38
  9
$DIMRND
 40
0.0
  9
$DIMDLE
 40
0.0
  9
$DIMEXE
 40
0.18
  9
$DIMTP
 40
0.0
  9
$DIMTM
 40
0.0
  9
$DIMTXT
 40
0.125
  9
$DIMCEN
 40
0.09
  9
$DIMTSZ
 40
0.0
  9
$DIMTOL
 70
     0
  9
$DIMLIM
 70
     0
  9
$DIMTIH
 70
     1
  9
$DIMTOH
 70
     1
  9
$DIMSE1
 70
     0
  9
$DIMSE2
 70
     0
  9
$DIMTAD
 70
     0
  9
$DIMZIN
 70
     0
  9
$DIMBLK
  1

  9
$DIMASO
 70
     1
  9
$DIMSHO
 70
     1
  9
$DIMPOST
  1

  9
$DIMAPOST
  1

  9
$DIMALT
 70
     0
  9
$DIMALTD
 70
     2
  9
$DIMALTF
 40
25.4
  9
$DIMLFAC
 40
1.0
  9
$DIMTOFL
 70
     0
  9
$DIMTVP
 40
0.0
  9
$DIMTIX
 70
     0
  9
$DIMSOXD
 70
     0
  9
$DIMSAH
 70
     0
  9
$DIMBLK1
  1

  9
$DIMBLK2
  1

  9
$DIMSTYLE
  2
Standard
  9
$DIMCLRD
 70
     0
  9
$DIMCLRE
 70
     0
  9
$DIMCLRT
 70
     0
  9
$DIMTFAC
 40
1.0
  9
$DIMGAP
 40
0.09
  9
$DIMJUST
 70
     0
  9
$DIMSD1
 70
     0
  9
$DIMSD2
 70
     0
  9
$DIMTOLJ
 70
     1
  9
$DIMTZIN
 70
     0
  9
$DIMALTZ
 70
     0
  9
$DIMALTTZ
 70
     0
  9
$DIMUPT
 70
     0
  9
$DIMDEC
 70
     3
  9
$DIMTDEC
 70
     3
  9
$DIMALTU
 70
     2
  9
$DIMALTTD
 70
     2
  9
$DIMTXSTY
  7
Standard
  9
$DIMAUNIT
 70
     0
  9
$DIMADEC
 70
     0
  9
$DIMALTRND
 40
0.0
  9
$DIMAZIN
 70
     0
  9
$DIMDSEP
 70
    46
  9
$DIMATFIT
 70
     3
  9
$DIMFRAC
 70
     0
  9
$DIMLDRBLK
  1

  9
$DIMLUNIT
 70
     2
  9
$DIMLWD
 70
    -2
  9
$DIMLWE
 70
    -2
  9
$DIMTMOVE
 70
     0
  9
$LUNITS
 70
     2
  9
$LUPREC
 70
     4
  9
$SKETCHINC
 40
0.1
  9
$FILLETRAD
 40
0.5
  9
$AUNITS
 70
     0
  9
$AUPREC
 70
     0
  9
$MENU
  1
.
  9
$ELEVATION
 40
0.0
  9
$PELEVATION
 40
0.0
  9
$THICKNESS
 40
0.0
  9
$LIMCHECK
 70
     0
  9
$CHAMFERA
 40
0.5
  9
$CHAMFERB
 40
0.5
  9
$CHAMFERC
 40
1.0
  9
$CHAMFERD
 40
0.0
  9
$SKPOLY
 70
     0
  9
$TDCREATE
 40
2454293.759598379
  9
$TDUCREATE
 40
2454293.926265046
  9
$TDUPDATE
 40
2455652.873626840
  9
$TDUUPDATE
 40
2455653.040293507
  9
$TDINDWG
 40
0.1478730556
  9
$TDUSRTIMER
 40
0.1478723264
  9
$USRTIMER
 70
     1
  9
$ANGBASE
 50
0.0
  9
$ANGDIR
 70
     0
  9
$PDMODE
 70
     0
  9
$PDSIZE
 40
0.0
  9
$PLINEWID
 40
0.0
  9
$SPLFRAME
 70
     0
  9
$SPLINETYPE
 70
     6
  9
$SPLINESEGS
 70
     8
  9
$HANDSEED
  5
B22
  9
$SURFTAB1
 70
     6
  9
$SURFTAB2
 70
     6
  9
$SURFTYPE
 70
     6
  9
$SURFU
 70
     6
  9
$SURFV
 70
     6
  9
$UCSBASE
  2

  9
$UCSNAME
  2

  9
$UCSORG
 10
0.0
 20
0.0
 30
0.0
  9
$UCSXDIR
 10
1.0
 20
0.0
 30
0.0
  9
$UCSYDIR
 10
0.0
 20
1.0
 30
0.0
  9
$UCSORTHOREF
  2

  9
$UCSORTHOVIEW
 70
     0
  9
$UCSORGTOP
 10
0.0
 20
0.0
 30
0.0
  9
$UCSORGBOTTOM
 10
0.0
 20
0.0
 30
0.0
  9
$UCSORGLEFT
 10
0.0
 20
0.0
 30
0.0
  9
$UCSORGRIGHT
 10
0.0
 20
0.0
 30
0.0
  9
$UCSORGFRONT
 10
0.0
 20
0.0
 30
0.0
  9
$UCSORGBACK
 10
0.0
 20
0.0
 30
0.0
  9
$PUCSBASE
  2

  9
$PUCSNAME
  2

  9
$PUCSORG
 10
0.0
 20
0.0
 30
0.0
  9
$PUCSXDIR
 10
1.0
 20
0.0
 30
0.0
  9
$PUCSYDIR
 10
0.0
 20
1.0
 30
0.0
  9
$PUCSORTHOREF
  2

  9
$PUCSORTHOVIEW
 70
     0
  9
$PUCSORGTOP
 10
0.0
 20
0.0
 30
0.0
  9
$PUCSORGBOTTOM
 10
0.0
 20
0.0
 30
0.0
  9
$PUCSORGLEFT
 10
0.0
 20
0.0
 30
0.0
  9
$PUCSORGRIGHT
 10
0.0
 20
0.0
 30
0.0
  9
$PUCSORGFRONT
 10
0.0
 20
0.0
 30
0.0
  9
$PUCSORGBACK
 10
0.0
 20
0.0
 30
0.0
  9
$USERI1
 70
     0
  9
$USERI2
 70
     0
  9
$USERI3
 70
     0
  9
$USERI4
 70
     0
  9
$USERI5
 70
     0
  9
$USERR1
 40
0.0
  9
$USERR2
 40
0.0
  9
$USERR3
 40
0.0
  9
$USERR4
 40
0.0
  9
$USERR5
 40
0.0
  9
$WORLDVIEW
 70
     1
  9
$SHADEDGE
 70
     3
  9
$SHADEDIF
 70
    70
  9
$TILEMODE
 70
     0
  9
$MAXACTVP
 70
    64
  9
$PINSBASE
 10
0.0
 20
0.0
 30
0.0
  9
$PLIMCHECK
 70
     0
  9
$PEXTMIN
 10
0.2965759179903777
 20
0.5900508454536873
 30
0.0
  9
$PEXTMAX
 10
20.29657591799038
 20
16.09005084545367
 30
0.0
  9
$PLIMMIN
 10
-0.2958330770177166
 20
-0.2958333210682306
  9
$PLIMMAX
 10
21.7041664423905
 20
16.70416619833997
  9
$UNITMODE
 70
     0
  9
$VISRETAIN
 70
     1
  9
$PLINEGEN
 70
     0
  9
$PSLTSCALE
 70
     0
  9
$TREEDEPTH
 70
  3020
  9
$CMLSTYLE
  2
Standard
  9
$CMLJUST
 70
     0
  9
$CMLSCALE
 40
1.0
  9
$PROXYGRAPHICS
 70
     1
  9
$MEASUREMENT
 70
     0
  9
$CELWEIGHT
370
    -1
  9
$ENDCAPS
280
     0
  9
$JOINSTYLE
280
     0
  9
$LWDISPLAY
290
     0
  9
$INSUNITS
 70
     1
  9
$HYPERLINKBASE
  1

  9
$STYLESHEET
  1

  9
$XEDIT
290
     1
  9
$CEPSNTYPE
380
     0
  9
$PSTYLEMODE
290
     1
  9
$FINGERPRINTGUID
  2
{FDEAD576-A652-11D2-9A35-0060089B3A3F}
  9
$VERSIONGUID
  2
{1F5C516D-08A6-48B2-B0D3-1D2C543B6915}
  9
$EXTNAMES
290
     1
  9
$PSVPSCALE
 40
0.0
  9
$OLESTARTUP
290
     0
  0
ENDSEC
  0
SECTION
  2
CLASSES
  0
CLASS
  1
ACDBDICTIONARYWDFLT
  2
AcDbDictionaryWithDefault
  3
AutoCAD 2000
 90
        0
280
     0
281
     0
  0
CLASS
  1
ACDBPLACEHOLDER
  2
AcDbPlaceHolder
  3
AutoCAD 2000
 90
        0
280
     0
281
     0
  0
CLASS
  1
LAYOUT
  2
AcDbLayout
  3
AutoCAD 2000
 90
        0
280
     0
281
     0
  0
CLASS
  1
DICTIONARYVAR
  2
AcDbDictionaryVar
  3
AutoCAD 2000
 90
        0
280
     0
281
     0
  0
CLASS
  1
DIMASSOC
  2
AcDbDimAssoc
  3
"AcDbDimAssoc|Product Desc:     AcDim ARX App For Dimension|Company:          Autodesk, Inc.|WEB Address:      www.autodesk.com"
 90
        0
280
     0
281
     0
  0
ENDSEC
  0
SECTION
  2
TABLES
  0
TABLE
  2
VPORT
  5
8
330
0
100
AcDbSymbolTable
 70
     1
  0
VPORT
  5
74
330
8
100
AcDbSymbolTableRecord
100
AcDbViewportTableRecord
  2
*Active
 70
     0
 10
0.0
 20
0.0
 11
1.0
 21
1.0
 12
17.17250295541469
 22
9.784138269231398
 13
0.0
 23
0.0
 14
0.5
 24
0.5
 15
0.5
 25
0.5
 16
0.0
 26
0.0
 36
1.0
 17
0.0
 27
0.0
 37
0.0
 40
19.56827653846278
 41
1.755136986301369
 42
50.0
 43
0.0
 44
0.0
 50
0.0
 51
0.0
 71
     0
 72
   100
 73
     1
 74
     3
 75
     0
 76
     0
 77
     0
 78
     0
281
     0
 65
     1
110
0.0
120
0.0
130
0.0
111
1.0
121
0.0
131
0.0
112
0.0
122
1.0
132
0.0
 79
     0
146
0.0
  0
ENDTAB
  0
TABLE
  2
LTYPE
  5
5
330
0
100
AcDbSymbolTable
 70
     3
  0
LTYPE
  5
14
330
5
100
AcDbSymbolTableRecord
100
AcDbLinetypeTableRecord
  2
ByBlock
 70
     0
  3

 72
    65
 73
     0
 40
0.0
  0
LTYPE
  5
15
330
5
100
AcDbSymbolTableRecord
100
AcDbLinetypeTableRecord
  2
ByLayer
 70
     0
  3

 72
    65
 73
     0
 40
0.0
  0
LTYPE
  5
16
330
5
100
AcDbSymbolTableRecord
100
AcDbLinetypeTableRecord
  2
Continuous
 70
     0
  3
Solid line
 72
    65
 73
     0
 40
0.0
  0
LTYPE
  5
7C
330
5
100
AcDbSymbolTableRecord
100
AcDbLinetypeTableRecord
  2
HIDDENX2
 70
     0
  3
Hidden (2x) ____ ____ ____ ____ ____ ____ ____
 72
    65
 73
     2
 40
0.75
 49
0.5
 74
     0
 49
-0.25
 74
     0
  0
LTYPE
  5
7D
330
5
100
AcDbSymbolTableRecord
100
AcDbLinetypeTableRecord
  2
threads
 70
     0
  3
Zig zag /\/\/\/\/\/\/\/\/\/\/\/\/\/\/\/\/\/\/\/
 72
    65
 73
     4
 40
0.8001000000000001
 49
0.0001
 74
     0
 49
-0.2
 74
     4
 75
   131
340
7B
 46
0.2
 50
0.0
 44
-0.2
 45
0.0
 49
-0.4
 74
     4
 75
   131
340
7B
 46
0.2
 50
180.0
 44
0.2
 45
0.0
 49
-0.2
 74
     0
  0
ENDTAB
  0
TABLE
  2
LAYER
  5
2
330
0
100
AcDbSymbolTable
 70
     2
  0
LAYER
  5
10
330
2
100
AcDbSymbolTableRecord
100
AcDbLayerTableRecord
  2
0
 70
     0
 62
     7
  6
Continuous
370
    -3
390
F
  0
LAYER
  5
83
330
2
100
AcDbSymbolTableRecord
100
AcDbLayerTableRecord
  2
Defpoints
 70
     0
 62
     7
  6
Continuous
290
     0
370
    -3
390
F
  0
ENDTAB
  0
TABLE
  2
STYLE
  5
3
330
0
100
AcDbSymbolTable
 70
     2
  0
STYLE
  5
11
330
3
100
AcDbSymbolTableRecord
100
AcDbTextStyleTableRecord
  2
Standard
 70
     0
 40
0.0
 41
1.0
 50
0.0
 71
     0
 42
0.2
  3
txt
  4

  0
STYLE
  5
7B
330
3
100
AcDbSymbolTableRecord
100
AcDbTextStyleTableRecord
  2

 70
     1
 40
0.0
 41
1.0
 50
0.0
 71
     0
 42
0.2
  3
ltypeshp.shx
  4

  0
ENDTAB
  0
TABLE
  2
VIEW
  5
6
330
0
100
AcDbSymbolTable
 70
     0
  0
ENDTAB
  0
TABLE
  2
UCS
  5
7
330
0
100
AcDbSymbolTable
 70
     0
  0
ENDTAB
  0
TABLE
  2
APPID
  5
9
330
0
100
AcDbSymbolTable
 70
     1
  0
APPID
  5
12
330
9
100
AcDbSymbolTableRecord
100
AcDbRegAppTableRecord
  2
ACAD
 70
     0
  0
ENDTAB
  0
TABLE
  2
DIMSTYLE
  5
A
330
0
100
AcDbSymbolTable
 70
     1
100
AcDbDimStyleTable
 71
     1
340
27
  0
DIMSTYLE
105
27
102
{ACAD_REACTORS
330
261
330
26F
330
272
330
294
330
2B1
330
2B4
330
2B7
330
2C6
330
2C9
330
2D9
330
2DC
330
2DF
330
2E2
330
549
330
55F
330
58B
330
5A1
330
5BB
330
5D5
330
5EF
330
609
330
623
330
744
330
84E
330
882
330
8CD
330
8EB
330
A6E
330
A92
330
AAC
330
AC6
330
AE1
102
}
330
A
100
AcDbSymbolTableRecord
100
AcDbDimStyleTableRecord
  2
Standard
 70
     0
 41
0.125
140
0.125
271
     3
272
     3
340
11
  0
ENDTAB
  0
TABLE
  2
BLOCK_RECORD
  5
1
330
0
100
AcDbSymbolTable
 70
    39
  0
BLOCK_RECORD
  5
1F
330
1
100
AcDbSymbolTableRecord
100
AcDbBlockTableRecord
  2
*Model_Space
340
22
  0
BLOCK_RECORD
  5
58
330
1
100
AcDbSymbolTableRecord
100
AcDbBlockTableRecord
  2
*Paper_Space
340
59
  0
BLOCK_RECORD
  5
5D
330
1
100
AcDbSymbolTableRecord
100
AcDbBlockTableRecord
  2
*Paper_Space0
340
5E
  0
BLOCK_RECORD
  5
2F6
330
1
100
AcDbSymbolTableRecord
100
AcDbBlockTableRecord
  2
*D1
340
0
  0
BLOCK_RECORD
  5
303
330
1
100
AcDbSymbolTableRecord
100
AcDbBlockTableRecord
  2
*D2
340
0
  0
BLOCK_RECORD
  5
310
330
1
100
AcDbSymbolTableRecord
100
AcDbBlockTableRecord
  2
*D3
340
0
  0
BLOCK_RECORD
  5
32A
330
1
100
AcDbSymbolTableRecord
100
AcDbBlockTableRecord
  2
*D4
340
0
  0
BLOCK_RECORD
  5
35C
330
1
100
AcDbSymbolTableRecord
100
AcDbBlockTableRecord
  2
*D6
340
0
  0
BLOCK_RECORD
  5
367
330
1
100
AcDbSymbolTableRecord
100
AcDbBlockTableRecord
  2
*D7
340
0
  0
BLOCK_RECORD
  5
372
330
1
100
AcDbSymbolTableRecord
100
AcDbBlockTableRecord
  2
*D8
340
0
  0
BLOCK_RECORD
  5
38A
330
1
100
AcDbSymbolTableRecord
100
AcDbBlockTableRecord
  2
*D9
340
0
  0
BLOCK_RECORD
  5
397
330
1
100
AcDbSymbolTableRecord
100
AcDbBlockTableRecord
  2
*D10
340
0
  0
BLOCK_RECORD
  5
3A4
330
1
100
AcDbSymbolTableRecord
100
AcDbBlockTableRecord
  2
*D11
340
0
  0
BLOCK_RECORD
  5
3AF
330
1
100
AcDbSymbolTableRecord
100
AcDbBlockTableRecord
  2
*D12
340
0
  0
BLOCK_RECORD
  5
3BA
330
1
100
AcDbSymbolTableRecord
100
AcDbBlockTableRecord
  2
*D13
340
0
  0
BLOCK_RECORD
  5
3C5
330
1
100
AcDbSymbolTableRecord
100
AcDbBlockTableRecord
  2
*D14
340
0
  0
BLOCK_RECORD
  5
54A
330
1
100
AcDbSymbolTableRecord
100
AcDbBlockTableRecord
  2
*D15
340
0
  0
BLOCK_RECORD
  5
560
330
1
100
AcDbSymbolTableRecord
100
AcDbBlockTableRecord
  2
*D16
340
0
  0
BLOCK_RECORD
  5
58C
330
1
100
AcDbSymbolTableRecord
100
AcDbBlockTableRecord
  2
*D17
340
0
  0
BLOCK_RECORD
  5
5A2
330
1
100
AcDbSymbolTableRecord
100
AcDbBlockTableRecord
  2
*D18
340
0
  0
BLOCK_RECORD
  5
5BC
330
1
100
AcDbSymbolTableRecord
100
AcDbBlockTableRecord
  2
*D19
340
0
  0
BLOCK_RECORD
  5
5D6
330
1
100
AcDbSymbolTableRecord
100
AcDbBlockTableRecord
  2
*D20
340
0
  0
BLOCK_RECORD
  5
5F0
330
1
100
AcDbSymbolTableRecord
100
AcDbBlockTableRecord
  2
*D21
340
0
  0
BLOCK_RECORD
  5
60A
330
1
100
AcDbSymbolTableRecord
100
AcDbBlockTableRecord
  2
*D22
340
0
  0
BLOCK_RECORD
  5
624
330
1
100
AcDbSymbolTableRecord
100
AcDbBlockTableRecord
  2
*D23
340
0
  0
BLOCK_RECORD
  5
745
330
1
100
AcDbSymbolTableRecord
100
AcDbBlockTableRecord
  2
*D24
340
0
  0
BLOCK_RECORD
  5
84F
330
1
100
AcDbSymbolTableRecord
100
AcDbBlockTableRecord
  2
*D25
340
0
  0
BLOCK_RECORD
  5
883
330
1
100
AcDbSymbolTableRecord
100
AcDbBlockTableRecord
  2
*D27
340
0
  0
BLOCK_RECORD
  5
8CE
330
1
100
AcDbSymbolTableRecord
100
AcDbBlockTableRecord
  2
*D28
340
0
  0
BLOCK_RECORD
  5
8EC
330
1
100
AcDbSymbolTableRecord
100
AcDbBlockTableRecord
  2
*D29
340
0
  0
BLOCK_RECORD
  5
A6F
330
1
100
AcDbSymbolTableRecord
100
AcDbBlockTableRecord
  2
*D34
340
0
  0
BLOCK_RECORD
  5
A93
330
1
100
AcDbSymbolTableRecord
100
AcDbBlockTableRecord
  2
*D35
340
0
  0
BLOCK_RECORD
  5
AAD
330
1
100
AcDbSymbolTableRecord
100
AcDbBlockTableRecord
  2
*D36
340
0
  0
BLOCK_RECORD
  5
AC7
330
1
100
AcDbSymbolTableRecord
100
AcDbBlockTableRecord
  2
*D37
340
0
  0
BLOCK_RECORD
  5
AE2
330
1
100
AcDbSymbolTableRecord
100
AcDbBlockTableRecord
  2
*D38
340
0
  0
ENDTAB
  0
ENDSEC
  0
SECTION
  2
BLOCKS
  0
BLOCK
  5
20
330
1F
100
AcDbEntity
  8
0
100
AcDbBlockBegin
  2
*Model_Space
 70
     0
 10
0.0
 20
0.0
 30
0.0
  3
*Model_Space
  1

  0
ENDBLK
  5
21
330
1F
100
AcDbEntity
  8
0
100
AcDbBlockEnd
  0
BLOCK
  5
5A
330
58
100
AcDbEntity
 67
     1
  8
0
100
AcDbBlockBegin
  2
*Paper_Space
 70
     0
 10
0.0
 20
0.0
 30
0.0
  3
*Paper_Space
  1

  0
ENDBLK
  5
5B
330
58
100
AcDbEntity
 67
     1
  8
0
100
AcDbBlockEnd
  0
BLOCK
  5
5F
330
5D
100
AcDbEntity
  8
0
100
AcDbBlockBegin
  2
*Paper_Space0
 70
     0
 10
0.0
 20
0.0
 30
0.0
  3
*Paper_Space0
  1

  0
ENDBLK
  5
60
330
5D
100
AcDbEntity
  8
0
100
AcDbBlockEnd
  0
BLOCK
  5
301
330
2F6
100
AcDbEntity
  8
0
 48
0.3
100
AcDbBlockBegin
  2
*D1
 70
     1
 10
0.0
 20
0.0
 30
0.0
  3
*D1
  1

  0
LINE
  5
647
330
2F6
100
AcDbEntity
  8
0
 62
     0
 48
0.3
370
    -2
100
AcDbLine
 10
13.35661122298535
 20
13.12403056541514
 30
0.0
 11
13.35661122298535
 21
12.09572173582292
 31
0.0
  0
LINE
  5
648
330
2F6
100
AcDbEntity
  8
0
 62
     0
 48
0.3
370
    -2
100
AcDbLine
 10
4.11122029167241
 20
13.12403056541514
 30
0.0
 11
4.11122029167241
 21
12.09572173582292
 31
0.0
  0
LINE
  5
649
330
2F6
100
AcDbEntity
  8
0
 62
     0
 48
0.3
370
    -2
100
AcDbLine
 10
13.23161122298535
 20
12.27572173582292
 30
0.0
 11
7.127192991012544
 21
12.27572173582292
 31
0.0
  0
LINE
  5
64A
330
2F6
100
AcDbEntity
  8
0
 62
     0
 48
0.3
370
    -2
100
AcDbLine
 10
4.23622029167241
 20
12.27572173582292
 30
0.0
 11
6.322192991012546
 21
12.27572173582292
 31
0.0
  0
SOLID
  5
64B
330
2F6
100
AcDbEntity
  8
0
 62
     0
 48
0.3
100
AcDbTrace
 10
13.23161122298535
 20
12.29655506915625
 30
0.0
 11
13.23161122298535
 21
12.25488840248958
 31
0.0
 12
13.35661122298535
 22
12.27572173582292
 32
0.0
 13
13.35661122298535
 23
12.27572173582292
 33
0.0
  0
SOLID
  5
64C
330
2F6
100
AcDbEntity
  8
0
 62
     0
 48
0.3
100
AcDbTrace
 10
4.23622029167241
 20
12.29655506915625
 30
0.0
 11
4.23622029167241
 21
12.25488840248958
 31
0.0
 12
4.11122029167241
 22
12.27572173582292
 32
0.0
 13
4.11122029167241
 23
12.27572173582292
 33
0.0
  0
MTEXT
  5
64D
330
2F6
100
AcDbEntity
  8
0
 62
     0
 48
0.3
100
AcDbMText
 10
6.724692991012545
 20
12.27572173582292
 30
0.0
 40
0.125
 41
0.0
 71
     5
 72
     1
  1
\A1;26.595
 73
     1
 44
1.0
  0
POINT
  5
64E
330
2F6
100
AcDbEntity
  8
Defpoints
 62
     0
 48
0.3
100
AcDbPoint
 10
13.35661122298535
 20
13.18653056541513
 30
0.0
  0
POINT
  5
64F
330
2F6
100
AcDbEntity
  8
Defpoints
 62
     0
 48
0.3
100
AcDbPoint
 10
4.11122029167241
 20
13.18653056541513
 30
0.0
  0
POINT
  5
650
330
2F6
100
AcDbEntity
  8
Defpoints
 62
     0
 48
0.3
100
AcDbPoint
 10
4.11122029167241
 20
12.27572173582292
 30
0.0
  0
ENDBLK
  5
302
330
2F6
100
AcDbEntity
  8
0
 48
0.3
100
AcDbBlockEnd
  0
BLOCK
  5
30E
330
303
100
AcDbEntity
  8
0
 48
0.3
100
AcDbBlockBegin
  2
*D2
 70
     1
 10
0.0
 20
0.0
 30
0.0
  3
*D2
  1

  0
LINE
  5
65B
330
303
100
AcDbEntity
  8
0
 62
     0
 48
0.3
370
    -2
100
AcDbLine
 10
1.911220291672407
 20
13.28028056541514
 30
0.0
 11
1.911220291672407
 21
12.09406607265821
 31
0.0
  0
LINE
  5
65C
330
303
100
AcDbEntity
  8
0
 62
     0
 48
0.3
370
    -2
100
AcDbLine
 10
4.11122029167241
 20
13.28028056541514
 30
0.0
 11
4.11122029167241
 21
12.09406607265821
 31
0.0
  0
LINE
  5
65D
330
303
100
AcDbEntity
  8
0
 62
     0
 48
0.3
370
    -2
100
AcDbLine
 10
2.036220291672407
 20
12.2740660726582
 30
0.0
 11
2.69205362500574
 21
12.2740660726582
 31
0.0
  0
LINE
  5
65E
330
303
100
AcDbEntity
  8
0
 62
     0
 48
0.3
370
    -2
100
AcDbLine
 10
3.98622029167241
 20
12.2740660726582
 30
0.0
 11
3.330386958339075
 21
12.2740660726582
 31
0.0
  0
SOLID
  5
65F
330
303
100
AcDbEntity
  8
0
 62
     0
 48
0.3
100
AcDbTrace
 10
2.036220291672407
 20
12.29489940599155
 30
0.0
 11
2.036220291672407
 21
12.25323273932488
 31
0.0
 12
1.911220291672407
 22
12.2740660726582
 32
0.0
 13
1.911220291672407
 23
12.2740660726582
 33
0.0
  0
SOLID
  5
660
330
303
100
AcDbEntity
  8
0
 62
     0
 48
0.3
100
AcDbTrace
 10
3.98622029167241
 20
12.29489940599155
 30
0.0
 11
3.98622029167241
 21
12.25323273932488
 31
0.0
 12
4.11122029167241
 22
12.2740660726582
 32
0.0
 13
4.11122029167241
 23
12.2740660726582
 33
0.0
  0
MTEXT
  5
661
330
303
100
AcDbEntity
  8
0
 62
     0
 48
0.3
100
AcDbMText
 10
3.011220291672407
 20
12.2740660726582
 30
0.0
 40
0.125
 41
0.0
 71
     5
 72
     1
  1
\A1;2.200
 73
     1
 44
1.0
  0
POINT
  5
662
330
303
100
AcDbEntity
  8
Defpoints
 62
     0
 48
0.3
100
AcDbPoint
 10
1.911220291672407
 20
13.34278056541513
 30
0.0
  0
POINT
  5
663
330
303
100
AcDbEntity
  8
Defpoints
 62
     0
 48
0.3
100
AcDbPoint
 10
4.11122029167241
 20
13.34278056541513
 30
0.0
  0
POINT
  5
664
330
303
100
AcDbEntity
  8
Defpoints
 62
     0
 48
0.3
100
AcDbPoint
 10
4.11122029167241
 20
12.2740660726582
 30
0.0
  0
ENDBLK
  5
30F
330
303
100
AcDbEntity
  8
0
 48
0.3
100
AcDbBlockEnd
  0
BLOCK
  5
31B
330
310
100
AcDbEntity
  8
0
 48
0.3
100
AcDbBlockBegin
  2
*D3
 70
     1
 10
0.0
 20
0.0
 30
0.0
  3
*D3
  1

  0
LINE
  5
665
330
310
100
AcDbEntity
  8
0
 62
     0
 48
0.3
370
    -2
100
AcDbLine
 10
1.911220291672407
 20
13.71778056541514
 30
0.0
 11
1.911220291672407
 21
14.31585218103156
 31
0.0
  0
LINE
  5
666
330
310
100
AcDbEntity
  8
0
 62
     0
 48
0.3
370
    -2
100
AcDbLine
 10
2.411220291672406
 20
13.71778056541514
 30
0.0
 11
2.411220291672406
 21
14.31585218103156
 31
0.0
  0
LINE
  5
667
330
310
100
AcDbEntity
  8
0
 62
     0
 48
0.3
370
    -2
100
AcDbLine
 10
2.036220291672407
 20
14.13585218103156
 30
0.0
 11
2.286220291672406
 21
14.13585218103156
 31
0.0
  0
LINE
  5
668
330
310
100
AcDbEntity
  8
0
 62
     0
 48
0.3
370
    -2
100
AcDbLine
 10
2.411220291672406
 20
14.13585218103156
 30
0.0
 11
2.536220291672406
 21
14.13585218103156
 31
0.0
  0
SOLID
  5
669
330
310
100
AcDbEntity
  8
0
 62
     0
 48
0.3
100
AcDbTrace
 10
2.036220291672407
 20
14.15668551436489
 30
0.0
 11
2.036220291672407
 21
14.11501884769822
 31
0.0
 12
1.911220291672407
 22
14.13585218103156
 32
0.0
 13
1.911220291672407
 23
14.13585218103156
 33
0.0
  0
SOLID
  5
66A
330
310
100
AcDbEntity
  8
0
 62
     0
 48
0.3
100
AcDbTrace
 10
2.286220291672406
 20
14.15668551436489
 30
0.0
 11
2.286220291672406
 21
14.11501884769822
 31
0.0
 12
2.411220291672406
 22
14.13585218103156
 32
0.0
 13
2.411220291672406
 23
14.13585218103156
 33
0.0
  0
MTEXT
  5
66B
330
310
100
AcDbEntity
  8
0
 62
     0
 48
0.3
100
AcDbMText
 10
2.844970291672406
 20
14.13585218103156
 30
0.0
 40
0.125
 41
0.0
 71
     5
 72
     1
  1
\A1;0.500
 73
     1
 44
1.0
  0
POINT
  5
66C
330
310
100
AcDbEntity
  8
Defpoints
 62
     0
 48
0.3
100
AcDbPoint
 10
1.911220291672407
 20
13.65528056541513
 30
0.0
  0
POINT
  5
66D
330
310
100
AcDbEntity
  8
Defpoints
 62
     0
 48
0.3
100
AcDbPoint
 10
2.411220291672406
 20
13.65528056541513
 30
0.0
  0
POINT
  5
66E
330
310
100
AcDbEntity
  8
Defpoints
 62
     0
 48
0.3
100
AcDbPoint
 10
2.411220291672406
 20
14.13585218103156
 30
0.0
  0
ENDBLK
  5
31C
330
310
100
AcDbEntity
  8
0
 48
0.3
100
AcDbBlockEnd
  0
BLOCK
  5
333
330
32A
100
AcDbEntity
  8
0
 48
0.3
100
AcDbBlockBegin
  2
*D4
 70
     1
 10
0.0
 20
0.0
 30
0.0
  3
*D4
  1

  0
LINE
  5
7E4
330
32A
100
AcDbEntity
  8
0
 62
     0
 48
0.3
370
    -2
100
AcDbLine
 10
17.73977816517657
 20
9.834802022454907
 30
0.0
 11
17.61477816517657
 21
9.834802022454907
 31
0.0
  0
LINE
  5
7E5
330
32A
100
AcDbEntity
  8
0
 62
     0
 48
0.3
370
    -2
100
AcDbLine
 10
17.61477816517657
 20
9.834802022454907
 30
0.0
 11
17.39847945398575
 21
9.244995870712763
 31
0.0
  0
MTEXT
  5
7E6
330
32A
100
AcDbEntity
  8
0
 62
     0
 48
0.3
100
AcDbMText
 10
18.24644483184323
 20
9.834802022454907
 30
0.0
 40
0.125
 41
0.0
 71
     5
 72
     1
  1
\A1;5/8x.200
 73
     1
 44
1.0
  0
SOLID
  5
7E7
330
32A
100
AcDbEntity
  8
0
 62
     0
 48
0.3
100
AcDbTrace
 10
17.378919921519
 20
9.252168908246462
 30
0.0
 11
17.4180389864525
 21
9.237822833179064
 31
0.0
 12
17.35544122878355
 22
9.127638675912256
 32
0.0
 13
17.35544122878355
 23
9.127638675912256
 33
0.0
  0
LINE
  5
7E8
330
32A
100
AcDbEntity
  8
0
 62
     0
 48
0.3
370
    -2
100
AcDbLine
 10
17.15784566577805
 20
8.834245688910982
 30
0.0
 11
17.33784566577805
 21
8.834245688910979
 31
0.0
  0
LINE
  5
7E9
330
32A
100
AcDbEntity
  8
0
 62
     0
 48
0.3
370
    -2
100
AcDbLine
 10
17.24784566577805
 20
8.74424568891098
 30
0.0
 11
17.24784566577805
 21
8.924245688910982
 31
0.0
  0
POINT
  5
7EA
330
32A
100
AcDbEntity
  8
Defpoints
 62
     0
 48
0.3
100
AcDbPoint
 10
17.35544122878355
 20
9.127638675912256
 30
0.0
  0
POINT
  5
7EB
330
32A
100
AcDbEntity
  8
Defpoints
 62
     0
 48
0.3
100
AcDbPoint
 10
17.14025010277255
 20
8.540852701909704
 30
0.0
  0
ENDBLK
  5
334
330
32A
100
AcDbEntity
  8
0
 48
0.3
100
AcDbBlockEnd
  0
BLOCK
  5
365
330
35C
100
AcDbEntity
  8
0
 48
0.3
100
AcDbBlockBegin
  2
*D6
 70
     1
 10
0.0
 20
0.0
 30
0.0
  3
*D6
  1

  0
LINE
  5
6FD
330
35C
100
AcDbEntity
  8
0
 62
     0
 48
0.3
370
    -2
100
AcDbLine
 10
17.8627140960319
 20
8.122784345237143
 30
0.0
 11
17.68271409603192
 21
8.122784345237141
 31
0.0
  0
LINE
  5
6FE
330
35C
100
AcDbEntity
  8
0
 62
     0
 48
0.3
370
    -2
100
AcDbLine
 10
17.68271409603192
 20
8.122784345237141
 30
0.0
 11
17.39452472265263
 21
8.594273155536049
 31
0.0
  0
MTEXT
  5
6FF
330
35C
100
AcDbEntity
  8
0
 62
     0
 48
0.3
100
AcDbMText
 10
18.2964640960319
 20
8.122784345237143
 30
0.0
 40
0.125
 41
0.0
 71
     5
 72
     1
  1
\A1;%%c0.3125
 73
     1
 44
1.0
  0
SOLID
  5
700
330
35C
100
AcDbEntity
  8
0
 62
     0
 48
0.3
100
AcDbTrace
 10
17.41230046586559
 20
8.60513827086009
 30
0.0
 11
17.37674897943968
 21
8.583408040212004
 31
0.0
 12
17.32933403070837
 22
8.700927614813796
 32
0.0
 13
17.32933403070837
 23
8.700927614813796
 33
0.0
  0
LINE
  5
701
330
35C
100
AcDbEntity
  8
0
 62
     0
 48
0.3
370
    -2
100
AcDbLine
 10
17.15784566577806
 20
8.834245688910979
 30
0.0
 11
17.33784566577805
 21
8.834245688910979
 31
0.0
  0
LINE
  5
702
330
35C
100
AcDbEntity
  8
0
 62
     0
 48
0.3
370
    -2
100
AcDbLine
 10
17.24784566577805
 20
8.744245688910979
 30
0.0
 11
17.24784566577805
 21
8.924245688910977
 31
0.0
  0
POINT
  5
703
330
35C
100
AcDbEntity
  8
Defpoints
 62
     0
 48
0.3
100
AcDbPoint
 10
17.32933403070837
 20
8.700927614813796
 30
0.0
  0
POINT
  5
704
330
35C
100
AcDbEntity
  8
Defpoints
 62
     0
 48
0.3
100
AcDbPoint
 10
17.16635730084773
 20
8.967563763008156
 30
0.0
  0
ENDBLK
  5
366
330
35C
100
AcDbEntity
  8
0
 48
0.3
100
AcDbBlockEnd
  0
BLOCK
  5
370
330
367
100
AcDbEntity
  8
0
 48
0.3
100
AcDbBlockBegin
  2
*D7
 70
     1
 10
0.0
 20
0.0
 30
0.0
  3
*D7
  1

  0
LINE
  5
A05
330
367
100
AcDbEntity
  8
0
 62
     0
 48
0.3
370
    -2
100
AcDbLine
 10
17.95312251661601
 20
8.609011717290131
 30
0.0
 11
17.77312251661603
 21
8.60901171729013
 31
0.0
  0
LINE
  5
A06
330
367
100
AcDbEntity
  8
0
 62
     0
 48
0.3
370
    -2
100
AcDbLine
 10
17.77312251661603
 20
8.60901171729013
 30
0.0
 11
17.53505565240081
 21
8.711092639479968
 31
0.0
  0
MTEXT
  5
A07
330
367
100
AcDbEntity
  8
0
 62
     0
 48
0.3
100
AcDbMText
 10
18.39728918328267
 20
8.60901171729013
 30
0.0
 40
0.125
 41
0.0
 71
     5
 72
     1
  1
\A1;3/8-24
 73
     1
 44
1.0
  0
SOLID
  5
A08
330
367
100
AcDbEntity
  8
0
 62
     0
 48
0.3
100
AcDbTrace
 10
17.54326585569621
 20
8.730239971921488
 30
0.0
 11
17.52684544910541
 21
8.691945307038452
 31
0.0
 12
17.42017165775171
 22
8.760353859252372
 32
0.0
 13
17.42017165775171
 23
8.760353859252372
 33
0.0
  0
LINE
  5
A09
330
367
100
AcDbEntity
  8
0
 62
     0
 48
0.3
370
    -2
100
AcDbLine
 10
17.15784566577806
 20
8.834245688910979
 30
0.0
 11
17.33784566577805
 21
8.83424568891098
 31
0.0
  0
LINE
  5
A0A
330
367
100
AcDbEntity
  8
0
 62
     0
 48
0.3
370
    -2
100
AcDbLine
 10
17.24784566577805
 20
8.744245688910979
 30
0.0
 11
17.24784566577805
 21
8.924245688910978
 31
0.0
  0
POINT
  5
A0B
330
367
100
AcDbEntity
  8
Defpoints
 62
     0
 48
0.3
100
AcDbPoint
 10
17.42017165775171
 20
8.760353859252372
 30
0.0
  0
POINT
  5
A0C
330
367
100
AcDbEntity
  8
Defpoints
 62
     0
 48
0.3
100
AcDbPoint
 10
17.0755196738044
 20
8.908137518569587
 30
0.0
  0
ENDBLK
  5
371
330
367
100
AcDbEntity
  8
0
 48
0.3
100
AcDbBlockEnd
  0
BLOCK
  5
37B
330
372
100
AcDbEntity
  8
0
 48
0.3
100
AcDbBlockBegin
  2
*D8
 70
     1
 10
0.0
 20
0.0
 30
0.0
  3
*D8
  1

  0
LINE
  5
679
330
372
100
AcDbEntity
  8
0
 62
     0
 48
0.3
370
    -2
100
AcDbLine
 10
17.77655692477148
 20
9.027309070632957
 30
0.0
 11
17.65155692477148
 21
9.027309070632957
 31
0.0
  0
LINE
  5
67A
330
372
100
AcDbEntity
  8
0
 62
     0
 48
0.3
370
    -2
100
AcDbLine
 10
17.65155692477148
 20
9.027309070632957
 30
0.0
 11
17.53878841667277
 21
8.973380751716204
 31
0.0
  0
MTEXT
  5
67B
330
372
100
AcDbEntity
  8
0
 62
     0
 48
0.3
100
AcDbMText
 10
18.22072359143815
 20
9.027309070632957
 30
0.0
 40
0.125
 41
0.0
 71
     5
 72
     1
  1
\A1;%%c0.3930
 73
     1
 44
1.0
  0
SOLID
  5
67C
330
372
100
AcDbEntity
  8
0
 62
     0
 48
0.3
100
AcDbTrace
 10
17.52980036351998
 20
8.992175503065992
 30
0.0
 11
17.54777646982556
 21
8.954586000366418
 31
0.0
 12
17.42601990857404
 22
8.919452432799451
 32
0.0
 13
17.42601990857404
 23
8.919452432799451
 33
0.0
  0
LINE
  5
67D
330
372
100
AcDbEntity
  8
0
 62
     0
 48
0.3
370
    -2
100
AcDbLine
 10
17.15784566577805
 20
8.83424568891098
 30
0.0
 11
17.33784566577805
 21
8.83424568891098
 31
0.0
  0
LINE
  5
67E
330
372
100
AcDbEntity
  8
0
 62
     0
 48
0.3
370
    -2
100
AcDbLine
 10
17.24784566577805
 20
8.744245688910982
 30
0.0
 11
17.24784566577805
 21
8.924245688910982
 31
0.0
  0
POINT
  5
67F
330
372
100
AcDbEntity
  8
Defpoints
 62
     0
 48
0.3
100
AcDbPoint
 10
17.42601990857404
 20
8.919452432799451
 30
0.0
  0
POINT
  5
680
330
372
100
AcDbEntity
  8
Defpoints
 62
     0
 48
0.3
100
AcDbPoint
 10
17.06967142298206
 20
8.749038945022508
 30
0.0
  0
ENDBLK
  5
37C
330
372
100
AcDbEntity
  8
0
 48
0.3
100
AcDbBlockEnd
  0
BLOCK
  5
395
330
38A
100
AcDbEntity
  8
0
 48
0.3
100
AcDbBlockBegin
  2
*D9
 70
     1
 10
0.0
 20
0.0
 30
0.0
  3
*D9
  1

  0
LINE
  5
6D7
330
38A
100
AcDbEntity
  8
0
 62
     0
 48
0.3
370
    -2
100
AcDbLine
 10
15.55661122298535
 20
13.28028056541514
 30
0.0
 11
15.55661122298535
 21
12.09406607265821
 31
0.0
  0
LINE
  5
6D8
330
38A
100
AcDbEntity
  8
0
 62
     0
 48
0.3
370
    -2
100
AcDbLine
 10
13.35661122298535
 20
13.28028056541514
 30
0.0
 11
13.35661122298535
 21
12.09406607265821
 31
0.0
  0
LINE
  5
6D9
330
38A
100
AcDbEntity
  8
0
 62
     0
 48
0.3
370
    -2
100
AcDbLine
 10
15.43161122298536
 20
12.2740660726582
 30
0.0
 11
14.77577788965203
 21
12.2740660726582
 31
0.0
  0
LINE
  5
6DA
330
38A
100
AcDbEntity
  8
0
 62
     0
 48
0.3
370
    -2
100
AcDbLine
 10
13.48161122298535
 20
12.2740660726582
 30
0.0
 11
14.1374445563187
 21
12.2740660726582
 31
0.0
  0
SOLID
  5
6DB
330
38A
100
AcDbEntity
  8
0
 62
     0
 48
0.3
100
AcDbTrace
 10
15.43161122298536
 20
12.29489940599155
 30
0.0
 11
15.43161122298536
 21
12.25323273932488
 31
0.0
 12
15.55661122298535
 22
12.2740660726582
 32
0.0
 13
15.55661122298535
 23
12.2740660726582
 33
0.0
  0
SOLID
  5
6DC
330
38A
100
AcDbEntity
  8
0
 62
     0
 48
0.3
100
AcDbTrace
 10
13.48161122298535
 20
12.29489940599155
 30
0.0
 11
13.48161122298535
 21
12.25323273932488
 31
0.0
 12
13.35661122298535
 22
12.2740660726582
 32
0.0
 13
13.35661122298535
 23
12.2740660726582
 33
0.0
  0
MTEXT
  5
6DD
330
38A
100
AcDbEntity
  8
0
 62
     0
 48
0.3
100
AcDbMText
 10
14.45661122298536
 20
12.2740660726582
 30
0.0
 40
0.125
 41
0.0
 71
     5
 72
     1
  1
\A1;2.200
 73
     1
 44
1.0
  0
POINT
  5
6DE
330
38A
100
AcDbEntity
  8
Defpoints
 62
     0
 48
0.3
100
AcDbPoint
 10
15.55661122298535
 20
13.34278056541513
 30
0.0
  0
POINT
  5
6DF
330
38A
100
AcDbEntity
  8
Defpoints
 62
     0
 48
0.3
100
AcDbPoint
 10
13.35661122298535
 20
13.34278056541513
 30
0.0
  0
POINT
  5
6E0
330
38A
100
AcDbEntity
  8
Defpoints
 62
     0
 48
0.3
100
AcDbPoint
 10
13.35661122298535
 20
12.2740660726582
 30
0.0
  0
ENDBLK
  5
396
330
38A
100
AcDbEntity
  8
0
 48
0.3
100
AcDbBlockEnd
  0
BLOCK
  5
3A2
330
397
100
AcDbEntity
  8
0
 48
0.3
100
AcDbBlockBegin
  2
*D10
 70
     1
 10
0.0
 20
0.0
 30
0.0
  3
*D10
  1

  0
LINE
  5
6CD
330
397
100
AcDbEntity
  8
0
 62
     0
 48
0.3
370
    -2
100
AcDbLine
 10
15.55661122298535
 20
13.71778056541514
 30
0.0
 11
15.55661122298535
 21
14.31585218103156
 31
0.0
  0
LINE
  5
6CE
330
397
100
AcDbEntity
  8
0
 62
     0
 48
0.3
370
    -2
100
AcDbLine
 10
15.05661122298535
 20
13.71778056541514
 30
0.0
 11
15.05661122298535
 21
14.31585218103156
 31
0.0
  0
LINE
  5
6CF
330
397
100
AcDbEntity
  8
0
 62
     0
 48
0.3
370
    -2
100
AcDbLine
 10
15.43161122298536
 20
14.13585218103156
 30
0.0
 11
15.18161122298535
 21
14.13585218103156
 31
0.0
  0
LINE
  5
6D0
330
397
100
AcDbEntity
  8
0
 62
     0
 48
0.3
370
    -2
100
AcDbLine
 10
15.05661122298535
 20
14.13585218103156
 30
0.0
 11
14.93161122298535
 21
14.13585218103156
 31
0.0
  0
SOLID
  5
6D1
330
397
100
AcDbEntity
  8
0
 62
     0
 48
0.3
100
AcDbTrace
 10
15.43161122298536
 20
14.15668551436489
 30
0.0
 11
15.43161122298536
 21
14.11501884769822
 31
0.0
 12
15.55661122298535
 22
14.13585218103156
 32
0.0
 13
15.55661122298535
 23
14.13585218103156
 33
0.0
  0
SOLID
  5
6D2
330
397
100
AcDbEntity
  8
0
 62
     0
 48
0.3
100
AcDbTrace
 10
15.18161122298535
 20
14.15668551436489
 30
0.0
 11
15.18161122298535
 21
14.11501884769822
 31
0.0
 12
15.05661122298535
 22
14.13585218103156
 32
0.0
 13
15.05661122298535
 23
14.13585218103156
 33
0.0
  0
MTEXT
  5
6D3
330
397
100
AcDbEntity
  8
0
 62
     0
 48
0.3
100
AcDbMText
 10
14.62286122298535
 20
14.13585218103156
 30
0.0
 40
0.125
 41
0.0
 71
     5
 72
     1
  1
\A1;0.500
 73
     1
 44
1.0
  0
POINT
  5
6D4
330
397
100
AcDbEntity
  8
Defpoints
 62
     0
 48
0.3
100
AcDbPoint
 10
15.55661122298535
 20
13.65528056541513
 30
0.0
  0
POINT
  5
6D5
330
397
100
AcDbEntity
  8
Defpoints
 62
     0
 48
0.3
100
AcDbPoint
 10
15.05661122298535
 20
13.65528056541513
 30
0.0
  0
POINT
  5
6D6
330
397
100
AcDbEntity
  8
Defpoints
 62
     0
 48
0.3
100
AcDbPoint
 10
15.05661122298535
 20
14.13585218103156
 30
0.0
  0
ENDBLK
  5
3A3
330
397
100
AcDbEntity
  8
0
 48
0.3
100
AcDbBlockEnd
  0
BLOCK
  5
3AD
330
3A4
100
AcDbEntity
  8
0
 48
0.3
100
AcDbBlockBegin
  2
*D11
 70
     1
 10
0.0
 20
0.0
 30
0.0
  3
*D11
  1

  0
LINE
  5
A37
330
3A4
100
AcDbEntity
  8
0
 62
     0
 48
0.3
370
    -2
100
AcDbLine
 10
17.68170827751426
 20
13.28521255023673
 30
0.0
 11
17.55670827751426
 21
13.28521255023673
 31
0.0
  0
LINE
  5
A38
330
3A4
100
AcDbEntity
  8
0
 62
     0
 48
0.3
370
    -2
100
AcDbLine
 10
17.55670827751426
 20
13.28521255023673
 30
0.0
 11
17.44765367355969
 21
13.34630341171627
 31
0.0
  0
MTEXT
  5
A39
330
3A4
100
AcDbEntity
  8
0
 62
     0
 48
0.3
100
AcDbMText
 10
18.12587494418092
 20
13.28521255023673
 30
0.0
 40
0.125
 41
0.0
 71
     5
 72
     1
  1
\A1;3/8-24
 73
     1
 44
1.0
  0
SOLID
  5
A3A
330
3A4
100
AcDbEntity
  8
0
 62
     0
 48
0.3
100
AcDbTrace
 10
17.45783548380628
 20
13.36447917904203
 30
0.0
 11
17.4374718633131
 21
13.32812764439051
 31
0.0
 12
17.33859906960512
 22
13.40739427319582
 32
0.0
 13
17.33859906960512
 23
13.40739427319582
 33
0.0
  0
LINE
  5
A3B
330
3A4
100
AcDbEntity
  8
0
 62
     0
 48
0.3
370
    -2
100
AcDbLine
 10
17.08501716367327
 20
13.49903056541513
 30
0.0
 11
17.26501716367327
 21
13.49903056541513
 31
0.0
  0
LINE
  5
A3C
330
3A4
100
AcDbEntity
  8
0
 62
     0
 48
0.3
370
    -2
100
AcDbLine
 10
17.17501716367327
 20
13.40903056541513
 30
0.0
 11
17.17501716367327
 21
13.58903056541513
 31
0.0
  0
POINT
  5
A3D
330
3A4
100
AcDbEntity
  8
Defpoints
 62
     0
 48
0.3
100
AcDbPoint
 10
17.33859906960512
 20
13.40739427319582
 30
0.0
  0
POINT
  5
A3E
330
3A4
100
AcDbEntity
  8
Defpoints
 62
     0
 48
0.3
100
AcDbPoint
 10
17.01143525774142
 20
13.59066685763444
 30
0.0
  0
ENDBLK
  5
3AE
330
3A4
100
AcDbEntity
  8
0
 48
0.3
100
AcDbBlockEnd
  0
BLOCK
  5
3B8
330
3AF
100
AcDbEntity
  8
0
 48
0.3
100
AcDbBlockBegin
  2
*D12
 70
     1
 10
0.0
 20
0.0
 30
0.0
  3
*D12
  1

  0
LINE
  5
70D
330
3AF
100
AcDbEntity
  8
0
 62
     0
 48
0.3
370
    -2
100
AcDbLine
 10
17.67933834210935
 20
13.73645780393226
 30
0.0
 11
17.55433834210935
 21
13.73645780393226
 31
0.0
  0
LINE
  5
70E
330
3AF
100
AcDbEntity
  8
0
 62
     0
 48
0.3
370
    -2
100
AcDbLine
 10
17.55433834210935
 20
13.73645780393226
 30
0.0
 11
17.44838270567468
 21
13.67013734624592
 31
0.0
  0
MTEXT
  5
70F
330
3AF
100
AcDbEntity
  8
0
 62
     0
 48
0.3
100
AcDbMText
 10
18.12350500877601
 20
13.73645780393226
 30
0.0
 40
0.125
 41
0.0
 71
     5
 72
     1
  1
\A1;%%c0.3930
 73
     1
 44
1.0
  0
SOLID
  5
710
330
3AF
100
AcDbEntity
  8
0
 62
     0
 48
0.3
100
AcDbTrace
 10
17.43732929606029
 20
13.68779661898503
 30
0.0
 11
17.45943611528907
 21
13.65247807350681
 31
0.0
 12
17.34242706924002
 22
13.60381688855957
 32
0.0
 13
17.34242706924002
 23
13.60381688855957
 33
0.0
  0
LINE
  5
711
330
3AF
100
AcDbEntity
  8
0
 62
     0
 48
0.3
370
    -2
100
AcDbLine
 10
17.08501716367327
 20
13.49903056541513
 30
0.0
 11
17.26501716367327
 21
13.49903056541513
 31
0.0
  0
LINE
  5
712
330
3AF
100
AcDbEntity
  8
0
 62
     0
 48
0.3
370
    -2
100
AcDbLine
 10
17.17501716367327
 20
13.40903056541513
 30
0.0
 11
17.17501716367327
 21
13.58903056541513
 31
0.0
  0
POINT
  5
713
330
3AF
100
AcDbEntity
  8
Defpoints
 62
     0
 48
0.3
100
AcDbPoint
 10
17.34242706924002
 20
13.60381688855957
 30
0.0
  0
POINT
  5
714
330
3AF
100
AcDbEntity
  8
Defpoints
 62
     0
 48
0.3
100
AcDbPoint
 10
17.00760725810651
 20
13.39424424227069
 30
0.0
  0
ENDBLK
  5
3B9
330
3AF
100
AcDbEntity
  8
0
 48
0.3
100
AcDbBlockEnd
  0
BLOCK
  5
3C3
330
3BA
100
AcDbEntity
  8
0
 48
0.3
100
AcDbBlockBegin
  2
*D13
 70
     1
 10
0.0
 20
0.0
 30
0.0
  3
*D13
  1

  0
LINE
  5
715
330
3BA
100
AcDbEntity
  8
0
 62
     0
 48
0.3
370
    -2
100
AcDbLine
 10
17.45048388863721
 20
12.96298020061534
 30
0.0
 11
17.27048388863722
 21
12.96298020061534
 31
0.0
  0
LINE
  5
716
330
3BA
100
AcDbEntity
  8
0
 62
     0
 48
0.3
370
    -2
100
AcDbLine
 10
17.27048388863722
 20
12.96298020061534
 30
0.0
 11
17.22432984919381
 21
13.22213740633252
 31
0.0
  0
MTEXT
  5
717
330
3BA
100
AcDbEntity
  8
0
 62
     0
 48
0.3
100
AcDbMText
 10
17.88423388863721
 20
12.96298020061534
 30
0.0
 40
0.125
 41
0.0
 71
     5
 72
     1
  1
\A1;%%c0.3125
 73
     1
 44
1.0
  0
SOLID
  5
718
330
3BA
100
AcDbEntity
  8
0
 62
     0
 48
0.3
100
AcDbTrace
 10
17.2448404535703
 20
13.22579019785256
 30
0.0
 11
17.20381924481732
 21
13.21848461481248
 31
0.0
 12
17.20241310007357
 22
13.34520103259146
 32
0.0
 13
17.20241310007357
 23
13.34520103259146
 33
0.0
  0
LINE
  5
719
330
3BA
100
AcDbEntity
  8
0
 62
     0
 48
0.3
370
    -2
100
AcDbLine
 10
17.08501716367327
 20
13.49903056541513
 30
0.0
 11
17.26501716367327
 21
13.49903056541513
 31
0.0
  0
LINE
  5
71A
330
3BA
100
AcDbEntity
  8
0
 62
     0
 48
0.3
370
    -2
100
AcDbLine
 10
17.17501716367327
 20
13.40903056541514
 30
0.0
 11
17.17501716367327
 21
13.58903056541514
 31
0.0
  0
POINT
  5
71B
330
3BA
100
AcDbEntity
  8
Defpoints
 62
     0
 48
0.3
100
AcDbPoint
 10
17.20241310007357
 20
13.34520103259146
 30
0.0
  0
POINT
  5
71C
330
3BA
100
AcDbEntity
  8
Defpoints
 62
     0
 48
0.3
100
AcDbPoint
 10
17.14762122727298
 20
13.65286009823881
 30
0.0
  0
ENDBLK
  5
3C4
330
3BA
100
AcDbEntity
  8
0
 48
0.3
100
AcDbBlockEnd
  0
BLOCK
  5
3CE
330
3C5
100
AcDbEntity
  8
0
 48
0.3
100
AcDbBlockBegin
  2
*D14
 70
     1
 10
0.0
 20
0.0
 30
0.0
  3
*D14
  1

  0
LINE
  5
6AD
330
3C5
100
AcDbEntity
  8
0
 62
     0
 48
0.3
370
    -2
100
AcDbLine
 10
17.54179133923341
 20
14.00691982306115
 30
0.0
 11
17.41679133923341
 21
14.00691982306115
 31
0.0
  0
LINE
  5
6AE
330
3C5
100
AcDbEntity
  8
0
 62
     0
 48
0.3
370
    -2
100
AcDbLine
 10
17.41679133923341
 20
14.00691982306115
 30
0.0
 11
17.36306374466449
 21
13.89405554358426
 31
0.0
  0
MTEXT
  5
6AF
330
3C5
100
AcDbEntity
  8
0
 62
     0
 48
0.3
100
AcDbMText
 10
18.04845800590006
 20
14.00691982306115
 30
0.0
 40
0.125
 41
0.0
 71
     5
 72
     1
  1
\A1;5/8x.200
 73
     1
 44
1.0
  0
SOLID
  5
6B0
330
3C5
100
AcDbEntity
  8
0
 62
     0
 48
0.3
100
AcDbTrace
 10
17.34425303141834
 20
13.90301014267908
 30
0.0
 11
17.38187445791064
 21
13.88510094448943
 31
0.0
 12
17.30933615009557
 22
13.78119126410736
 32
0.0
 13
17.30933615009557
 23
13.78119126410736
 33
0.0
  0
LINE
  5
6B1
330
3C5
100
AcDbEntity
  8
0
 62
     0
 48
0.3
370
    -2
100
AcDbLine
 10
17.08501716367327
 20
13.49903056541514
 30
0.0
 11
17.26501716367327
 21
13.49903056541513
 31
0.0
  0
LINE
  5
6B2
330
3C5
100
AcDbEntity
  8
0
 62
     0
 48
0.3
370
    -2
100
AcDbLine
 10
17.17501716367327
 20
13.40903056541513
 30
0.0
 11
17.17501716367327
 21
13.58903056541514
 31
0.0
  0
POINT
  5
6B3
330
3C5
100
AcDbEntity
  8
Defpoints
 62
     0
 48
0.3
100
AcDbPoint
 10
17.30933615009557
 20
13.78119126410736
 30
0.0
  0
POINT
  5
6B4
330
3C5
100
AcDbEntity
  8
Defpoints
 62
     0
 48
0.3
100
AcDbPoint
 10
17.04069817725098
 20
13.2168698667229
 30
0.0
  0
ENDBLK
  5
3CF
330
3C5
100
AcDbEntity
  8
0
 48
0.3
100
AcDbBlockEnd
  0
BLOCK
  5
553
330
54A
100
AcDbEntity
  8
0
 48
0.3
100
AcDbBlockBegin
  2
*D15
 70
     1
 10
0.0
 20
0.0
 30
0.0
  3
*D15
  1

  0
LINE
  5
782
330
54A
100
AcDbEntity
  8
0
 62
     0
 48
0.3
370
    -2
100
AcDbLine
 10
18.03838019428663
 20
5.15632304912098
 30
0.0
 11
17.90296352761997
 21
5.156323049120981
 31
0.0
  0
LINE
  5
783
330
54A
100
AcDbEntity
  8
0
 62
     0
 48
0.3
370
    -2
100
AcDbLine
 10
17.90296352761997
 20
5.156323049120981
 30
0.0
 11
17.54659188744216
 21
4.678048639576791
 31
0.0
  0
MTEXT
  5
784
330
54A
100
AcDbEntity
  8
0
 62
     0
 48
0.3
100
AcDbMText
 10
18.67004686095331
 20
5.156323049120981
 30
0.0
 40
0.125
 41
0.0
 71
     5
 72
     1
  1
\A1;3/4 x .200
 73
     1
 44
1.0
  0
SOLID
  5
785
330
54A
100
AcDbEntity
  8
0
 62
     0
 48
0.3
100
AcDbTrace
 10
17.5298861678294
 20
4.690496398812801
 30
0.0
 11
17.56329760705492
 21
4.665600880340782
 31
0.0
 12
17.47190533202611
 22
4.57781432190023
 32
0.0
 13
17.47190533202611
 23
4.57781432190023
 33
0.0
  0
LINE
  5
786
330
54A
100
AcDbEntity
  8
0
 62
     0
 48
0.3
370
    -2
100
AcDbLine
 10
17.15784566577797
 20
4.277111368870554
 30
0.0
 11
17.33784566577797
 21
4.277111368870551
 31
0.0
  0
LINE
  5
787
330
54A
100
AcDbEntity
  8
0
 62
     0
 48
0.3
370
    -2
100
AcDbLine
 10
17.24784566577797
 20
4.187111368870551
 30
0.0
 11
17.24784566577797
 21
4.367111368870551
 31
0.0
  0
POINT
  5
788
330
54A
100
AcDbEntity
  8
Defpoints
 62
     0
 48
0.3
100
AcDbPoint
 10
17.47190533202611
 20
4.57781432190023
 30
0.0
  0
POINT
  5
789
330
54A
100
AcDbEntity
  8
Defpoints
 62
     0
 48
0.3
100
AcDbPoint
 10
17.02378599952982
 20
3.976408415840873
 30
0.0
  0
ENDBLK
  5
554
330
54A
100
AcDbEntity
  8
0
 48
0.3
100
AcDbBlockEnd
  0
BLOCK
  5
569
330
560
100
AcDbEntity
  8
0
 48
0.3
100
AcDbBlockBegin
  2
*D16
 70
     1
 10
0.0
 20
0.0
 30
0.0
  3
*D16
  1

  0
LINE
  5
73C
330
560
100
AcDbEntity
  8
0
 62
     0
 48
0.3
370
    -2
100
AcDbLine
 10
18.30329316439472
 20
4.583416341353976
 30
0.0
 11
18.17829316439472
 21
4.583416341353976
 31
0.0
  0
LINE
  5
73D
330
560
100
AcDbEntity
  8
0
 62
     0
 48
0.3
370
    -2
100
AcDbLine
 10
18.17829316439472
 20
4.583416341353976
 30
0.0
 11
17.6467843605675
 21
4.408442697195629
 31
0.0
  0
MTEXT
  5
73E
330
560
100
AcDbEntity
  8
0
 62
     0
 48
0.3
100
AcDbMText
 10
18.73704316439471
 20
4.583416341353976
 30
0.0
 40
0.125
 41
0.0
 71
     5
 72
     1
  1
\A1;%%c0.5900
 73
     1
 44
1.0
  0
SOLID
  5
73F
330
560
100
AcDbEntity
  8
0
 62
     0
 48
0.3
100
AcDbTrace
 10
17.64026990975773
 20
4.428231322929236
 30
0.0
 11
17.65329881137728
 21
4.388654071462021
 31
0.0
 12
17.52805260616586
 22
4.369355992336974
 32
0.0
 13
17.52805260616586
 23
4.369355992336974
 33
0.0
  0
LINE
  5
740
330
560
100
AcDbEntity
  8
0
 62
     0
 48
0.3
370
    -2
100
AcDbLine
 10
17.15784566577798
 20
4.277111368870555
 30
0.0
 11
17.33784566577798
 21
4.277111368870555
 31
0.0
  0
LINE
  5
741
330
560
100
AcDbEntity
  8
0
 62
     0
 48
0.3
370
    -2
100
AcDbLine
 10
17.24784566577798
 20
4.187111368870556
 30
0.0
 11
17.24784566577798
 21
4.367111368870554
 31
0.0
  0
POINT
  5
742
330
560
100
AcDbEntity
  8
Defpoints
 62
     0
 48
0.3
100
AcDbPoint
 10
17.52805260616586
 20
4.369355992336974
 30
0.0
  0
POINT
  5
743
330
560
100
AcDbEntity
  8
Defpoints
 62
     0
 48
0.3
100
AcDbPoint
 10
16.96763872539009
 20
4.184866745404135
 30
0.0
  0
ENDBLK
  5
56A
330
560
100
AcDbEntity
  8
0
 48
0.3
100
AcDbBlockEnd
  0
BLOCK
  5
595
330
58C
100
AcDbEntity
  8
0
 48
0.3
100
AcDbBlockBegin
  2
*D17
 70
     1
 10
0.0
 20
0.0
 30
0.0
  3
*D17
  1

  0
LINE
  5
772
330
58C
100
AcDbEntity
  8
0
 62
     0
 48
0.3
370
    -2
100
AcDbLine
 10
17.97060320160192
 20
3.070942713332768
 30
0.0
 11
17.84560320160192
 21
3.070942713332766
 31
0.0
  0
LINE
  5
773
330
58C
100
AcDbEntity
  8
0
 62
     0
 48
0.3
370
    -2
100
AcDbLine
 10
17.84560320160192
 20
3.070942713332766
 30
0.0
 11
17.3866097849934
 21
3.9971099952697
 31
0.0
  0
MTEXT
  5
774
330
58C
100
AcDbEntity
  8
0
 62
     0
 48
0.3
100
AcDbMText
 10
18.41476986826857
 20
3.070942713332766
 30
0.0
 40
0.125
 41
0.0
 71
     5
 72
     1
  1
\A1;%%c0.3750
 73
     1
 44
1.0
  0
SOLID
  5
775
330
58C
100
AcDbEntity
  8
0
 62
     0
 48
0.3
100
AcDbTrace
 10
17.40527654323346
 20
4.006360936550731
 30
0.0
 11
17.36794302675335
 21
3.987859053988671
 31
0.0
 12
17.33110413730723
 22
4.109110544710042
 32
0.0
 13
17.33110413730723
 23
4.109110544710042
 33
0.0
  0
LINE
  5
776
330
58C
100
AcDbEntity
  8
0
 62
     0
 48
0.3
370
    -2
100
AcDbLine
 10
17.15784566577797
 20
4.277111368870555
 30
0.0
 11
17.33784566577797
 21
4.277111368870554
 31
0.0
  0
LINE
  5
777
330
58C
100
AcDbEntity
  8
0
 62
     0
 48
0.3
370
    -2
100
AcDbLine
 10
17.24784566577797
 20
4.187111368870555
 30
0.0
 11
17.24784566577797
 21
4.367111368870554
 31
0.0
  0
POINT
  5
778
330
58C
100
AcDbEntity
  8
Defpoints
 62
     0
 48
0.3
100
AcDbPoint
 10
17.33110413730723
 20
4.109110544710042
 30
0.0
  0
POINT
  5
779
330
58C
100
AcDbEntity
  8
Defpoints
 62
     0
 48
0.3
100
AcDbPoint
 10
17.16458719424871
 20
4.445112193031063
 30
0.0
  0
ENDBLK
  5
596
330
58C
100
AcDbEntity
  8
0
 48
0.3
100
AcDbBlockEnd
  0
BLOCK
  5
5AD
330
5A2
100
AcDbEntity
  8
0
 48
0.3
100
AcDbBlockBegin
  2
*D18
 70
     1
 10
0.0
 20
0.0
 30
0.0
  3
*D18
  1

  0
LINE
  5
63D
330
5A2
100
AcDbEntity
  8
0
 62
     0
 48
0.3
370
    -2
100
AcDbLine
 10
13.23359036086727
 20
3.839611368870553
 30
0.0
 11
13.23359036086727
 21
2.116100380614835
 31
0.0
  0
LINE
  5
63E
330
5A2
100
AcDbEntity
  8
0
 62
     0
 48
0.3
370
    -2
100
AcDbLine
 10
2.992592384576358
 20
3.839611368870555
 30
0.0
 11
2.992592384576358
 21
2.116100380614835
 31
0.0
  0
LINE
  5
63F
330
5A2
100
AcDbEntity
  8
0
 62
     0
 48
0.3
370
    -2
100
AcDbLine
 10
13.10859036086727
 20
2.296100380614834
 30
0.0
 11
8.411424706055147
 21
2.296100380614834
 31
0.0
  0
LINE
  5
640
330
5A2
100
AcDbEntity
  8
0
 62
     0
 48
0.3
370
    -2
100
AcDbLine
 10
3.117592384576358
 20
2.296100380614834
 30
0.0
 11
7.814758039388483
 21
2.296100380614834
 31
0.0
  0
SOLID
  5
641
330
5A2
100
AcDbEntity
  8
0
 62
     0
 48
0.3
100
AcDbTrace
 10
13.10859036086727
 20
2.316933713948167
 30
0.0
 11
13.10859036086727
 21
2.2752670472815
 31
0.0
 12
13.23359036086727
 22
2.296100380614834
 32
0.0
 13
13.23359036086727
 23
2.296100380614834
 33
0.0
  0
SOLID
  5
642
330
5A2
100
AcDbEntity
  8
0
 62
     0
 48
0.3
100
AcDbTrace
 10
3.117592384576358
 20
2.316933713948167
 30
0.0
 11
3.117592384576358
 21
2.2752670472815
 31
0.0
 12
2.992592384576358
 22
2.296100380614834
 32
0.0
 13
2.992592384576358
 23
2.296100380614834
 33
0.0
  0
MTEXT
  5
643
330
5A2
100
AcDbEntity
  8
0
 62
     0
 48
0.3
100
AcDbMText
 10
8.113091372721815
 20
2.296100380614834
 30
0.0
 40
0.125
 41
0.0
 71
     5
 72
     1
  1
\A1;21.00
 73
     1
 44
1.0
  0
POINT
  5
644
330
5A2
100
AcDbEntity
  8
Defpoints
 62
     0
 48
0.3
100
AcDbPoint
 10
13.23359036086727
 20
3.902111368870553
 30
0.0
  0
POINT
  5
645
330
5A2
100
AcDbEntity
  8
Defpoints
 62
     0
 48
0.3
100
AcDbPoint
 10
2.992592384576358
 20
3.902111368870555
 30
0.0
  0
POINT
  5
646
330
5A2
100
AcDbEntity
  8
Defpoints
 62
     0
 48
0.3
100
AcDbPoint
 10
2.992592384576358
 20
2.296100380614834
 30
0.0
  0
ENDBLK
  5
5AE
330
5A2
100
AcDbEntity
  8
0
 48
0.3
100
AcDbBlockEnd
  0
BLOCK
  5
5C7
330
5BC
100
AcDbEntity
  8
0
 48
0.3
100
AcDbBlockBegin
  2
*D19
 70
     1
 10
0.0
 20
0.0
 30
0.0
  3
*D19
  1

  0
LINE
  5
5CA
330
5BC
100
AcDbEntity
  8
0
 62
     0
 48
0.3
370
    -2
100
AcDbLine
 10
13.23359036086727
 20
3.839611368870553
 30
0.0
 11
13.23359036086727
 21
2.116100380614835
 31
0.0
  0
LINE
  5
5CB
330
5BC
100
AcDbEntity
  8
0
 62
     0
 48
0.3
370
    -2
100
AcDbLine
 10
16.00859036086727
 20
4.027111368870553
 30
0.0
 11
16.00859036086727
 21
2.116100380614835
 31
0.0
  0
LINE
  5
5CC
330
5BC
100
AcDbEntity
  8
0
 62
     0
 48
0.3
370
    -2
100
AcDbLine
 10
13.35859036086727
 20
2.296100380614834
 30
0.0
 11
14.28109036086727
 21
2.296100380614834
 31
0.0
  0
LINE
  5
5CD
330
5BC
100
AcDbEntity
  8
0
 62
     0
 48
0.3
370
    -2
100
AcDbLine
 10
15.88359036086727
 20
2.296100380614834
 30
0.0
 11
14.96109036086727
 21
2.296100380614834
 31
0.0
  0
SOLID
  5
5CE
330
5BC
100
AcDbEntity
  8
0
 62
     0
 48
0.3
100
AcDbTrace
 10
13.35859036086727
 20
2.316933713948167
 30
0.0
 11
13.35859036086727
 21
2.2752670472815
 31
0.0
 12
13.23359036086727
 22
2.296100380614834
 32
0.0
 13
13.23359036086727
 23
2.296100380614834
 33
0.0
  0
SOLID
  5
5CF
330
5BC
100
AcDbEntity
  8
0
 62
     0
 48
0.3
100
AcDbTrace
 10
15.88359036086727
 20
2.316933713948167
 30
0.0
 11
15.88359036086727
 21
2.2752670472815
 31
0.0
 12
16.00859036086727
 22
2.296100380614834
 32
0.0
 13
16.00859036086727
 23
2.296100380614834
 33
0.0
  0
MTEXT
  5
5D0
330
5BC
100
AcDbEntity
  8
0
 62
     0
 48
0.3
100
AcDbMText
 10
14.62109036086727
 20
2.296100380614834
 30
0.0
 40
0.125
 41
0.0
 71
     5
 72
     1
  1
\A1;2.775
 73
     1
 44
1.0
  0
POINT
  5
5D1
330
5BC
100
AcDbEntity
  8
Defpoints
 62
     0
 48
0.3
100
AcDbPoint
 10
13.23359036086727
 20
3.902111368870553
 30
0.0
  0
POINT
  5
5D2
330
5BC
100
AcDbEntity
  8
Defpoints
 62
     0
 48
0.3
100
AcDbPoint
 10
16.00859036086727
 20
4.089611368870553
 30
0.0
  0
POINT
  5
5D3
330
5BC
100
AcDbEntity
  8
Defpoints
 62
     0
 48
0.3
100
AcDbPoint
 10
16.00859036086727
 20
2.296100380614834
 30
0.0
  0
ENDBLK
  5
5C8
330
5BC
100
AcDbEntity
  8
0
 48
0.3
100
AcDbBlockEnd
  0
BLOCK
  5
5E1
330
5D6
100
AcDbEntity
  8
0
 48
0.3
100
AcDbBlockBegin
  2
*D20
 70
     1
 10
0.0
 20
0.0
 30
0.0
  3
*D20
  1

  0
LINE
  5
5E4
330
5D6
100
AcDbEntity
  8
0
 62
     0
 48
0.3
370
    -2
100
AcDbLine
 10
13.23359036086727
 20
3.919611368870553
 30
0.0
 11
13.23359036086727
 21
2.902128343876459
 31
0.0
  0
LINE
  5
5E5
330
5D6
100
AcDbEntity
  8
0
 62
     0
 48
0.3
370
    -2
100
AcDbLine
 10
14.23359036086726
 20
3.919611368870553
 30
0.0
 11
14.23359036086726
 21
2.902128343876459
 31
0.0
  0
LINE
  5
5E6
330
5D6
100
AcDbEntity
  8
0
 62
     0
 48
0.3
370
    -2
100
AcDbLine
 10
13.10859036086727
 20
3.082128343876457
 30
0.0
 11
12.98359036086726
 21
3.082128343876457
 31
0.0
  0
LINE
  5
5E7
330
5D6
100
AcDbEntity
  8
0
 62
     0
 48
0.3
370
    -2
100
AcDbLine
 10
14.35859036086727
 20
3.082128343876457
 30
0.0
 11
14.48359036086727
 21
3.082128343876457
 31
0.0
  0
SOLID
  5
5E8
330
5D6
100
AcDbEntity
  8
0
 62
     0
 48
0.3
100
AcDbTrace
 10
13.10859036086727
 20
3.102961677209792
 30
0.0
 11
13.10859036086727
 21
3.061295010543125
 31
0.0
 12
13.23359036086727
 22
3.082128343876457
 32
0.0
 13
13.23359036086727
 23
3.082128343876457
 33
0.0
  0
SOLID
  5
5E9
330
5D6
100
AcDbEntity
  8
0
 62
     0
 48
0.3
100
AcDbTrace
 10
14.35859036086727
 20
3.102961677209792
 30
0.0
 11
14.35859036086727
 21
3.061295010543125
 31
0.0
 12
14.23359036086726
 22
3.082128343876457
 32
0.0
 13
14.23359036086726
 23
3.082128343876457
 33
0.0
  0
MTEXT
  5
5EA
330
5D6
100
AcDbEntity
  8
0
 62
     0
 48
0.3
100
AcDbMText
 10
13.73359036086727
 20
3.082128343876457
 30
0.0
 40
0.125
 41
0.0
 71
     5
 72
     1
  1
\A1;1.000
 73
     1
 44
1.0
  0
POINT
  5
5EB
330
5D6
100
AcDbEntity
  8
Defpoints
 62
     0
 48
0.3
100
AcDbPoint
 10
13.23359036086727
 20
3.982111368870553
 30
0.0
  0
POINT
  5
5EC
330
5D6
100
AcDbEntity
  8
Defpoints
 62
     0
 48
0.3
100
AcDbPoint
 10
14.23359036086726
 20
3.982111368870553
 30
0.0
  0
POINT
  5
5ED
330
5D6
100
AcDbEntity
  8
Defpoints
 62
     0
 48
0.3
100
AcDbPoint
 10
14.23359036086726
 20
3.082128343876457
 30
0.0
  0
ENDBLK
  5
5E2
330
5D6
100
AcDbEntity
  8
0
 48
0.3
100
AcDbBlockEnd
  0
BLOCK
  5
5FB
330
5F0
100
AcDbEntity
  8
0
 48
0.3
100
AcDbBlockBegin
  2
*D21
 70
     1
 10
0.0
 20
0.0
 30
0.0
  3
*D21
  1

  0
LINE
  5
5FE
330
5F0
100
AcDbEntity
  8
0
 62
     0
 48
0.3
370
    -2
100
AcDbLine
 10
15.02359036086726
 20
3.964611368870553
 30
0.0
 11
15.02359036086726
 21
3.216539514276721
 31
0.0
  0
LINE
  5
5FF
330
5F0
100
AcDbEntity
  8
0
 62
     0
 48
0.3
370
    -2
100
AcDbLine
 10
14.23359036086726
 20
3.964611368870553
 30
0.0
 11
14.23359036086726
 21
3.216539514276721
 31
0.0
  0
LINE
  5
600
330
5F0
100
AcDbEntity
  8
0
 62
     0
 48
0.3
370
    -2
100
AcDbLine
 10
15.14859036086726
 20
3.396539514276721
 30
0.0
 11
15.27359036086727
 21
3.396539514276721
 31
0.0
  0
LINE
  5
601
330
5F0
100
AcDbEntity
  8
0
 62
     0
 48
0.3
370
    -2
100
AcDbLine
 10
14.10859036086726
 20
3.396539514276721
 30
0.0
 11
13.98359036086727
 21
3.396539514276721
 31
0.0
  0
SOLID
  5
602
330
5F0
100
AcDbEntity
  8
0
 62
     0
 48
0.3
100
AcDbTrace
 10
15.14859036086726
 20
3.417372847610053
 30
0.0
 11
15.14859036086726
 21
3.375706180943386
 31
0.0
 12
15.02359036086726
 22
3.396539514276721
 32
0.0
 13
15.02359036086726
 23
3.396539514276721
 33
0.0
  0
SOLID
  5
603
330
5F0
100
AcDbEntity
  8
0
 62
     0
 48
0.3
100
AcDbTrace
 10
14.10859036086726
 20
3.417372847610053
 30
0.0
 11
14.10859036086726
 21
3.375706180943386
 31
0.0
 12
14.23359036086726
 22
3.396539514276721
 32
0.0
 13
14.23359036086726
 23
3.396539514276721
 33
0.0
  0
MTEXT
  5
604
330
5F0
100
AcDbEntity
  8
0
 62
     0
 48
0.3
100
AcDbMText
 10
14.62859036086727
 20
3.396539514276721
 30
0.0
 40
0.125
 41
0.0
 71
     5
 72
     1
  1
\A1;0.790
 73
     1
 44
1.0
  0
POINT
  5
605
330
5F0
100
AcDbEntity
  8
Defpoints
 62
     0
 48
0.3
100
AcDbPoint
 10
15.02359036086726
 20
4.027111368870553
 30
0.0
  0
POINT
  5
606
330
5F0
100
AcDbEntity
  8
Defpoints
 62
     0
 48
0.3
100
AcDbPoint
 10
14.23359036086726
 20
4.027111368870553
 30
0.0
  0
POINT
  5
607
330
5F0
100
AcDbEntity
  8
Defpoints
 62
     0
 48
0.3
100
AcDbPoint
 10
14.23359036086726
 20
3.396539514276721
 30
0.0
  0
ENDBLK
  5
5FC
330
5F0
100
AcDbEntity
  8
0
 48
0.3
100
AcDbBlockEnd
  0
BLOCK
  5
615
330
60A
100
AcDbEntity
  8
0
 48
0.3
100
AcDbBlockBegin
  2
*D22
 70
     1
 10
0.0
 20
0.0
 30
0.0
  3
*D22
  1

  0
LINE
  5
618
330
60A
100
AcDbEntity
  8
0
 62
     0
 48
0.3
370
    -2
100
AcDbLine
 10
15.02359036086726
 20
4.027111368870553
 30
0.0
 11
15.02359036086726
 21
3.530950721937943
 31
0.0
  0
LINE
  5
619
330
60A
100
AcDbEntity
  8
0
 62
     0
 48
0.3
370
    -2
100
AcDbLine
 10
16.00859036086727
 20
4.027111368870553
 30
0.0
 11
16.00859036086727
 21
3.530950721937943
 31
0.0
  0
LINE
  5
61A
330
60A
100
AcDbEntity
  8
0
 62
     0
 48
0.3
370
    -2
100
AcDbLine
 10
14.89859036086726
 20
3.710950721937943
 30
0.0
 11
14.77359036086727
 21
3.710950721937943
 31
0.0
  0
LINE
  5
61B
330
60A
100
AcDbEntity
  8
0
 62
     0
 48
0.3
370
    -2
100
AcDbLine
 10
16.13359036086727
 20
3.710950721937943
 30
0.0
 11
16.25859036086727
 21
3.710950721937943
 31
0.0
  0
SOLID
  5
61C
330
60A
100
AcDbEntity
  8
0
 62
     0
 48
0.3
100
AcDbTrace
 10
14.89859036086726
 20
3.731784055271276
 30
0.0
 11
14.89859036086726
 21
3.690117388604611
 31
0.0
 12
15.02359036086726
 22
3.710950721937943
 32
0.0
 13
15.02359036086726
 23
3.710950721937943
 33
0.0
  0
SOLID
  5
61D
330
60A
100
AcDbEntity
  8
0
 62
     0
 48
0.3
100
AcDbTrace
 10
16.13359036086727
 20
3.731784055271276
 30
0.0
 11
16.13359036086727
 21
3.690117388604611
 31
0.0
 12
16.00859036086727
 22
3.710950721937943
 32
0.0
 13
16.00859036086727
 23
3.710950721937943
 33
0.0
  0
MTEXT
  5
61E
330
60A
100
AcDbEntity
  8
0
 62
     0
 48
0.3
100
AcDbMText
 10
15.51609036086726
 20
3.710950721937943
 30
0.0
 40
0.125
 41
0.0
 71
     5
 72
     1
  1
\A1;0.985
 73
     1
 44
1.0
  0
POINT
  5
61F
330
60A
100
AcDbEntity
  8
Defpoints
 62
     0
 48
0.3
100
AcDbPoint
 10
15.02359036086726
 20
4.089611368870553
 30
0.0
  0
POINT
  5
620
330
60A
100
AcDbEntity
  8
Defpoints
 62
     0
 48
0.3
100
AcDbPoint
 10
16.00859036086727
 20
4.089611368870553
 30
0.0
  0
POINT
  5
621
330
60A
100
AcDbEntity
  8
Defpoints
 62
     0
 48
0.3
100
AcDbPoint
 10
16.00859036086727
 20
3.710950721937943
 30
0.0
  0
ENDBLK
  5
616
330
60A
100
AcDbEntity
  8
0
 48
0.3
100
AcDbBlockEnd
  0
BLOCK
  5
62F
330
624
100
AcDbEntity
  8
0
 48
0.3
100
AcDbBlockBegin
  2
*D23
 70
     1
 10
0.0
 20
0.0
 30
0.0
  3
*D23
  1

  0
LINE
  5
632
330
624
100
AcDbEntity
  8
0
 62
     0
 48
0.3
370
    -2
100
AcDbLine
 10
16.00859036086727
 20
4.439611368870551
 30
0.0
 11
16.00859036086727
 21
5.260885165806318
 31
0.0
  0
LINE
  5
633
330
624
100
AcDbEntity
  8
0
 62
     0
 48
0.3
370
    -2
100
AcDbLine
 10
15.50859036086726
 20
4.439611368870551
 30
0.0
 11
15.50859036086726
 21
5.260885165806318
 31
0.0
  0
LINE
  5
634
330
624
100
AcDbEntity
  8
0
 62
     0
 48
0.3
370
    -2
100
AcDbLine
 10
15.88359036086727
 20
5.080885165806318
 30
0.0
 11
15.63359036086726
 21
5.080885165806318
 31
0.0
  0
LINE
  5
635
330
624
100
AcDbEntity
  8
0
 62
     0
 48
0.3
370
    -2
100
AcDbLine
 10
15.50859036086726
 20
5.080885165806318
 30
0.0
 11
15.38359036086727
 21
5.080885165806318
 31
0.0
  0
SOLID
  5
636
330
624
100
AcDbEntity
  8
0
 62
     0
 48
0.3
100
AcDbTrace
 10
15.88359036086727
 20
5.101718499139651
 30
0.0
 11
15.88359036086727
 21
5.060051832472985
 31
0.0
 12
16.00859036086727
 22
5.080885165806318
 32
0.0
 13
16.00859036086727
 23
5.080885165806318
 33
0.0
  0
SOLID
  5
637
330
624
100
AcDbEntity
  8
0
 62
     0
 48
0.3
100
AcDbTrace
 10
15.63359036086726
 20
5.101718499139651
 30
0.0
 11
15.63359036086726
 21
5.060051832472985
 31
0.0
 12
15.50859036086726
 22
5.080885165806318
 32
0.0
 13
15.50859036086726
 23
5.080885165806318
 33
0.0
  0
MTEXT
  5
638
330
624
100
AcDbEntity
  8
0
 62
     0
 48
0.3
100
AcDbMText
 10
15.07484036086727
 20
5.080885165806318
 30
0.0
 40
0.125
 41
0.0
 71
     5
 72
     1
  1
\A1;0.500
 73
     1
 44
1.0
  0
POINT
  5
639
330
624
100
AcDbEntity
  8
Defpoints
 62
     0
 48
0.3
100
AcDbPoint
 10
16.00859036086727
 20
4.377111368870551
 30
0.0
  0
POINT
  5
63A
330
624
100
AcDbEntity
  8
Defpoints
 62
     0
 48
0.3
100
AcDbPoint
 10
15.50859036086726
 20
4.377111368870551
 30
0.0
  0
POINT
  5
63B
330
624
100
AcDbEntity
  8
Defpoints
 62
     0
 48
0.3
100
AcDbPoint
 10
15.50859036086726
 20
5.080885165806318
 30
0.0
  0
ENDBLK
  5
630
330
624
100
AcDbEntity
  8
0
 48
0.3
100
AcDbBlockEnd
  0
BLOCK
  5
74E
330
745
100
AcDbEntity
  8
0
 48
0.3
100
AcDbBlockBegin
  2
*D24
 70
     1
 10
0.0
 20
0.0
 30
0.0
  3
*D24
  1

  0
LINE
  5
762
330
745
100
AcDbEntity
  8
0
 62
     0
 48
0.3
370
    -2
100
AcDbLine
 10
18.28487911670568
 20
3.779887982408568
 30
0.0
 11
18.15987911670567
 21
3.779887982408568
 31
0.0
  0
LINE
  5
763
330
745
100
AcDbEntity
  8
0
 62
     0
 48
0.3
370
    -2
100
AcDbLine
 10
18.15987911670567
 20
3.779887982408568
 30
0.0
 11
17.5770943480246
 21
4.097611215001964
 31
0.0
  0
MTEXT
  5
764
330
745
100
AcDbEntity
  8
0
 62
     0
 48
0.3
100
AcDbMText
 10
18.69779578337235
 20
3.779887982408564
 30
0.0
 40
0.125
 41
0.0
 71
     5
 72
     1
  1
\A1;1/2-20
 73
     1
 44
1.0
  0
SOLID
  5
765
330
745
100
AcDbEntity
  8
0
 62
     0
 48
0.3
100
AcDbTrace
 10
17.58706657879509
 20
4.115902808460109
 30
0.0
 11
17.56712211725414
 21
4.079319621543816
 31
0.0
 12
17.46734478727573
 22
4.157444599624827
 32
0.0
 13
17.46734478727573
 23
4.157444599624827
 33
0.0
  0
LINE
  5
766
330
745
100
AcDbEntity
  8
0
 62
     0
 48
0.3
370
    -2
100
AcDbLine
 10
17.15784566577797
 20
4.277111368870551
 30
0.0
 11
17.33784566577797
 21
4.277111368870554
 31
0.0
  0
LINE
  5
767
330
745
100
AcDbEntity
  8
0
 62
     0
 48
0.3
370
    -2
100
AcDbLine
 10
17.24784566577795
 20
4.187111368870555
 30
0.0
 11
17.24784566577795
 21
4.367111368870554
 31
0.0
  0
POINT
  5
768
330
745
100
AcDbEntity
  8
Defpoints
 62
     0
 48
0.3
100
AcDbPoint
 10
17.46734478727573
 20
4.157444599624827
 30
0.0
  0
POINT
  5
769
330
745
100
AcDbEntity
  8
Defpoints
 62
     0
 48
0.3
100
AcDbPoint
 10
17.0283465442802
 20
4.396778138116279
 30
0.0
  0
ENDBLK
  5
74F
330
745
100
AcDbEntity
  8
0
 48
0.3
100
AcDbBlockEnd
  0
BLOCK
  5
85A
330
84F
100
AcDbEntity
  8
0
 48
0.3
100
AcDbBlockBegin
  2
*D25
 70
     1
 10
0.0
 20
0.0
 30
0.0
  3
*D25
  1

  0
LINE
  5
8BA
330
84F
100
AcDbEntity
  8
0
 62
     0
 48
0.3
370
    -2
100
AcDbLine
 10
15.55661122298535
 20
13.59278056541514
 30
0.0
 11
15.55661122298535
 21
11.55975201305861
 31
0.0
  0
LINE
  5
8BB
330
84F
100
AcDbEntity
  8
0
 62
     0
 48
0.3
370
    -2
100
AcDbLine
 10
1.911220291672407
 20
13.65528056541513
 30
0.0
 11
1.911220291672407
 21
11.55975201305861
 31
0.0
  0
LINE
  5
8BC
330
84F
100
AcDbEntity
  8
0
 62
     0
 48
0.3
370
    -2
100
AcDbLine
 10
15.43161122298536
 20
11.73975201305861
 30
0.0
 11
9.417665757328887
 21
11.73975201305861
 31
0.0
  0
LINE
  5
8BD
330
84F
100
AcDbEntity
  8
0
 62
     0
 48
0.3
370
    -2
100
AcDbLine
 10
2.036220291672407
 20
11.73975201305861
 30
0.0
 11
8.633499090662221
 21
11.73975201305861
 31
0.0
  0
SOLID
  5
8BE
330
84F
100
AcDbEntity
  8
0
 62
     0
 48
0.3
100
AcDbTrace
 10
15.43161122298536
 20
11.76058534639196
 30
0.0
 11
15.43161122298536
 21
11.71891867972528
 31
0.0
 12
15.55661122298535
 22
11.73975201305861
 32
0.0
 13
15.55661122298535
 23
11.73975201305861
 33
0.0
  0
SOLID
  5
8BF
330
84F
100
AcDbEntity
  8
0
 62
     0
 48
0.3
100
AcDbTrace
 10
2.036220291672407
 20
11.76058534639196
 30
0.0
 11
2.036220291672407
 21
11.71891867972528
 31
0.0
 12
1.911220291672407
 22
11.73975201305861
 32
0.0
 13
1.911220291672407
 23
11.73975201305861
 33
0.0
  0
MTEXT
  5
8C0
330
84F
100
AcDbEntity
  8
0
 62
     0
 48
0.3
100
AcDbMText
 10
9.025582423995556
 20
11.73975201305861
 30
0.0
 40
0.125
 41
0.0
 71
     5
 72
     1
  1
\A1;30.995
 73
     1
 44
1.0
  0
POINT
  5
8C1
330
84F
100
AcDbEntity
  8
Defpoints
 62
     0
 48
0.3
100
AcDbPoint
 10
15.55661122298535
 20
13.65528056541513
 30
0.0
  0
POINT
  5
8C2
330
84F
100
AcDbEntity
  8
Defpoints
 62
     0
 48
0.3
100
AcDbPoint
 10
1.911220291672407
 20
13.71778056541514
 30
0.0
  0
POINT
  5
8C3
330
84F
100
AcDbEntity
  8
Defpoints
 62
     0
 48
0.3
100
AcDbPoint
 10
1.911220291672407
 20
11.73975201305861
 30
0.0
  0
ENDBLK
  5
85B
330
84F
100
AcDbEntity
  8
0
 48
0.3
100
AcDbBlockEnd
  0
BLOCK
  5
88E
330
883
100
AcDbEntity
  8
0
 48
0.3
100
AcDbBlockBegin
  2
*D27
 70
     1
 10
0.0
 20
0.0
 30
0.0
  3
*D27
  1

  0
LINE
  5
89C
330
883
100
AcDbEntity
  8
0
 62
     0
 48
0.3
370
    -2
100
AcDbLine
 10
16.00859036086727
 20
4.027111368870553
 30
0.0
 11
16.00859036086727
 21
1.70520705239449
 31
0.0
  0
LINE
  5
89D
330
883
100
AcDbEntity
  8
0
 62
     0
 48
0.3
370
    -2
100
AcDbLine
 10
2.992592384576358
 20
3.839611368870555
 30
0.0
 11
2.992592384576358
 21
1.70520705239449
 31
0.0
  0
LINE
  5
89E
330
883
100
AcDbEntity
  8
0
 62
     0
 48
0.3
370
    -2
100
AcDbLine
 10
15.88359036086727
 20
1.88520705239449
 30
0.0
 11
9.903091372721814
 21
1.88520705239449
 31
0.0
  0
LINE
  5
89F
330
883
100
AcDbEntity
  8
0
 62
     0
 48
0.3
370
    -2
100
AcDbLine
 10
3.117592384576358
 20
1.88520705239449
 30
0.0
 11
9.098091372721814
 21
1.88520705239449
 31
0.0
  0
SOLID
  5
8A0
330
883
100
AcDbEntity
  8
0
 62
     0
 48
0.3
100
AcDbTrace
 10
15.88359036086727
 20
1.906040385727824
 30
0.0
 11
15.88359036086727
 21
1.864373719061158
 31
0.0
 12
16.00859036086727
 22
1.88520705239449
 32
0.0
 13
16.00859036086727
 23
1.88520705239449
 33
0.0
  0
SOLID
  5
8A1
330
883
100
AcDbEntity
  8
0
 62
     0
 48
0.3
100
AcDbTrace
 10
3.117592384576358
 20
1.906040385727824
 30
0.0
 11
3.117592384576358
 21
1.864373719061158
 31
0.0
 12
2.992592384576358
 22
1.88520705239449
 32
0.0
 13
2.992592384576358
 23
1.88520705239449
 33
0.0
  0
MTEXT
  5
8A2
330
883
100
AcDbEntity
  8
0
 62
     0
 48
0.3
100
AcDbMText
 10
9.500591372721814
 20
1.88520705239449
 30
0.0
 40
0.125
 41
0.0
 71
     5
 72
     1
  1
\A1;23.775
 73
     1
 44
1.0
  0
POINT
  5
8A3
330
883
100
AcDbEntity
  8
Defpoints
 62
     0
 48
0.3
100
AcDbPoint
 10
16.00859036086727
 20
4.089611368870553
 30
0.0
  0
POINT
  5
8A4
330
883
100
AcDbEntity
  8
Defpoints
 62
     0
 48
0.3
100
AcDbPoint
 10
2.992592384576358
 20
3.902111368870555
 30
0.0
  0
POINT
  5
8A5
330
883
100
AcDbEntity
  8
Defpoints
 62
     0
 48
0.3
100
AcDbPoint
 10
2.992592384576358
 20
1.88520705239449
 30
0.0
  0
ENDBLK
  5
88F
330
883
100
AcDbEntity
  8
0
 48
0.3
100
AcDbBlockEnd
  0
BLOCK
  5
8D9
330
8CE
100
AcDbEntity
  8
0
 48
0.3
100
AcDbBlockBegin
  2
*D28
 70
     1
 10
0.0
 20
0.0
 30
0.0
  3
*D28
  1

  0
LINE
  5
8DC
330
8CE
100
AcDbEntity
  8
0
 62
     0
 48
0.3
370
    -2
100
AcDbLine
 10
14.30661122298535
 20
13.24903056541514
 30
0.0
 11
14.30661122298535
 21
12.7215467723176
 31
0.0
  0
LINE
  5
8DD
330
8CE
100
AcDbEntity
  8
0
 62
     0
 48
0.3
370
    -2
100
AcDbLine
 10
15.55661122298535
 20
13.28028056541514
 30
0.0
 11
15.55661122298535
 21
12.7215467723176
 31
0.0
  0
LINE
  5
8DE
330
8CE
100
AcDbEntity
  8
0
 62
     0
 48
0.3
370
    -2
100
AcDbLine
 10
14.43161122298535
 20
12.9015467723176
 30
0.0
 11
14.62286122298535
 21
12.9015467723176
 31
0.0
  0
LINE
  5
8DF
330
8CE
100
AcDbEntity
  8
0
 62
     0
 48
0.3
370
    -2
100
AcDbLine
 10
15.43161122298536
 20
12.9015467723176
 30
0.0
 11
15.24036122298535
 21
12.9015467723176
 31
0.0
  0
SOLID
  5
8E0
330
8CE
100
AcDbEntity
  8
0
 62
     0
 48
0.3
100
AcDbTrace
 10
14.43161122298535
 20
12.92238010565093
 30
0.0
 11
14.43161122298535
 21
12.88071343898426
 31
0.0
 12
14.30661122298535
 22
12.9015467723176
 32
0.0
 13
14.30661122298535
 23
12.9015467723176
 33
0.0
  0
SOLID
  5
8E1
330
8CE
100
AcDbEntity
  8
0
 62
     0
 48
0.3
100
AcDbTrace
 10
15.43161122298536
 20
12.92238010565093
 30
0.0
 11
15.43161122298536
 21
12.88071343898426
 31
0.0
 12
15.55661122298535
 22
12.9015467723176
 32
0.0
 13
15.55661122298535
 23
12.9015467723176
 33
0.0
  0
MTEXT
  5
8E2
330
8CE
100
AcDbEntity
  8
0
 62
     0
 48
0.3
100
AcDbMText
 10
14.93161122298535
 20
12.9015467723176
 30
0.0
 40
0.125
 41
0.0
 71
     5
 72
     1
  1
\A1;1.250
 73
     1
 44
1.0
  0
POINT
  5
8E3
330
8CE
100
AcDbEntity
  8
Defpoints
 62
     0
 48
0.3
100
AcDbPoint
 10
14.30661122298535
 20
13.31153056541514
 30
0.0
  0
POINT
  5
8E4
330
8CE
100
AcDbEntity
  8
Defpoints
 62
     0
 48
0.3
100
AcDbPoint
 10
15.55661122298535
 20
13.34278056541513
 30
0.0
  0
POINT
  5
8E5
330
8CE
100
AcDbEntity
  8
Defpoints
 62
     0
 48
0.3
100
AcDbPoint
 10
15.55661122298535
 20
12.9015467723176
 30
0.0
  0
ENDBLK
  5
8DA
330
8CE
100
AcDbEntity
  8
0
 48
0.3
100
AcDbBlockEnd
  0
BLOCK
  5
8F7
330
8EC
100
AcDbEntity
  8
0
 48
0.3
100
AcDbBlockBegin
  2
*D29
 70
     1
 10
0.0
 20
0.0
 30
0.0
  3
*D29
  1

  0
LINE
  5
8FA
330
8EC
100
AcDbEntity
  8
0
 62
     0
 48
0.3
370
    -2
100
AcDbLine
 10
3.161220291672408
 20
13.23803056541513
 30
0.0
 11
3.161220291672408
 21
12.71442118436333
 31
0.0
  0
LINE
  5
8FB
330
8EC
100
AcDbEntity
  8
0
 62
     0
 48
0.3
370
    -2
100
AcDbLine
 10
1.911220291672407
 20
13.23803056541513
 30
0.0
 11
1.911220291672407
 21
12.71442118436333
 31
0.0
  0
LINE
  5
8FC
330
8EC
100
AcDbEntity
  8
0
 62
     0
 48
0.3
370
    -2
100
AcDbLine
 10
3.036220291672408
 20
12.89442118436332
 30
0.0
 11
2.844970291672408
 21
12.89442118436332
 31
0.0
  0
LINE
  5
8FD
330
8EC
100
AcDbEntity
  8
0
 62
     0
 48
0.3
370
    -2
100
AcDbLine
 10
2.036220291672407
 20
12.89442118436332
 30
0.0
 11
2.227470291672408
 21
12.89442118436332
 31
0.0
  0
SOLID
  5
8FE
330
8EC
100
AcDbEntity
  8
0
 62
     0
 48
0.3
100
AcDbTrace
 10
3.036220291672408
 20
12.91525451769666
 30
0.0
 11
3.036220291672408
 21
12.87358785102999
 31
0.0
 12
3.161220291672408
 22
12.89442118436332
 32
0.0
 13
3.161220291672408
 23
12.89442118436332
 33
0.0
  0
SOLID
  5
8FF
330
8EC
100
AcDbEntity
  8
0
 62
     0
 48
0.3
100
AcDbTrace
 10
2.036220291672407
 20
12.91525451769666
 30
0.0
 11
2.036220291672407
 21
12.87358785102999
 31
0.0
 12
1.911220291672407
 22
12.89442118436332
 32
0.0
 13
1.911220291672407
 23
12.89442118436332
 33
0.0
  0
MTEXT
  5
900
330
8EC
100
AcDbEntity
  8
0
 62
     0
 48
0.3
100
AcDbMText
 10
2.536220291672408
 20
12.89442118436332
 30
0.0
 40
0.125
 41
0.0
 71
     5
 72
     1
  1
\A1;1.250
 73
     1
 44
1.0
  0
POINT
  5
901
330
8EC
100
AcDbEntity
  8
Defpoints
 62
     0
 48
0.3
100
AcDbPoint
 10
3.161220291672408
 20
13.30053056541514
 30
0.0
  0
POINT
  5
902
330
8EC
100
AcDbEntity
  8
Defpoints
 62
     0
 48
0.3
100
AcDbPoint
 10
1.911220291672407
 20
13.30053056541514
 30
0.0
  0
POINT
  5
903
330
8EC
100
AcDbEntity
  8
Defpoints
 62
     0
 48
0.3
100
AcDbPoint
 10
1.911220291672407
 20
12.89442118436332
 30
0.0
  0
ENDBLK
  5
8F8
330
8EC
100
AcDbEntity
  8
0
 48
0.3
100
AcDbBlockEnd
  0
BLOCK
  5
A7A
330
A6F
100
AcDbEntity
  8
0
 48
0.3
100
AcDbBlockBegin
  2
*D34
 70
     1
 10
0.0
 20
0.0
 30
0.0
  3
*D34
  1

  0
LINE
  5
B0E
330
A6F
100
AcDbEntity
  8
0
 62
     0
 48
0.3
370
    -2
100
AcDbLine
 10
3.115519442133134
 20
8.459245688910979
 30
0.0
 11
3.115519442133134
 21
7.554245602626487
 31
0.0
  0
LINE
  5
B0F
330
A6F
100
AcDbEntity
  8
0
 62
     0
 48
0.3
370
    -2
100
AcDbLine
 10
12.73359036086726
 20
8.459245688910979
 30
0.0
 11
12.73359036086726
 21
7.554245602626487
 31
0.0
  0
LINE
  5
B10
330
A6F
100
AcDbEntity
  8
0
 62
     0
 48
0.3
370
    -2
100
AcDbLine
 10
3.240519442133134
 20
7.734245602626486
 30
0.0
 11
7.574138234833534
 21
7.734245602626486
 31
0.0
  0
LINE
  5
B11
330
A6F
100
AcDbEntity
  8
0
 62
     0
 48
0.3
370
    -2
100
AcDbLine
 10
12.60859036086726
 20
7.734245602626486
 30
0.0
 11
8.274971568166867
 21
7.734245602626486
 31
0.0
  0
SOLID
  5
B12
330
A6F
100
AcDbEntity
  8
0
 62
     0
 48
0.3
100
AcDbTrace
 10
3.240519442133134
 20
7.75507893595982
 30
0.0
 11
3.240519442133134
 21
7.713412269293153
 31
0.0
 12
3.115519442133134
 22
7.734245602626486
 32
0.0
 13
3.115519442133134
 23
7.734245602626486
 33
0.0
  0
SOLID
  5
B13
330
A6F
100
AcDbEntity
  8
0
 62
     0
 48
0.3
100
AcDbTrace
 10
12.60859036086726
 20
7.75507893595982
 30
0.0
 11
12.60859036086726
 21
7.713412269293153
 31
0.0
 12
12.73359036086726
 22
7.734245602626486
 32
0.0
 13
12.73359036086726
 23
7.734245602626486
 33
0.0
  0
MTEXT
  5
B14
330
A6F
100
AcDbEntity
  8
0
 62
     0
 48
0.3
100
AcDbMText
 10
7.924554901500201
 20
7.734245602626486
 30
0.0
 40
0.125
 41
0.0
 71
     5
 72
     1
  1
\A1;17.000
 73
     1
 44
1.0
  0
POINT
  5
B15
330
A6F
100
AcDbEntity
  8
Defpoints
 62
     0
 48
0.3
100
AcDbPoint
 10
3.115519442133134
 20
8.521745688910979
 30
0.0
  0
POINT
  5
B16
330
A6F
100
AcDbEntity
  8
Defpoints
 62
     0
 48
0.3
100
AcDbPoint
 10
12.73359036086726
 20
8.521745688910979
 30
0.0
  0
POINT
  5
B17
330
A6F
100
AcDbEntity
  8
Defpoints
 62
     0
 48
0.3
100
AcDbPoint
 10
12.73359036086726
 20
7.734245602626486
 30
0.0
  0
ENDBLK
  5
A7B
330
A6F
100
AcDbEntity
  8
0
 48
0.3
100
AcDbBlockEnd
  0
BLOCK
  5
A9E
330
A93
100
AcDbEntity
  8
0
 48
0.3
100
AcDbBlockBegin
  2
*D35
 70
     1
 10
0.0
 20
0.0
 30
0.0
  3
*D35
  1

  0
LINE
  5
AA1
330
A93
100
AcDbEntity
  8
0
 62
     0
 48
0.3
370
    -2
100
AcDbLine
 10
15.48359036086726
 20
8.61574568891098
 30
0.0
 11
15.48359036086726
 21
7.554245602626487
 31
0.0
  0
LINE
  5
AA2
330
A93
100
AcDbEntity
  8
0
 62
     0
 48
0.3
370
    -2
100
AcDbLine
 10
12.73359036086726
 20
8.573245688910978
 30
0.0
 11
12.73359036086726
 21
7.554245602626487
 31
0.0
  0
LINE
  5
AA3
330
A93
100
AcDbEntity
  8
0
 62
     0
 48
0.3
370
    -2
100
AcDbLine
 10
15.35859036086726
 20
7.734245602626486
 30
0.0
 11
14.4381736942006
 21
7.734245602626486
 31
0.0
  0
LINE
  5
AA4
330
A93
100
AcDbEntity
  8
0
 62
     0
 48
0.3
370
    -2
100
AcDbLine
 10
12.85859036086726
 20
7.734245602626486
 30
0.0
 11
13.77900702753393
 21
7.734245602626486
 31
0.0
  0
SOLID
  5
AA5
330
A93
100
AcDbEntity
  8
0
 62
     0
 48
0.3
100
AcDbTrace
 10
15.35859036086726
 20
7.75507893595982
 30
0.0
 11
15.35859036086726
 21
7.713412269293153
 31
0.0
 12
15.48359036086726
 22
7.734245602626486
 32
0.0
 13
15.48359036086726
 23
7.734245602626486
 33
0.0
  0
SOLID
  5
AA6
330
A93
100
AcDbEntity
  8
0
 62
     0
 48
0.3
100
AcDbTrace
 10
12.85859036086726
 20
7.75507893595982
 30
0.0
 11
12.85859036086726
 21
7.713412269293153
 31
0.0
 12
12.73359036086726
 22
7.734245602626486
 32
0.0
 13
12.73359036086726
 23
7.734245602626486
 33
0.0
  0
MTEXT
  5
AA7
330
A93
100
AcDbEntity
  8
0
 62
     0
 48
0.3
100
AcDbMText
 10
14.10859036086726
 20
7.734245602626486
 30
0.0
 40
0.125
 41
0.0
 71
     5
 72
     1
  1
\A1;2.750
 73
     1
 44
1.0
  0
POINT
  5
AA8
330
A93
100
AcDbEntity
  8
Defpoints
 62
     0
 48
0.3
100
AcDbPoint
 10
15.48359036086726
 20
8.67824568891098
 30
0.0
  0
POINT
  5
AA9
330
A93
100
AcDbEntity
  8
Defpoints
 62
     0
 48
0.3
100
AcDbPoint
 10
12.73359036086726
 20
8.635745688910978
 30
0.0
  0
POINT
  5
AAA
330
A93
100
AcDbEntity
  8
Defpoints
 62
     0
 48
0.3
100
AcDbPoint
 10
12.73359036086726
 20
7.734245602626486
 30
0.0
  0
ENDBLK
  5
A9F
330
A93
100
AcDbEntity
  8
0
 48
0.3
100
AcDbBlockEnd
  0
BLOCK
  5
AB8
330
AAD
100
AcDbEntity
  8
0
 48
0.3
100
AcDbBlockBegin
  2
*D36
 70
     1
 10
0.0
 20
0.0
 30
0.0
  3
*D36
  1

  0
LINE
  5
ABB
330
AAD
100
AcDbEntity
  8
0
 62
     0
 48
0.3
370
    -2
100
AcDbLine
 10
15.48359036086726
 20
8.61574568891098
 30
0.0
 11
15.48359036086726
 21
8.139946117818467
 31
0.0
  0
LINE
  5
ABC
330
AAD
100
AcDbEntity
  8
0
 62
     0
 48
0.3
370
    -2
100
AcDbLine
 10
14.48359036086726
 20
8.61574568891098
 30
0.0
 11
14.48359036086726
 21
8.139946117818467
 31
0.0
  0
LINE
  5
ABD
330
AAD
100
AcDbEntity
  8
0
 62
     0
 48
0.3
370
    -2
100
AcDbLine
 10
15.60859036086727
 20
8.319946117818467
 30
0.0
 11
15.73359036086727
 21
8.319946117818467
 31
0.0
  0
LINE
  5
ABE
330
AAD
100
AcDbEntity
  8
0
 62
     0
 48
0.3
370
    -2
100
AcDbLine
 10
14.35859036086726
 20
8.319946117818467
 30
0.0
 11
14.23359036086726
 21
8.319946117818467
 31
0.0
  0
SOLID
  5
ABF
330
AAD
100
AcDbEntity
  8
0
 62
     0
 48
0.3
100
AcDbTrace
 10
15.60859036086727
 20
8.340779451151801
 30
0.0
 11
15.60859036086727
 21
8.299112784485133
 31
0.0
 12
15.48359036086726
 22
8.319946117818467
 32
0.0
 13
15.48359036086726
 23
8.319946117818467
 33
0.0
  0
SOLID
  5
AC0
330
AAD
100
AcDbEntity
  8
0
 62
     0
 48
0.3
100
AcDbTrace
 10
14.35859036086726
 20
8.340779451151801
 30
0.0
 11
14.35859036086726
 21
8.299112784485133
 31
0.0
 12
14.48359036086726
 22
8.319946117818467
 32
0.0
 13
14.48359036086726
 23
8.319946117818467
 33
0.0
  0
MTEXT
  5
AC1
330
AAD
100
AcDbEntity
  8
0
 62
     0
 48
0.3
100
AcDbMText
 10
14.98359036086726
 20
8.319946117818467
 30
0.0
 40
0.125
 41
0.0
 71
     5
 72
     1
  1
\A1;1.000
 73
     1
 44
1.0
  0
POINT
  5
AC2
330
AAD
100
AcDbEntity
  8
Defpoints
 62
     0
 48
0.3
100
AcDbPoint
 10
15.48359036086726
 20
8.67824568891098
 30
0.0
  0
POINT
  5
AC3
330
AAD
100
AcDbEntity
  8
Defpoints
 62
     0
 48
0.3
100
AcDbPoint
 10
14.48359036086726
 20
8.67824568891098
 30
0.0
  0
POINT
  5
AC4
330
AAD
100
AcDbEntity
  8
Defpoints
 62
     0
 48
0.3
100
AcDbPoint
 10
14.48359036086726
 20
8.319946117818467
 30
0.0
  0
ENDBLK
  5
AB9
330
AAD
100
AcDbEntity
  8
0
 48
0.3
100
AcDbBlockEnd
  0
BLOCK
  5
AD2
330
AC7
100
AcDbEntity
  8
0
 48
0.3
100
AcDbBlockBegin
  2
*D37
 70
     1
 10
0.0
 20
0.0
 30
0.0
  3
*D37
  1

  0
LINE
  5
AD5
330
AC7
100
AcDbEntity
  8
0
 62
     0
 48
0.3
370
    -2
100
AcDbLine
 10
14.48359036086726
 20
8.61574568891098
 30
0.0
 11
14.48359036086726
 21
7.987911058404201
 31
0.0
  0
LINE
  5
AD6
330
AC7
100
AcDbEntity
  8
0
 62
     0
 48
0.3
370
    -2
100
AcDbLine
 10
13.73359036086726
 20
8.61574568891098
 30
0.0
 11
13.73359036086726
 21
7.987911058404201
 31
0.0
  0
LINE
  5
AD7
330
AC7
100
AcDbEntity
  8
0
 62
     0
 48
0.3
370
    -2
100
AcDbLine
 10
14.60859036086726
 20
8.1679110584042
 30
0.0
 11
14.73359036086726
 21
8.1679110584042
 31
0.0
  0
LINE
  5
AD8
330
AC7
100
AcDbEntity
  8
0
 62
     0
 48
0.3
370
    -2
100
AcDbLine
 10
13.60859036086726
 20
8.1679110584042
 30
0.0
 11
13.48359036086726
 21
8.1679110584042
 31
0.0
  0
SOLID
  5
AD9
330
AC7
100
AcDbEntity
  8
0
 62
     0
 48
0.3
100
AcDbTrace
 10
14.60859036086726
 20
8.188744391737534
 30
0.0
 11
14.60859036086726
 21
8.147077725070866
 31
0.0
 12
14.48359036086726
 22
8.1679110584042
 32
0.0
 13
14.48359036086726
 23
8.1679110584042
 33
0.0
  0
SOLID
  5
ADA
330
AC7
100
AcDbEntity
  8
0
 62
     0
 48
0.3
100
AcDbTrace
 10
13.60859036086726
 20
8.188744391737534
 30
0.0
 11
13.60859036086726
 21
8.147077725070866
 31
0.0
 12
13.73359036086726
 22
8.1679110584042
 32
0.0
 13
13.73359036086726
 23
8.1679110584042
 33
0.0
  0
MTEXT
  5
ADB
330
AC7
100
AcDbEntity
  8
0
 62
     0
 48
0.3
100
AcDbMText
 10
14.10859036086726
 20
8.1679110584042
 30
0.0
 40
0.125
 41
0.0
 71
     5
 72
     1
  1
\A1;0.750
 73
     1
 44
1.0
  0
POINT
  5
ADC
330
AC7
100
AcDbEntity
  8
Defpoints
 62
     0
 48
0.3
100
AcDbPoint
 10
14.48359036086726
 20
8.67824568891098
 30
0.0
  0
POINT
  5
ADD
330
AC7
100
AcDbEntity
  8
Defpoints
 62
     0
 48
0.3
100
AcDbPoint
 10
13.73359036086726
 20
8.67824568891098
 30
0.0
  0
POINT
  5
ADE
330
AC7
100
AcDbEntity
  8
Defpoints
 62
     0
 48
0.3
100
AcDbPoint
 10
13.73359036086726
 20
8.1679110584042
 30
0.0
  0
ENDBLK
  5
AD3
330
AC7
100
AcDbEntity
  8
0
 48
0.3
100
AcDbBlockEnd
  0
BLOCK
  5
AED
330
AE2
100
AcDbEntity
  8
0
 48
0.3
100
AcDbBlockBegin
  2
*D38
 70
     1
 10
0.0
 20
0.0
 30
0.0
  3
*D38
  1

  0
LINE
  5
B18
330
AE2
100
AcDbEntity
  8
0
 62
     0
 48
0.3
370
    -2
100
AcDbLine
 10
3.115519442133134
 20
8.459245688910979
 30
0.0
 11
3.115519442133134
 21
7.042512868137535
 31
0.0
  0
LINE
  5
B19
330
AE2
100
AcDbEntity
  8
0
 62
     0
 48
0.3
370
    -2
100
AcDbLine
 10
15.48359036086726
 20
8.55324568891098
 30
0.0
 11
15.48359036086726
 21
7.042512868137535
 31
0.0
  0
LINE
  5
B1A
330
AE2
100
AcDbEntity
  8
0
 62
     0
 48
0.3
370
    -2
100
AcDbLine
 10
3.240519442133134
 20
7.222512868137535
 30
0.0
 11
8.928304901500201
 21
7.222512868137535
 31
0.0
  0
LINE
  5
B1B
330
AE2
100
AcDbEntity
  8
0
 62
     0
 48
0.3
370
    -2
100
AcDbLine
 10
15.35859036086726
 20
7.222512868137535
 30
0.0
 11
9.670804901500201
 21
7.222512868137535
 31
0.0
  0
SOLID
  5
B1C
330
AE2
100
AcDbEntity
  8
0
 62
     0
 48
0.3
100
AcDbTrace
 10
3.240519442133134
 20
7.243346201470868
 30
0.0
 11
3.240519442133134
 21
7.201679534804202
 31
0.0
 12
3.115519442133134
 22
7.222512868137535
 32
0.0
 13
3.115519442133134
 23
7.222512868137535
 33
0.0
  0
SOLID
  5
B1D
330
AE2
100
AcDbEntity
  8
0
 62
     0
 48
0.3
100
AcDbTrace
 10
15.35859036086726
 20
7.243346201470868
 30
0.0
 11
15.35859036086726
 21
7.201679534804202
 31
0.0
 12
15.48359036086726
 22
7.222512868137535
 32
0.0
 13
15.48359036086726
 23
7.222512868137535
 33
0.0
  0
MTEXT
  5
B1E
330
AE2
100
AcDbEntity
  8
0
 62
     0
 48
0.3
100
AcDbMText
 10
9.299554901500201
 20
7.222512868137535
 30
0.0
 40
0.125
 41
0.0
 71
     5
 72
     1
  1
\A1;19.750
 73
     1
 44
1.0
  0
POINT
  5
B1F
330
AE2
100
AcDbEntity
  8
Defpoints
 62
     0
 48
0.3
100
AcDbPoint
 10
3.115519442133134
 20
8.521745688910979
 30
0.0
  0
POINT
  5
B20
330
AE2
100
AcDbEntity
  8
Defpoints
 62
     0
 48
0.3
100
AcDbPoint
 10
15.48359036086726
 20
8.61574568891098
 30
0.0
  0
POINT
  5
B21
330
AE2
100
AcDbEntity
  8
Defpoints
 62
     0
 48
0.3
100
AcDbPoint
 10
15.48359036086726
 20
7.222512868137535
 30
0.0
  0
ENDBLK
  5
AEE
330
AE2
100
AcDbEntity
  8
0
 48
0.3
100
AcDbBlockEnd
  0
ENDSEC
  0
SECTION
  2
ENTITIES
  0
VIEWPORT
  5
77
330
58
100
AcDbEntity
 67
     1
  8
0
100
AcDbViewport
 10
11.22122213126002
 20
7.474433321102349
 30
0.0
 40
18.04351065377087
 41
7.748555224476497
 68
     1
 69
     1
 12
11.22122213126002
 22
7.474433321102349
 13
0.0
 23
0.0
 14
0.5
 24
0.5
 15
0.5
 25
0.5
 16
0.0
 26
0.0
 36
1.0
 17
0.0
 27
0.0
 37
0.0
 42
50.0
 43
0.0
 44
0.0
 45
7.748555224476497
 50
0.0
 51
0.0
 72
   100
 90
    32800
  1

281
     0
 71
     1
 74
     0
110
0.0
120
0.0
130
0.0
111
1.0
121
0.0
131
0.0
112
0.0
122
1.0
132
0.0
 79
     0
146
0.0
  0
LINE
  5
AC
330
58
100
AcDbEntity
 67
     1
  8
0
 48
0.3
100
AcDbLine
 10
0.2965759179903813
 20
16.09005084545367
 30
0.0
 11
20.29657591799038
 21
16.09005084545367
 31
0.0
  0
LINE
  5
AD
330
58
100
AcDbEntity
 67
     1
  8
0
 48
0.3
100
AcDbLine
 10
20.29657591799038
 20
16.09005084545367
 30
0.0
 11
20.29657591799038
 21
0.5900508454536873
 31
0.0
  0
LINE
  5
AE
330
58
100
AcDbEntity
 67
     1
  8
0
 48
0.3
100
AcDbLine
 10
20.29657591799038
 20
0.5900508454536873
 30
0.0
 11
0.2965759179903777
 21
0.5900508454536899
 31
0.0
  0
LINE
  5
AF
330
58
100
AcDbEntity
 67
     1
  8
0
 48
0.3
100
AcDbLine
 10
0.2965759179903777
 20
0.5900508454536899
 30
0.0
 11
0.2965759179903813
 21
16.09005084545367
 31
0.0
  0
LINE
  5
B0
330
58
100
AcDbEntity
 67
     1
  8
0
 48
0.3
100
AcDbLine
 10
20.29657591799038
 20
0.5900508454536873
 30
0.0
 11
20.29657591799038
 21
1.590050845453686
 31
0.0
  0
LINE
  5
B1
330
58
100
AcDbEntity
 67
     1
  8
0
 48
0.3
100
AcDbLine
 10
20.29657591799038
 20
1.590050845453686
 30
0.0
 11
17.29657591799037
 21
1.590050845453686
 31
0.0
  0
LINE
  5
B2
330
58
100
AcDbEntity
 67
     1
  8
0
 48
0.3
100
AcDbLine
 10
17.29657591799037
 20
1.590050845453686
 30
0.0
 11
17.29657591799037
 21
0.5900508454536876
 31
0.0
  0
LINE
  5
B7
330
58
100
AcDbEntity
 67
     1
  8
0
 48
0.3
100
AcDbLine
 10
17.29657591799037
 20
1.590050845453686
 30
0.0
 11
15.29657591799037
 21
1.590050845453686
 31
0.0
  0
LINE
  5
B8
330
58
100
AcDbEntity
 67
     1
  8
0
 48
0.3
100
AcDbLine
 10
15.29657591799037
 20
1.590050845453686
 30
0.0
 11
15.29657591799037
 21
0.5900508454536881
 31
0.0
  0
MTEXT
  5
BE
330
58
100
AcDbEntity
 67
     1
  8
0
100
AcDbMText
 10
15.62142945844485
 20
1.38449014101073
 30
0.0
 40
0.1
 41
1.5
 71
     1
 72
     5
  1
  Tolerances\P.XXXX = +/- .001\P.XXX  = +/- .005\P.XX   = +/- .015
 73
     1
 44
1.0
  0
LINE
  5
25C
330
58
100
AcDbEntity
 67
     1
  8
0
 48
0.3
100
AcDbLine
 10
10.45343245592402
 20
8.521745688910979
 30
0.0
 11
9.771580218551562
 21
8.521745688910979
 31
0.0
  0
LINE
  5
25D
330
58
100
AcDbEntity
 67
     1
  8
0
 48
0.3
100
AcDbLine
 10
9.736394526597027
 20
8.559061681200978
 30
0.0
 11
9.966138640624695
 21
8.315407823297377
 31
0.0
  0
LINE
  5
25E
330
58
100
AcDbEntity
 67
     1
  8
0
 48
0.3
100
AcDbLine
 10
10.29639573552116
 20
8.774050383728839
 30
0.0
 11
9.736394526597027
 21
8.559061681200978
 31
0.0
  0
LINE
  5
25F
330
58
100
AcDbEntity
 67
     1
  8
0
 48
0.3
100
AcDbLine
 10
10.06665162149348
 20
8.774050383728839
 30
0.0
 11
9.506650412569362
 21
8.559061681200978
 31
0.0
  0
LINE
  5
260
330
58
100
AcDbEntity
 67
     1
  8
0
 48
0.3
100
AcDbLine
 10
9.736394526597027
 20
8.974706545778722
 30
0.0
 11
10.06665162149348
 21
8.774050383728839
 31
0.0
  0
DIMENSION
  5
261
102
{ACAD_XDICTIONARY
360
262
102
}
102
{ACAD_REACTORS
330
263
102
}
330
58
100
AcDbEntity
 67
     1
  8
0
 48
0.3
100
AcDbDimension
  2
*D1
 10
4.11122029167241
 20
12.27572173582292
 30
0.0
 11
6.724692991012545
 21
12.27572173582292
 31
0.0
 70
   160
  1
26.595
 71
     5
 42
9.245390931312952
  3
Standard
100
AcDbAlignedDimension
 13
13.35661122298535
 23
13.18653056541513
 33
0.0
 14
4.11122029167241
 24
13.18653056541513
 34
0.0
100
AcDbRotatedDimension
  0
LINE
  5
264
330
58
100
AcDbEntity
 67
     1
  8
0
 48
0.3
100
AcDbLine
 10
10.8595424507826
 20
13.18653056541513
 30
0.0
 11
8.387372500994112
 21
13.18653056541513
 31
0.0
  0
LINE
  5
265
330
58
100
AcDbEntity
 67
     1
  8
0
 48
0.3
100
AcDbLine
 10
10.8595424507826
 20
13.81153056541513
 30
0.0
 11
8.581930923067247
 21
13.81153056541513
 31
0.0
  0
LINE
  5
266
330
58
100
AcDbEntity
 67
     1
  8
0
 48
0.3
100
AcDbLine
 10
9.736394526597027
 20
9.634005268260068
 30
0.0
 11
9.736394526597027
 21
8.974706545778722
 31
0.0
  0
LINE
  5
268
102
{ACAD_REACTORS
330
A87
330
AFA
102
}
330
58
100
AcDbEntity
 67
     1
  8
0
 48
0.3
100
AcDbLine
 10
3.115519442133134
 20
8.521745688910979
 30
0.0
 11
5.612588214335887
 21
8.521745688910979
 31
0.0
  0
LINE
  5
26A
330
58
100
AcDbEntity
 67
     1
  8
0
 48
0.3
100
AcDbLine
 10
7.992496781432611
 20
8.521745688910979
 30
0.0
 11
9.541836104523898
 21
8.521745688910979
 31
0.0
  0
LINE
  5
26B
330
58
100
AcDbEntity
 67
     1
  8
0
 48
0.3
100
AcDbLine
 10
9.506650412569362
 20
8.559061681200978
 30
0.0
 11
9.736394526597027
 21
8.315407823297377
 31
0.0
  0
LINE
  5
26C
330
58
100
AcDbEntity
 67
     1
  8
0
 48
0.3
100
AcDbLine
 10
9.736394526597027
 20
8.315407823297377
 30
0.0
 11
9.736394526597027
 21
7.885430381031767
 31
0.0
  0
LINE
  5
26E
330
58
100
AcDbEntity
 67
     1
  8
0
 48
0.3
100
AcDbLine
 10
4.11122029167241
 20
13.69753056541513
 30
0.0
 11
3.161220291672408
 21
13.69753056541513
 31
0.0
  0
DIMENSION
  5
26F
102
{ACAD_XDICTIONARY
360
270
102
}
102
{ACAD_REACTORS
330
271
102
}
330
58
100
AcDbEntity
 67
     1
  8
0
 48
0.3
100
AcDbDimension
  2
*D2
 10
4.11122029167241
 20
12.2740660726582
 30
0.0
 11
3.011220291672407
 21
12.2740660726582
 31
0.0
 70
    32
 71
     5
 42
2.200000000000001
  3
Standard
100
AcDbAlignedDimension
 13
1.911220291672407
 23
13.34278056541513
 33
0.0
 14
4.11122029167241
 24
13.34278056541513
 34
0.0
 50
180.0
100
AcDbRotatedDimension
  0
DIMENSION
  5
272
102
{ACAD_XDICTIONARY
360
273
102
}
102
{ACAD_REACTORS
330
274
102
}
330
58
100
AcDbEntity
 67
     1
  8
0
 48
0.3
100
AcDbDimension
  2
*D3
 10
2.411220291672406
 20
14.13585218103156
 30
0.0
 11
2.844970291672406
 21
14.13585218103156
 31
0.0
 70
    32
 71
     5
 42
0.5
  3
Standard
100
AcDbAlignedDimension
 13
1.911220291672407
 23
13.65528056541513
 33
0.0
 14
2.411220291672406
 24
13.65528056541513
 34
0.0
 50
180.0
100
AcDbRotatedDimension
  0
LINE
  5
278
102
{ACAD_REACTORS
330
274
102
}
330
58
100
AcDbEntity
 67
     1
  8
0
 48
0.3
100
AcDbLine
 10
2.411220291672406
 20
13.65528056541513
 30
0.0
 11
1.911220291672407
 21
13.65528056541513
 31
0.0
  0
LINE
  5
279
102
{ACAD_REACTORS
330
271
102
}
330
58
100
AcDbEntity
 67
     1
  8
0
 48
0.3
100
AcDbLine
 10
1.911220291672407
 20
13.34278056541513
 30
0.0
 11
2.411220291672406
 21
13.34278056541513
 31
0.0
  0
LINE
  5
27A
330
58
100
AcDbEntity
 67
     1
  8
0
 48
0.3
100
AcDbLine
 10
1.911220291672407
 20
13.65528056541513
 30
0.0
 11
1.911220291672407
 21
13.34278056541513
 31
0.0
  0
LINE
  5
27C
330
58
100
AcDbEntity
 67
     1
  8
0
 48
0.3
100
AcDbLine
 10
2.411220291672406
 20
13.49903056541513
 30
0.0
 11
2.411220291672406
 21
13.65528056541513
 31
0.0
  0
LINE
  5
27D
330
58
100
AcDbEntity
 67
     1
  8
0
 48
0.3
100
AcDbLine
 10
3.161220291672408
 20
13.69753056541513
 30
0.0
 11
3.161220291672408
 21
13.30053056541514
 31
0.0
  0
LINE
  5
27E
330
58
100
AcDbEntity
 67
     1
  8
0
 48
0.3
100
AcDbLine
 10
2.411220291672406
 20
13.68653056541514
 30
0.0
 11
2.411220291672406
 21
13.31153056541514
 31
0.0
  0
LINE
  5
281
330
58
100
AcDbEntity
 67
     1
  8
0
 48
0.3
100
AcDbLine
 10
5.612588214335887
 20
9.14674568891098
 30
0.0
 11
3.115519442133134
 21
9.14674568891098
 31
0.0
  0
LINE
  5
282
102
{ACAD_REACTORS
330
263
102
}
330
58
100
AcDbEntity
 67
     1
  8
0
 48
0.3
100
AcDbLine
 10
4.11122029167241
 20
13.18653056541513
 30
0.0
 11
6.608289063875163
 21
13.18653056541513
 31
0.0
  0
LINE
  5
283
330
58
100
AcDbEntity
 67
     1
  8
0
 48
0.3
100
AcDbLine
 10
6.608289063875163
 20
13.81153056541513
 30
0.0
 11
4.11122029167241
 21
13.81153056541513
 31
0.0
  0
LINE
  5
284
330
58
100
AcDbEntity
 67
     1
  8
0
 48
0.3
100
AcDbLine
 10
4.11122029167241
 20
13.49903056541513
 30
0.0
 11
4.11122029167241
 21
13.69753056541513
 31
0.0
  0
LINE
  5
285
330
58
100
AcDbEntity
 67
     1
  8
0
 48
0.3
100
AcDbLine
 10
4.11122029167241
 20
13.81153056541513
 30
0.0
 11
4.11122029167241
 21
13.18653056541513
 31
0.0
  0
LINE
  5
286
330
58
100
AcDbEntity
 67
     1
  8
0
 48
0.3
100
AcDbLine
 10
8.581930923067247
 20
12.98019269980152
 30
0.0
 11
8.581930923067247
 21
12.55021525753591
 31
0.0
  0
LINE
  5
287
330
58
100
AcDbEntity
 67
     1
  8
0
 48
0.3
100
AcDbLine
 10
8.352186809039579
 20
12.98019269980152
 30
0.0
 11
8.352186809039579
 21
12.55021525753591
 31
0.0
  0
LINE
  5
288
330
58
100
AcDbEntity
 67
     1
  8
0
 48
0.3
100
AcDbLine
 10
7.992496781432611
 20
9.14674568891098
 30
0.0
 11
9.736394526597027
 21
9.14674568891098
 31
0.0
  0
LINE
  5
289
330
58
100
AcDbEntity
 67
     1
  8
0
 48
0.3
100
AcDbLine
 10
6.608289063875163
 20
13.81153056541513
 30
0.0
 11
8.352186809039579
 21
13.81153056541513
 31
0.0
  0
LINE
  5
28A
330
58
100
AcDbEntity
 67
     1
  8
0
 48
0.3
100
AcDbLine
 10
8.122442695011912
 20
13.22384655770514
 30
0.0
 11
8.352186809039579
 21
12.98019269980152
 31
0.0
  0
LINE
  5
28B
330
58
100
AcDbEntity
 67
     1
  8
0
 48
0.3
100
AcDbLine
 10
8.682443903936047
 20
13.43883526023299
 30
0.0
 11
8.122442695011912
 21
13.22384655770514
 31
0.0
  0
LINE
  5
28C
330
58
100
AcDbEntity
 67
     1
  8
0
 48
0.3
100
AcDbLine
 10
6.608289063875163
 20
13.18653056541513
 30
0.0
 11
8.157628386966447
 21
13.18653056541513
 31
0.0
  0
LINE
  5
28D
330
58
100
AcDbEntity
 67
     1
  8
0
 48
0.3
100
AcDbLine
 10
8.581930923067247
 20
14.29879014476423
 30
0.0
 11
8.581930923067247
 21
13.63949142228288
 31
0.0
  0
LINE
  5
28E
330
58
100
AcDbEntity
 67
     1
  8
0
 48
0.3
100
AcDbLine
 10
8.352186809039579
 20
14.29879014476423
 30
0.0
 11
8.352186809039579
 21
13.63949142228288
 31
0.0
  0
LINE
  5
28F
330
58
100
AcDbEntity
 67
     1
  8
0
 48
0.3
100
AcDbLine
 10
8.581930923067247
 20
13.63949142228288
 30
0.0
 11
8.912188017963712
 21
13.43883526023299
 31
0.0
  0
LINE
  5
290
330
58
100
AcDbEntity
 67
     1
  8
0
 48
0.3
100
AcDbLine
 10
8.352186809039579
 20
13.63949142228288
 30
0.0
 11
8.682443903936047
 21
13.43883526023299
 31
0.0
  0
LINE
  5
291
330
58
100
AcDbEntity
 67
     1
  8
0
 48
0.3
100
AcDbLine
 10
8.912188017963712
 20
13.43883526023299
 30
0.0
 11
8.352186809039579
 21
13.22384655770514
 31
0.0
  0
LINE
  5
292
330
58
100
AcDbEntity
 67
     1
  8
0
 48
0.3
100
AcDbLine
 10
8.352186809039579
 20
13.22384655770514
 30
0.0
 11
8.581930923067247
 21
12.98019269980152
 31
0.0
  0
LINE
  5
293
330
58
100
AcDbEntity
 67
     1
  8
0
 48
0.3
100
AcDbLine
 10
9.966138640624695
 20
9.634005268260068
 30
0.0
 11
9.966138640624695
 21
8.974706545778722
 31
0.0
  0
DIMENSION
  5
294
102
{ACAD_XDICTIONARY
360
295
102
}
102
{ACAD_REACTORS
330
296
102
}
330
58
100
AcDbEntity
 67
     1
  8
0
 48
0.3
100
AcDbDimension
  2
*D4
 10
17.14025010277255
 20
8.540852701909704
 30
0.0
 11
18.24644483184323
 21
9.834802022454907
 31
0.0
 70
   163
  1
5/8x.200
 71
     5
 42
0.6250000000000036
  3
Standard
100
AcDbDiametricDimension
 15
17.35544122878355
 25
9.127638675912256
 35
0.0
 40
0.0
1001
ACAD
1000
DSTYLE
1002
{
1070
   288
1070
     1
1002
}
  0
CIRCLE
  5
297
102
{ACAD_REACTORS
330
296
102
}
330
58
100
AcDbEntity
 67
     1
  8
0
 48
0.3
100
AcDbCircle
 10
17.24784566577805
 20
8.834245688910979
 30
0.0
 40
0.3125
  0
LINE
  5
2A2
330
58
100
AcDbEntity
 67
     1
  8
0
 48
0.3
100
AcDbLine
 10
9.966138640624695
 20
8.315407823297377
 30
0.0
 11
9.966138640624695
 21
7.885430381031767
 31
0.0
  0
LINE
  5
2A3
330
58
100
AcDbEntity
 67
     1
  8
0
 48
0.3
100
AcDbLine
 10
9.966138640624695
 20
8.974706545778722
 30
0.0
 11
10.29639573552116
 21
8.774050383728839
 31
0.0
  0
LINE
  5
2AB
330
58
100
AcDbEntity
 67
     1
  8
0
 48
0.3
100
AcDbLine
 10
13.73359036086726
 20
9.032745688910976
 30
0.0
 11
13.73359036086726
 21
8.635745688910978
 31
0.0
  0
LINE
  5
2AC
102
{ACAD_REACTORS
330
AAB
330
AC5
102
}
330
58
100
AcDbEntity
 67
     1
  8
0
 48
0.3
100
AcDbLine
 10
15.48359036086726
 20
8.67824568891098
 30
0.0
 11
14.98359036086727
 21
8.67824568891098
 31
0.0
  0
LINE
  5
2AD
330
58
100
AcDbEntity
 67
     1
  8
0
 48
0.3
100
AcDbLine
 10
14.98359036086727
 20
8.990245688910979
 30
0.0
 11
15.48359036086726
 21
8.990245688910979
 31
0.0
  0
LINE
  5
2AF
330
58
100
AcDbEntity
 67
     1
  8
0
 48
0.3
100
AcDbLine
 10
14.48359036086726
 20
9.02174568891098
 30
0.0
 11
14.48359036086726
 21
8.646745688910979
 31
0.0
  0
LINE
  5
2B0
330
58
100
AcDbEntity
 67
     1
  8
0
 48
0.3
100
AcDbLine
 10
15.48359036086726
 20
8.990245688910979
 30
0.0
 11
15.48359036086726
 21
8.67824568891098
 31
0.0
  0
DIMENSION
  5
2B1
102
{ACAD_XDICTIONARY
360
2B2
102
}
102
{ACAD_REACTORS
330
2B3
102
}
330
58
100
AcDbEntity
 67
     1
  8
0
 48
0.3
100
AcDbDimension
  2
*D6
 10
17.16635730084773
 20
8.967563763008156
 30
0.0
 11
18.2964640960319
 21
8.122784345237143
 31
0.0
 70
   163
  1
%%c0.3125
 71
     5
 42
0.3124999999999893
  3
Standard
100
AcDbDiametricDimension
 15
17.32933403070837
 25
8.700927614813796
 35
0.0
 40
0.0
1001
ACAD
1000
DSTYLE
1002
{
1070
   288
1070
     1
1002
}
  0
DIMENSION
  5
2B4
102
{ACAD_XDICTIONARY
360
2B5
102
}
102
{ACAD_REACTORS
330
2B6
102
}
330
58
100
AcDbEntity
 67
     1
  8
0
 48
0.3
100
AcDbDimension
  2
*D7
 10
17.0755196738044
 20
8.908137518569587
 30
0.0
 11
18.39728918328267
 21
8.60901171729013
 31
0.0
 70
   163
  1
3/8-24
 71
     5
 42
0.3750000000000053
  3
Standard
100
AcDbDiametricDimension
 15
17.42017165775171
 25
8.760353859252372
 35
0.0
 40
0.0
1001
ACAD
1000
DSTYLE
1002
{
1070
   288
1070
     1
1002
}
  0
DIMENSION
  5
2B7
102
{ACAD_XDICTIONARY
360
2B8
102
}
102
{ACAD_REACTORS
330
2B9
102
}
330
58
100
AcDbEntity
 67
     1
  8
0
 48
0.3
100
AcDbDimension
  2
*D8
 10
17.06967142298206
 20
8.749038945022508
 30
0.0
 11
18.22072359143815
 21
9.027309070632957
 31
0.0
 70
    35
  1
%%c0.3930
 71
     5
 42
0.3949999999999996
  3
Standard
100
AcDbDiametricDimension
 15
17.42601990857404
 25
8.919452432799451
 35
0.0
 40
0.0
1001
ACAD
1000
DSTYLE
1002
{
1070
   288
1070
     1
1002
}
  0
CIRCLE
  5
2BA
102
{ACAD_REACTORS
330
2B3
102
}
330
58
100
AcDbEntity
 67
     1
  8
0
 48
0.3
100
AcDbCircle
 10
17.24784566577805
 20
8.834245688910979
 30
0.0
 40
0.15625
  0
CIRCLE
  5
2BB
102
{ACAD_REACTORS
330
2B6
102
}
330
58
100
AcDbEntity
 67
     1
  8
0
 48
0.3
100
AcDbCircle
 10
17.24784566577805
 20
8.834245688910979
 30
0.0
 40
0.1875
  0
CIRCLE
  5
2BC
102
{ACAD_REACTORS
330
2B9
102
}
330
58
100
AcDbEntity
 67
     1
  8
0
 48
0.3
100
AcDbCircle
 10
17.24784566577805
 20
8.834245688910979
 30
0.0
 40
0.1975
  0
LINE
  5
2BD
102
{ACAD_REACTORS
330
263
102
}
330
58
100
AcDbEntity
 67
     1
  8
0
 48
0.3
100
AcDbLine
 10
13.35661122298535
 20
13.18653056541513
 30
0.0
 11
10.8595424507826
 21
13.18653056541513
 31
0.0
  0
LINE
  5
2BE
330
58
100
AcDbEntity
 67
     1
  8
0
 48
0.3
100
AcDbLine
 10
10.8595424507826
 20
13.81153056541513
 30
0.0
 11
13.35661122298535
 21
13.81153056541513
 31
0.0
  0
MTEXT
  5
2BF
330
58
100
AcDbEntity
 67
     1
  8
0
 48
0.3
100
AcDbMText
 10
11.13906621953046
 20
10.59197924210306
 30
0.0
 40
0.3
 41
2.411799999999999
 71
     1
 72
     5
  1
Y Axis
 73
     1
 44
1.0
  0
LINE
  5
2C0
330
58
100
AcDbEntity
 67
     1
  8
0
 48
0.3
100
AcDbLine
 10
10.45343245592402
 20
9.14674568891098
 30
0.0
 11
11.98359036086727
 21
9.14674568891098
 31
0.0
  0
LINE
  5
2C1
330
58
100
AcDbEntity
 67
     1
  8
0
 48
0.3
100
AcDbLine
 10
10.45343245592402
 20
9.14674568891098
 30
0.0
 11
9.966138640624695
 21
9.14674568891098
 31
0.0
  0
MTEXT
  5
2C2
330
58
100
AcDbEntity
 67
     1
  8
0
 48
0.3
100
AcDbMText
 10
11.08668800925612
 20
15.46681650913171
 30
0.0
 40
0.3
 41
3.3969
 71
     1
 72
     5
  1
X Axis
 73
     1
 44
1.0
  0
DIMENSION
  5
2C6
102
{ACAD_XDICTIONARY
360
2C7
102
}
102
{ACAD_REACTORS
330
2C8
102
}
330
58
100
AcDbEntity
 67
     1
  8
0
 48
0.3
100
AcDbDimension
  2
*D9
 10
13.35661122298535
 20
12.2740660726582
 30
0.0
 11
14.45661122298536
 21
12.2740660726582
 31
0.0
 70
    32
 71
     5
 42
2.200000000000001
  3
Standard
100
AcDbAlignedDimension
 13
15.55661122298535
 23
13.34278056541513
 33
0.0
 14
13.35661122298535
 24
13.34278056541513
 34
0.0
100
AcDbRotatedDimension
  0
DIMENSION
  5
2C9
102
{ACAD_XDICTIONARY
360
2CA
102
}
102
{ACAD_REACTORS
330
2CB
102
}
330
58
100
AcDbEntity
 67
     1
  8
0
 48
0.3
100
AcDbDimension
  2
*D10
 10
15.05661122298535
 20
14.13585218103156
 30
0.0
 11
14.62286122298535
 21
14.13585218103156
 31
0.0
 70
    32
 71
     5
 42
0.5
  3
Standard
100
AcDbAlignedDimension
 13
15.55661122298535
 23
13.65528056541513
 33
0.0
 14
15.05661122298535
 24
13.65528056541513
 34
0.0
100
AcDbRotatedDimension
  0
LINE
  5
2CC
102
{ACAD_REACTORS
330
2C8
102
}
330
58
100
AcDbEntity
 67
     1
  8
0
 48
0.3
100
AcDbLine
 10
15.55661122298535
 20
13.34278056541513
 30
0.0
 11
15.05661122298535
 21
13.34278056541513
 31
0.0
  0
LINE
  5
2CD
102
{ACAD_REACTORS
330
2CB
102
}
330
58
100
AcDbEntity
 67
     1
  8
0
 48
0.3
100
AcDbLine
 10
15.05661122298535
 20
13.65528056541513
 30
0.0
 11
15.55661122298535
 21
13.65528056541513
 31
0.0
  0
LINE
  5
2CF
330
58
100
AcDbEntity
 67
     1
  8
0
 48
0.3
100
AcDbLine
 10
13.35661122298535
 20
13.69753056541513
 30
0.0
 11
14.30661122298535
 21
13.69753056541513
 31
0.0
  0
LINE
  5
2D0
330
58
100
AcDbEntity
 67
     1
  8
0
 48
0.3
100
AcDbLine
 10
13.35661122298535
 20
13.49903056541513
 30
0.0
 11
13.35661122298535
 21
13.69753056541513
 31
0.0
  0
LINE
  5
2D1
330
58
100
AcDbEntity
 67
     1
  8
0
 48
0.3
100
AcDbLine
 10
13.35661122298535
 20
13.81153056541513
 30
0.0
 11
13.35661122298535
 21
13.18653056541513
 31
0.0
  0
LINE
  5
2D2
330
58
100
AcDbEntity
 67
     1
  8
0
 48
0.3
100
AcDbLine
 10
15.05661122298535
 20
13.49903056541513
 30
0.0
 11
15.05661122298535
 21
13.65528056541513
 31
0.0
  0
LINE
  5
2D3
330
58
100
AcDbEntity
 67
     1
  8
0
 48
0.3
100
AcDbLine
 10
15.05661122298535
 20
13.68653056541514
 30
0.0
 11
15.05661122298535
 21
13.31153056541514
 31
0.0
  0
LINE
  5
2D5
330
58
100
AcDbEntity
 67
     1
  8
0
 48
0.3
100
AcDbLine
 10
14.30661122298535
 20
13.69753056541513
 30
0.0
 11
14.30661122298535
 21
13.30053056541514
 31
0.0
  0
LINE
  5
2D8
102
{ACAD_REACTORS
330
867
330
8E6
102
}
330
58
100
AcDbEntity
 67
     1
  8
0
 48
0.3
100
AcDbLine
 10
15.55661122298535
 20
13.65528056541513
 30
0.0
 11
15.55661122298535
 21
13.34278056541513
 31
0.0
  0
DIMENSION
  5
2D9
102
{ACAD_XDICTIONARY
360
2DA
102
}
102
{ACAD_REACTORS
330
2DB
102
}
330
58
100
AcDbEntity
 67
     1
  8
0
 48
0.3
100
AcDbDimension
  2
*D11
 10
17.01143525774142
 20
13.59066685763444
 30
0.0
 11
18.12587494418092
 21
13.28521255023673
 31
0.0
 70
    35
  1
3/8-24
 71
     5
 42
0.3750000000000071
  3
Standard
100
AcDbDiametricDimension
 15
17.33859906960512
 25
13.40739427319582
 35
0.0
 40
0.0
1001
ACAD
1000
DSTYLE
1002
{
1070
   288
1070
     1
1002
}
  0
DIMENSION
  5
2DC
102
{ACAD_XDICTIONARY
360
2DD
102
}
102
{ACAD_REACTORS
330
2DE
102
}
330
58
100
AcDbEntity
 67
     1
  8
0
 48
0.3
100
AcDbDimension
  2
*D12
 10
17.00760725810651
 20
13.39424424227069
 30
0.0
 11
18.12350500877601
 21
13.73645780393226
 31
0.0
 70
    35
  1
%%c0.3930
 71
     5
 42
0.3950000000000067
  3
Standard
100
AcDbDiametricDimension
 15
17.34242706924002
 25
13.60381688855957
 35
0.0
 40
0.0
1001
ACAD
1000
DSTYLE
1002
{
1070
   288
1070
     1
1002
}
  0
DIMENSION
  5
2DF
102
{ACAD_XDICTIONARY
360
2E0
102
}
102
{ACAD_REACTORS
330
2E1
102
}
330
58
100
AcDbEntity
 67
     1
  8
0
 48
0.3
100
AcDbDimension
  2
*D13
 10
17.14762122727298
 20
13.65286009823881
 30
0.0
 11
17.88423388863721
 21
12.96298020061534
 31
0.0
 70
   163
  1
%%c0.3125
 71
     5
 42
0.3124999999999964
  3
Standard
100
AcDbDiametricDimension
 15
17.20241310007357
 25
13.34520103259146
 35
0.0
 40
0.0
1001
ACAD
1000
DSTYLE
1002
{
1070
   288
1070
     1
1002
}
  0
DIMENSION
  5
2E2
102
{ACAD_XDICTIONARY
360
2E3
102
}
102
{ACAD_REACTORS
330
2E4
102
}
330
58
100
AcDbEntity
 67
     1
  8
0
 48
0.3
100
AcDbDimension
  2
*D14
 10
17.04069817725098
 20
13.2168698667229
 30
0.0
 11
18.04845800590006
 21
14.00691982306115
 31
0.0
 70
    35
  1
5/8x.200
 71
     5
 42
0.6250000000000036
  3
Standard
100
AcDbDiametricDimension
 15
17.30933615009557
 25
13.78119126410736
 35
0.0
 40
0.0
1001
ACAD
1000
DSTYLE
1002
{
1070
   288
1070
     1
1002
}
  0
CIRCLE
  5
2E5
102
{ACAD_REACTORS
330
2E1
102
}
330
58
100
AcDbEntity
 67
     1
  8
0
 48
0.3
100
AcDbCircle
 10
17.17501716367327
 20
13.49903056541513
 30
0.0
 40
0.15625
  0
CIRCLE
  5
2E6
102
{ACAD_REACTORS
330
2DB
102
}
330
58
100
AcDbEntity
 67
     1
  8
0
 48
0.3
100
AcDbCircle
 10
17.17501716367327
 20
13.49903056541513
 30
0.0
 40
0.1875
  0
CIRCLE
  5
2E7
102
{ACAD_REACTORS
330
2DE
102
}
330
58
100
AcDbEntity
 67
     1
  8
0
 48
0.3
100
AcDbCircle
 10
17.17501716367327
 20
13.49903056541513
 30
0.0
 40
0.1975
  0
CIRCLE
  5
2E8
102
{ACAD_REACTORS
330
2E4
102
}
330
58
100
AcDbEntity
 67
     1
  8
0
 48
0.3
100
AcDbCircle
 10
17.17501716367327
 20
13.49903056541513
 30
0.0
 40
0.3125
  0
MTEXT
  5
460
330
58
100
AcDbEntity
 67
     1
  8
0
 48
0.3
100
AcDbMText
 10
17.3976931505364
 20
1.46733988134756
 30
0.0
 40
0.1
 41
3.0
 71
     1
 72
     5
  1
G0704 Ballscrews rev D\PY Axis Extension Rear Mount\PDaniel E. Kemp\P{\fArial|b0|i0|c0|p32;\H1.625x;©\fMS Shell Dlg|b0|i0|c0|p32;\H0.6538x; }03-08-2011
 73
     1
 44
1.0
  0
LINE
  5
4B2
330
58
100
AcDbEntity
 67
     1
  8
0
 48
0.3
100
AcDbLine
 10
1.097425843977759
 20
11.19799145749681
 30
0.0
 11
19.43586034588685
 21
11.19799145749681
 31
0.0
  0
CIRCLE
  5
4DD
102
{ACAD_REACTORS
330
55E
102
}
330
58
100
AcDbEntity
 67
     1
  8
0
 48
0.3
100
AcDbCircle
 10
17.24784566577797
 20
4.277111368870553
 30
0.0
 40
0.375
  0
CIRCLE
  5
4DF
102
{ACAD_REACTORS
330
574
102
}
330
58
100
AcDbEntity
 67
     1
  8
0
 48
0.3
100
AcDbCircle
 10
17.24784566577797
 20
4.277111368870553
 30
0.0
 40
0.295
  0
CIRCLE
  5
4E0
102
{ACAD_REACTORS
330
759
102
}
330
58
100
AcDbEntity
 67
     1
  8
0
 48
0.3
100
AcDbCircle
 10
17.24784566577797
 20
4.277111368870553
 30
0.0
 40
0.25
  0
CIRCLE
  5
4E1
102
{ACAD_REACTORS
330
5A0
102
}
330
58
100
AcDbEntity
 67
     1
  8
0
 48
0.3
100
AcDbCircle
 10
17.24784566577797
 20
4.277111368870553
 30
0.0
 40
0.1875
  0
LINE
  5
4E3
330
58
100
AcDbEntity
 67
     1
  8
0
 48
0.3
100
AcDbLine
 10
13.23359036086727
 20
4.652111368870554
 30
0.0
 11
13.23359036086727
 21
3.902111368870553
 31
0.0
  0
LINE
  5
4E4
102
{ACAD_REACTORS
330
5BA
330
5D4
102
}
330
58
100
AcDbEntity
 67
     1
  8
0
 48
0.3
100
AcDbLine
 10
13.23359036086727
 20
3.902111368870553
 30
0.0
 11
8.266141048035969
 21
3.902111368870553
 31
0.0
  0
LINE
  5
4E5
330
58
100
AcDbEntity
 67
     1
  8
0
 48
0.3
100
AcDbLine
 10
2.992592384576358
 20
3.902111368870555
 30
0.0
 11
2.992592384576358
 21
4.652111368870554
 31
0.0
  0
LINE
  5
4E6
330
58
100
AcDbEntity
 67
     1
  8
0
 48
0.3
100
AcDbLine
 10
2.992592384576358
 20
4.652111368870554
 30
0.0
 11
8.113091372721815
 21
4.652111368870554
 31
0.0
  0
LINE
  5
525
330
58
100
AcDbEntity
 67
     1
  8
0
 48
0.3
100
AcDbLine
 10
8.342835486749482
 20
4.480072225738298
 30
0.0
 11
8.673092581645949
 21
4.279416063688416
 31
0.0
  0
LINE
  5
526
330
58
100
AcDbEntity
 67
     1
  8
0
 48
0.3
100
AcDbLine
 10
8.673092581645949
 20
4.279416063688416
 30
0.0
 11
8.113091372721815
 21
4.064427361160555
 31
0.0
  0
LINE
  5
527
330
58
100
AcDbEntity
 67
     1
  8
0
 48
0.3
100
AcDbLine
 10
8.113091372721815
 20
4.480072225738298
 30
0.0
 11
8.443348467618282
 21
4.279416063688416
 31
0.0
  0
LINE
  5
528
330
58
100
AcDbEntity
 67
     1
  8
0
 48
0.3
100
AcDbLine
 10
8.342835486749482
 20
3.820773503256953
 30
0.0
 11
8.342835486749482
 21
3.390796060991343
 31
0.0
  0
LINE
  5
529
330
58
100
AcDbEntity
 67
     1
  8
0
 48
0.3
100
AcDbLine
 10
8.113091372721815
 20
3.820773503256953
 30
0.0
 11
8.113091372721815
 21
3.390796060991343
 31
0.0
  0
LINE
  5
52A
330
58
100
AcDbEntity
 67
     1
  8
0
 48
0.3
100
AcDbLine
 10
8.443348467618282
 20
4.279416063688416
 30
0.0
 11
7.883347258694146
 21
4.064427361160555
 31
0.0
  0
LINE
  5
52B
330
58
100
AcDbEntity
 67
     1
  8
0
 48
0.3
100
AcDbLine
 10
8.113091372721815
 20
4.064427361160555
 30
0.0
 11
8.342835486749482
 21
3.820773503256953
 31
0.0
  0
LINE
  5
52C
330
58
100
AcDbEntity
 67
     1
  8
0
 48
0.3
100
AcDbLine
 10
7.883347258694146
 20
4.064427361160555
 30
0.0
 11
8.113091372721815
 21
3.820773503256953
 31
0.0
  0
LINE
  5
52D
330
58
100
AcDbEntity
 67
     1
  8
0
 48
0.3
100
AcDbLine
 10
8.342835486749482
 20
5.139370948219643
 30
0.0
 11
8.342835486749482
 21
4.480072225738298
 31
0.0
  0
LINE
  5
52E
330
58
100
AcDbEntity
 67
     1
  8
0
 48
0.3
100
AcDbLine
 10
8.113091372721815
 20
5.139370948219643
 30
0.0
 11
8.113091372721815
 21
4.480072225738298
 31
0.0
  0
LINE
  5
52F
330
58
100
AcDbEntity
 67
     1
  8
0
 48
0.3
100
AcDbLine
 10
8.342835486749482
 20
4.652111368870554
 30
0.0
 11
13.23359036086727
 21
4.652111368870554
 31
0.0
  0
LINE
  5
530
102
{ACAD_REACTORS
330
5BA
330
89B
102
}
330
58
100
AcDbEntity
 67
     1
  8
0
 48
0.3
100
AcDbLine
 10
8.036396934008303
 20
3.902111368870553
 30
0.0
 11
2.992592384576358
 21
3.902111368870555
 31
0.0
  0
LINE
  5
532
330
58
100
AcDbEntity
 67
     1
  8
0
 48
0.3
100
AcDbLine
 10
13.23359036086727
 20
4.572111368870554
 30
0.0
 11
14.23359036086726
 21
4.572111368870554
 31
0.0
  0
LINE
  5
533
330
58
100
AcDbEntity
 67
     1
  8
0
 48
0.3
100
AcDbLine
 10
14.23359036086726
 20
4.572111368870554
 30
0.0
 11
14.23359036086726
 21
3.982111368870553
 31
0.0
  0
LINE
  5
534
102
{ACAD_REACTORS
330
5EE
102
}
330
58
100
AcDbEntity
 67
     1
  8
0
 48
0.3
100
AcDbLine
 10
14.23359036086726
 20
3.982111368870553
 30
0.0
 11
13.23359036086727
 21
3.982111368870553
 31
0.0
  0
LINE
  5
537
102
{ACAD_REACTORS
330
608
102
}
330
58
100
AcDbEntity
 67
     1
  8
0
 48
0.3
100
AcDbLine
 10
15.02359036086726
 20
4.527111368870552
 30
0.0
 11
15.02359036086726
 21
4.027111368870553
 31
0.0
  0
LINE
  5
53A
330
58
100
AcDbEntity
 67
     1
  8
0
 48
0.3
100
AcDbLine
 10
15.02359036086726
 20
4.464611368870552
 30
0.0
 11
16.00859036086727
 21
4.464611368870552
 31
0.0
  0
LINE
  5
53B
330
58
100
AcDbEntity
 67
     1
  8
0
 48
0.3
100
AcDbLine
 10
16.00859036086727
 20
4.464611368870552
 30
0.0
 11
16.00859036086727
 21
4.089611368870553
 31
0.0
  0
LINE
  5
53C
102
{ACAD_REACTORS
330
5D4
330
622
330
89B
102
}
330
58
100
AcDbEntity
 67
     1
  8
0
 48
0.3
100
AcDbLine
 10
16.00859036086727
 20
4.089611368870553
 30
0.0
 11
15.02359036086726
 21
4.089611368870553
 31
0.0
  0
LINE
  5
53D
330
58
100
AcDbEntity
 67
     1
  8
0
 48
0.3
100
AcDbLine
 10
16.00859036086727
 20
4.277111368870553
 30
0.0
 11
16.00859036086727
 21
4.377111368870551
 31
0.0
  0
LINE
  5
53E
102
{ACAD_REACTORS
330
63C
330
791
102
}
330
58
100
AcDbEntity
 67
     1
  8
0
 48
0.3
100
AcDbLine
 10
16.00859036086727
 20
4.377111368870551
 30
0.0
 11
15.50859036086726
 21
4.377111368870551
 31
0.0
  0
LINE
  5
53F
102
{ACAD_REACTORS
330
63C
102
}
330
58
100
AcDbEntity
 67
     1
  8
0
 48
0.3
100
AcDbLine
 10
15.50859036086726
 20
4.377111368870551
 30
0.0
 11
15.50859036086726
 21
4.177111368870551
 31
0.0
  0
LINE
  5
540
330
58
100
AcDbEntity
 67
     1
  8
0
 48
0.3
100
AcDbLine
 10
15.50859036086726
 20
4.177111368870551
 30
0.0
 11
16.00859036086727
 21
4.177111368870551
 31
0.0
  0
LINE
  5
542
330
58
100
AcDbEntity
 67
     1
  8
0
 48
0.3
100
AcDbLine
 10
15.48359036086726
 20
8.934245688910976
 30
0.0
 11
14.98359036086727
 21
8.934245688910976
 31
0.0
  0
LINE
  5
543
330
58
100
AcDbEntity
 67
     1
  8
0
 48
0.3
100
AcDbLine
 10
15.48359036086726
 20
8.834245688910979
 30
0.0
 11
15.48359036086726
 21
8.734245688910979
 31
0.0
  0
LINE
  5
544
102
{ACAD_REACTORS
330
B08
102
}
330
58
100
AcDbEntity
 67
     1
  8
0
 48
0.3
100
AcDbLine
 10
15.48359036086726
 20
8.734245688910979
 30
0.0
 11
14.98359036086727
 21
8.734245688910979
 31
0.0
  0
LINE
  5
545
330
58
100
AcDbEntity
 67
     1
  8
0
 48
0.3
100
AcDbLine
 10
15.55661122298535
 20
13.49903056541513
 30
0.0
 11
15.55661122298535
 21
13.59903056541513
 31
0.0
  0
LINE
  5
546
330
58
100
AcDbEntity
 67
     1
  8
0
 48
0.3
100
AcDbLine
 10
15.55661122298535
 20
13.59903056541513
 30
0.0
 11
15.05661122298535
 21
13.59903056541513
 31
0.0
  0
LINE
  5
547
330
58
100
AcDbEntity
 67
     1
  8
0
 48
0.3
100
AcDbLine
 10
15.55661122298535
 20
13.49903056541513
 30
0.0
 11
15.55661122298535
 21
13.39903056541514
 31
0.0
  0
LINE
  5
548
102
{ACAD_REACTORS
330
795
102
}
330
58
100
AcDbEntity
 67
     1
  8
0
 48
0.3
100
AcDbLine
 10
15.55661122298535
 20
13.39903056541514
 30
0.0
 11
15.05661122298535
 21
13.39903056541514
 31
0.0
  0
DIMENSION
  5
549
102
{ACAD_XDICTIONARY
360
555
102
}
102
{ACAD_REACTORS
330
55E
102
}
330
58
100
AcDbEntity
 67
     1
  8
0
 48
0.3
100
AcDbDimension
  2
*D15
 10
17.02378599952982
 20
3.976408415840873
 30
0.0
 11
18.67004686095331
 21
5.156323049120981
 31
0.0
 70
   163
  1
3/4 x .200
 71
     5
 42
0.75
  3
Standard
100
AcDbDiametricDimension
 15
17.47190533202611
 25
4.57781432190023
 35
0.0
 40
0.0
1001
ACAD
1000
DSTYLE
1002
{
1070
   288
1070
     1
1002
}
  0
DIMENSION
  5
55F
102
{ACAD_XDICTIONARY
360
56B
102
}
102
{ACAD_REACTORS
330
574
102
}
330
58
100
AcDbEntity
 67
     1
  8
0
 48
0.3
100
AcDbDimension
  2
*D16
 10
16.96763872539009
 20
4.184866745404135
 30
0.0
 11
18.73704316439471
 21
4.583416341353976
 31
0.0
 70
   163
  1
%%c0.5900
 71
     5
 42
0.5899999999999963
  3
Standard
100
AcDbDiametricDimension
 15
17.52805260616586
 25
4.369355992336974
 35
0.0
 40
0.0
1001
ACAD
1000
DSTYLE
1002
{
1070
   288
1070
     1
1002
}
  0
DIMENSION
  5
58B
102
{ACAD_XDICTIONARY
360
597
102
}
102
{ACAD_REACTORS
330
5A0
102
}
330
58
100
AcDbEntity
 67
     1
  8
0
 48
0.3
100
AcDbDimension
  2
*D17
 10
17.16458719424871
 20
4.445112193031063
 30
0.0
 11
18.41476986826857
 21
3.070942713332766
 31
0.0
 70
   163
  1
%%c0.3750
 71
     5
 42
0.3749999999999982
  3
Standard
100
AcDbDiametricDimension
 15
17.33110413730723
 25
4.109110544710042
 35
0.0
 40
0.0
1001
ACAD
1000
DSTYLE
1002
{
1070
   288
1070
     1
1002
}
  0
DIMENSION
  5
5A1
102
{ACAD_XDICTIONARY
360
5AF
102
}
102
{ACAD_REACTORS
330
5BA
102
}
330
58
100
AcDbEntity
 67
     1
  8
0
 48
0.3
100
AcDbDimension
  2
*D18
 10
2.992592384576358
 20
2.296100380614834
 30
0.0
 11
8.113091372721815
 21
2.296100380614834
 31
0.0
 70
    32
  1
21.00
 71
     5
 42
10.24099797629091
  3
Standard
100
AcDbAlignedDimension
 13
13.23359036086727
 23
3.902111368870553
 33
0.0
 14
2.992592384576358
 24
3.902111368870555
 34
0.0
100
AcDbRotatedDimension
  0
DIMENSION
  5
5BB
102
{ACAD_XDICTIONARY
360
5C9
102
}
102
{ACAD_REACTORS
330
5D4
102
}
330
58
100
AcDbEntity
 67
     1
  8
0
 48
0.3
100
AcDbDimension
  2
*D19
 10
16.00859036086727
 20
2.296100380614834
 30
0.0
 11
14.62109036086727
 21
2.296100380614834
 31
0.0
 70
    32
 71
     5
 42
2.774999999999998
  3
Standard
100
AcDbAlignedDimension
 13
13.23359036086727
 23
3.902111368870553
 33
0.0
 14
16.00859036086727
 24
4.089611368870553
 34
0.0
100
AcDbRotatedDimension
  0
DIMENSION
  5
5D5
102
{ACAD_XDICTIONARY
360
5E3
102
}
102
{ACAD_REACTORS
330
5EE
102
}
330
58
100
AcDbEntity
 67
     1
  8
0
 48
0.3
100
AcDbDimension
  2
*D20
 10
14.23359036086726
 20
3.082128343876457
 30
0.0
 11
13.73359036086727
 21
3.082128343876457
 31
0.0
 70
    32
 71
     5
 42
-1.0
  3
Standard
100
AcDbAlignedDimension
 13
13.23359036086727
 23
3.982111368870553
 33
0.0
 14
14.23359036086726
 24
3.982111368870553
 34
0.0
100
AcDbRotatedDimension
  0
DIMENSION
  5
5EF
102
{ACAD_XDICTIONARY
360
5FD
102
}
102
{ACAD_REACTORS
330
608
102
}
330
58
100
AcDbEntity
 67
     1
  8
0
 48
0.3
100
AcDbDimension
  2
*D21
 10
14.23359036086726
 20
3.396539514276721
 30
0.0
 11
14.62859036086727
 21
3.396539514276721
 31
0.0
 70
    32
 71
     5
 42
0.7899999999999992
  3
Standard
100
AcDbAlignedDimension
 13
15.02359036086726
 23
4.027111368870553
 33
0.0
 14
14.23359036086726
 24
4.027111368870553
 34
0.0
100
AcDbRotatedDimension
  0
DIMENSION
  5
609
102
{ACAD_XDICTIONARY
360
617
102
}
102
{ACAD_REACTORS
330
622
102
}
330
58
100
AcDbEntity
 67
     1
  8
0
 48
0.3
100
AcDbDimension
  2
*D22
 10
16.00859036086727
 20
3.710950721937943
 30
0.0
 11
15.51609036086726
 21
3.710950721937943
 31
0.0
 70
    32
 71
     5
 42
0.9849999999999994
  3
Standard
100
AcDbAlignedDimension
 13
15.02359036086726
 23
4.089611368870553
 33
0.0
 14
16.00859036086727
 24
4.089611368870553
 34
0.0
100
AcDbRotatedDimension
  0
DIMENSION
  5
623
102
{ACAD_XDICTIONARY
360
631
102
}
102
{ACAD_REACTORS
330
63C
102
}
330
58
100
AcDbEntity
 67
     1
  8
0
 48
0.3
100
AcDbDimension
  2
*D23
 10
15.50859036086726
 20
5.080885165806318
 30
0.0
 11
15.07484036086727
 21
5.080885165806318
 31
0.0
 70
    32
 71
     5
 42
0.5
  3
Standard
100
AcDbAlignedDimension
 13
16.00859036086727
 23
4.377111368870551
 33
0.0
 14
15.50859036086726
 24
4.377111368870551
 34
0.0
100
AcDbRotatedDimension
  0
LINE
  5
71D
330
58
100
AcDbEntity
 67
     1
  8
0
 48
0.3
100
AcDbLine
 10
1.097425843977759
 20
6.752217312789657
 30
0.0
 11
19.43586034588685
 21
6.752217312789657
 31
0.0
  0
MTEXT
  5
723
330
58
100
AcDbEntity
 67
     1
  8
0
 48
0.3
100
AcDbMText
 10
11.11825245710763
 20
6.127848444687902
 30
0.0
 40
0.3
 41
2.411799999999999
 71
     1
 72
     5
  1
Z Axis
 73
     1
 44
1.0
  0
DIMENSION
  5
744
102
{ACAD_XDICTIONARY
360
750
102
}
102
{ACAD_REACTORS
330
759
102
}
330
58
100
AcDbEntity
 67
     1
  8
0
 48
0.3
100
AcDbDimension
  2
*D24
 10
17.0283465442802
 20
4.396778138116279
 30
0.0
 11
18.69779578337235
 21
3.779887982408564
 31
0.0
 70
   163
  1
1/2-20
 71
     5
 42
0.5000000000000036
  3
Standard
100
AcDbDiametricDimension
 15
17.46734478727573
 25
4.157444599624827
 35
0.0
 40
0.0
1001
ACAD
1000
DSTYLE
1002
{
1070
   288
1070
     1
1002
}
  0
LEADER
  5
78E
102
{ACAD_XDICTIONARY
360
790
102
}
102
{ACAD_REACTORS
330
791
102
}
330
58
100
AcDbEntity
 67
     1
  8
0
 48
0.3
100
AcDbLeader
  3
Standard
 73
     0
 40
0.125
 41
0.8958333333333332
 76
     3
 10
16.00859036086727
 20
4.377111368870551
 30
0.0
 10
16.69986724224521
 20
5.643865775500874
 30
0.0
 10
16.92026475339646
 20
5.643865775500874
 30
0.0
340
78F
213
0.0
223
-0.0625
233
0.0
1001
ACAD
1000
DSTYLE
1002
{
1070
   147
1040
0.09
1070
    77
1070
     0
1002
}
  0
MTEXT
  5
78F
102
{ACAD_REACTORS
330
78E
102
}
330
58
100
AcDbEntity
 67
     1
  8
0
 48
0.3
100
AcDbMText
 10
17.01026475339646
 20
5.706365775500874
 30
0.0
 40
0.125
 41
0.0
 71
     1
 72
     1
  1
\A1;.020 flat
 73
     1
 44
1.0
  0
LEADER
  5
792
102
{ACAD_XDICTIONARY
360
794
102
}
102
{ACAD_REACTORS
330
795
102
}
330
58
100
AcDbEntity
 67
     1
  8
0
 48
0.3
100
AcDbLeader
  3
Standard
 73
     0
 40
0.125
 41
0.8958333333333332
 76
     3
 10
15.55661122298535
 20
13.39903056541514
 30
0.0
 10
16.21461760559169
 20
12.33291483373922
 30
0.0
 10
16.46453129345825
 20
12.33291483373922
 30
0.0
340
793
213
0.0
223
-0.0625
233
0.0
1001
ACAD
1000
DSTYLE
1002
{
1070
   147
1040
0.09
1070
    77
1070
     0
1002
}
  0
MTEXT
  5
793
102
{ACAD_REACTORS
330
792
102
}
330
58
100
AcDbEntity
 67
     1
  8
0
 48
0.3
100
AcDbMText
 10
16.55453129345825
 20
12.39541483373922
 30
0.0
 40
0.125
 41
0.0
 71
     1
 72
     1
  1
\A1;.020 flat
 73
     1
 44
1.0
  0
LINE
  5
796
102
{ACAD_REACTORS
330
79D
102
}
330
58
100
AcDbEntity
 67
     1
  8
0
 48
0.3
100
AcDbLine
 10
1.911220291672407
 20
13.49903056541513
 30
0.0
 11
1.911220291672407
 21
13.59903056541513
 31
0.0
  0
LINE
  5
797
330
58
100
AcDbEntity
 67
     1
  8
0
 48
0.3
100
AcDbLine
 10
1.911220291672407
 20
13.59903056541513
 30
0.0
 11
2.411220291672406
 21
13.59903056541513
 31
0.0
  0
LINE
  5
798
330
58
100
AcDbEntity
 67
     1
  8
0
 48
0.3
100
AcDbLine
 10
1.911220291672407
 20
13.49903056541513
 30
0.0
 11
1.911220291672407
 21
13.39903056541514
 31
0.0
  0
LINE
  5
799
330
58
100
AcDbEntity
 67
     1
  8
0
 48
0.3
100
AcDbLine
 10
1.911220291672407
 20
13.39903056541514
 30
0.0
 11
2.411220291672406
 21
13.39903056541513
 31
0.0
  0
LEADER
  5
79A
102
{ACAD_XDICTIONARY
360
79C
102
}
102
{ACAD_REACTORS
330
79D
102
}
330
58
100
AcDbEntity
 67
     1
  8
0
 48
0.3
100
AcDbLeader
  3
Standard
 73
     0
 40
0.125
 41
0.8958333333333332
 76
     3
 10
1.911220291672407
 20
13.59903056541513
 30
0.0
 10
1.513805285162348
 20
13.99794037573426
 30
0.0
 10
1.409677075503181
 20
13.99794037573426
 30
0.0
340
79B
213
0.0
223
0.0625
233
0.0
1001
ACAD
1000
DSTYLE
1002
{
1070
   147
1040
0.09
1070
    77
1070
     0
1002
}
  0
MTEXT
  5
79B
102
{ACAD_REACTORS
330
79A
102
}
330
58
100
AcDbEntity
 67
     1
  8
0
 48
0.3
100
AcDbMText
 10
1.319677075503182
 20
13.93544037573426
 30
0.0
 40
0.125
 41
0.0
 71
     9
 72
     1
  1
\A1;.020 flat
 73
     1
 44
1.0
  0
LINE
  5
7B5
330
58
100
AcDbEntity
 67
     1
  8
0
 48
0.3
100
AcDbLine
 10
11.98359036086727
 20
8.521745688910979
 30
0.0
 11
10.45343245592402
 21
8.521745688910979
 31
0.0
  0
DIMENSION
  5
84E
102
{ACAD_XDICTIONARY
360
85C
102
}
102
{ACAD_REACTORS
330
867
102
}
330
58
100
AcDbEntity
 67
     1
  8
0
 48
0.3
100
AcDbDimension
  2
*D25
 10
1.911220291672407
 20
11.73975201305861
 30
0.0
 11
9.025582423995556
 21
11.73975201305861
 31
0.0
 70
   160
  1
30.995
 71
     5
 42
13.64539093131296
  3
Standard
100
AcDbAlignedDimension
 13
15.55661122298535
 23
13.65528056541513
 33
0.0
 14
1.911220291672407
 24
13.71778056541514
 34
0.0
100
AcDbRotatedDimension
  0
DIMENSION
  5
882
102
{ACAD_XDICTIONARY
360
890
102
}
102
{ACAD_REACTORS
330
89B
102
}
330
58
100
AcDbEntity
 67
     1
  8
0
 48
0.3
100
AcDbDimension
  2
*D27
 10
2.992592384576358
 20
1.88520705239449
 30
0.0
 11
9.500591372721814
 21
1.88520705239449
 31
0.0
 70
    32
  1
23.775
 71
     5
 42
13.01599797629091
  3
Standard
100
AcDbAlignedDimension
 13
16.00859036086727
 23
4.089611368870553
 33
0.0
 14
2.992592384576358
 24
3.902111368870555
 34
0.0
100
AcDbRotatedDimension
  0
LINE
  5
8CA
330
58
100
AcDbEntity
 67
     1
  8
0
 48
0.3
100
AcDbLine
 10
14.30661122298535
 20
13.30053056541514
 30
0.0
 11
13.35661122298535
 21
13.30053056541514
 31
0.0
  0
DIMENSION
  5
8CD
102
{ACAD_XDICTIONARY
360
8DB
102
}
102
{ACAD_REACTORS
330
8E6
102
}
330
58
100
AcDbEntity
 67
     1
  8
0
 48
0.3
100
AcDbDimension
  2
*D28
 10
15.55661122298535
 20
12.9015467723176
 30
0.0
 11
14.93161122298535
 21
12.9015467723176
 31
0.0
 70
    32
 71
     5
 42
1.250000000000001
  3
Standard
100
AcDbAlignedDimension
 13
14.30661122298535
 23
13.31153056541514
 33
0.0
 14
15.55661122298535
 24
13.34278056541513
 34
0.0
100
AcDbRotatedDimension
  0
LINE
  5
8E7
102
{ACAD_REACTORS
330
904
102
}
330
58
100
AcDbEntity
 67
     1
  8
0
 48
0.3
100
AcDbLine
 10
3.161220291672408
 20
13.30053056541514
 30
0.0
 11
4.11122029167241
 21
13.30053056541514
 31
0.0
  0
DIMENSION
  5
8EB
102
{ACAD_XDICTIONARY
360
8F9
102
}
102
{ACAD_REACTORS
330
904
102
}
330
58
100
AcDbEntity
 67
     1
  8
0
 48
0.3
100
AcDbDimension
  2
*D29
 10
1.911220291672407
 20
12.89442118436332
 30
0.0
 11
2.536220291672408
 21
12.89442118436332
 31
0.0
 70
    32
 71
     5
 42
1.250000000000001
  3
Standard
100
AcDbAlignedDimension
 13
3.161220291672408
 23
13.30053056541514
 33
0.0
 14
1.911220291672407
 24
13.30053056541514
 34
0.0
100
AcDbRotatedDimension
  0
LEADER
  5
92B
330
58
100
AcDbEntity
 67
     1
  8
0
 48
0.3
100
AcDbLeader
  3
Standard
 73
     0
 40
0.125
 41
2.333333333333332
 76
     3
 10
16.13359036086727
 20
3.690117388604611
 30
0.0
 10
16.61930755681066
 20
2.590590851554409
 30
0.0
 10
16.82068183015474
 20
2.590590851554409
 30
0.0
340
92C
213
0.0
223
-0.0625
233
0.0
1001
ACAD
1000
DSTYLE
1002
{
1070
   147
1040
0.09
1070
    77
1070
     0
1002
}
  0
MTEXT
  5
92C
102
{ACAD_REACTORS
330
92B
102
}
330
58
100
AcDbEntity
 67
     1
  8
0
 48
0.3
100
AcDbMText
 10
16.91068183015474
 20
2.653090851554409
 30
0.0
 40
0.125
 41
0.0
 71
     1
 72
     1
  1
\A1;.625 for direct drive
 73
     1
 44
1.0
  0
LEADER
  5
92D
330
58
100
AcDbEntity
 67
     1
  8
0
 48
0.3
100
AcDbLeader
  3
Standard
 73
     0
 40
0.125
 41
2.416666666666666
 76
     3
 10
16.00859036086727
 20
2.296100380614834
 30
0.0
 10
16.59413574957261
 20
2.012337065118153
 30
0.0
 10
16.84585363739278
 20
2.012337065118153
 30
0.0
340
92E
213
0.0
223
-0.0625
233
0.0
1001
ACAD
1000
DSTYLE
1002
{
1070
   147
1040
0.09
1070
    77
1070
     0
1002
}
  0
MTEXT
  5
92E
102
{ACAD_REACTORS
330
92D
102
}
330
58
100
AcDbEntity
 67
     1
  8
0
 48
0.3
100
AcDbMText
 10
16.93585363739277
 20
2.074837065118153
 30
0.0
 40
0.125
 41
0.0
 71
     1
 72
     1
  1
\A1;2.415 for direct drive
 73
     1
 44
1.0
  0
LINE
  5
938
102
{ACAD_REACTORS
330
AAB
102
}
330
58
100
AcDbEntity
 67
     1
  8
0
 48
0.3
100
AcDbLine
 10
12.73359036086727
 20
9.14674568891098
 30
0.0
 11
12.73359036086726
 21
8.521745688910979
 31
0.0
  0
LINE
  5
99E
330
58
100
AcDbEntity
 67
     1
  8
0
 48
0.3
100
AcDbLine
 10
13.73359036086726
 20
9.032745688910976
 30
0.0
 11
12.73359036086727
 21
9.032745688910976
 31
0.0
  0
LINE
  5
99F
102
{ACAD_REACTORS
330
AAB
102
}
330
58
100
AcDbEntity
 67
     1
  8
0
 48
0.3
100
AcDbLine
 10
13.73359036086726
 20
8.635745688910978
 30
0.0
 11
12.73359036086726
 21
8.635745688910978
 31
0.0
  0
LINE
  5
A27
330
58
100
AcDbEntity
 67
     1
  8
0
  6
threads
 48
0.3
100
AcDbLine
 10
14.48359036086726
 20
9.02174568891098
 30
0.0
 11
13.73359036086726
 21
9.02174568891098
 31
0.0
  0
LINE
  5
A28
330
58
100
AcDbEntity
 67
     1
  8
0
  6
threads
 48
0.3
100
AcDbLine
 10
14.48359036086726
 20
8.646745688910979
 30
0.0
 11
13.73359036086726
 21
8.646745688910979
 31
0.0
  0
LINE
  5
A29
330
58
100
AcDbEntity
 67
     1
  8
0
  6
threads
 48
0.3
100
AcDbLine
 10
15.02359036086726
 20
4.527111368870552
 30
0.0
 11
14.23359036086726
 21
4.527111368870552
 31
0.0
  0
LINE
  5
A2A
330
58
100
AcDbEntity
 67
     1
  8
0
  6
threads
 48
0.3
100
AcDbLine
 10
15.02359036086726
 20
4.027111368870553
 30
0.0
 11
14.23359036086726
 21
4.027111368870553
 31
0.0
  0
LINE
  5
A2B
330
58
100
AcDbEntity
 67
     1
  8
0
  6
threads
 48
0.3
100
AcDbLine
 10
15.05661122298535
 20
13.68653056541514
 30
0.0
 11
14.30661122298535
 21
13.68653056541514
 31
0.0
  0
LINE
  5
A2C
330
58
100
AcDbEntity
 67
     1
  8
0
  6
threads
 48
0.3
100
AcDbLine
 10
15.05661122298535
 20
13.31153056541514
 30
0.0
 11
14.30661122298535
 21
13.31153056541514
 31
0.0
  0
LINE
  5
A2D
330
58
100
AcDbEntity
 67
     1
  8
0
  6
threads
 48
0.3
100
AcDbLine
 10
2.411220291672406
 20
13.68653056541514
 30
0.0
 11
3.161220291672407
 21
13.68653056541514
 31
0.0
  0
LINE
  5
A2E
330
58
100
AcDbEntity
 67
     1
  8
0
  6
threads
 48
0.3
100
AcDbLine
 10
2.411220291672406
 20
13.31153056541514
 30
0.0
 11
3.161220291672408
 21
13.31153056541514
 31
0.0
  0
LINE
  5
A44
330
58
100
AcDbEntity
 67
     1
  8
0
 48
0.3
100
AcDbLine
 10
11.98359036086727
 20
9.14674568891098
 30
0.0
 11
12.73359036086727
 21
9.14674568891098
 31
0.0
  0
LINE
  5
A45
102
{ACAD_REACTORS
330
A87
102
}
330
58
100
AcDbEntity
 67
     1
  8
0
 48
0.3
100
AcDbLine
 10
11.98359036086726
 20
8.521745688910979
 30
0.0
 11
12.73359036086726
 21
8.521745688910979
 31
0.0
  0
LINE
  5
A66
330
58
100
AcDbEntity
 67
     1
  8
0
 48
0.3
100
AcDbLine
 10
14.98359036086727
 20
8.990245688910979
 30
0.0
 11
14.48359036086726
 21
8.990245688910979
 31
0.0
  0
LINE
  5
A67
102
{ACAD_REACTORS
330
AC5
330
ADF
102
}
330
58
100
AcDbEntity
 67
     1
  8
0
 48
0.3
100
AcDbLine
 10
14.98359036086727
 20
8.67824568891098
 30
0.0
 11
14.48359036086726
 21
8.67824568891098
 31
0.0
  0
LINE
  5
A68
330
58
100
AcDbEntity
 67
     1
  8
0
 48
0.3
100
AcDbLine
 10
14.98359036086727
 20
8.934245688910976
 30
0.0
 11
14.73359036086726
 21
8.934245688910976
 31
0.0
  0
LINE
  5
A69
330
58
100
AcDbEntity
 67
     1
  8
0
 48
0.3
100
AcDbLine
 10
14.73359036086726
 20
8.934245688910976
 30
0.0
 11
14.73359036086726
 21
8.734245688910979
 31
0.0
  0
LINE
  5
A6A
330
58
100
AcDbEntity
 67
     1
  8
0
 48
0.3
100
AcDbLine
 10
14.73359036086726
 20
8.734245688910979
 30
0.0
 11
14.98359036086727
 21
8.734245688910979
 31
0.0
  0
LINE
  5
A6B
330
58
100
AcDbEntity
 67
     1
  8
0
 48
0.3
100
AcDbLine
 10
3.115519442133134
 20
9.14674568891098
 30
0.0
 11
3.115519442133134
 21
8.521745688910979
 31
0.0
  0
LINE
  5
A6C
330
58
100
AcDbEntity
 67
     1
  8
0
 48
0.3
100
AcDbLine
 10
5.612588214335887
 20
9.14674568891098
 30
0.0
 11
7.992496781432611
 21
9.14674568891098
 31
0.0
  0
LINE
  5
A6D
330
58
100
AcDbEntity
 67
     1
  8
0
 48
0.3
100
AcDbLine
 10
5.612588214335887
 20
8.521745688910979
 30
0.0
 11
7.992496781432611
 21
8.521745688910979
 31
0.0
  0
DIMENSION
  5
A6E
102
{ACAD_XDICTIONARY
360
A7C
102
}
102
{ACAD_REACTORS
330
A87
102
}
330
58
100
AcDbEntity
 67
     1
  8
0
 48
0.3
100
AcDbDimension
  2
*D34
 10
12.73359036086726
 20
7.734245602626486
 30
0.0
 11
7.924554901500201
 21
7.734245602626486
 31
0.0
 70
    32
  1
17.000
 71
     5
 42
9.618070918734133
  3
Standard
100
AcDbAlignedDimension
 13
3.115519442133134
 23
8.521745688910979
 33
0.0
 14
12.73359036086726
 24
8.521745688910979
 34
0.0
100
AcDbRotatedDimension
  0
DIMENSION
  5
A92
102
{ACAD_XDICTIONARY
360
AA0
102
}
102
{ACAD_REACTORS
330
AAB
102
}
330
58
100
AcDbEntity
 67
     1
  8
0
 48
0.3
100
AcDbDimension
  2
*D35
 10
12.73359036086726
 20
7.734245602626486
 30
0.0
 11
14.10859036086726
 21
7.734245602626486
 31
0.0
 70
    32
 71
     5
 42
2.750000000000001
  3
Standard
100
AcDbAlignedDimension
 13
15.48359036086726
 23
8.67824568891098
 33
0.0
 14
12.73359036086726
 24
8.635745688910978
 34
0.0
100
AcDbRotatedDimension
  0
DIMENSION
  5
AAC
102
{ACAD_XDICTIONARY
360
ABA
102
}
102
{ACAD_REACTORS
330
AC5
102
}
330
58
100
AcDbEntity
 67
     1
  8
0
 48
0.3
100
AcDbDimension
  2
*D36
 10
14.48359036086726
 20
8.319946117818467
 30
0.0
 11
14.98359036086726
 21
8.319946117818467
 31
0.0
 70
    32
 71
     5
 42
1.000000000000001
  3
Standard
100
AcDbAlignedDimension
 13
15.48359036086726
 23
8.67824568891098
 33
0.0
 14
14.48359036086726
 24
8.67824568891098
 34
0.0
100
AcDbRotatedDimension
  0
DIMENSION
  5
AC6
102
{ACAD_XDICTIONARY
360
AD4
102
}
102
{ACAD_REACTORS
330
ADF
102
}
330
58
100
AcDbEntity
 67
     1
  8
0
 48
0.3
100
AcDbDimension
  2
*D37
 10
13.73359036086726
 20
8.1679110584042
 30
0.0
 11
14.10859036086726
 21
8.1679110584042
 31
0.0
 70
    32
 71
     5
 42
0.75
  3
Standard
100
AcDbAlignedDimension
 13
14.48359036086726
 23
8.67824568891098
 33
0.0
 14
13.73359036086726
 24
8.67824568891098
 34
0.0
100
AcDbRotatedDimension
  0
DIMENSION
  5
AE1
102
{ACAD_XDICTIONARY
360
AEF
102
}
102
{ACAD_REACTORS
330
AFA
102
}
330
58
100
AcDbEntity
 67
     1
  8
0
 48
0.3
100
AcDbDimension
  2
*D38
 10
15.48359036086726
 20
7.222512868137535
 30
0.0
 11
9.299554901500201
 21
7.222512868137535
 31
0.0
 70
    32
  1
19.750
 71
     5
 42
12.36807091873413
  3
Standard
100
AcDbAlignedDimension
 13
3.115519442133134
 23
8.521745688910979
 33
0.0
 14
15.48359036086726
 24
8.61574568891098
 34
0.0
100
AcDbRotatedDimension
  0
LEADER
  5
B05
102
{ACAD_XDICTIONARY
360
B07
102
}
102
{ACAD_REACTORS
330
B08
102
}
330
58
100
AcDbEntity
 67
     1
  8
0
 48
0.3
100
AcDbLeader
  3
Standard
 73
     0
 40
0.125
 41
0.8958333333333333
 76
     3
 10
15.48359036086726
 20
8.734245688910979
 30
0.0
 10
16.31742131077231
 20
7.770655745772025
 30
0.0
 10
16.50472420333835
 20
7.770655745772025
 30
0.0
340
B06
213
0.0
223
-0.0625
233
0.0
1001
ACAD
1000
DSTYLE
1002
{
1070
   147
1040
0.09
1070
    77
1070
     0
1002
}
  0
MTEXT
  5
B06
102
{ACAD_REACTORS
330
B05
102
}
330
58
100
AcDbEntity
 67
     1
  8
0
 48
0.3
100
AcDbMText
 10
16.59472420333835
 20
7.833155745772025
 30
0.0
 40
0.125
 41
0.0
 71
     1
 72
     1
  1
\A1;.020 flat
 73
     1
 44
1.0
  0
ENDSEC
  0
SECTION
  2
OBJECTS
  0
DICTIONARY
  5
C
330
0
100
AcDbDictionary
281
     1
  3
ACAD_GROUP
350
D
  3
ACAD_LAYOUT
350
1A
  3
ACAD_MLINESTYLE
350
17
  3
ACAD_PLOTSETTINGS
350
19
  3
ACAD_PLOTSTYLENAME
350
E
  3
AcDbVariableDictionary
350
66
  0
DICTIONARY
  5
262
330
261
100
AcDbDictionary
280
     1
281
     1
  3
ACAD_DIMASSOC
360
263
  0
DICTIONARY
  5
270
330
26F
100
AcDbDictionary
280
     1
281
     1
  3
ACAD_DIMASSOC
360
271
  0
DICTIONARY
  5
273
330
272
100
AcDbDictionary
280
     1
281
     1
  3
ACAD_DIMASSOC
360
274
  0
DICTIONARY
  5
295
330
294
100
AcDbDictionary
280
     1
281
     1
  3
ACAD_DIMASSOC
360
296
  0
DICTIONARY
  5
2B2
330
2B1
100
AcDbDictionary
280
     1
281
     1
  3
ACAD_DIMASSOC
360
2B3
  0
DICTIONARY
  5
2B5
330
2B4
100
AcDbDictionary
280
     1
281
     1
  3
ACAD_DIMASSOC
360
2B6
  0
DICTIONARY
  5
2B8
330
2B7
100
AcDbDictionary
280
     1
281
     1
  3
ACAD_DIMASSOC
360
2B9
  0
DICTIONARY
  5
2C7
330
2C6
100
AcDbDictionary
280
     1
281
     1
  3
ACAD_DIMASSOC
360
2C8
  0
DICTIONARY
  5
2CA
330
2C9
100
AcDbDictionary
280
     1
281
     1
  3
ACAD_DIMASSOC
360
2CB
  0
DICTIONARY
  5
2DA
330
2D9
100
AcDbDictionary
280
     1
281
     1
  3
ACAD_DIMASSOC
360
2DB
  0
DICTIONARY
  5
2DD
330
2DC
100
AcDbDictionary
280
     1
281
     1
  3
ACAD_DIMASSOC
360
2DE
  0
DICTIONARY
  5
2E0
330
2DF
100
AcDbDictionary
280
     1
281
     1
  3
ACAD_DIMASSOC
360
2E1
  0
DICTIONARY
  5
2E3
330
2E2
100
AcDbDictionary
280
     1
281
     1
  3
ACAD_DIMASSOC
360
2E4
  0
DICTIONARY
  5
555
330
549
100
AcDbDictionary
280
     1
281
     1
  3
ACAD_DIMASSOC
360
55E
  0
DICTIONARY
  5
56B
330
55F
100
AcDbDictionary
280
     1
281
     1
  3
ACAD_DIMASSOC
360
574
  0
DICTIONARY
  5
597
330
58B
100
AcDbDictionary
280
     1
281
     1
  3
ACAD_DIMASSOC
360
5A0
  0
DICTIONARY
  5
5AF
330
5A1
100
AcDbDictionary
280
     1
281
     1
  3
ACAD_DIMASSOC
360
5BA
  0
DICTIONARY
  5
5C9
330
5BB
100
AcDbDictionary
280
     1
281
     1
  3
ACAD_DIMASSOC
360
5D4
  0
DICTIONARY
  5
5E3
330
5D5
100
AcDbDictionary
280
     1
281
     1
  3
ACAD_DIMASSOC
360
5EE
  0
DICTIONARY
  5
5FD
330
5EF
100
AcDbDictionary
280
     1
281
     1
  3
ACAD_DIMASSOC
360
608
  0
DICTIONARY
  5
617
330
609
100
AcDbDictionary
280
     1
281
     1
  3
ACAD_DIMASSOC
360
622
  0
DICTIONARY
  5
631
330
623
100
AcDbDictionary
280
     1
281
     1
  3
ACAD_DIMASSOC
360
63C
  0
DICTIONARY
  5
750
330
744
100
AcDbDictionary
280
     1
281
     1
  3
ACAD_DIMASSOC
360
759
  0
DICTIONARY
  5
790
330
78E
100
AcDbDictionary
280
     1
281
     1
  3
ACAD_DIMASSOC
360
791
  0
DICTIONARY
  5
794
330
792
100
AcDbDictionary
280
     1
281
     1
  3
ACAD_DIMASSOC
360
795
  0
DICTIONARY
  5
79C
330
79A
100
AcDbDictionary
280
     1
281
     1
  3
ACAD_DIMASSOC
360
79D
  0
DICTIONARY
  5
85C
330
84E
100
AcDbDictionary
280
     1
281
     1
  3
ACAD_DIMASSOC
360
867
  0
DICTIONARY
  5
890
330
882
100
AcDbDictionary
280
     1
281
     1
  3
ACAD_DIMASSOC
360
89B
  0
DICTIONARY
  5
8DB
330
8CD
100
AcDbDictionary
280
     1
281
     1
  3
ACAD_DIMASSOC
360
8E6
  0
DICTIONARY
  5
8F9
330
8EB
100
AcDbDictionary
280
     1
281
     1
  3
ACAD_DIMASSOC
360
904
  0
DICTIONARY
  5
A7C
330
A6E
100
AcDbDictionary
280
     1
281
     1
  3
ACAD_DIMASSOC
360
A87
  0
DICTIONARY
  5
AA0
330
A92
100
AcDbDictionary
280
     1
281
     1
  3
ACAD_DIMASSOC
360
AAB
  0
DICTIONARY
  5
ABA
330
AAC
100
AcDbDictionary
280
     1
281
     1
  3
ACAD_DIMASSOC
360
AC5
  0
DICTIONARY
  5
AD4
330
AC6
100
AcDbDictionary
280
     1
281
     1
  3
ACAD_DIMASSOC
360
ADF
  0
DICTIONARY
  5
AEF
330
AE1
100
AcDbDictionary
280
     1
281
     1
  3
ACAD_DIMASSOC
360
AFA
  0
DICTIONARY
  5
B07
330
B05
100
AcDbDictionary
280
     1
281
     1
  3
ACAD_DIMASSOC
360
B08
  0
DICTIONARY
  5
D
102
{ACAD_REACTORS
330
C
102
}
330
C
100
AcDbDictionary
281
     1
  0
DICTIONARY
  5
1A
102
{ACAD_REACTORS
330
C
102
}
330
C
100
AcDbDictionary
281
     1
  3
Layout1
350
59
  3
Layout2
350
5E
  3
Model
350
22
  0
DICTIONARY
  5
17
102
{ACAD_REACTORS
330
C
102
}
330
C
100
AcDbDictionary
281
     1
  3
Standard
350
18
  0
DICTIONARY
  5
19
102
{ACAD_REACTORS
330
C
102
}
330
C
100
AcDbDictionary
281
     1
  0
ACDBDICTIONARYWDFLT
  5
E
102
{ACAD_REACTORS
330
C
102
}
330
C
100
AcDbDictionary
281
     1
  3
Normal
350
F
100
AcDbDictionaryWithDefault
340
F
  0
DICTIONARY
  5
66
102
{ACAD_REACTORS
330
C
102
}
330
C
100
AcDbDictionary
281
     1
  3
DIMASSOC
350
67
  3
HIDETEXT
350
6B
  0
DIMASSOC
  5
263
102
{ACAD_REACTORS
330
262
102
}
330
262
100
AcDbDimAssoc
330
261
 90
        3
 70
     0
 71
     0
  1
AcDbOsnapPointRef
 72
    13
331
2BD
 73
     2
 91
        0
 40
0.0
 10
13.35661122298535
 20
13.18653056541513
 30
0.0
 75
     0
  1
AcDbOsnapPointRef
 72
    13
331
282
 73
     2
 91
        0
 40
0.0
 10
4.11122029167241
 20
13.18653056541513
 30
0.0
 75
     0
  0
DIMASSOC
  5
271
102
{ACAD_REACTORS
330
270
102
}
330
270
100
AcDbDimAssoc
330
26F
 90
        1
 70
     0
 71
     0
  1
AcDbOsnapPointRef
 72
    13
331
279
 73
     2
 91
        0
 40
0.0
 10
1.911220291672407
 20
13.34278056541513
 30
0.0
 75
     0
  0
DIMASSOC
  5
274
102
{ACAD_REACTORS
330
273
102
}
330
273
100
AcDbDimAssoc
330
272
 90
        3
 70
     0
 71
     0
  1
AcDbOsnapPointRef
 72
     1
331
278
 73
     2
 91
        0
 40
1.0
 10
1.911220291672407
 20
13.65528056541513
 30
0.0
 75
     0
  1
AcDbOsnapPointRef
 72
    13
331
278
 73
     2
 91
        0
 40
0.0
 10
2.411220291672406
 20
13.65528056541513
 30
0.0
 75
     0
  0
DIMASSOC
  5
296
102
{ACAD_REACTORS
330
295
102
}
330
295
100
AcDbDimAssoc
330
294
 90
        2
 70
     0
 71
     0
  1
AcDbOsnapPointRef
 72
     3
331
297
 73
     2
 91
        0
 40
0.0
 10
17.24784566577805
 20
8.834245688910979
 30
0.0
 75
     0
  0
DIMASSOC
  5
2B3
102
{ACAD_REACTORS
330
2B2
102
}
330
2B2
100
AcDbDimAssoc
330
2B1
 90
        2
 70
     0
 71
     0
  1
AcDbOsnapPointRef
 72
     3
331
2BA
 73
     2
 91
        0
 40
0.0
 10
17.24784566577805
 20
8.834245688910979
 30
0.0
 75
     0
  0
DIMASSOC
  5
2B6
102
{ACAD_REACTORS
330
2B5
102
}
330
2B5
100
AcDbDimAssoc
330
2B4
 90
        2
 70
     0
 71
     0
  1
AcDbOsnapPointRef
 72
     3
331
2BB
 73
     2
 91
        0
 40
0.0
 10
17.24784566577805
 20
8.834245688910979
 30
0.0
 75
     0
  0
DIMASSOC
  5
2B9
102
{ACAD_REACTORS
330
2B8
102
}
330
2B8
100
AcDbDimAssoc
330
2B7
 90
        2
 70
     0
 71
     0
  1
AcDbOsnapPointRef
 72
     3
331
2BC
 73
     2
 91
        0
 40
0.0
 10
17.24784566577805
 20
8.834245688910979
 30
0.0
 75
     0
  0
DIMASSOC
  5
2C8
102
{ACAD_REACTORS
330
2C7
102
}
330
2C7
100
AcDbDimAssoc
330
2C6
 90
        1
 70
     0
 71
     0
  1
AcDbOsnapPointRef
 72
    13
331
2CC
 73
     2
 91
        0
 40
0.0
 10
15.55661122298535
 20
13.34278056541513
 30
0.0
 75
     0
  0
DIMASSOC
  5
2CB
102
{ACAD_REACTORS
330
2CA
102
}
330
2CA
100
AcDbDimAssoc
330
2C9
 90
        3
 70
     0
 71
     0
  1
AcDbOsnapPointRef
 72
     1
331
2CD
 73
     2
 91
        0
 40
1.0
 10
15.55661122298535
 20
13.65528056541513
 30
0.0
 75
     0
  1
AcDbOsnapPointRef
 72
    13
331
2CD
 73
     2
 91
        0
 40
0.0
 10
15.05661122298535
 20
13.65528056541513
 30
0.0
 75
     0
  0
DIMASSOC
  5
2DB
102
{ACAD_REACTORS
330
2DA
102
}
330
2DA
100
AcDbDimAssoc
330
2D9
 90
        2
 70
     0
 71
     0
  1
AcDbOsnapPointRef
 72
     3
331
2E6
 73
     2
 91
        0
 40
0.0
 10
17.17501716367327
 20
13.49903056541513
 30
0.0
 75
     0
  0
DIMASSOC
  5
2DE
102
{ACAD_REACTORS
330
2DD
102
}
330
2DD
100
AcDbDimAssoc
330
2DC
 90
        2
 70
     0
 71
     0
  1
AcDbOsnapPointRef
 72
     3
331
2E7
 73
     2
 91
        0
 40
0.0
 10
17.17501716367327
 20
13.49903056541513
 30
0.0
 75
     0
  0
DIMASSOC
  5
2E1
102
{ACAD_REACTORS
330
2E0
102
}
330
2E0
100
AcDbDimAssoc
330
2DF
 90
        2
 70
     0
 71
     0
  1
AcDbOsnapPointRef
 72
     3
331
2E5
 73
     2
 91
        0
 40
0.0
 10
17.17501716367327
 20
13.49903056541513
 30
0.0
 75
     0
  0
DIMASSOC
  5
2E4
102
{ACAD_REACTORS
330
2E3
102
}
330
2E3
100
AcDbDimAssoc
330
2E2
 90
        2
 70
     0
 71
     0
  1
AcDbOsnapPointRef
 72
     3
331
2E8
 73
     2
 91
        0
 40
0.0
 10
17.17501716367327
 20
13.49903056541513
 30
0.0
 75
     0
  0
DIMASSOC
  5
55E
102
{ACAD_REACTORS
330
555
102
}
330
555
100
AcDbDimAssoc
330
549
 90
        2
 70
     0
 71
     0
  1
AcDbOsnapPointRef
 72
     3
331
4DD
 73
     2
 91
        0
 40
0.0
 10
17.24784566577797
 20
4.277111368870553
 30
0.0
 75
     0
  0
DIMASSOC
  5
574
102
{ACAD_REACTORS
330
56B
102
}
330
56B
100
AcDbDimAssoc
330
55F
 90
        2
 70
     0
 71
     0
  1
AcDbOsnapPointRef
 72
     3
331
4DF
 73
     2
 91
        0
 40
0.0
 10
17.24784566577797
 20
4.277111368870553
 30
0.0
 75
     0
  0
DIMASSOC
  5
5A0
102
{ACAD_REACTORS
330
597
102
}
330
597
100
AcDbDimAssoc
330
58B
 90
        2
 70
     0
 71
     0
  1
AcDbOsnapPointRef
 72
     3
331
4E1
 73
     2
 91
        0
 40
0.0
 10
17.24784566577797
 20
4.277111368870553
 30
0.0
 75
     0
  0
DIMASSOC
  5
5BA
102
{ACAD_REACTORS
330
5AF
102
}
330
5AF
100
AcDbDimAssoc
330
5A1
 90
        3
 70
     0
 71
     0
  1
AcDbOsnapPointRef
 72
    13
331
4E4
 73
     2
 91
        0
 40
0.0
 10
13.23359036086727
 20
3.902111368870553
 30
0.0
 75
     0
  1
AcDbOsnapPointRef
 72
     1
331
530
 73
     2
 91
        0
 40
1.0
 10
2.992592384576358
 20
3.902111368870555
 30
0.0
 75
     0
  0
DIMASSOC
  5
5D4
102
{ACAD_REACTORS
330
5C9
102
}
330
5C9
100
AcDbDimAssoc
330
5BB
 90
        3
 70
     0
 71
     0
  1
AcDbOsnapPointRef
 72
    13
331
4E4
 73
     2
 91
        0
 40
0.0
 10
13.23359036086727
 20
3.902111368870553
 30
0.0
 75
     0
  1
AcDbOsnapPointRef
 72
    13
331
53C
 73
     2
 91
        0
 40
0.0
 10
16.00859036086727
 20
4.089611368870553
 30
0.0
 75
     0
  0
DIMASSOC
  5
5EE
102
{ACAD_REACTORS
330
5E3
102
}
330
5E3
100
AcDbDimAssoc
330
5D5
 90
        3
 70
     0
 71
     0
  1
AcDbOsnapPointRef
 72
     1
331
534
 73
     2
 91
        0
 40
1.0
 10
13.23359036086727
 20
3.982111368870553
 30
0.0
 75
     0
  1
AcDbOsnapPointRef
 72
    13
331
534
 73
     2
 91
        0
 40
0.0
 10
14.23359036086726
 20
3.982111368870553
 30
0.0
 75
     0
  0
DIMASSOC
  5
608
102
{ACAD_REACTORS
330
5FD
102
}
330
5FD
100
AcDbDimAssoc
330
5EF
 90
        1
 70
     0
 71
     0
  1
AcDbOsnapPointRef
 72
     1
331
537
 73
     2
 91
        0
 40
1.0
 10
15.02359036086726
 20
4.027111368870553
 30
0.0
 75
     0
  0
DIMASSOC
  5
622
102
{ACAD_REACTORS
330
617
102
}
330
617
100
AcDbDimAssoc
330
609
 90
        3
 70
     0
 71
     0
  1
AcDbOsnapPointRef
 72
     1
331
53C
 73
     2
 91
        0
 40
1.0
 10
15.02359036086726
 20
4.089611368870553
 30
0.0
 75
     0
  1
AcDbOsnapPointRef
 72
    13
331
53C
 73
     2
 91
        0
 40
0.0
 10
16.00859036086727
 20
4.089611368870553
 30
0.0
 75
     0
  0
DIMASSOC
  5
63C
102
{ACAD_REACTORS
330
631
102
}
330
631
100
AcDbDimAssoc
330
623
 90
        3
 70
     0
 71
     0
  1
AcDbOsnapPointRef
 72
    13
331
53E
 73
     2
 91
        0
 40
0.0
 10
16.00859036086727
 20
4.377111368870551
 30
0.0
 75
     0
  1
AcDbOsnapPointRef
 72
    13
331
53F
 73
     2
 91
        0
 40
0.0
 10
15.50859036086726
 20
4.377111368870551
 30
0.0
 75
     0
  0
DIMASSOC
  5
759
102
{ACAD_REACTORS
330
750
102
}
330
750
100
AcDbDimAssoc
330
744
 90
        2
 70
     0
 71
     0
  1
AcDbOsnapPointRef
 72
     3
331
4E0
 73
     2
 91
        0
 40
0.0
 10
17.24784566577797
 20
4.277111368870553
 30
0.0
 75
     0
  0
DIMASSOC
  5
791
102
{ACAD_REACTORS
330
790
102
}
330
790
100
AcDbDimAssoc
330
78E
 90
        1
 70
     0
 71
     0
  1
AcDbOsnapPointRef
 72
    13
331
53E
 73
     2
 91
        0
 40
0.0
 10
16.00859036086727
 20
4.377111368870551
 30
0.0
 75
     0
  0
DIMASSOC
  5
795
102
{ACAD_REACTORS
330
794
102
}
330
794
100
AcDbDimAssoc
330
792
 90
        1
 70
     0
 71
     0
  1
AcDbOsnapPointRef
 72
    13
331
548
 73
     2
 91
        0
 40
0.0
 10
15.55661122298535
 20
13.39903056541514
 30
0.0
 75
     0
  0
DIMASSOC
  5
79D
102
{ACAD_REACTORS
330
79C
102
}
330
79C
100
AcDbDimAssoc
330
79A
 90
        1
 70
     0
 71
     0
  1
AcDbOsnapPointRef
 72
     1
331
796
 73
     2
 91
        0
 40
1.0
 10
1.911220291672407
 20
13.59903056541513
 30
0.0
 75
     0
  0
DIMASSOC
  5
867
102
{ACAD_REACTORS
330
85C
102
}
330
85C
100
AcDbDimAssoc
330
84E
 90
        1
 70
     0
 71
     0
  1
AcDbOsnapPointRef
 72
    13
331
2D8
 73
     2
 91
        0
 40
0.0
 10
15.55661122298535
 20
13.65528056541513
 30
0.0
 75
     0
  0
DIMASSOC
  5
89B
102
{ACAD_REACTORS
330
890
102
}
330
890
100
AcDbDimAssoc
330
882
 90
        3
 70
     0
 71
     0
  1
AcDbOsnapPointRef
 72
    13
331
53C
 73
     2
 91
        0
 40
0.0
 10
16.00859036086727
 20
4.089611368870553
 30
0.0
 75
     0
  1
AcDbOsnapPointRef
 72
     1
331
530
 73
     2
 91
        0
 40
1.0
 10
2.992592384576358
 20
3.902111368870555
 30
0.0
 75
     0
  0
DIMASSOC
  5
8E6
102
{ACAD_REACTORS
330
8DB
102
}
330
8DB
100
AcDbDimAssoc
330
8CD
 90
        2
 70
     0
 71
     0
  1
AcDbOsnapPointRef
 72
     1
331
2D8
 73
     2
 91
        0
 40
1.0
 10
15.55661122298535
 20
13.34278056541513
 30
0.0
 75
     0
  0
DIMASSOC
  5
904
102
{ACAD_REACTORS
330
8F9
102
}
330
8F9
100
AcDbDimAssoc
330
8EB
 90
        1
 70
     0
 71
     0
  1
AcDbOsnapPointRef
 72
    13
331
8E7
 73
     2
 91
        0
 40
0.0
 10
3.161220291672408
 20
13.30053056541514
 30
0.0
 75
     0
  0
DIMASSOC
  5
A87
102
{ACAD_REACTORS
330
A7C
102
}
330
A7C
100
AcDbDimAssoc
330
A6E
 90
        3
 70
     0
 71
     0
  1
AcDbOsnapPointRef
 72
    13
331
268
 73
     2
 91
        0
 40
0.0
 10
3.115519442133134
 20
8.521745688910979
 30
0.0
 75
     0
  1
AcDbOsnapPointRef
 72
     1
331
A45
 73
     2
 91
        0
 40
1.0
 10
12.73359036086726
 20
8.521745688910979
 30
0.0
 75
     0
  0
DIMASSOC
  5
AAB
102
{ACAD_REACTORS
330
AA0
102
}
330
AA0
100
AcDbDimAssoc
330
A92
 90
        3
 70
     0
 71
     0
  1
AcDbOsnapPointRef
 72
    13
331
2AC
 73
     2
 91
        0
 40
0.0
 10
15.48359036086726
 20
8.67824568891098
 30
0.0
 75
     0
  1
AcDbOsnapPointRef
 72
     6
331
99F
 73
     2
 91
        0
 40
0.9999999999999982
 10
12.73359036086726
 20
8.635745688910978
 30
0.0
332
938
 74
     2
 92
        0
 75
     0
  0
DIMASSOC
  5
AC5
102
{ACAD_REACTORS
330
ABA
102
}
330
ABA
100
AcDbDimAssoc
330
AAC
 90
        3
 70
     0
 71
     0
  1
AcDbOsnapPointRef
 72
    13
331
2AC
 73
     2
 91
        0
 40
0.0
 10
15.48359036086726
 20
8.67824568891098
 30
0.0
 75
     0
  1
AcDbOsnapPointRef
 72
     1
331
A67
 73
     2
 91
        0
 40
1.0
 10
14.48359036086726
 20
8.67824568891098
 30
0.0
 75
     0
  0
DIMASSOC
  5
ADF
102
{ACAD_REACTORS
330
AD4
102
}
330
AD4
100
AcDbDimAssoc
330
AC6
 90
        1
 70
     0
 71
     0
  1
AcDbOsnapPointRef
 72
     1
331
A67
 73
     2
 91
        0
 40
1.0
 10
14.48359036086726
 20
8.67824568891098
 30
0.0
 75
     0
  0
DIMASSOC
  5
AFA
102
{ACAD_REACTORS
330
AEF
102
}
330
AEF
100
AcDbDimAssoc
330
AE1
 90
        1
 70
     0
 71
     0
  1
AcDbOsnapPointRef
 72
    13
331
268
 73
     2
 91
        0
 40
0.0
 10
3.115519442133134
 20
8.521745688910979
 30
0.0
 75
     0
  0
DIMASSOC
  5
B08
102
{ACAD_REACTORS
330
B07
102
}
330
B07
100
AcDbDimAssoc
330
B05
 90
        1
 70
     0
 71
     0
  1
AcDbOsnapPointRef
 72
    13
331
544
 73
     2
 91
        0
 40
0.0
 10
15.48359036086726
 20
8.734245688910979
 30
0.0
 75
     0
  0
LAYOUT
  5
59
102
{ACAD_REACTORS
330
1A
102
}
330
1A
100
AcDbPlotSettings
  1

  2
EPSON Stylus Photo R200 Series.pc3
  4
Letter
  6

 40
3.757083177566528
 41
3.757076978683471
 42
3.757080078125
 43
3.757080078125
 44
215.8999938964842
 45
279.3999938964843
 46
0.0
 47
0.0
 48
0.0
 49
0.0
140
0.0
141
0.0
142
1.0
143
2.0
 70
   688
 72
     0
 73
     1
 74
     5
  7

 75
    17
147
0.5
148
0.0
149
0.0
100
AcDbLayout
  1
Layout1
 70
     0
 71
     1
 10
-0.2958330770177166
 20
-0.2958333210682306
 11
21.7041664423905
 21
16.70416619833997
 12
0.0
 22
0.0
 32
0.0
 14
0.2965759179903777
 24
0.5900508454536873
 34
0.0
 15
20.29657591799038
 25
16.09005084545367
 35
0.0
146
0.0
 13
0.0
 23
0.0
 33
0.0
 16
1.0
 26
0.0
 36
0.0
 17
0.0
 27
1.0
 37
0.0
 76
     0
330
58
331
77
  0
LAYOUT
  5
5E
102
{ACAD_REACTORS
330
1A
102
}
330
1A
100
AcDbPlotSettings
  1

  2
None
  4

  6

 40
0.0
 41
0.0
 42
0.0
 43
0.0
 44
0.0
 45
0.0
 46
0.0
 47
0.0
 48
0.0
 49
0.0
140
0.0
141
0.0
142
1.0
143
1.0
 70
   688
 72
     0
 73
     0
 74
     5
  7

 75
    16
147
1.0
148
0.0
149
0.0
100
AcDbLayout
  1
Layout2
 70
     1
 71
     2
 10
0.0
 20
0.0
 11
12.0
 21
9.0
 12
0.0
 22
0.0
 32
0.0
 14
0.0
 24
0.0
 34
0.0
 15
0.0
 25
0.0
 35
0.0
146
0.0
 13
0.0
 23
0.0
 33
0.0
 16
1.0
 26
0.0
 36
0.0
 17
0.0
 27
1.0
 37
0.0
 76
     0
330
5D
  0
LAYOUT
  5
22
102
{ACAD_REACTORS
330
1A
102
}
330
1A
100
AcDbPlotSettings
  1

  2
none_device
  4
ANSI_A_(8.50_x_11.00_Inches)
  6

 40
6.349999904632567
 41
19.04999923706053
 42
6.350006103515625
 43
19.04998779296875
 44
215.8999938964842
 45
279.3999938964843
 46
0.0
 47
0.0
 48
0.0
 49
0.0
140
0.0
141
0.0
142
1.0
143
2.584895464708373
 70
 11952
 72
     0
 73
     1
 74
     0
  7

 75
     0
147
0.3868628397755418
148
0.0
149
0.0
100
AcDbLayout
  1
Model
 70
     1
 71
     0
 10
0.0
 20
0.0
 11
12.0
 21
9.0
 12
0.0
 22
0.0
 32
0.0
 14
0.0
 24
0.0
 34
0.0
 15
0.0
 25
0.0
 35
0.0
146
0.0
 13
0.0
 23
0.0
 33
0.0
 16
1.0
 26
0.0
 36
0.0
 17
0.0
 27
1.0
 37
0.0
 76
     0
330
1F
  0
MLINESTYLE
  5
18
102
{ACAD_REACTORS
330
17
102
}
330
17
100
AcDbMlineStyle
  2
STANDARD
 70
     0
  3

 62
   256
 51
90.0
 52
90.0
 71
     2
 49
0.5
 62
   256
  6
BYLAYER
 49
-0.5
 62
   256
  6
BYLAYER
  0
ACDBPLACEHOLDER
  5
F
102
{ACAD_REACTORS
330
E
102
}
330
E
  0
DICTIONARYVAR
  5
67
102
{ACAD_REACTORS
330
66
102
}
330
66
100
DictionaryVariables
280
     0
  1
2
  0
DICTIONARYVAR
  5
6B
102
{ACAD_REACTORS
330
66
102
}
330
66
100
DictionaryVariables
280
     0
  1
1
  0
ENDSEC
  0
EOF
