  0
SECTION
  2
HEADER
  9
$ACADVER
  1
AC1015
  9
$ACADMAINTVER
 70
    13
  9
$DWGCODEPAGE
  3
ANSI_1252
  9
$INSBASE
 10
0.0
 20
0.0
 30
0.0
  9
$EXTMIN
 10
1.000000000000000E+20
 20
1.000000000000000E+20
 30
1.000000000000000E+20
  9
$EXTMAX
 10
-1.000000000000000E+20
 20
-1.000000000000000E+20
 30
-1.000000000000000E+20
  9
$LIMMIN
 10
0.0
 20
0.0
  9
$LIMMAX
 10
12.0
 20
9.0
  9
$ORTHOMODE
 70
     0
  9
$REGENMODE
 70
     1
  9
$FILLMODE
 70
     1
  9
$QTEXTMODE
 70
     0
  9
$MIRRTEXT
 70
     1
  9
$LTSCALE
 40
0.3
  9
$ATTMODE
 70
     1
  9
$TEXTSIZE
 40
0.2
  9
$TRACEWID
 40
0.05
  9
$TEXTSTYLE
  7
Standard
  9
$CLAYER
  8
0
  9
$CELTYPE
  6
ByLayer
  9
$CECOLOR
 62
   256
  9
$CELTSCALE
 40
0.3
  9
$DISPSILH
 70
     0
  9
$DIMSCALE
 40
1.0
  9
$DIMASZ
 40
0.125
  9
$DIMEXO
 40
0.0625
  9
$DIMDLI
 40
0.38
  9
$DIMRND
 40
0.0
  9
$DIMDLE
 40
0.0
  9
$DIMEXE
 40
0.18
  9
$DIMTP
 40
0.0
  9
$DIMTM
 40
0.0
  9
$DIMTXT
 40
0.125
  9
$DIMCEN
 40
0.09
  9
$DIMTSZ
 40
0.0
  9
$DIMTOL
 70
     0
  9
$DIMLIM
 70
     0
  9
$DIMTIH
 70
     1
  9
$DIMTOH
 70
     1
  9
$DIMSE1
 70
     0
  9
$DIMSE2
 70
     0
  9
$DIMTAD
 70
     0
  9
$DIMZIN
 70
     0
  9
$DIMBLK
  1

  9
$DIMASO
 70
     1
  9
$DIMSHO
 70
     1
  9
$DIMPOST
  1

  9
$DIMAPOST
  1

  9
$DIMALT
 70
     0
  9
$DIMALTD
 70
     2
  9
$DIMALTF
 40
25.4
  9
$DIMLFAC
 40
1.0
  9
$DIMTOFL
 70
     0
  9
$DIMTVP
 40
0.0
  9
$DIMTIX
 70
     0
  9
$DIMSOXD
 70
     0
  9
$DIMSAH
 70
     0
  9
$DIMBLK1
  1

  9
$DIMBLK2
  1

  9
$DIMSTYLE
  2
Standard
  9
$DIMCLRD
 70
     0
  9
$DIMCLRE
 70
     0
  9
$DIMCLRT
 70
     0
  9
$DIMTFAC
 40
1.0
  9
$DIMGAP
 40
0.09
  9
$DIMJUST
 70
     0
  9
$DIMSD1
 70
     0
  9
$DIMSD2
 70
     0
  9
$DIMTOLJ
 70
     1
  9
$DIMTZIN
 70
     0
  9
$DIMALTZ
 70
     0
  9
$DIMALTTZ
 70
     0
  9
$DIMUPT
 70
     0
  9
$DIMDEC
 70
     3
  9
$DIMTDEC
 70
     3
  9
$DIMALTU
 70
     2
  9
$DIMALTTD
 70
     2
  9
$DIMTXSTY
  7
Standard
  9
$DIMAUNIT
 70
     0
  9
$DIMADEC
 70
     0
  9
$DIMALTRND
 40
0.0
  9
$DIMAZIN
 70
     0
  9
$DIMDSEP
 70
    46
  9
$DIMATFIT
 70
     3
  9
$DIMFRAC
 70
     0
  9
$DIMLDRBLK
  1

  9
$DIMLUNIT
 70
     2
  9
$DIMLWD
 70
    -2
  9
$DIMLWE
 70
    -2
  9
$DIMTMOVE
 70
     0
  9
$LUNITS
 70
     2
  9
$LUPREC
 70
     4
  9
$SKETCHINC
 40
0.1
  9
$FILLETRAD
 40
0.5
  9
$AUNITS
 70
     0
  9
$AUPREC
 70
     0
  9
$MENU
  1
.
  9
$ELEVATION
 40
0.0
  9
$PELEVATION
 40
0.0
  9
$THICKNESS
 40
0.0
  9
$LIMCHECK
 70
     0
  9
$CHAMFERA
 40
0.5
  9
$CHAMFERB
 40
0.5
  9
$CHAMFERC
 40
1.0
  9
$CHAMFERD
 40
0.0
  9
$SKPOLY
 70
     0
  9
$TDCREATE
 40
2454412.621520173
  9
$TDUCREATE
 40
2454412.788186840
  9
$TDUPDATE
 40
2455410.345550555
  9
$TDUUPDATE
 40
2455410.512217222
  9
$TDINDWG
 40
0.0207716782
  9
$TDUSRTIMER
 40
0.0207716782
  9
$USRTIMER
 70
     1
  9
$ANGBASE
 50
0.0
  9
$ANGDIR
 70
     0
  9
$PDMODE
 70
     0
  9
$PDSIZE
 40
0.0
  9
$PLINEWID
 40
0.0
  9
$SPLFRAME
 70
     0
  9
$SPLINETYPE
 70
     6
  9
$SPLINESEGS
 70
     8
  9
$HANDSEED
  5
147
  9
$SURFTAB1
 70
     6
  9
$SURFTAB2
 70
     6
  9
$SURFTYPE
 70
     6
  9
$SURFU
 70
     6
  9
$SURFV
 70
     6
  9
$UCSBASE
  2

  9
$UCSNAME
  2

  9
$UCSORG
 10
0.0
 20
0.0
 30
0.0
  9
$UCSXDIR
 10
1.0
 20
0.0
 30
0.0
  9
$UCSYDIR
 10
0.0
 20
1.0
 30
0.0
  9
$UCSORTHOREF
  2

  9
$UCSORTHOVIEW
 70
     0
  9
$UCSORGTOP
 10
0.0
 20
0.0
 30
0.0
  9
$UCSORGBOTTOM
 10
0.0
 20
0.0
 30
0.0
  9
$UCSORGLEFT
 10
0.0
 20
0.0
 30
0.0
  9
$UCSORGRIGHT
 10
0.0
 20
0.0
 30
0.0
  9
$UCSORGFRONT
 10
0.0
 20
0.0
 30
0.0
  9
$UCSORGBACK
 10
0.0
 20
0.0
 30
0.0
  9
$PUCSBASE
  2

  9
$PUCSNAME
  2

  9
$PUCSORG
 10
0.0
 20
0.0
 30
0.0
  9
$PUCSXDIR
 10
1.0
 20
0.0
 30
0.0
  9
$PUCSYDIR
 10
0.0
 20
1.0
 30
0.0
  9
$PUCSORTHOREF
  2

  9
$PUCSORTHOVIEW
 70
     0
  9
$PUCSORGTOP
 10
0.0
 20
0.0
 30
0.0
  9
$PUCSORGBOTTOM
 10
0.0
 20
0.0
 30
0.0
  9
$PUCSORGLEFT
 10
0.0
 20
0.0
 30
0.0
  9
$PUCSORGRIGHT
 10
0.0
 20
0.0
 30
0.0
  9
$PUCSORGFRONT
 10
0.0
 20
0.0
 30
0.0
  9
$PUCSORGBACK
 10
0.0
 20
0.0
 30
0.0
  9
$USERI1
 70
     0
  9
$USERI2
 70
     0
  9
$USERI3
 70
     0
  9
$USERI4
 70
     0
  9
$USERI5
 70
     0
  9
$USERR1
 40
0.0
  9
$USERR2
 40
0.0
  9
$USERR3
 40
0.0
  9
$USERR4
 40
0.0
  9
$USERR5
 40
0.0
  9
$WORLDVIEW
 70
     1
  9
$SHADEDGE
 70
     3
  9
$SHADEDIF
 70
    70
  9
$TILEMODE
 70
     0
  9
$MAXACTVP
 70
    64
  9
$PINSBASE
 10
0.0
 20
0.0
 30
0.0
  9
$PLIMCHECK
 70
     0
  9
$PEXTMIN
 10
-1.439301856893596
 20
-1.413258164510263
 30
-0.0015258207003583
  9
$PEXTMAX
 10
8.967192055709766
 20
6.397257971304828
 30
0.0000000349246037
  9
$PLIMMIN
 10
-1.647916538508858
 20
-1.657916660534115
  9
$PLIMMAX
 10
9.35208322119525
 20
6.842083099169992
  9
$UNITMODE
 70
     0
  9
$VISRETAIN
 70
     1
  9
$PLINEGEN
 70
     0
  9
$PSLTSCALE
 70
     1
  9
$TREEDEPTH
 70
  3020
  9
$CMLSTYLE
  2
Standard
  9
$CMLJUST
 70
     0
  9
$CMLSCALE
 40
1.0
  9
$PROXYGRAPHICS
 70
     1
  9
$MEASUREMENT
 70
     0
  9
$CELWEIGHT
370
    -1
  9
$ENDCAPS
280
     0
  9
$JOINSTYLE
280
     0
  9
$LWDISPLAY
290
     0
  9
$INSUNITS
 70
     1
  9
$HYPERLINKBASE
  1

  9
$STYLESHEET
  1

  9
$XEDIT
290
     1
  9
$CEPSNTYPE
380
     0
  9
$PSTYLEMODE
290
     1
  9
$FINGERPRINTGUID
  2
{FDEAD576-A652-11D2-9A35-0060089B3A3F}
  9
$VERSIONGUID
  2
{95FBABDC-8AF0-4A2F-A5E2-6CF791EF0771}
  9
$EXTNAMES
290
     1
  9
$PSVPSCALE
 40
0.0
  9
$OLESTARTUP
290
     0
  0
ENDSEC
  0
SECTION
  2
CLASSES
  0
CLASS
  1
ACDBDICTIONARYWDFLT
  2
AcDbDictionaryWithDefault
  3
AutoCAD 2000
 90
        0
280
     0
281
     0
  0
CLASS
  1
ACDBPLACEHOLDER
  2
AcDbPlaceHolder
  3
AutoCAD 2000
 90
        0
280
     0
281
     0
  0
CLASS
  1
LAYOUT
  2
AcDbLayout
  3
AutoCAD 2000
 90
        0
280
     0
281
     0
  0
CLASS
  1
DICTIONARYVAR
  2
AcDbDictionaryVar
  3
AutoCAD 2000
 90
        0
280
     0
281
     0
  0
CLASS
  1
DIMASSOC
  2
AcDbDimAssoc
  3
"AcDbDimAssoc|Product Desc:     AcDim ARX App For Dimension|Company:          Autodesk, Inc.|WEB Address:      www.autodesk.com"
 90
        0
280
     0
281
     0
  0
ENDSEC
  0
SECTION
  2
TABLES
  0
TABLE
  2
VPORT
  5
8
330
0
100
AcDbSymbolTable
 70
     1
  0
VPORT
  5
74
330
8
100
AcDbSymbolTableRecord
100
AcDbViewportTableRecord
  2
*Active
 70
     0
 10
0.0
 20
0.0
 11
1.0
 21
1.0
 12
20.48748698095427
 22
9.784138269231398
 13
0.0
 23
0.0
 14
0.5
 24
0.5
 15
0.5
 25
0.5
 16
0.0
 26
0.0
 36
1.0
 17
0.0
 27
0.0
 37
0.0
 40
19.56827653846279
 41
2.093949044585987
 42
50.0
 43
0.0
 44
0.0
 50
0.0
 51
0.0
 71
     0
 72
   100
 73
     1
 74
     3
 75
     0
 76
     0
 77
     0
 78
     0
281
     0
 65
     1
110
0.0
120
0.0
130
0.0
111
1.0
121
0.0
131
0.0
112
0.0
122
1.0
132
0.0
 79
     0
146
0.0
  0
ENDTAB
  0
TABLE
  2
LTYPE
  5
5
330
0
100
AcDbSymbolTable
 70
     3
  0
LTYPE
  5
14
330
5
100
AcDbSymbolTableRecord
100
AcDbLinetypeTableRecord
  2
ByBlock
 70
     0
  3

 72
    65
 73
     0
 40
0.0
  0
LTYPE
  5
15
330
5
100
AcDbSymbolTableRecord
100
AcDbLinetypeTableRecord
  2
ByLayer
 70
     0
  3

 72
    65
 73
     0
 40
0.0
  0
LTYPE
  5
16
330
5
100
AcDbSymbolTableRecord
100
AcDbLinetypeTableRecord
  2
Continuous
 70
     0
  3
Solid line
 72
    65
 73
     0
 40
0.0
  0
LTYPE
  5
92
330
5
100
AcDbSymbolTableRecord
100
AcDbLinetypeTableRecord
  2
HIDDENX2
 70
     0
  3
Hidden (2x) ____ ____ ____ ____ ____ ____ ____
 72
    65
 73
     2
 40
0.75
 49
0.5
 74
     0
 49
-0.25
 74
     0
  0
LTYPE
  5
93
330
5
100
AcDbSymbolTableRecord
100
AcDbLinetypeTableRecord
  2
threads
 70
     0
  3
Zig zag /\/\/\/\/\/\/\/\/\/\/\/\/\/\/\/\/\/\/\/
 72
    65
 73
     4
 40
0.8001000000000001
 49
0.0001
 74
     0
 49
-0.2
 74
     4
 75
   131
340
91
 46
0.2
 50
0.0
 44
-0.2
 45
0.0
 49
-0.4
 74
     4
 75
   131
340
91
 46
0.2
 50
180.0
 44
0.2
 45
0.0
 49
-0.2
 74
     0
  0
ENDTAB
  0
TABLE
  2
LAYER
  5
2
330
0
100
AcDbSymbolTable
 70
     2
  0
LAYER
  5
10
330
2
100
AcDbSymbolTableRecord
100
AcDbLayerTableRecord
  2
0
 70
     0
 62
     7
  6
Continuous
370
    -3
390
F
  0
LAYER
  5
CF
330
2
100
AcDbSymbolTableRecord
100
AcDbLayerTableRecord
  2
Defpoints
 70
     0
 62
     7
  6
Continuous
290
     0
370
    -3
390
F
  0
ENDTAB
  0
TABLE
  2
STYLE
  5
3
330
0
100
AcDbSymbolTable
 70
     2
  0
STYLE
  5
11
330
3
100
AcDbSymbolTableRecord
100
AcDbTextStyleTableRecord
  2
Standard
 70
     0
 40
0.0
 41
1.0
 50
0.0
 71
     0
 42
0.2
  3
txt
  4

  0
STYLE
  5
91
330
3
100
AcDbSymbolTableRecord
100
AcDbTextStyleTableRecord
  2

 70
     1
 40
0.0
 41
1.0
 50
0.0
 71
     0
 42
0.2
  3
ltypeshp.shx
  4

  0
ENDTAB
  0
TABLE
  2
VIEW
  5
6
330
0
100
AcDbSymbolTable
 70
     0
  0
ENDTAB
  0
TABLE
  2
UCS
  5
7
330
0
100
AcDbSymbolTable
 70
     0
  0
ENDTAB
  0
TABLE
  2
APPID
  5
9
330
0
100
AcDbSymbolTable
 70
     1
  0
APPID
  5
12
330
9
100
AcDbSymbolTableRecord
100
AcDbRegAppTableRecord
  2
ACAD
 70
     0
  0
ENDTAB
  0
TABLE
  2
DIMSTYLE
  5
A
330
0
100
AcDbSymbolTable
 70
     1
100
AcDbDimStyleTable
 71
     1
340
27
  0
DIMSTYLE
105
27
102
{ACAD_REACTORS
330
CE
330
E5
330
F9
330
10F
330
129
102
}
330
A
100
AcDbSymbolTableRecord
100
AcDbDimStyleTableRecord
  2
Standard
 70
     0
 41
0.125
140
0.125
271
     3
272
     3
340
11
  0
ENDTAB
  0
TABLE
  2
BLOCK_RECORD
  5
1
330
0
100
AcDbSymbolTable
 70
     6
  0
BLOCK_RECORD
  5
1F
330
1
100
AcDbSymbolTableRecord
100
AcDbBlockTableRecord
  2
*Model_Space
340
22
  0
BLOCK_RECORD
  5
58
330
1
100
AcDbSymbolTableRecord
100
AcDbBlockTableRecord
  2
*Paper_Space
340
59
  0
BLOCK_RECORD
  5
5D
330
1
100
AcDbSymbolTableRecord
100
AcDbBlockTableRecord
  2
*Paper_Space0
340
5E
  0
BLOCK_RECORD
  5
D0
330
1
100
AcDbSymbolTableRecord
100
AcDbBlockTableRecord
  2
*D1
340
0
  0
BLOCK_RECORD
  5
E6
330
1
100
AcDbSymbolTableRecord
100
AcDbBlockTableRecord
  2
*D2
340
0
  0
BLOCK_RECORD
  5
FA
330
1
100
AcDbSymbolTableRecord
100
AcDbBlockTableRecord
  2
*D3
340
0
  0
BLOCK_RECORD
  5
110
330
1
100
AcDbSymbolTableRecord
100
AcDbBlockTableRecord
  2
*D4
340
0
  0
BLOCK_RECORD
  5
12A
330
1
100
AcDbSymbolTableRecord
100
AcDbBlockTableRecord
  2
*D5
340
0
  0
ENDTAB
  0
ENDSEC
  0
SECTION
  2
BLOCKS
  0
BLOCK
  5
20
330
1F
100
AcDbEntity
  8
0
100
AcDbBlockBegin
  2
*Model_Space
 70
     0
 10
0.0
 20
0.0
 30
0.0
  3
*Model_Space
  1

  0
ENDBLK
  5
21
330
1F
100
AcDbEntity
  8
0
100
AcDbBlockEnd
  0
BLOCK
  5
5A
330
58
100
AcDbEntity
 67
     1
  8
0
100
AcDbBlockBegin
  2
*Paper_Space
 70
     0
 10
0.0
 20
0.0
 30
0.0
  3
*Paper_Space
  1

  0
ENDBLK
  5
5B
330
58
100
AcDbEntity
 67
     1
  8
0
100
AcDbBlockEnd
  0
BLOCK
  5
5F
330
5D
100
AcDbEntity
  8
0
100
AcDbBlockBegin
  2
*Paper_Space0
 70
     0
 10
0.0
 20
0.0
 30
0.0
  3
*Paper_Space0
  1

  0
ENDBLK
  5
60
330
5D
100
AcDbEntity
  8
0
100
AcDbBlockEnd
  0
BLOCK
  5
D9
330
D0
100
AcDbEntity
  8
0
 48
0.3
100
AcDbBlockBegin
  2
*D1
 70
     1
 10
0.0
 20
0.0
 30
0.0
  3
*D1
  1

  0
LINE
  5
DC
330
D0
100
AcDbEntity
  8
0
 62
     0
 48
0.3
370
    -2
100
AcDbLine
 10
0.6922097271558112
 20
4.620554480821708
 30
0.0
 11
0.8172097271558113
 21
4.620554480821709
 31
0.0
  0
LINE
  5
DD
330
D0
100
AcDbEntity
  8
0
 62
     0
 48
0.3
370
    -2
100
AcDbLine
 10
0.8172097271558113
 20
4.620554480821709
 30
0.0
 11
1.341932083293476
 21
4.156443956532798
 31
0.0
  0
MTEXT
  5
DE
330
D0
100
AcDbEntity
  8
0
 62
     0
 48
0.3
100
AcDbMText
 10
0.3209597271558109
 20
4.620554480821709
 30
0.0
 40
0.125
 41
0.0
 71
     5
 72
     1
  1
\A1;\U+22051.950
 73
     1
 44
1.0
  0
SOLID
  5
DF
330
D0
100
AcDbEntity
  8
0
 62
     0
 48
0.3
100
AcDbTrace
 10
1.355734588910599
 20
4.172049039565804
 30
0.0
 11
1.328129577676351
 21
4.140838873499791
 31
0.0
 12
1.435562581491516
 22
4.073628922830053
 32
0.0
 13
1.435562581491516
 23
4.073628922830053
 33
0.0
  0
LINE
  5
E0
330
D0
100
AcDbEntity
  8
0
 62
     0
 48
0.3
370
    -2
100
AcDbLine
 10
2.07588046743623
 20
3.427671659948642
 30
0.0
 11
2.25588046743623
 21
3.427671659948641
 31
0.0
  0
LINE
  5
E1
330
D0
100
AcDbEntity
  8
0
 62
     0
 48
0.3
370
    -2
100
AcDbLine
 10
2.16588046743623
 20
3.337671659948642
 30
0.0
 11
2.16588046743623
 21
3.517671659948641
 31
0.0
  0
POINT
  5
E2
330
D0
100
AcDbEntity
  8
Defpoints
 62
     0
 48
0.3
100
AcDbPoint
 10
1.435562581491516
 20
4.073628922830053
 30
0.0
  0
POINT
  5
E3
330
D0
100
AcDbEntity
  8
Defpoints
 62
     0
 48
0.3
100
AcDbPoint
 10
2.896198353380944
 20
2.781714397067231
 30
0.0
  0
ENDBLK
  5
DA
330
D0
100
AcDbEntity
  8
0
 48
0.3
100
AcDbBlockEnd
  0
BLOCK
  5
EE
330
E6
100
AcDbEntity
  8
0
 48
0.3
100
AcDbBlockBegin
  2
*D2
 70
     1
 10
0.0
 20
0.0
 30
0.0
  3
*D2
  1

  0
LINE
  5
F1
330
E6
100
AcDbEntity
  8
0
 62
     0
 48
0.3
370
    -2
100
AcDbLine
 10
0.4749245755506238
 20
3.670917154804897
 30
0.0
 11
1.324540846719516
 21
3.548699105646945
 31
0.0
  0
MTEXT
  5
F2
330
E6
100
AcDbEntity
  8
0
 62
     0
 48
0.3
100
AcDbMText
 10
0.1036745755506236
 20
3.670917154804897
 30
0.0
 40
0.125
 41
0.0
 71
     5
 72
     1
  1
\A1;\U+22051.450
 73
     1
 44
1.0
  0
SOLID
  5
F3
330
E6
100
AcDbEntity
  8
0
 62
     0
 48
0.3
100
AcDbTrace
 10
1.32750720568271
 20
3.569320174782159
 30
0.0
 11
1.321574487756322
 21
3.528078036511732
 31
0.0
 12
1.448267261530797
 22
3.530900951867783
 32
0.0
 13
1.448267261530797
 23
3.530900951867783
 33
0.0
  0
LINE
  5
F4
330
E6
100
AcDbEntity
  8
0
 62
     0
 48
0.3
370
    -2
100
AcDbLine
 10
2.07588046743623
 20
3.427671659948643
 30
0.0
 11
2.25588046743623
 21
3.427671659948642
 31
0.0
  0
LINE
  5
F5
330
E6
100
AcDbEntity
  8
0
 62
     0
 48
0.3
370
    -2
100
AcDbLine
 10
2.16588046743623
 20
3.337671659948643
 30
0.0
 11
2.16588046743623
 21
3.517671659948643
 31
0.0
  0
POINT
  5
F6
330
E6
100
AcDbEntity
  8
Defpoints
 62
     0
 48
0.3
100
AcDbPoint
 10
1.448267261530797
 20
3.530900951867783
 30
0.0
  0
POINT
  5
F7
330
E6
100
AcDbEntity
  8
Defpoints
 62
     0
 48
0.3
100
AcDbPoint
 10
2.883493673341663
 20
3.324442368029503
 30
0.0
  0
ENDBLK
  5
EF
330
E6
100
AcDbEntity
  8
0
 48
0.3
100
AcDbBlockEnd
  0
BLOCK
  5
103
330
FA
100
AcDbEntity
  8
0
 48
0.3
100
AcDbBlockBegin
  2
*D3
 70
     1
 10
0.0
 20
0.0
 30
0.0
  3
*D3
  1

  0
LINE
  5
106
330
FA
100
AcDbEntity
  8
0
 62
     0
 48
0.3
370
    -2
100
AcDbLine
 10
0.5527602268295336
 20
2.544014205136992
 30
0.0
 11
0.6777602268295338
 21
2.544014205136992
 31
0.0
  0
LINE
  5
107
330
FA
100
AcDbEntity
  8
0
 62
     0
 48
0.3
370
    -2
100
AcDbLine
 10
0.6777602268295338
 20
2.544014205136992
 30
0.0
 11
1.542501605008778
 21
3.057504408724748
 31
0.0
  0
MTEXT
  5
108
330
FA
100
AcDbEntity
  8
0
 62
     0
 48
0.3
100
AcDbMText
 10
0.1919268934962004
 20
2.544014205136992
 30
0.0
 40
0.125
 41
0.0
 71
     5
 72
     1
  1
\A1;\U+22051.200
 73
     1
 44
1.0
  0
SOLID
  5
109
330
FA
100
AcDbEntity
  8
0
 62
     0
 48
0.3
100
AcDbTrace
 10
1.53186461503108
 20
3.075417594426685
 30
0.0
 11
1.553138594986477
 21
3.039591223022809
 31
0.0
 12
1.649980719220408
 22
3.121326348590937
 32
0.0
 13
1.649980719220408
 23
3.121326348590937
 33
0.0
  0
LINE
  5
10A
330
FA
100
AcDbEntity
  8
0
 62
     0
 48
0.3
370
    -2
100
AcDbLine
 10
2.07588046743623
 20
3.427671659948644
 30
0.0
 11
2.25588046743623
 21
3.427671659948644
 31
0.0
  0
LINE
  5
10B
330
FA
100
AcDbEntity
  8
0
 62
     0
 48
0.3
370
    -2
100
AcDbLine
 10
2.16588046743623
 20
3.337671659948644
 30
0.0
 11
2.16588046743623
 21
3.517671659948644
 31
0.0
  0
POINT
  5
10C
330
FA
100
AcDbEntity
  8
Defpoints
 62
     0
 48
0.3
100
AcDbPoint
 10
1.649980719220408
 20
3.121326348590937
 30
0.0
  0
POINT
  5
10D
330
FA
100
AcDbEntity
  8
Defpoints
 62
     0
 48
0.3
100
AcDbPoint
 10
2.681780215652054
 20
3.734016971306353
 30
0.0
  0
ENDBLK
  5
104
330
FA
100
AcDbEntity
  8
0
 48
0.3
100
AcDbBlockEnd
  0
BLOCK
  5
11B
330
110
100
AcDbEntity
  8
0
 48
0.3
100
AcDbBlockBegin
  2
*D4
 70
     1
 10
0.0
 20
0.0
 30
0.0
  3
*D4
  1

  0
LINE
  5
11E
330
110
100
AcDbEntity
  8
0
 62
     0
 48
0.3
370
    -2
100
AcDbLine
 10
5.067625010122993
 20
2.390171659948642
 30
0.0
 11
5.067625010122993
 21
1.313082221351233
 31
0.0
  0
LINE
  5
11F
330
110
100
AcDbEntity
  8
0
 62
     0
 48
0.3
370
    -2
100
AcDbLine
 10
5.467625010122993
 20
2.640171659948642
 30
0.0
 11
5.467625010122993
 21
1.313082221351233
 31
0.0
  0
LINE
  5
120
330
110
100
AcDbEntity
  8
0
 62
     0
 48
0.3
370
    -2
100
AcDbLine
 10
4.942625010122993
 20
1.493082221351233
 30
0.0
 11
4.817625010122993
 21
1.493082221351233
 31
0.0
  0
LINE
  5
121
330
110
100
AcDbEntity
  8
0
 62
     0
 48
0.3
370
    -2
100
AcDbLine
 10
5.592625010122993
 20
1.493082221351233
 30
0.0
 11
5.717625010122993
 21
1.493082221351233
 31
0.0
  0
SOLID
  5
122
330
110
100
AcDbEntity
  8
0
 62
     0
 48
0.3
100
AcDbTrace
 10
4.942625010122993
 20
1.513915554684566
 30
0.0
 11
4.942625010122993
 21
1.4722488880179
 31
0.0
 12
5.067625010122993
 22
1.493082221351233
 32
0.0
 13
5.067625010122993
 23
1.493082221351233
 33
0.0
  0
SOLID
  5
123
330
110
100
AcDbEntity
  8
0
 62
     0
 48
0.3
100
AcDbTrace
 10
5.592625010122993
 20
1.513915554684566
 30
0.0
 11
5.592625010122993
 21
1.4722488880179
 31
0.0
 12
5.467625010122993
 22
1.493082221351233
 32
0.0
 13
5.467625010122993
 23
1.493082221351233
 33
0.0
  0
MTEXT
  5
124
330
110
100
AcDbEntity
  8
0
 62
     0
 48
0.3
100
AcDbMText
 10
6.026375010122993
 20
1.493082221351233
 30
0.0
 40
0.125
 41
0.0
 71
     5
 72
     1
  1
\A1;0.400
 73
     1
 44
1.0
  0
POINT
  5
125
330
110
100
AcDbEntity
  8
Defpoints
 62
     0
 48
0.3
100
AcDbPoint
 10
5.067625010122993
 20
2.452671659948642
 30
0.0
  0
POINT
  5
126
330
110
100
AcDbEntity
  8
Defpoints
 62
     0
 48
0.3
100
AcDbPoint
 10
5.467625010122993
 20
2.702671659948642
 30
0.0
  0
POINT
  5
127
330
110
100
AcDbEntity
  8
Defpoints
 62
     0
 48
0.3
100
AcDbPoint
 10
5.467625010122993
 20
1.493082221351233
 30
0.0
  0
ENDBLK
  5
11C
330
110
100
AcDbEntity
  8
0
 48
0.3
100
AcDbBlockEnd
  0
BLOCK
  5
135
330
12A
100
AcDbEntity
  8
0
 48
0.3
100
AcDbBlockBegin
  2
*D5
 70
     1
 10
0.0
 20
0.0
 30
0.0
  3
*D5
  1

  0
LINE
  5
138
330
12A
100
AcDbEntity
  8
0
 62
     0
 48
0.3
370
    -2
100
AcDbLine
 10
5.255625010122993
 20
2.390171659948642
 30
0.0
 11
5.255625010122993
 21
2.022144759866907
 31
0.0
  0
LINE
  5
139
330
12A
100
AcDbEntity
  8
0
 62
     0
 48
0.3
370
    -2
100
AcDbLine
 10
5.067625010122993
 20
2.390171659948642
 30
0.0
 11
5.067625010122993
 21
2.022144759866907
 31
0.0
  0
LINE
  5
13A
330
12A
100
AcDbEntity
  8
0
 62
     0
 48
0.3
370
    -2
100
AcDbLine
 10
5.380625010122993
 20
2.202144759866907
 30
0.0
 11
5.505625010122993
 21
2.202144759866907
 31
0.0
  0
LINE
  5
13B
330
12A
100
AcDbEntity
  8
0
 62
     0
 48
0.3
370
    -2
100
AcDbLine
 10
4.942625010122993
 20
2.202144759866907
 30
0.0
 11
4.817625010122993
 21
2.202144759866907
 31
0.0
  0
SOLID
  5
13C
330
12A
100
AcDbEntity
  8
0
 62
     0
 48
0.3
100
AcDbTrace
 10
5.380625010122993
 20
2.222978093200241
 30
0.0
 11
5.380625010122993
 21
2.181311426533574
 31
0.0
 12
5.255625010122993
 22
2.202144759866907
 32
0.0
 13
5.255625010122993
 23
2.202144759866907
 33
0.0
  0
SOLID
  5
13D
330
12A
100
AcDbEntity
  8
0
 62
     0
 48
0.3
100
AcDbTrace
 10
4.942625010122993
 20
2.222978093200241
 30
0.0
 11
4.942625010122993
 21
2.181311426533574
 31
0.0
 12
5.067625010122993
 22
2.202144759866907
 32
0.0
 13
5.067625010122993
 23
2.202144759866907
 33
0.0
  0
MTEXT
  5
13E
330
12A
100
AcDbEntity
  8
0
 62
     0
 48
0.3
100
AcDbMText
 10
4.508875010122993
 20
2.202144759866907
 30
0.0
 40
0.125
 41
0.0
 71
     5
 72
     1
  1
\A1;0.188
 73
     1
 44
1.0
  0
POINT
  5
13F
330
12A
100
AcDbEntity
  8
Defpoints
 62
     0
 48
0.3
100
AcDbPoint
 10
5.255625010122993
 20
2.452671659948642
 30
0.0
  0
POINT
  5
140
330
12A
100
AcDbEntity
  8
Defpoints
 62
     0
 48
0.3
100
AcDbPoint
 10
5.067625010122993
 20
2.452671659948642
 30
0.0
  0
POINT
  5
141
330
12A
100
AcDbEntity
  8
Defpoints
 62
     0
 48
0.3
100
AcDbPoint
 10
5.067625010122993
 20
2.202144759866907
 30
0.0
  0
ENDBLK
  5
136
330
12A
100
AcDbEntity
  8
0
 48
0.3
100
AcDbBlockEnd
  0
ENDSEC
  0
SECTION
  2
ENTITIES
  0
VIEWPORT
  5
77
330
58
100
AcDbEntity
 67
     1
  8
0
100
AcDbViewport
 10
3.852083341343196
 20
2.592083219317938
 30
0.0
 40
21.68789959478099
 41
8.992999745766947
 68
     1
 69
     1
 12
3.852083341343196
 22
2.592083219317938
 13
0.0
 23
0.0
 14
0.5
 24
0.5
 15
0.5
 25
0.5
 16
0.0
 26
0.0
 36
1.0
 17
0.0
 27
0.0
 37
0.0
 42
50.0
 43
0.0
 44
0.0
 45
8.992999745766947
 50
0.0
 51
0.0
 72
   100
 90
    32800
  1

281
     0
 71
     1
 74
     0
110
0.0
120
0.0
130
0.0
111
1.0
121
0.0
131
0.0
112
0.0
122
1.0
132
0.0
 79
     0
146
0.0
  0
LWPOLYLINE
  5
86
330
58
100
AcDbEntity
 67
     1
  8
0
100
AcDbPolyline
 90
        4
 70
     1
 43
0.0
 10
-1.439262267973589
 20
6.396855050259421
 10
8.966538218833356
 20
6.396855050259421
 10
8.966538218833356
 20
-1.41285528304607
 10
-1.439262267973589
 20
-1.41285528304607
  0
LINE
  5
8A
330
58
100
AcDbEntity
 67
     1
  8
0
100
AcDbLine
 10
8.966538218833356
 20
-1.41285528304607
 30
0.0
 11
8.966538218833356
 21
-0.4128552830460706
 31
0.0
  0
LINE
  5
8B
330
58
100
AcDbEntity
 67
     1
  8
0
100
AcDbLine
 10
8.966538218833356
 20
-0.4128552830460706
 30
0.0
 11
6.466538218833356
 21
-0.4128552830460703
 31
0.0
  0
LINE
  5
8C
330
58
100
AcDbEntity
 67
     1
  8
0
100
AcDbLine
 10
6.466538218833356
 20
-0.4128552830460703
 30
0.0
 11
4.966538218833356
 21
-0.4128552830460701
 31
0.0
  0
LINE
  5
8D
330
58
100
AcDbEntity
 67
     1
  8
0
100
AcDbLine
 10
4.966538218833356
 20
-0.4128552830460701
 30
0.0
 11
4.966538218833356
 21
-1.41285528304607
 31
0.0
  0
LINE
  5
8E
330
58
100
AcDbEntity
 67
     1
  8
0
100
AcDbLine
 10
6.466538218833356
 20
-0.4128552830460703
 30
0.0
 11
6.466538218833356
 21
-1.40425062323316
 31
0.0
  0
MTEXT
  5
8F
330
58
100
AcDbEntity
 67
     1
  8
0
100
AcDbMText
 10
5.02064872125895
 20
-0.5532836662080878
 30
0.0
 40
0.1
 41
1.5
 71
     1
 72
     5
  1
  Tolerances\P.XXXX = +/- .001\P.XXX  = +/- .005\P.XX   = +/- .015
 73
     1
 44
1.0
  0
MTEXT
  5
AA
330
58
100
AcDbEntity
 67
     1
  8
0
 48
0.3
100
AcDbMText
 10
6.688767870543038
 20
-0.5779304272488833
 30
0.0
 40
0.1
 41
2.5
 71
     1
 72
     5
  1
G0704 Belt Drive\PPulley Tach Adapter\PDaniel E. Kemp\P{\fArial|b0|i0|c0|p32;\H1.625x;©\fMS Shell Dlg|b0|i0|c0|p32;\H0.6538x; }08-01-2010
 73
     1
 44
1.0
  0
MTEXT
  5
AC
330
58
100
AcDbEntity
 67
     1
  8
0
 48
0.3
100
AcDbMText
 10
-0.8330378939457148
 20
-0.9104262006358538
 30
0.0
 40
0.1625
 41
9.997099999999999
 71
     1
 72
     5
  1
{\fArial|b0|i0|c0|p32;© Daniel E. Kemp 2010}
 73
     1
 44
1.0
  0
CIRCLE
  5
B2
102
{ACAD_REACTORS
330
E4
102
}
330
58
100
AcDbEntity
 67
     1
  8
0
 48
0.3
100
AcDbCircle
 10
2.16588046743623
 20
3.427671659948643
 30
0.0
 40
0.975
  0
CIRCLE
  5
B3
102
{ACAD_REACTORS
330
F8
102
}
330
58
100
AcDbEntity
 67
     1
  8
0
 48
0.3
100
AcDbCircle
 10
2.16588046743623
 20
3.427671659948643
 30
0.0
 40
0.725
  0
CIRCLE
  5
B4
102
{ACAD_REACTORS
330
10E
102
}
330
58
100
AcDbEntity
 67
     1
  8
0
 48
0.3
100
AcDbCircle
 10
2.16588046743623
 20
3.427671659948643
 30
0.0
 40
0.6
  0
LINE
  5
B6
330
58
100
AcDbEntity
 67
     1
  8
0
 48
0.3
100
AcDbLine
 10
5.067625010122994
 20
4.402671659948643
 30
0.0
 11
5.255625010122994
 21
4.402671659948643
 31
0.0
  0
LINE
  5
B7
102
{ACAD_REACTORS
330
142
102
}
330
58
100
AcDbEntity
 67
     1
  8
0
 48
0.3
100
AcDbLine
 10
5.255625010122994
 20
4.402671659948643
 30
0.0
 11
5.255625010122993
 21
2.452671659948642
 31
0.0
  0
LINE
  5
B8
330
58
100
AcDbEntity
 67
     1
  8
0
 48
0.3
100
AcDbLine
 10
5.255625010122993
 20
2.452671659948642
 30
0.0
 11
5.067625010122993
 21
2.452671659948642
 31
0.0
  0
LINE
  5
B9
102
{ACAD_REACTORS
330
128
330
142
102
}
330
58
100
AcDbEntity
 67
     1
  8
0
 48
0.3
100
AcDbLine
 10
5.067625010122993
 20
2.452671659948642
 30
0.0
 11
5.067625010122994
 21
4.402671659948643
 31
0.0
  0
LINE
  5
BB
330
58
100
AcDbEntity
 67
     1
  8
0
 48
0.3
100
AcDbLine
 10
5.255625010122994
 20
4.152671659948643
 30
0.0
 11
5.467625010122993
 21
4.152671659948643
 31
0.0
  0
LINE
  5
BC
330
58
100
AcDbEntity
 67
     1
  8
0
 48
0.3
100
AcDbLine
 10
5.467625010122993
 20
4.152671659948643
 30
0.0
 11
5.467625010122993
 21
2.702671659948642
 31
0.0
  0
LINE
  5
BD
102
{ACAD_REACTORS
330
128
102
}
330
58
100
AcDbEntity
 67
     1
  8
0
 48
0.3
100
AcDbLine
 10
5.467625010122993
 20
2.702671659948642
 30
0.0
 11
5.255625010122993
 21
2.702671659948642
 31
0.0
  0
LINE
  5
BF
330
58
100
AcDbEntity
 67
     1
  8
0
  6
HIDDENX2
 48
0.3
100
AcDbLine
 10
5.067625010122994
 20
4.027671659948643
 30
0.0
 11
5.467625010122993
 21
4.027671659948643
 31
0.0
  0
LINE
  5
C1
330
58
100
AcDbEntity
 67
     1
  8
0
  6
HIDDENX2
 48
0.3
100
AcDbLine
 10
5.067625010122993
 20
2.827671659948643
 30
0.0
 11
5.467625010122993
 21
2.827671659948643
 31
0.0
  0
CIRCLE
  5
C4
102
{ACAD_REACTORS
330
146
102
}
330
58
100
AcDbEntity
 67
     1
  8
0
 48
0.3
100
AcDbCircle
 10
2.16588046743623
 20
4.227671659948643
 30
0.0
 40
0.075
  0
CIRCLE
  5
C5
330
58
100
AcDbEntity
 67
     1
  8
0
 48
0.3
100
AcDbCircle
 10
2.16588046743623
 20
2.627671659948643
 30
0.0
 40
0.075
  0
LINE
  5
C7
330
58
100
AcDbEntity
 67
     1
  8
0
  6
HIDDENX2
 48
0.3
100
AcDbLine
 10
5.067625010122994
 20
4.302671659948643
 30
0.0
 11
5.255625010122994
 21
4.302671659948643
 31
0.0
  0
LINE
  5
C9
330
58
100
AcDbEntity
 67
     1
  8
0
  6
HIDDENX2
 48
0.3
100
AcDbLine
 10
5.067625010122994
 20
4.152671659948643
 30
0.0
 11
5.255625010122994
 21
4.152671659948643
 31
0.0
  0
LINE
  5
CB
330
58
100
AcDbEntity
 67
     1
  8
0
  6
HIDDENX2
 48
0.3
100
AcDbLine
 10
5.067625010122993
 20
2.552671659948643
 30
0.0
 11
5.255625010122993
 21
2.552671659948643
 31
0.0
  0
LINE
  5
CD
330
58
100
AcDbEntity
 67
     1
  8
0
  6
HIDDENX2
 48
0.3
100
AcDbLine
 10
5.067625010122993
 20
2.702671659948643
 30
0.0
 11
5.255625010122993
 21
2.702671659948642
 31
0.0
  0
DIMENSION
  5
CE
102
{ACAD_XDICTIONARY
360
DB
102
}
102
{ACAD_REACTORS
330
E4
102
}
330
58
100
AcDbEntity
 67
     1
  8
0
 48
0.3
100
AcDbDimension
  2
*D1
 10
2.896198353380944
 20
2.781714397067231
 30
0.0
 11
0.3209597271558109
 21
4.620554480821709
 31
0.0
 70
   163
 71
     5
 42
1.95
  3
Standard
100
AcDbDiametricDimension
 15
1.435562581491516
 25
4.073628922830053
 35
0.0
 40
0.0
1001
ACAD
1000
DSTYLE
1002
{
1070
   288
1070
     1
1002
}
  0
DIMENSION
  5
E5
102
{ACAD_XDICTIONARY
360
F0
102
}
102
{ACAD_REACTORS
330
F8
102
}
330
58
100
AcDbEntity
 67
     1
  8
0
 48
0.3
100
AcDbDimension
  2
*D2
 10
2.883493673341663
 20
3.324442368029503
 30
0.0
 11
0.4749245755506238
 21
3.670917154804897
 31
0.0
 70
   163
 71
     5
 42
1.449999999999999
  3
Standard
100
AcDbDiametricDimension
 15
1.448267261530797
 25
3.530900951867783
 35
0.0
 40
0.0
1001
ACAD
1000
DSTYLE
1002
{
1070
   288
1070
     1
1002
}
  0
DIMENSION
  5
F9
102
{ACAD_XDICTIONARY
360
105
102
}
102
{ACAD_REACTORS
330
10E
102
}
330
58
100
AcDbEntity
 67
     1
  8
0
 48
0.3
100
AcDbDimension
  2
*D3
 10
2.681780215652054
 20
3.734016971306353
 30
0.0
 11
0.1919268934962004
 21
2.544014205136992
 31
0.0
 70
   163
 71
     5
 42
1.2
  3
Standard
100
AcDbDiametricDimension
 15
1.649980719220408
 25
3.121326348590937
 35
0.0
 40
0.0
1001
ACAD
1000
DSTYLE
1002
{
1070
   288
1070
     1
1002
}
  0
DIMENSION
  5
10F
102
{ACAD_XDICTIONARY
360
11D
102
}
102
{ACAD_REACTORS
330
128
102
}
330
58
100
AcDbEntity
 67
     1
  8
0
 48
0.3
100
AcDbDimension
  2
*D4
 10
5.467625010122993
 20
1.493082221351233
 30
0.0
 11
6.026375010122993
 21
1.493082221351233
 31
0.0
 70
    32
 71
     5
 42
0.4000000000000004
  3
Standard
100
AcDbAlignedDimension
 13
5.067625010122993
 23
2.452671659948642
 33
0.0
 14
5.467625010122993
 24
2.702671659948642
 34
0.0
100
AcDbRotatedDimension
  0
DIMENSION
  5
129
102
{ACAD_XDICTIONARY
360
137
102
}
102
{ACAD_REACTORS
330
142
102
}
330
58
100
AcDbEntity
 67
     1
  8
0
 48
0.3
100
AcDbDimension
  2
*D5
 10
5.067625010122993
 20
2.202144759866907
 30
0.0
 11
4.508875010122993
 21
2.202144759866907
 31
0.0
 70
    32
 71
     5
 42
0.1879999999999997
  3
Standard
100
AcDbAlignedDimension
 13
5.255625010122993
 23
2.452671659948642
 33
0.0
 14
5.067625010122993
 24
2.452671659948642
 34
0.0
100
AcDbRotatedDimension
  0
LEADER
  5
143
102
{ACAD_XDICTIONARY
360
145
102
}
102
{ACAD_REACTORS
330
146
102
}
330
58
100
AcDbEntity
 67
     1
  8
0
 48
0.3
100
AcDbLeader
  3
Standard
 73
     0
 40
0.3333333333333334
 41
1.479166666666666
 76
     3
 10
2.16588046743623
 20
4.227671659948643
 30
0.0
 10
2.490603572223626
 20
4.747172808521803
 30
0.0
 10
2.655407522341121
 20
4.747172808521803
 30
0.0
340
144
213
0.0
223
-0.0625
233
0.0
1001
ACAD
1000
DSTYLE
1002
{
1070
   147
1040
0.09
1070
    77
1070
     0
1002
}
  0
MTEXT
  5
144
102
{ACAD_REACTORS
330
143
102
}
330
58
100
AcDbEntity
 67
     1
  8
0
 48
0.3
100
AcDbMText
 10
2.745407522341121
 20
4.809672808521803
 30
0.0
 40
0.125
 41
0.0
 71
     1
 72
     1
  1
(2) %%c.150 thru\Pon 1.600 B.C.
 73
     1
 44
1.0
  0
ENDSEC
  0
SECTION
  2
OBJECTS
  0
DICTIONARY
  5
C
330
0
100
AcDbDictionary
281
     1
  3
ACAD_GROUP
350
D
  3
ACAD_LAYOUT
350
1A
  3
ACAD_MLINESTYLE
350
17
  3
ACAD_PLOTSETTINGS
350
19
  3
ACAD_PLOTSTYLENAME
350
E
  3
AcDbVariableDictionary
350
66
  0
DICTIONARY
  5
DB
330
CE
100
AcDbDictionary
280
     1
281
     1
  3
ACAD_DIMASSOC
360
E4
  0
DICTIONARY
  5
F0
330
E5
100
AcDbDictionary
280
     1
281
     1
  3
ACAD_DIMASSOC
360
F8
  0
DICTIONARY
  5
105
330
F9
100
AcDbDictionary
280
     1
281
     1
  3
ACAD_DIMASSOC
360
10E
  0
DICTIONARY
  5
11D
330
10F
100
AcDbDictionary
280
     1
281
     1
  3
ACAD_DIMASSOC
360
128
  0
DICTIONARY
  5
137
330
129
100
AcDbDictionary
280
     1
281
     1
  3
ACAD_DIMASSOC
360
142
  0
DICTIONARY
  5
145
330
143
100
AcDbDictionary
280
     1
281
     1
  3
ACAD_DIMASSOC
360
146
  0
DICTIONARY
  5
D
102
{ACAD_REACTORS
330
C
102
}
330
C
100
AcDbDictionary
281
     1
  0
DICTIONARY
  5
1A
102
{ACAD_REACTORS
330
C
102
}
330
C
100
AcDbDictionary
281
     1
  3
Layout1
350
59
  3
Layout2
350
5E
  3
Model
350
22
  0
DICTIONARY
  5
17
102
{ACAD_REACTORS
330
C
102
}
330
C
100
AcDbDictionary
281
     1
  3
Standard
350
18
  0
DICTIONARY
  5
19
102
{ACAD_REACTORS
330
C
102
}
330
C
100
AcDbDictionary
281
     1
  0
ACDBDICTIONARYWDFLT
  5
E
102
{ACAD_REACTORS
330
C
102
}
330
C
100
AcDbDictionary
281
     1
  3
Normal
350
F
100
AcDbDictionaryWithDefault
340
F
  0
DICTIONARY
  5
66
102
{ACAD_REACTORS
330
C
102
}
330
C
100
AcDbDictionary
281
     1
  3
DIMASSOC
350
67
  3
HIDETEXT
350
6B
  0
DIMASSOC
  5
E4
102
{ACAD_REACTORS
330
DB
102
}
330
DB
100
AcDbDimAssoc
330
CE
 90
        2
 70
     0
 71
     0
  1
AcDbOsnapPointRef
 72
     3
331
B2
 73
     2
 91
        0
 40
0.0
 10
0.0
 20
0.0
 30
0.0
 75
     0
  0
DIMASSOC
  5
F8
102
{ACAD_REACTORS
330
F0
102
}
330
F0
100
AcDbDimAssoc
330
E5
 90
        2
 70
     0
 71
     0
  1
AcDbOsnapPointRef
 72
     3
331
B3
 73
     2
 91
        0
 40
0.0
 10
0.0
 20
0.0
 30
0.0
 75
     0
  0
DIMASSOC
  5
10E
102
{ACAD_REACTORS
330
105
102
}
330
105
100
AcDbDimAssoc
330
F9
 90
        2
 70
     0
 71
     0
  1
AcDbOsnapPointRef
 72
     3
331
B4
 73
     2
 91
        0
 40
0.0
 10
0.0
 20
0.0
 30
0.0
 75
     0
  0
DIMASSOC
  5
128
102
{ACAD_REACTORS
330
11D
102
}
330
11D
100
AcDbDimAssoc
330
10F
 90
        3
 70
     0
 71
     0
  1
AcDbOsnapPointRef
 72
    13
331
B9
 73
     2
 91
        0
 40
0.0
 10
5.067625010122993
 20
2.452671659948642
 30
0.0
 75
     0
  1
AcDbOsnapPointRef
 72
    13
331
BD
 73
     2
 91
        0
 40
0.0
 10
5.467625010122993
 20
2.702671659948642
 30
0.0
 75
     0
  0
DIMASSOC
  5
142
102
{ACAD_REACTORS
330
137
102
}
330
137
100
AcDbDimAssoc
330
129
 90
        3
 70
     0
 71
     0
  1
AcDbOsnapPointRef
 72
     1
331
B7
 73
     2
 91
        0
 40
1.0
 10
5.255625010122993
 20
2.452671659948642
 30
0.0
 75
     0
  1
AcDbOsnapPointRef
 72
    13
331
B9
 73
     2
 91
        0
 40
0.0
 10
5.067625010122993
 20
2.452671659948642
 30
0.0
 75
     0
  0
DIMASSOC
  5
146
102
{ACAD_REACTORS
330
145
102
}
330
145
100
AcDbDimAssoc
330
143
 90
        1
 70
     0
 71
     0
  1
AcDbOsnapPointRef
 72
     3
331
C4
 73
     2
 91
        0
 40
0.0
 10
2.16588046743623
 20
4.227671659948643
 30
0.0
 75
     0
  0
LAYOUT
  5
59
102
{ACAD_REACTORS
330
1A
102
}
330
1A
100
AcDbPlotSettings
  1

  2
EPSON Stylus Photo R200 Series
  4
User256
  6

 40
3.757083177566528
 41
3.757076978683471
 42
3.757080078125
 43
3.757080078125
 44
215.8999938964843
 45
279.3999938964843
 46
38.35399999999999
 47
38.09999999999999
 48
0.0
 49
0.0
140
0.0
141
0.0
142
1.0
143
1.0
 70
   688
 72
     0
 73
     1
 74
     5
  7

 75
    16
147
1.0
148
0.0
149
0.0
100
AcDbLayout
  1
Layout1
 70
     1
 71
     1
 10
-1.647916538508858
 20
-1.657916660534115
 11
9.35208322119525
 21
6.842083099169992
 12
0.0
 22
0.0
 32
0.0
 14
-1.439301856893596
 24
-1.413258164510263
 34
-0.0015258207003583
 15
8.967192055709766
 25
6.397257971304828
 35
0.0000000349246037
146
0.0
 13
0.0
 23
0.0
 33
0.0
 16
1.0
 26
0.0
 36
0.0
 17
0.0
 27
1.0
 37
0.0
 76
     0
330
58
331
77
  0
LAYOUT
  5
5E
102
{ACAD_REACTORS
330
1A
102
}
330
1A
100
AcDbPlotSettings
  1

  2
None
  4

  6

 40
0.0
 41
0.0
 42
0.0
 43
0.0
 44
0.0
 45
0.0
 46
0.0
 47
0.0
 48
0.0
 49
0.0
140
0.0
141
0.0
142
1.0
143
1.0
 70
   688
 72
     0
 73
     0
 74
     5
  7

 75
    16
147
1.0
148
0.0
149
0.0
100
AcDbLayout
  1
Layout2
 70
     1
 71
     2
 10
0.0
 20
0.0
 11
12.0
 21
9.0
 12
0.0
 22
0.0
 32
0.0
 14
0.0
 24
0.0
 34
0.0
 15
0.0
 25
0.0
 35
0.0
146
0.0
 13
0.0
 23
0.0
 33
0.0
 16
1.0
 26
0.0
 36
0.0
 17
0.0
 27
1.0
 37
0.0
 76
     0
330
5D
  0
LAYOUT
  5
22
102
{ACAD_REACTORS
330
1A
102
}
330
1A
100
AcDbPlotSettings
  1

  2
none_device
  4
ANSI_A_(8.50_x_11.00_Inches)
  6

 40
6.349999904632568
 41
19.04999923706054
 42
6.350006103515625
 43
19.04998779296875
 44
215.8999938964843
 45
279.3999938964843
 46
0.0
 47
0.0
 48
0.0
 49
0.0
140
0.0
141
0.0
142
1.0
143
2.584895464708373
 70
 11952
 72
     0
 73
     1
 74
     0
  7

 75
     0
147
0.3868628397755418
148
0.0
149
0.0
100
AcDbLayout
  1
Model
 70
     1
 71
     0
 10
0.0
 20
0.0
 11
12.0
 21
9.0
 12
0.0
 22
0.0
 32
0.0
 14
0.0
 24
0.0
 34
0.0
 15
0.0
 25
0.0
 35
0.0
146
0.0
 13
0.0
 23
0.0
 33
0.0
 16
1.0
 26
0.0
 36
0.0
 17
0.0
 27
1.0
 37
0.0
 76
     0
330
1F
  0
MLINESTYLE
  5
18
102
{ACAD_REACTORS
330
17
102
}
330
17
100
AcDbMlineStyle
  2
STANDARD
 70
     0
  3

 62
   256
 51
90.0
 52
90.0
 71
     2
 49
0.5
 62
   256
  6
BYLAYER
 49
-0.5
 62
   256
  6
BYLAYER
  0
ACDBPLACEHOLDER
  5
F
102
{ACAD_REACTORS
330
E
102
}
330
E
  0
DICTIONARYVAR
  5
67
102
{ACAD_REACTORS
330
66
102
}
330
66
100
DictionaryVariables
280
     0
  1
2
  0
DICTIONARYVAR
  5
6B
102
{ACAD_REACTORS
330
66
102
}
330
66
100
DictionaryVariables
280
     0
  1
1
  0
ENDSEC
  0
EOF
